  0
SECTION
  2
HEADER
  9
$ACADVER
  1
AC1009
  9
$DWGCODEPAGE
  3
dos932
  9
$INSBASE
 10
677.3730305766
 20
150.6315670415
  9
$EXTMIN
 10
420.6397322822
 20
-35.1525872420
  9
$EXTMAX
 10
1095.1427128019
 20
336.4157213249
  9
$LIMMIN
 10
420.6397322822
 20
-35.1525872420
  9
$LIMMAX
 10
1095.1427128019
 20
336.4157213249
  9
$VIEWCTR
 10
0.0000000000
 20
0.0000000000
  9
$VIEWSIZE
 40
0.0000000000
  9
$SNAPMODE
 70
     0
  9
$SNAPUNIT
 10
20.0
 20
20.0
  9
$SNAPBASE
 10
0.000000
 20
0.000000
  9
$SNAPANG
 50
0.0
  9
$SNAPSTYLE
 70
     0
  9
$SNAPISOPAIR
 70
     0
  9
$GRIDMODE
 70
     0
  9
$GRIDUNIT
 10
10.000000
 20
10.000000
  9
$ORTHOMODE
 70
     0
  9
$REGENMODE
 70
     0
  9
$FILLMODE
 70
     1
  9
$QTEXTMODE
 70
     0
  9
$DRAGMODE
 70
     1
  9
$LTSCALE
 40
1.0
  9
$OSMODE
 70
     0
  9
$ATTMODE
 70
     1
  9
$TEXTSIZE
 40
4.000000
  9
$TRACEWID
 40
0.05
  9
$TEXTSTYLE
  7
STANDARD
  9
$CLAYER
  8
1
  9
$CELTYPE
  6
CONTINUOUS
  9
$CECOLOR
  62
7
  9
$DIMSCALE
 40
1.0000000000
  9
$DIMASZ
 40
2.0000000000
  9
$DIMEXO
 40
0.5000000000
  9
$DIMDLI
 40
7.000000
  9
$DIMRND
 40
0.0
  9
$DIMDLE
 40
0.0
  9
$DIMEXE
 40
1.0000000000
  9
$DIMTP
 40
0.0
  9
$DIMTM
 40
0.0
  9
$DIMTXT
 40
3.500000
  9
$DIMCEN
 40
0.09
  9
$DIMTSZ
 40
0.0
  9
$DIMTOL
 70
     0
  9
$DIMLIM
 70
     0
  9
$DIMTIH
 70
     0
  9
$DIMTOH
 70
     0
  9
$DIMSE1
 70
     0
  9
$DIMSE2
 70
     0
  9
$DIMTAD
 70
     1
  9
$DIMZIN
 70
     0
  9
$DIMBLK
  1

  9
$DIMASO
 70
     1
  9
$DIMSHO
 70
     0
  9
$DIMPOST
  1

  9
$DIMAPOST
  1

  9
$DIMALT
 70
     0
  9
$DIMALTD
 70
     3
  9
$DIMCLRD
 70
     5
  9
$DIMCLRE
 70
     5
  9
$DIMCLRT
 70
     7
  9
$DIMALTF
 40
25.4
  9
$DIMLFAC
 40
1.0
  9
$DIMTOFL
 70
     0
  9
$DIMTVP
 40
0.0
  9
$DIMTIX
 70
     0
  9
$DIMSOXD
 70
     0
  9
$DIMSAH
 70
     0
  9
$LUNITS
 70
     2
  9
$LUPREC
 70
     4
  9
$AXISMODE
 70
     0
  9
$AXISUNIT
 10
0.0
 20
0.0
  9
$SKETCHINC
 40
0.1
  9
$FILLETRAD
 40
0.0
  9
$AUNITS
 70
     0
  9
$AUPREC
 70
     0
  9
$MENU
  1
ACAD
  9
$ELEVATION
 40
0.0
  9
$THICKNESS
 40
0.0
  9
$VIEWDIR
 10
0.0
 20
0.0
 30
1.0
  9
$LIMCHECK
 70
     0
  9
$BLIPMODE
 70
     1
  9
$CHAMFERA
 40
0.0
  9
$CHAMFERB
 40
0.0
  9
$FASTZOOM
 70
     1
  9
$SKPOLY
 70
     0
  9
$TDCREATE
 40
2460020.0000000051
  9
$TDUPDATE
 40
2460020.0000000051
  9
$TDINDWG
 40
0.0000000000
  9
$TDUSRTIMER
 40
0.0000000000
  9
$USRTIMER
 70
     1
  9
$ANGBASE
 50
0.0
  9
$ANGDIR
 70
     0
  9
$PDMODE
 70
     65
  9
$PDSIZE
 40
0.2
  9
$PLINEWID
 40
0.0
  9
$COORDS
 70
     2
  9
$USERI1
 70
     0
  9
$USERI2
 70
     0
  9
$USERI3
 70
     0
  9
$USERI4
 70
     0
  9
$USERI5
 70
     0
  9
$USERR1
 40
0.0
  9
$USERR2
 40
0.0
  9
$USERR3
 40
0.0
  9
$USERR4
 40
0.0
  9
$USERR5
 40
0.0
  0
ENDSEC
  0
SECTION
  2
TABLES
  0
TABLE
  2
LTYPE
 70
     9
  0
LTYPE
  2
CONTINUOUS
 70
    64
  3
Solid line
 72
    65
 73
     0
 40
0.0
  0
LTYPE
  2
DASHED
 70
    64
  3
__ __ __ __ __ __ __ __ __ __ __ __ __ __ __
 72
    65
 73
     2
 40
3.0
 49
2.0
 49
-1.0
  0
LTYPE
  2
HIDDEN
 70
    64
  3
_ _ _ _ _ _ _ _ _ _ _ _ _ _ _ _ _ _ _ _ _ _ _
 72
    65
 73
     2
 40
1.5
 49
1.0
 49
-0.5
  0
LTYPE
  2
CENTER
 70
    64
  3
____ _ ____ _ ____ _ ____ _ ____ _ ____ _ ____
 72
    65
 73
     4
 40
24.0
 49
20.0
 49
-1.0
 49
2.0
 49
-1.0
  0
LTYPE
  2
PHANTOM
 70
    64
  3
_____ _ _ _____ _ _ _____ _ _ _____ _ _ ____
 72
    65
 73
     6
 40
27.0
 49
20.0
 49
-1.0
 49
2.0
 49
-1.0
 49
2.0
 49
-1.0
  0
LTYPE
  2
DOT
 70
    64
  3
...............................................
 72
    65
 73
     2
 40
1.5
 49
0.5
 49
-1.0
  0
LTYPE
  2
DASHDOT
 70
    64
  3
__ . __ . __ . __ . __ . __ . __ . __ . __ . __
 72
    65
 73
     4
 40
8.5
 49
6.0
 49
-1.0
 49
0.5
 49
-1.0
  0
LTYPE
  2
DIVIDE
 70
    64
  3
__ . . __ . . __ . . __ . . __ . . __ . . __
 72
    65
 73
     6
 40
10.0
 49
6.0
 49
-1.0
 49
0.5
 49
-1.0
 49
0.5
 49
-1.0
  0
LTYPE
  2
BORDER
 70
    64
  3
__ __ . __ __ . __ __ . __ __ . __ __ . __ __
 72
    65
 73
     6
 40
15.5
 49
6.0
 49
-1.0
 49
6.0
 49
-1.0
 49
0.5
 49
-1.0
  0
ENDTAB
  0
TABLE
  2
LAYER
 70
  7
  0
LAYER
  2
0
 70
    64
 62
     7
  6
CONTINUOUS
  0
LAYER
  2
1
 70
    64
 62
     7
  6
CONTINUOUS
  0
LAYER
  2
2
 70
    64
 62
     7
  6
CONTINUOUS
  0
LAYER
  2
3
 70
    64
 62
     7
  6
CONTINUOUS
  0
LAYER
  2
4
 70
    64
 62
     7
  6
CONTINUOUS
  0
LAYER
  2
5
 70
    64
 62
     7
  6
CONTINUOUS
  0
LAYER
  2
DEFPOINTS
 70
     0
 62
    -7
  6
CONTINUOUS
  0
ENDTAB
  0
TABLE
  2
STYLE
 70
     1
  0
STYLE
  2
STANDARD
 70
    64
 40
0.0
 41
1.0
 71
     0
 42
4.000000
  3
TXT
  4
EXTFONT
 50
0.0
  0
ENDTAB
  0
TABLE
  2
VIEW
 70
     0
  0
ENDTAB
  0
ENDSEC
  0
SECTION
  2
BLOCKS
  0
BLOCK
  8
0
  2
CI
 70
   0
 10
0.0
 20
0.0
  0
CIRCLE
  8
0
  62
0
 10
0.0
 20
0.0
 40
0.1666666666
  0
ENDBLK
  8
0
  0
BLOCK
  8
5
  2
S0
 70
     0
 10
473.8730305766
 20
8.6315670415
  3
S0
  0
POINT
  8
5
  6
CONTINUOUS
 62
6
 10
467.3730305766
 20
2.1315670415
  0
LINE
  8
5
  6
CONTINUOUS
 62
6
 10
478.3730305766
 20
13.1315670415
 11
876.3730305766
 21
13.1315670415
  0
LINE
  8
5
  6
CONTINUOUS
 62
6
 10
478.3730305766
 20
13.1315670415
 11
478.3730305766
 21
288.1315670415
  0
LINE
  8
5
  6
CONTINUOUS
 62
6
 10
518.3730305766
 20
292.6315670415
 11
518.3730305766
 21
288.1315670415
  0
LINE
  8
5
  6
CONTINUOUS
 62
6
 10
518.3730305766
 20
13.1315670415
 11
518.3730305766
 21
8.6315670415
  0
LINE
  8
5
  6
CONTINUOUS
 62
6
 10
558.3730305766
 20
292.6315670415
 11
558.3730305766
 21
288.1315670415
  0
LINE
  8
5
  6
CONTINUOUS
 62
6
 10
598.3730305766
 20
292.6315670415
 11
598.3730305766
 21
288.1315670415
  0
LINE
  8
5
  6
CONTINUOUS
 62
6
 10
638.3730305766
 20
292.6315670415
 11
638.3730305766
 21
288.1315670415
  0
LINE
  8
5
  6
CONTINUOUS
 62
6
 10
678.3730305766
 20
292.6315670415
 11
678.3730305766
 21
288.1315670415
  0
LINE
  8
5
  6
CONTINUOUS
 62
6
 10
718.3730305766
 20
292.6315670415
 11
718.3730305766
 21
288.1315670415
  0
LINE
  8
5
  6
CONTINUOUS
 62
6
 10
558.3730305766
 20
13.1315670415
 11
558.3730305766
 21
8.6315670415
  0
LINE
  8
5
  6
CONTINUOUS
 62
6
 10
598.3730305766
 20
13.1315670415
 11
598.3730305766
 21
8.6315670415
  0
LINE
  8
5
  6
CONTINUOUS
 62
6
 10
638.3730305766
 20
13.1315670415
 11
638.3730305766
 21
8.6315670415
  0
LINE
  8
5
  6
CONTINUOUS
 62
6
 10
678.3730305766
 20
13.1315670415
 11
678.3730305766
 21
8.6315670415
  0
LINE
  8
5
  6
CONTINUOUS
 62
6
 10
718.3730305766
 20
13.1315670415
 11
718.3730305766
 21
8.6315670415
  0
LINE
  8
5
  6
CONTINUOUS
 62
6
 10
473.8730305766
 20
248.1315670415
 11
478.3730305766
 21
248.1315670415
  0
LINE
  8
5
  6
CONTINUOUS
 62
6
 10
876.3730305766
 20
248.1315670415
 11
880.8730305766
 21
248.1315670415
  0
LINE
  8
5
  6
CONTINUOUS
 62
6
 10
473.8730305766
 20
208.1315670415
 11
478.3730305766
 21
208.1315670415
  0
LINE
  8
5
  6
CONTINUOUS
 62
6
 10
473.8730305766
 20
168.1315670415
 11
478.3730305766
 21
168.1315670415
  0
LINE
  8
5
  6
CONTINUOUS
 62
6
 10
473.8730305766
 20
128.1315670415
 11
478.3730305766
 21
128.1315670415
  0
LINE
  8
5
  6
CONTINUOUS
 62
6
 10
876.3730305766
 20
208.1315670415
 11
880.8730305766
 21
208.1315670415
  0
LINE
  8
5
  6
CONTINUOUS
 62
6
 10
876.3730305766
 20
168.1315670415
 11
880.8730305766
 21
168.1315670415
  0
LINE
  8
5
  6
CONTINUOUS
 62
6
 10
876.3730305766
 20
128.1315670415
 11
880.8730305766
 21
128.1315670415
  0
TEXT
  8
5
  6
CONTINUOUS
 62
6
 10
497.373031
 20
288.131567
 40
4.000000
  1
1
 41
1.000000
 50
0.000000
 51
0.000000
 72
   5
 73
   0
 11
499.373031
 21
288.131567
  0
TEXT
  8
5
  6
CONTINUOUS
 62
6
 10
497.373031
 20
9.131567
 40
4.000000
  1
1
 41
1.000000
 50
0.000000
 51
0.000000
 72
   5
 73
   0
 11
499.373031
 21
9.131567
  0
TEXT
  8
5
  6
CONTINUOUS
 62
6
 10
537.373031
 20
288.131567
 40
4.000000
  1
2
 41
1.000000
 50
0.000000
 51
0.000000
 72
   5
 73
   0
 11
539.373031
 21
288.131567
  0
TEXT
  8
5
  6
CONTINUOUS
 62
6
 10
577.373031
 20
288.131567
 40
4.000000
  1
3
 41
1.000000
 50
0.000000
 51
0.000000
 72
   5
 73
   0
 11
579.373031
 21
288.131567
  0
TEXT
  8
5
  6
CONTINUOUS
 62
6
 10
617.373031
 20
288.131567
 40
4.000000
  1
4
 41
1.000000
 50
0.000000
 51
0.000000
 72
   5
 73
   0
 11
619.373031
 21
288.131567
  0
TEXT
  8
5
  6
CONTINUOUS
 62
6
 10
657.373031
 20
288.131567
 40
4.000000
  1
5
 41
1.000000
 50
0.000000
 51
0.000000
 72
   5
 73
   0
 11
659.373031
 21
288.131567
  0
TEXT
  8
5
  6
CONTINUOUS
 62
6
 10
697.373031
 20
288.131567
 40
4.000000
  1
6
 41
1.000000
 50
0.000000
 51
0.000000
 72
   5
 73
   0
 11
699.373031
 21
288.131567
  0
TEXT
  8
5
  6
CONTINUOUS
 62
6
 10
737.373031
 20
288.131567
 40
4.000000
  1
7
 41
1.000000
 50
0.000000
 51
0.000000
 72
   5
 73
   0
 11
739.373031
 21
288.131567
  0
TEXT
  8
5
  6
CONTINUOUS
 62
6
 10
537.373031
 20
9.131567
 40
4.000000
  1
2
 41
1.000000
 50
0.000000
 51
0.000000
 72
   5
 73
   0
 11
539.373031
 21
9.131567
  0
TEXT
  8
5
  6
CONTINUOUS
 62
6
 10
577.373031
 20
9.131567
 40
4.000000
  1
3
 41
1.000000
 50
0.000000
 51
0.000000
 72
   5
 73
   0
 11
579.373031
 21
9.131567
  0
TEXT
  8
5
  6
CONTINUOUS
 62
6
 10
617.373031
 20
9.131567
 40
4.000000
  1
4
 41
1.000000
 50
0.000000
 51
0.000000
 72
   5
 73
   0
 11
619.373031
 21
9.131567
  0
TEXT
  8
5
  6
CONTINUOUS
 62
6
 10
657.373031
 20
9.131567
 40
4.000000
  1
5
 41
1.000000
 50
0.000000
 51
0.000000
 72
   5
 73
   0
 11
659.373031
 21
9.131567
  0
TEXT
  8
5
  6
CONTINUOUS
 62
6
 10
697.373031
 20
9.131567
 40
4.000000
  1
6
 41
1.000000
 50
0.000000
 51
0.000000
 72
   5
 73
   0
 11
699.373031
 21
9.131567
  0
TEXT
  8
5
  6
CONTINUOUS
 62
6
 10
737.373031
 20
9.131567
 40
4.000000
  1
7
 41
1.000000
 50
0.000000
 51
0.000000
 72
   5
 73
   0
 11
739.373031
 21
9.131567
  0
TEXT
  8
5
  6
CONTINUOUS
 62
6
 10
475.499803
 20
266.085710
 40
4.000000
  1
A
 41
1.266000
 50
0.000000
 51
0.000000
 72
   5
 73
   0
 11
478.031803
 21
266.085710
  0
TEXT
  8
5
  6
CONTINUOUS
 62
6
 10
876.659544
 20
266.123921
 40
4.000000
  1
A
 41
1.266000
 50
0.000000
 51
0.000000
 72
   5
 73
   0
 11
879.191544
 21
266.123921
  0
TEXT
  8
5
  6
CONTINUOUS
 62
6
 10
475.483803
 20
226.085710
 40
4.000000
  1
B
 41
1.274000
 50
0.000000
 51
0.000000
 72
   5
 73
   0
 11
478.031803
 21
226.085710
  0
TEXT
  8
5
  6
CONTINUOUS
 62
6
 10
475.375803
 20
186.085710
 40
4.000000
  1
C
 41
1.328000
 50
0.000000
 51
0.000000
 72
   5
 73
   0
 11
478.031803
 21
186.085710
  0
TEXT
  8
5
  6
CONTINUOUS
 62
6
 10
475.439803
 20
146.085710
 40
4.000000
  1
D
 41
1.296000
 50
0.000000
 51
0.000000
 72
   5
 73
   0
 11
478.031803
 21
146.085710
  0
TEXT
  8
5
  6
CONTINUOUS
 62
6
 10
475.767803
 20
106.085710
 40
4.000000
  1
E
 41
1.132000
 50
0.000000
 51
0.000000
 72
   5
 73
   0
 11
478.031803
 21
106.085710
  0
TEXT
  8
5
  6
CONTINUOUS
 62
6
 10
876.659544
 20
226.123921
 40
4.000000
  1
B
 41
1.274000
 50
0.000000
 51
0.000000
 72
   5
 73
   0
 11
879.207544
 21
226.123921
  0
TEXT
  8
5
  6
CONTINUOUS
 62
6
 10
876.659544
 20
186.123921
 40
4.000000
  1
C
 41
1.328000
 50
0.000000
 51
0.000000
 72
   5
 73
   0
 11
879.315544
 21
186.123921
  0
TEXT
  8
5
  6
CONTINUOUS
 62
6
 10
876.659544
 20
146.123921
 40
4.000000
  1
D
 41
1.296000
 50
0.000000
 51
0.000000
 72
   5
 73
   0
 11
879.251544
 21
146.123921
  0
TEXT
  8
5
  6
CONTINUOUS
 62
6
 10
876.659544
 20
106.123921
 40
4.000000
  1
E
 41
1.132000
 50
0.000000
 51
0.000000
 72
   5
 73
   0
 11
878.923544
 21
106.123921
  0
LINE
  8
5
  6
CONTINUOUS
 62
6
 10
821.3730305766
 20
38.1315670415
 11
821.3730305766
 21
13.1315670415
  0
LINE
  8
5
  6
CONTINUOUS
 62
6
 10
821.3730305766
 20
23.1315670415
 11
876.3730305766
 21
23.1315670415
  0
LINE
  8
5
  6
CONTINUOUS
 62
6
 10
821.3730305766
 20
16.1315670415
 11
755.3730305766
 21
16.1315670415
  0
LINE
  8
5
  6
CONTINUOUS
 62
6
 10
777.3730305766
 20
13.1315670415
 11
777.3730305766
 21
29.6315670415
  0
LINE
  8
5
  6
CONTINUOUS
 62
6
 10
810.3730305766
 20
25.6315670415
 11
810.3730305766
 21
13.1315670415
  0
LINE
  8
5
  6
CONTINUOUS
 62
6
 10
799.3730305766
 20
13.1315670415
 11
799.3730305764
 21
29.6315670415
  0
LINE
  8
5
  6
CONTINUOUS
 62
6
 10
788.3730305766
 20
25.6315670415
 11
788.3730305766
 21
13.1315670415
  0
TEXT
  8
5
  6
CONTINUOUS
 62
6
 10
768.396781
 20
13.381567
 40
2.500000
  1
Design
 41
0.722338
 50
0.000000
 51
0.000000
 72
   5
 73
   0
 11
775.349281
 21
13.381567
  0
TEXT
  8
5
  6
CONTINUOUS
 62
6
 10
780.211781
 20
13.381567
 40
2.500000
  1
Draft
 41
0.669497
 50
0.000000
 51
0.000000
 72
   5
 73
   0
 11
785.534281
 21
13.381567
  0
TEXT
  8
5
  6
CONTINUOUS
 62
6
 10
790.591781
 20
13.381567
 40
2.500000
  1
Check
 41
0.825472
 50
0.000000
 51
0.000000
 72
   5
 73
   0
 11
797.154281
 21
13.381567
  0
LINE
  8
5
  6
CONTINUOUS
 62
6
 10
755.3730305766
 20
38.1315670415
 11
876.3730305766
 21
38.1315670415
  0
LINE
  8
5
  6
CONTINUOUS
 62
6
 10
755.3730305766
 20
25.6315670415
 11
821.3730305766
 21
25.6315670415
  0
LINE
  8
5
  6
CONTINUOUS
 62
6
 10
866.3730305766
 20
23.1315670415
 11
866.3730305766
 21
13.1315670415
  0
TEXT
  8
5
  6
CONTINUOUS
 62
6
 10
869.393031
 20
13.631567
 40
2.000000
  1
SIZE
 41
0.788845
 50
0.000000
 51
0.000000
 72
   5
 73
   0
 11
873.353031
 21
13.631567
  0
LINE
  8
5
  6
CONTINUOUS
 62
6
 10
866.3730305766
 20
16.1315670415
 11
876.3730305766
 21
16.1315670415
  0
TEXT
  8
5
  6
CONTINUOUS
 62
6
 10
867.878031
 20
17.131567
 40
5.000000
  1
Ａ３
 41
0.644240
 50
0.000000
 51
0.000000
 72
   5
 73
   0
 11
874.868031
 21
17.131567
  0
TEXT
  8
5
  6
CONTINUOUS
 62
6
 10
813.011781
 20
13.381567
 40
2.500000
  1
Scale
 41
0.719811
 50
0.000000
 51
0.000000
 72
   5
 73
   0
 11
818.734281
 21
13.381567
  0
TEXT
  8
5
  6
CONTINUOUS
 62
6
 10
812.123031
 20
18.381567
 40
5.000000
  1
1/1
 41
0.815217
 50
0.000000
 51
0.000000
 72
   5
 73
   0
 11
819.623031
 21
18.381567
  0
TEXT
  8
5
  6
CONTINUOUS
 62
6
 10
800.785531
 20
13.381567
 40
2.500000
  1
Confirm
 41
0.723451
 50
0.000000
 51
0.000000
 72
   5
 73
   0
 11
808.960531
 21
13.381567
  0
TEXT
  8
5
  6
CONTINUOUS
 62
6
 10
758.401781
 20
13.381567
 40
2.500000
  1
Date
 41
0.787649
 50
0.000000
 51
0.000000
 72
   5
 73
   0
 11
763.344281
 21
13.381567
  0
TEXT
  8
5
  6
CONTINUOUS
 62
6
 10
757.123031
 20
21.094067
 40
3.000000
  1
2008/
 41
0.786164
 50
0.000000
 51
0.000000
 72
   5
 73
   0
 11
764.623031
 21
21.094067
  0
TEXT
  8
5
  6
CONTINUOUS
 62
6
 10
757.123031
 20
17.669067
 40
3.000000
  1
4/10
 41
0.796813
 50
0.000000
 51
0.000000
 72
   5
 73
   0
 11
763.123031
 21
17.669067
  0
LINE
  8
5
  6
CONTINUOUS
 62
6
 10
766.3730305766
 20
25.6315670415
 11
766.3730305766
 21
13.1315670415
  0
LINE
  8
5
  6
CONTINUOUS
 62
6
 10
755.3730305766
 20
13.1315670415
 11
755.3730305766
 21
38.1315670415
  0
TEXT
  8
5
  6
CONTINUOUS
 62
6
 10
755.628324
 20
26.844757
 40
2.000000
  1
Material
 41
0.638921
 50
0.000000
 51
0.000000
 72
   5
 73
   0
 11
762.260324
 21
26.844757
  0
LINE
  8
5
  6
CONTINUOUS
 62
6
 10
762.3730305766
 20
29.6315670415
 11
762.3730305766
 21
25.6315670415
  0
TEXT
  8
5
  6
CONTINUOUS
 62
6
 10
777.478031
 20
26.631567
 40
2.000000
  1
Process
 41
0.751106
 50
0.000000
 51
0.000000
 72
   5
 73
   0
 11
784.268031
 21
26.631567
  0
LINE
  8
5
  6
CONTINUOUS
 62
6
 10
784.3730305766
 20
29.6315670415
 11
784.3730305766
 21
25.6315670415
  0
TEXT
  8
5
  6
CONTINUOUS
 62
6
 10
799.646031
 20
26.631567
 40
2.000000
  1
Amount
 41
0.838182
 50
0.000000
 51
0.000000
 72
   5
 73
   0
 11
806.100031
 21
26.631567
  0
LINE
  8
5
  6
CONTINUOUS
 62
6
 10
806.3730305765
 20
29.6315670415
 11
806.3730305765
 21
25.6315670415
  0
LINE
  8
5
  6
CONTINUOUS
 62
6
 10
821.3730305766
 20
29.6315670415
 11
755.3730305766
 21
29.6315670415
  0
POINT
  8
5
  6
CONTINUOUS
 62
6
 10
763.3730305766
 20
27.6315670415
  0
POINT
  8
5
  6
CONTINUOUS
 62
6
 10
785.3730305766
 20
27.6315670415
  0
POINT
  8
5
  6
CONTINUOUS
 62
6
 10
813.8730305765
 20
27.6315670415
  0
POINT
  8
5
  6
CONTINUOUS
 62
6
 10
771.8730305766
 20
20.8815670415
  0
POINT
  8
5
  6
CONTINUOUS
 62
6
 10
782.8730305766
 20
20.8815670415
  0
POINT
  8
5
  6
CONTINUOUS
 62
6
 10
793.8730305766
 20
20.8815670415
  0
POINT
  8
5
  6
CONTINUOUS
 62
6
 10
804.8730305766
 20
20.8815670415
  0
POINT
  8
5
  6
CONTINUOUS
 62
6
 10
473.8730305766
 20
8.6315670415
  0
TEXT
  8
5
  6
CONTINUOUS
 62
7
 10
774.972836
 20
29.411650
 40
4.000000
  1
MADOKA SYSTEM co,.ltd
 41
0.778201
 50
0.000000
 51
0.000000
 72
   5
 73
   0
 11
818.240836
 21
29.411650
  0
LINE
  8
5
  6
CONTINUOUS
 62
6
 10
758.3730305766
 20
292.6315670415
 11
758.3730305766
 21
288.1315670415
  0
LINE
  8
5
  6
CONTINUOUS
 62
6
 10
758.3730305766
 20
13.1315670415
 11
758.3730305766
 21
8.6315670415
  0
TEXT
  8
5
  6
CONTINUOUS
 62
6
 10
777.373031
 20
288.131567
 40
4.000000
  1
8
 41
1.000000
 50
0.000000
 51
0.000000
 72
   5
 73
   0
 11
779.373031
 21
288.131567
  0
TEXT
  8
5
  6
CONTINUOUS
 62
6
 10
777.373031
 20
9.131567
 40
4.000000
  1
8
 41
1.000000
 50
0.000000
 51
0.000000
 72
   5
 73
   0
 11
779.373031
 21
9.131567
  0
LINE
  8
5
  6
CONTINUOUS
 62
6
 10
798.3730305766
 20
292.6315670415
 11
798.3730305766
 21
288.1315670415
  0
LINE
  8
5
  6
CONTINUOUS
 62
6
 10
798.3730305766
 20
13.1315670415
 11
798.3730305766
 21
8.6315670415
  0
TEXT
  8
5
  6
CONTINUOUS
 62
6
 10
817.373031
 20
288.131567
 40
4.000000
  1
9
 41
1.000000
 50
0.000000
 51
0.000000
 72
   5
 73
   0
 11
819.373031
 21
288.131567
  0
TEXT
  8
5
  6
CONTINUOUS
 62
6
 10
817.373031
 20
9.131567
 40
4.000000
  1
9
 41
1.000000
 50
0.000000
 51
0.000000
 72
   5
 73
   0
 11
819.373031
 21
9.131567
  0
LINE
  8
5
  6
CONTINUOUS
 62
6
 10
838.3730305766
 20
292.6315670415
 11
838.3730305766
 21
288.1315670415
  0
LINE
  8
5
  6
CONTINUOUS
 62
6
 10
838.3730305766
 20
13.1315670415
 11
838.3730305766
 21
8.6315670415
  0
TEXT
  8
5
  6
CONTINUOUS
 62
6
 10
856.373031
 20
288.131567
 40
4.000000
  1
10
 41
0.854701
 50
0.000000
 51
0.000000
 72
   5
 73
   0
 11
860.373031
 21
288.131567
  0
TEXT
  8
5
  6
CONTINUOUS
 62
6
 10
856.373031
 20
9.131567
 40
4.000000
  1
10
 41
0.854701
 50
0.000000
 51
0.000000
 72
   5
 73
   0
 11
860.373031
 21
9.131567
  0
LINE
  8
5
  6
CONTINUOUS
 62
6
 10
473.8730305766
 20
88.1315670415
 11
478.3730305766
 21
88.1315670415
  0
LINE
  8
5
  6
CONTINUOUS
 62
6
 10
876.3730305766
 20
88.1315670415
 11
880.8730305766
 21
88.1315670415
  0
LINE
  8
5
  6
CONTINUOUS
 62
6
 10
473.8730305766
 20
48.1315670415
 11
478.3730305766
 21
48.1315670415
  0
LINE
  8
5
  6
CONTINUOUS
 62
6
 10
876.3730305766
 20
48.1315670415
 11
880.8730305766
 21
48.1315670415
  0
TEXT
  8
5
  6
CONTINUOUS
 62
6
 10
475.827803
 20
66.085710
 40
4.000000
  1
F
 41
1.102000
 50
0.000000
 51
0.000000
 72
   5
 73
   0
 11
478.031803
 21
66.085710
  0
TEXT
  8
5
  6
CONTINUOUS
 62
6
 10
876.659544
 20
66.123921
 40
4.000000
  1
F
 41
1.102000
 50
0.000000
 51
0.000000
 72
   5
 73
   0
 11
878.863544
 21
66.123921
  0
TEXT
  8
5
  6
CONTINUOUS
 62
6
 10
475.311803
 20
26.085710
 40
4.000000
  1
G
 41
1.360000
 50
0.000000
 51
0.000000
 72
   5
 73
   0
 11
478.031803
 21
26.085710
  0
TEXT
  8
5
  6
CONTINUOUS
 62
6
 10
876.659544
 20
26.123921
 40
4.000000
  1
G
 41
1.360000
 50
0.000000
 51
0.000000
 72
   5
 73
   0
 11
879.379544
 21
26.123921
  0
LINE
  8
5
  6
CONTINUOUS
 62
6
 10
478.3730305766
 20
288.1315670415
 11
876.3730305766
 21
288.1315670415
  0
LINE
  8
5
  6
CONTINUOUS
 62
6
 10
876.3730305766
 20
288.1315670415
 11
876.3730305766
 21
13.1315670415
  0
POINT
  8
5
  6
CONTINUOUS
 62
6
 10
827.3730305766
 20
29.1315670415
  0
POINT
  8
5
  6
CONTINUOUS
 62
6
 10
827.3730305766
 20
16.6315670415
  0
LINE
  8
5
  6
CONTINUOUS
 62
6
 10
821.3730305766
 20
35.1315670415
 11
876.3730305766
 21
35.1315670415
  0
LINE
  8
5
  6
CONTINUOUS
 62
6
 10
821.3730305766
 20
20.1315670415
 11
866.3730305766
 21
20.1315670415
  0
TEXT
  8
5
  6
CONTINUOUS
 62
7
 10
836.801531
 20
34.881567
 40
3.500000
  1
Document Name
 41
0.807728
 50
0.000000
 51
0.000000
 72
   5
 73
   0
 11
860.944531
 21
34.881567
  0
TEXT
  8
5
  6
CONTINUOUS
 62
7
 10
833.551531
 20
19.881567
 40
3.500000
  1
Document No.
 41
0.749428
 50
0.000000
 51
0.000000
 72
   5
 73
   0
 11
854.194531
 21
19.881567
  0
ENDBLK
  8
0
  0
BLOCK
  8
2
  2
*X0
 70
     1
 10
576.8284061942
 20
142.0236120874
  3
*X0
  0
LINE
  8
2
  6
CONTINUOUS
 62
6
 10
576.8284061942
 20
141.8821907312
 11
576.9698275505
 21
142.0236120874
  0
LINE
  8
2
  6
CONTINUOUS
 62
6
 10
576.8284061942
 20
141.7407693749
 11
577.1112489067
 21
142.0236120874
  0
LINE
  8
2
  6
CONTINUOUS
 62
6
 10
576.8284061942
 20
141.5993480187
 11
577.2526702629
 21
142.0236120874
  0
LINE
  8
2
  6
CONTINUOUS
 62
6
 10
576.8284061942
 20
141.4579266625
 11
577.3940916192
 21
142.0236120874
  0
LINE
  8
2
  6
CONTINUOUS
 62
6
 10
576.8284061942
 20
141.3165053062
 11
577.5355129754
 21
142.0236120874
  0
LINE
  8
2
  6
CONTINUOUS
 62
6
 10
576.8284061942
 20
141.1750839500
 11
577.6769343317
 21
142.0236120874
  0
LINE
  8
2
  6
CONTINUOUS
 62
6
 10
576.8284061942
 20
141.0336625938
 11
577.7284061942
 21
141.9336625938
  0
LINE
  8
2
  6
CONTINUOUS
 62
6
 10
576.8284061942
 20
140.8922412375
 11
577.7284061942
 21
141.7922412375
  0
LINE
  8
2
  6
CONTINUOUS
 62
6
 10
576.8284061942
 20
140.7508198813
 11
577.7284061942
 21
141.6508198813
  0
LINE
  8
2
  6
CONTINUOUS
 62
6
 10
576.8284061942
 20
140.6093985250
 11
577.7284061942
 21
141.5093985250
  0
LINE
  8
2
  6
CONTINUOUS
 62
6
 10
576.8284061942
 20
140.4679771688
 11
577.7284061942
 21
141.3679771688
  0
LINE
  8
2
  6
CONTINUOUS
 62
6
 10
576.8284061942
 20
140.3265558126
 11
577.7284061942
 21
141.2265558126
  0
LINE
  8
2
  6
CONTINUOUS
 62
6
 10
576.8284061942
 20
140.1851344563
 11
577.7284061942
 21
141.0851344563
  0
LINE
  8
2
  6
CONTINUOUS
 62
6
 10
576.8284061942
 20
140.0437131001
 11
577.7284061942
 21
140.9437131001
  0
LINE
  8
2
  6
CONTINUOUS
 62
6
 10
576.8284061942
 20
139.9022917439
 11
577.7284061942
 21
140.8022917439
  0
LINE
  8
2
  6
CONTINUOUS
 62
6
 10
576.8284061942
 20
139.7608703876
 11
577.7284061942
 21
140.6608703876
  0
LINE
  8
2
  6
CONTINUOUS
 62
6
 10
576.8284061942
 20
139.6194490314
 11
577.7284061942
 21
140.5194490314
  0
LINE
  8
2
  6
CONTINUOUS
 62
6
 10
576.8284061942
 20
139.4780276751
 11
577.7284061942
 21
140.3780276751
  0
LINE
  8
2
  6
CONTINUOUS
 62
6
 10
576.8284061942
 20
139.3366063189
 11
577.7284061942
 21
140.2366063189
  0
LINE
  8
2
  6
CONTINUOUS
 62
6
 10
576.8284061942
 20
139.1951849627
 11
577.7284061942
 21
140.0951849627
  0
LINE
  8
2
  6
CONTINUOUS
 62
6
 10
576.8284061942
 20
139.0537636064
 11
577.7284061942
 21
139.9537636064
  0
LINE
  8
2
  6
CONTINUOUS
 62
6
 10
576.8284061942
 20
138.9123422502
 11
577.7284061942
 21
139.8123422502
  0
LINE
  8
2
  6
CONTINUOUS
 62
6
 10
576.8284061942
 20
138.7709208940
 11
577.7284061942
 21
139.6709208940
  0
LINE
  8
2
  6
CONTINUOUS
 62
6
 10
576.8284061942
 20
138.6294995377
 11
577.7284061942
 21
139.5294995377
  0
LINE
  8
2
  6
CONTINUOUS
 62
6
 10
576.8284061942
 20
138.4880781815
 11
577.7284061942
 21
139.3880781815
  0
LINE
  8
2
  6
CONTINUOUS
 62
6
 10
576.8284061942
 20
138.3466568252
 11
577.7284061942
 21
139.2466568252
  0
LINE
  8
2
  6
CONTINUOUS
 62
6
 10
576.8284061942
 20
138.2052354690
 11
577.7284061942
 21
139.1052354690
  0
LINE
  8
2
  6
CONTINUOUS
 62
6
 10
576.8284061942
 20
138.0638141128
 11
577.7284061942
 21
138.9638141128
  0
LINE
  8
2
  6
CONTINUOUS
 62
6
 10
576.9296255251
 20
138.0236120874
 11
577.7284061942
 21
138.8223927565
  0
LINE
  8
2
  6
CONTINUOUS
 62
6
 10
577.0710468813
 20
138.0236120874
 11
577.7284061942
 21
138.6809714003
  0
LINE
  8
2
  6
CONTINUOUS
 62
6
 10
577.2124682376
 20
138.0236120874
 11
577.7284061942
 21
138.5395500441
  0
LINE
  8
2
  6
CONTINUOUS
 62
6
 10
577.3538895938
 20
138.0236120874
 11
577.7284061942
 21
138.3981286878
  0
LINE
  8
2
  6
CONTINUOUS
 62
6
 10
577.4953109501
 20
138.0236120874
 11
577.7284061942
 21
138.2567073316
  0
LINE
  8
2
  6
CONTINUOUS
 62
6
 10
577.6367323063
 20
138.0236120874
 11
577.7284061942
 21
138.1152859753
  0
LINE
  8
2
  6
CONTINUOUS
 62
6
 10
577.6769343317
 20
142.0236120874
 11
577.7284061942
 21
141.9721402248
  0
LINE
  8
2
  6
CONTINUOUS
 62
6
 10
577.5355129754
 20
142.0236120874
 11
577.7284061942
 21
141.8307188686
  0
LINE
  8
2
  6
CONTINUOUS
 62
6
 10
577.3940916192
 20
142.0236120874
 11
577.7284061942
 21
141.6892975124
  0
LINE
  8
2
  6
CONTINUOUS
 62
6
 10
577.2526702629
 20
142.0236120874
 11
577.7284061942
 21
141.5478761561
  0
LINE
  8
2
  6
CONTINUOUS
 62
6
 10
577.1112489067
 20
142.0236120874
 11
577.7284061942
 21
141.4064547999
  0
LINE
  8
2
  6
CONTINUOUS
 62
6
 10
576.9698275505
 20
142.0236120874
 11
577.7284061942
 21
141.2650334437
  0
LINE
  8
2
  6
CONTINUOUS
 62
6
 10
576.8284061942
 20
142.0236120874
 11
577.7284061942
 21
141.1236120874
  0
LINE
  8
2
  6
CONTINUOUS
 62
6
 10
576.8284061942
 20
141.8821907312
 11
577.7284061942
 21
140.9821907312
  0
LINE
  8
2
  6
CONTINUOUS
 62
6
 10
576.8284061942
 20
141.7407693749
 11
577.7284061942
 21
140.8407693749
  0
LINE
  8
2
  6
CONTINUOUS
 62
6
 10
576.8284061942
 20
141.5993480187
 11
577.7284061942
 21
140.6993480187
  0
LINE
  8
2
  6
CONTINUOUS
 62
6
 10
576.8284061942
 20
141.4579266625
 11
577.7284061942
 21
140.5579266625
  0
LINE
  8
2
  6
CONTINUOUS
 62
6
 10
576.8284061942
 20
141.3165053062
 11
577.7284061942
 21
140.4165053062
  0
LINE
  8
2
  6
CONTINUOUS
 62
6
 10
576.8284061942
 20
141.1750839500
 11
577.7284061942
 21
140.2750839500
  0
LINE
  8
2
  6
CONTINUOUS
 62
6
 10
576.8284061942
 20
141.0336625938
 11
577.7284061942
 21
140.1336625938
  0
LINE
  8
2
  6
CONTINUOUS
 62
6
 10
576.8284061942
 20
140.8922412375
 11
577.7284061942
 21
139.9922412375
  0
LINE
  8
2
  6
CONTINUOUS
 62
6
 10
576.8284061942
 20
140.7508198813
 11
577.7284061942
 21
139.8508198813
  0
LINE
  8
2
  6
CONTINUOUS
 62
6
 10
576.8284061942
 20
140.6093985250
 11
577.7284061942
 21
139.7093985250
  0
LINE
  8
2
  6
CONTINUOUS
 62
6
 10
576.8284061942
 20
140.4679771688
 11
577.7284061942
 21
139.5679771688
  0
LINE
  8
2
  6
CONTINUOUS
 62
6
 10
576.8284061942
 20
140.3265558126
 11
577.7284061942
 21
139.4265558126
  0
LINE
  8
2
  6
CONTINUOUS
 62
6
 10
576.8284061942
 20
140.1851344563
 11
577.7284061942
 21
139.2851344563
  0
LINE
  8
2
  6
CONTINUOUS
 62
6
 10
576.8284061942
 20
140.0437131001
 11
577.7284061942
 21
139.1437131001
  0
LINE
  8
2
  6
CONTINUOUS
 62
6
 10
576.8284061942
 20
139.9022917439
 11
577.7284061942
 21
139.0022917439
  0
LINE
  8
2
  6
CONTINUOUS
 62
6
 10
576.8284061942
 20
139.7608703876
 11
577.7284061942
 21
138.8608703876
  0
LINE
  8
2
  6
CONTINUOUS
 62
6
 10
576.8284061942
 20
139.6194490314
 11
577.7284061942
 21
138.7194490314
  0
LINE
  8
2
  6
CONTINUOUS
 62
6
 10
576.8284061942
 20
139.4780276751
 11
577.7284061942
 21
138.5780276751
  0
LINE
  8
2
  6
CONTINUOUS
 62
6
 10
576.8284061942
 20
139.3366063189
 11
577.7284061942
 21
138.4366063189
  0
LINE
  8
2
  6
CONTINUOUS
 62
6
 10
576.8284061942
 20
139.1951849627
 11
577.7284061942
 21
138.2951849627
  0
LINE
  8
2
  6
CONTINUOUS
 62
6
 10
576.8284061942
 20
139.0537636064
 11
577.7284061942
 21
138.1537636064
  0
LINE
  8
2
  6
CONTINUOUS
 62
6
 10
576.8284061942
 20
138.9123422502
 11
577.7171363570
 21
138.0236120874
  0
LINE
  8
2
  6
CONTINUOUS
 62
6
 10
576.8284061942
 20
138.7709208940
 11
577.5757150008
 21
138.0236120874
  0
LINE
  8
2
  6
CONTINUOUS
 62
6
 10
576.8284061942
 20
138.6294995377
 11
577.4342936445
 21
138.0236120874
  0
LINE
  8
2
  6
CONTINUOUS
 62
6
 10
576.8284061942
 20
138.4880781815
 11
577.2928722883
 21
138.0236120874
  0
LINE
  8
2
  6
CONTINUOUS
 62
6
 10
576.8284061942
 20
138.3466568252
 11
577.1514509321
 21
138.0236120874
  0
LINE
  8
2
  6
CONTINUOUS
 62
6
 10
576.8284061942
 20
138.2052354690
 11
577.0100295758
 21
138.0236120874
  0
LINE
  8
2
  6
CONTINUOUS
 62
6
 10
576.8284061942
 20
138.0638141128
 11
576.8686082196
 21
138.0236120874
  0
ENDBLK
  8
0
  0
BLOCK
  8
2
  2
*X1
 70
     1
 10
578.9284061942
 20
142.0236120874
  3
*X1
  0
LINE
  8
2
  6
CONTINUOUS
 62
6
 10
578.9284061942
 20
141.8821907312
 11
579.0698275505
 21
142.0236120874
  0
LINE
  8
2
  6
CONTINUOUS
 62
6
 10
578.9284061942
 20
141.7407693749
 11
579.2112489067
 21
142.0236120874
  0
LINE
  8
2
  6
CONTINUOUS
 62
6
 10
578.9284061942
 20
141.5993480187
 11
579.3526702629
 21
142.0236120874
  0
LINE
  8
2
  6
CONTINUOUS
 62
6
 10
578.9284061942
 20
141.4579266625
 11
579.4940916192
 21
142.0236120874
  0
LINE
  8
2
  6
CONTINUOUS
 62
6
 10
578.9284061942
 20
141.3165053062
 11
579.6355129754
 21
142.0236120874
  0
LINE
  8
2
  6
CONTINUOUS
 62
6
 10
578.9284061942
 20
141.1750839500
 11
579.7769343316
 21
142.0236120874
  0
LINE
  8
2
  6
CONTINUOUS
 62
6
 10
578.9284061942
 20
141.0336625938
 11
579.8284061942
 21
141.9336625938
  0
LINE
  8
2
  6
CONTINUOUS
 62
6
 10
578.9284061942
 20
140.8922412375
 11
579.8284061942
 21
141.7922412375
  0
LINE
  8
2
  6
CONTINUOUS
 62
6
 10
578.9284061942
 20
140.7508198813
 11
579.8284061942
 21
141.6508198813
  0
LINE
  8
2
  6
CONTINUOUS
 62
6
 10
578.9284061942
 20
140.6093985250
 11
579.8284061942
 21
141.5093985250
  0
LINE
  8
2
  6
CONTINUOUS
 62
6
 10
578.9284061942
 20
140.4679771688
 11
579.8284061942
 21
141.3679771688
  0
LINE
  8
2
  6
CONTINUOUS
 62
6
 10
578.9284061942
 20
140.3265558126
 11
579.8284061942
 21
141.2265558126
  0
LINE
  8
2
  6
CONTINUOUS
 62
6
 10
578.9284061942
 20
140.1851344563
 11
579.8284061942
 21
141.0851344563
  0
LINE
  8
2
  6
CONTINUOUS
 62
6
 10
578.9284061942
 20
140.0437131001
 11
579.8284061942
 21
140.9437131001
  0
LINE
  8
2
  6
CONTINUOUS
 62
6
 10
578.9284061942
 20
139.9022917439
 11
579.8284061942
 21
140.8022917439
  0
LINE
  8
2
  6
CONTINUOUS
 62
6
 10
578.9284061942
 20
139.7608703876
 11
579.8284061942
 21
140.6608703876
  0
LINE
  8
2
  6
CONTINUOUS
 62
6
 10
578.9284061942
 20
139.6194490314
 11
579.8284061942
 21
140.5194490314
  0
LINE
  8
2
  6
CONTINUOUS
 62
6
 10
578.9284061942
 20
139.4780276751
 11
579.8284061942
 21
140.3780276751
  0
LINE
  8
2
  6
CONTINUOUS
 62
6
 10
578.9284061942
 20
139.3366063189
 11
579.8284061942
 21
140.2366063189
  0
LINE
  8
2
  6
CONTINUOUS
 62
6
 10
578.9284061942
 20
139.1951849627
 11
579.8284061942
 21
140.0951849627
  0
LINE
  8
2
  6
CONTINUOUS
 62
6
 10
578.9284061942
 20
139.0537636064
 11
579.8284061942
 21
139.9537636064
  0
LINE
  8
2
  6
CONTINUOUS
 62
6
 10
578.9284061942
 20
138.9123422502
 11
579.8284061942
 21
139.8123422502
  0
LINE
  8
2
  6
CONTINUOUS
 62
6
 10
578.9284061942
 20
138.7709208940
 11
579.8284061942
 21
139.6709208940
  0
LINE
  8
2
  6
CONTINUOUS
 62
6
 10
578.9284061942
 20
138.6294995377
 11
579.8284061942
 21
139.5294995377
  0
LINE
  8
2
  6
CONTINUOUS
 62
6
 10
578.9284061942
 20
138.4880781815
 11
579.8284061942
 21
139.3880781815
  0
LINE
  8
2
  6
CONTINUOUS
 62
6
 10
578.9284061942
 20
138.3466568252
 11
579.8284061942
 21
139.2466568252
  0
LINE
  8
2
  6
CONTINUOUS
 62
6
 10
578.9284061942
 20
138.2052354690
 11
579.8284061942
 21
139.1052354690
  0
LINE
  8
2
  6
CONTINUOUS
 62
6
 10
578.9284061942
 20
138.0638141128
 11
579.8284061942
 21
138.9638141128
  0
LINE
  8
2
  6
CONTINUOUS
 62
6
 10
579.0296255251
 20
138.0236120874
 11
579.8284061942
 21
138.8223927565
  0
LINE
  8
2
  6
CONTINUOUS
 62
6
 10
579.1710468813
 20
138.0236120874
 11
579.8284061942
 21
138.6809714003
  0
LINE
  8
2
  6
CONTINUOUS
 62
6
 10
579.3124682376
 20
138.0236120874
 11
579.8284061942
 21
138.5395500441
  0
LINE
  8
2
  6
CONTINUOUS
 62
6
 10
579.4538895938
 20
138.0236120874
 11
579.8284061942
 21
138.3981286878
  0
LINE
  8
2
  6
CONTINUOUS
 62
6
 10
579.5953109501
 20
138.0236120874
 11
579.8284061942
 21
138.2567073316
  0
LINE
  8
2
  6
CONTINUOUS
 62
6
 10
579.7367323063
 20
138.0236120874
 11
579.8284061942
 21
138.1152859753
  0
LINE
  8
2
  6
CONTINUOUS
 62
6
 10
579.7769343316
 20
142.0236120874
 11
579.8284061942
 21
141.9721402248
  0
LINE
  8
2
  6
CONTINUOUS
 62
6
 10
579.6355129754
 20
142.0236120874
 11
579.8284061942
 21
141.8307188686
  0
LINE
  8
2
  6
CONTINUOUS
 62
6
 10
579.4940916192
 20
142.0236120874
 11
579.8284061942
 21
141.6892975124
  0
LINE
  8
2
  6
CONTINUOUS
 62
6
 10
579.3526702629
 20
142.0236120874
 11
579.8284061942
 21
141.5478761561
  0
LINE
  8
2
  6
CONTINUOUS
 62
6
 10
579.2112489067
 20
142.0236120874
 11
579.8284061942
 21
141.4064547999
  0
LINE
  8
2
  6
CONTINUOUS
 62
6
 10
579.0698275505
 20
142.0236120874
 11
579.8284061942
 21
141.2650334437
  0
LINE
  8
2
  6
CONTINUOUS
 62
6
 10
578.9284061942
 20
142.0236120874
 11
579.8284061942
 21
141.1236120874
  0
LINE
  8
2
  6
CONTINUOUS
 62
6
 10
578.9284061942
 20
141.8821907312
 11
579.8284061942
 21
140.9821907312
  0
LINE
  8
2
  6
CONTINUOUS
 62
6
 10
578.9284061942
 20
141.7407693749
 11
579.8284061942
 21
140.8407693749
  0
LINE
  8
2
  6
CONTINUOUS
 62
6
 10
578.9284061942
 20
141.5993480187
 11
579.8284061942
 21
140.6993480187
  0
LINE
  8
2
  6
CONTINUOUS
 62
6
 10
578.9284061942
 20
141.4579266625
 11
579.8284061942
 21
140.5579266625
  0
LINE
  8
2
  6
CONTINUOUS
 62
6
 10
578.9284061942
 20
141.3165053062
 11
579.8284061942
 21
140.4165053062
  0
LINE
  8
2
  6
CONTINUOUS
 62
6
 10
578.9284061942
 20
141.1750839500
 11
579.8284061942
 21
140.2750839500
  0
LINE
  8
2
  6
CONTINUOUS
 62
6
 10
578.9284061942
 20
141.0336625938
 11
579.8284061942
 21
140.1336625938
  0
LINE
  8
2
  6
CONTINUOUS
 62
6
 10
578.9284061942
 20
140.8922412375
 11
579.8284061942
 21
139.9922412375
  0
LINE
  8
2
  6
CONTINUOUS
 62
6
 10
578.9284061942
 20
140.7508198813
 11
579.8284061942
 21
139.8508198813
  0
LINE
  8
2
  6
CONTINUOUS
 62
6
 10
578.9284061942
 20
140.6093985250
 11
579.8284061942
 21
139.7093985250
  0
LINE
  8
2
  6
CONTINUOUS
 62
6
 10
578.9284061942
 20
140.4679771688
 11
579.8284061942
 21
139.5679771688
  0
LINE
  8
2
  6
CONTINUOUS
 62
6
 10
578.9284061942
 20
140.3265558126
 11
579.8284061942
 21
139.4265558126
  0
LINE
  8
2
  6
CONTINUOUS
 62
6
 10
578.9284061942
 20
140.1851344563
 11
579.8284061942
 21
139.2851344563
  0
LINE
  8
2
  6
CONTINUOUS
 62
6
 10
578.9284061942
 20
140.0437131001
 11
579.8284061942
 21
139.1437131001
  0
LINE
  8
2
  6
CONTINUOUS
 62
6
 10
578.9284061942
 20
139.9022917439
 11
579.8284061942
 21
139.0022917439
  0
LINE
  8
2
  6
CONTINUOUS
 62
6
 10
578.9284061942
 20
139.7608703876
 11
579.8284061942
 21
138.8608703876
  0
LINE
  8
2
  6
CONTINUOUS
 62
6
 10
578.9284061942
 20
139.6194490314
 11
579.8284061942
 21
138.7194490314
  0
LINE
  8
2
  6
CONTINUOUS
 62
6
 10
578.9284061942
 20
139.4780276751
 11
579.8284061942
 21
138.5780276751
  0
LINE
  8
2
  6
CONTINUOUS
 62
6
 10
578.9284061942
 20
139.3366063189
 11
579.8284061942
 21
138.4366063189
  0
LINE
  8
2
  6
CONTINUOUS
 62
6
 10
578.9284061942
 20
139.1951849627
 11
579.8284061942
 21
138.2951849627
  0
LINE
  8
2
  6
CONTINUOUS
 62
6
 10
578.9284061942
 20
139.0537636064
 11
579.8284061942
 21
138.1537636064
  0
LINE
  8
2
  6
CONTINUOUS
 62
6
 10
578.9284061942
 20
138.9123422502
 11
579.8171363570
 21
138.0236120874
  0
LINE
  8
2
  6
CONTINUOUS
 62
6
 10
578.9284061942
 20
138.7709208940
 11
579.6757150008
 21
138.0236120874
  0
LINE
  8
2
  6
CONTINUOUS
 62
6
 10
578.9284061942
 20
138.6294995377
 11
579.5342936445
 21
138.0236120874
  0
LINE
  8
2
  6
CONTINUOUS
 62
6
 10
578.9284061942
 20
138.4880781815
 11
579.3928722883
 21
138.0236120874
  0
LINE
  8
2
  6
CONTINUOUS
 62
6
 10
578.9284061942
 20
138.3466568252
 11
579.2514509321
 21
138.0236120874
  0
LINE
  8
2
  6
CONTINUOUS
 62
6
 10
578.9284061942
 20
138.2052354690
 11
579.1100295758
 21
138.0236120874
  0
LINE
  8
2
  6
CONTINUOUS
 62
6
 10
578.9284061942
 20
138.0638141128
 11
578.9686082196
 21
138.0236120874
  0
ENDBLK
  8
0
  0
BLOCK
  8
1
  2
*D0
 70
     1
 10
0.0000000000
 20
0.0000000000
  3
*D0
  0
LINE
  8
1
  6
BYBLOCK
 62
5
 10
504.3234435897
 20
201.7736142928
 11
493.7772118209
 21
201.7736142928
  0
LINE
  8
1
  6
BYBLOCK
 62
5
 10
504.3234435897
 20
78.2736098820
 11
493.7772118209
 21
78.2736098820
  0
LINE
  8
1
  6
BYBLOCK
 62
5
 10
494.7772118209
 20
78.2736098820
 11
494.7772118209
 21
201.7736142928
  0
SOLID
  8
1
  6
CONTINUOUS
 62
5
 10
495.2948499111
 20
199.8417626402
 11
494.2595737307
 21
199.8417626402
 12
494.7772118209
 22
201.7736142928
 13
494.7772118209
 23
201.7736142928
  0
SOLID
  8
1
  6
CONTINUOUS
 62
5
 10
494.2595737307
 20
80.2054615346
 11
495.2948499111
 21
80.2054615346
 12
494.7772118209
 22
78.2736098820
 13
494.7772118209
 23
78.2736098820
  0
TEXT
  8
1
  6
CONTINUOUS
 62
7
 10
493.777212
 20
135.648612
 40
3.500000
  1
123.5
 41
0.786164
 50
90.000000
 51
0.000000
 72
   5
 73
   0
 11
493.777212
 21
144.398612
  0
POINT
  8
DEFPOINTS
  6
BYBLOCK
 62
5
 10
504.8234435897
 20
201.7736142928
  0
POINT
  8
DEFPOINTS
  6
BYBLOCK
 62
5
 10
504.8234435897
 20
78.2736098820
  0
POINT
  8
DEFPOINTS
  6
BYBLOCK
 62
5
 10
494.7772118209
 20
78.2736098820
  0
ENDBLK
  8
0
  0
BLOCK
  8
1
  2
*D1
 70
     1
 10
0.0000000000
 20
0.0000000000
  3
*D1
  0
LINE
  8
1
  6
BYBLOCK
 62
5
 10
503.8284061942
 20
201.2785773972
 11
503.8284061942
 21
207.7403423294
  0
LINE
  8
1
  6
BYBLOCK
 62
5
 10
590.8284061942
 20
201.2785773972
 11
590.8284061942
 21
207.7403423294
  0
LINE
  8
1
  6
BYBLOCK
 62
5
 10
590.8284061942
 20
206.7403423294
 11
503.8284061942
 21
206.7403423294
  0
SOLID
  8
1
  6
CONTINUOUS
 62
5
 10
505.7602578468
 20
207.2579804196
 11
505.7602578468
 21
206.2227042392
 12
503.8284061942
 22
206.7403423294
 13
503.8284061942
 23
206.7403423294
  0
SOLID
  8
1
  6
CONTINUOUS
 62
5
 10
588.8965545416
 20
206.2227042392
 11
588.8965545416
 21
207.2579804196
 12
590.8284061942
 22
206.7403423294
 13
590.8284061942
 23
206.7403423294
  0
TEXT
  8
1
  6
CONTINUOUS
 62
7
 10
545.578406
 20
207.740342
 40
3.500000
  1
87
 41
0.854701
 50
0.000000
 51
0.000000
 72
   5
 73
   0
 11
549.078406
 21
207.740342
  0
POINT
  8
DEFPOINTS
  6
BYBLOCK
 62
5
 10
503.8284061942
 20
200.7785773972
  0
POINT
  8
DEFPOINTS
  6
BYBLOCK
 62
5
 10
590.8284061942
 20
200.7785773972
  0
POINT
  8
DEFPOINTS
  6
BYBLOCK
 62
5
 10
590.8284061942
 20
206.7403423294
  0
ENDBLK
  8
0
  0
BLOCK
  8
1
  2
*D2
 70
     1
 10
0.0000000000
 20
0.0000000000
  3
*D2
  0
LINE
  8
1
  6
BYBLOCK
 62
5
 10
590.8284061942
 20
201.2785773972
 11
590.8284061942
 21
207.7403423294
  0
LINE
  8
1
  6
BYBLOCK
 62
5
 10
593.4284061942
 20
140.5236120874
 11
593.4284061942
 21
207.7403423294
  0
LINE
  8
1
  6
BYBLOCK
 62
5
 10
595.9284061942
 20
206.7403423294
 11
588.3284061942
 21
206.7403423294
  0
SOLID
  8
1
  6
CONTINUOUS
 62
5
 10
588.8965545416
 20
206.2227042392
 11
588.8965545416
 21
207.2579804196
 12
590.8284061942
 22
206.7403423294
 13
590.8284061942
 23
206.7403423294
  0
SOLID
  8
1
  6
CONTINUOUS
 62
5
 10
595.3602578468
 20
207.2579804196
 11
595.3602578468
 21
206.2227042392
 12
593.4284061942
 22
206.7403423294
 13
593.4284061942
 23
206.7403423294
  0
TEXT
  8
1
  6
CONTINUOUS
 62
7
 10
587.753406
 20
208.740342
 40
3.500000
  1
(2.6)
 41
0.786164
 50
0.000000
 51
0.000000
 72
   5
 73
   0
 11
596.503406
 21
208.740342
  0
POINT
  8
DEFPOINTS
  6
BYBLOCK
 62
5
 10
590.8284061942
 20
200.7785773972
  0
POINT
  8
DEFPOINTS
  6
BYBLOCK
 62
5
 10
593.4284061942
 20
140.0236120874
  0
POINT
  8
DEFPOINTS
  6
BYBLOCK
 62
5
 10
593.4284061942
 20
206.7403423294
  0
ENDBLK
  8
0
  0
BLOCK
  8
1
  2
*D3
 70
     1
 10
0.0000000000
 20
0.0000000000
  3
*D3
  0
LINE
  8
1
  6
BYBLOCK
 62
5
 10
503.3284059781
 20
38.2736098820
 11
493.7772118209
 21
38.2736098820
  0
LINE
  8
1
  6
BYBLOCK
 62
5
 10
523.1568333189
 20
63.2736098820
 11
493.7772118209
 21
63.2736098820
  0
LINE
  8
1
  6
BYBLOCK
 62
5
 10
494.7772118209
 20
63.2736098820
 11
494.7772118209
 21
38.2736098820
  0
SOLID
  8
1
  6
CONTINUOUS
 62
5
 10
494.2595737307
 20
40.2054615346
 11
495.2948499111
 21
40.2054615346
 12
494.7772118209
 22
38.2736098820
 13
494.7772118209
 23
38.2736098820
  0
SOLID
  8
1
  6
CONTINUOUS
 62
5
 10
495.2948499111
 20
61.3417582294
 11
494.2595737307
 21
61.3417582294
 12
494.7772118209
 22
63.2736098820
 13
494.7772118209
 23
63.2736098820
  0
TEXT
  8
1
  6
CONTINUOUS
 62
7
 10
493.777212
 20
49.023610
 40
3.500000
  1
25
 41
0.854701
 50
90.000000
 51
0.000000
 72
   5
 73
   0
 11
493.777212
 21
52.523610
  0
POINT
  8
DEFPOINTS
  6
BYBLOCK
 62
5
 10
503.8284059781
 20
38.2736098820
  0
POINT
  8
DEFPOINTS
  6
BYBLOCK
 62
5
 10
523.6568333189
 20
63.2736098820
  0
POINT
  8
DEFPOINTS
  6
BYBLOCK
 62
5
 10
494.7772118209
 20
63.2736098820
  0
ENDBLK
  8
0
  0
BLOCK
  8
1
  2
LTEX0
 70
     0
 10
578.3818727375
 20
138.7012842432
  3
LTEX0
  0
SOLID
  8
1
  6
CONTINUOUS
 62
5
 10
578.7730354478
 20
136.7399092832
 11
577.7399421016
 21
136.8071023463
 12
578.3818727375
 22
138.7012842432
 13
578.3818727375
 23
138.7012842432
  0
TEXT
  8
1
  6
CONTINUOUS
 62
7
 10
559.886572
 20
124.398532
 40
2.500000
  1
ｽﾗｲﾄﾞﾛｯｸ
 41
0.770713
 50
0.000000
 51
0.000000
 72
   5
 73
   0
 11
569.886572
 21
124.398532
  0
TEXT
  8
1
  6
CONTINUOUS
 62
7
 10
559.886572
 20
120.398532
 40
2.500000
  1
%%u「-」ﾄﾞﾗｲﾊﾞｰを%%u
 41
0.804598
 50
0.000000
 51
0.000000
 72
   5
 73
   0
 11
577.386572
 21
120.398532
  0
TEXT
  8
1
  6
CONTINUOUS
 62
7
 10
559.886572
 20
116.398532
 40
2.500000
  1
%%u使用してｽﾗｲﾄﾞ%%u
 41
0.826972
 50
0.000000
 51
0.000000
 72
   5
 73
   0
 11
576.136572
 21
116.398532
  0
TEXT
  8
1
  6
CONTINUOUS
 62
7
 10
559.886572
 20
112.398532
 40
2.500000
  1
%%uしてください%%u
 41
0.875912
 50
0.000000
 51
0.000000
 72
   5
 73
   0
 11
574.886572
 21
112.398532
  0
LINE
  8
1
  6
BYBLOCK
 62
5
 10
578.3818727375
 20
138.7012842432
 11
577.3865717972
 21
123.3985322864
  0
LINE
  8
1
  6
BYBLOCK
 62
5
 10
577.3865717972
 20
123.3985322864
 11
559.8865717972
 21
123.3985322864
  0
ENDBLK
  8
0
  0
BLOCK
  8
1
  2
*D4
 70
     1
 10
0.0000000000
 20
0.0000000000
  3
*D4
  0
LINE
  8
1
  6
BYBLOCK
 62
5
 10
644.5325619930
 20
97.8856716097
 11
643.2367199151
 21
95.7477302379
  0
LINE
  8
1
  6
BYBLOCK
 62
5
 10
647.1242461486
 20
102.1615543533
 11
648.4200882265
 21
104.2994957251
  0
SOLID
  8
1
  6
CONTINUOUS
 62
5
 10
643.9738840846
 20
95.9652864934
 11
643.0885401737
 21
96.5019082681
 12
644.5325619930
 22
97.8856716097
 13
644.5325619930
 23
97.8856716097
  0
SOLID
  8
1
  6
CONTINUOUS
 62
5
 10
647.6829240570
 20
104.0819394695
 11
648.5682679679
 21
103.5453176948
 12
647.1242461486
 22
102.1615543533
 13
647.1242461486
 23
102.1615543533
  0
TEXT
  8
1
  6
CONTINUOUS
 62
7
 10
648.750772
 20
106.774321
 40
3.500000
  1
2-M5
 41
0.796813
 50
58.779245
 51
0.000000
 72
   5
 73
   0
 11
652.379130
 21
112.760557
  0
POINT
  8
DEFPOINTS
  6
BYBLOCK
 62
5
 10
644.5325619930
 20
97.8856716097
  0
POINT
  8
DEFPOINTS
  6
BYBLOCK
 62
5
 10
647.1242461486
 20
102.1615543533
  0
LINE
  8
1
  6
BYBLOCK
 62
5
 10
644.5325619930
 20
97.8856716097
 11
653.2343067073
 21
112.2422204129
  0
ENDBLK
  8
0
  0
BLOCK
  8
1
  2
*D5
 70
     1
 10
0.0000000000
 20
0.0000000000
  3
*D5
  0
LINE
  8
1
  6
BYBLOCK
 62
5
 10
543.8284050021
 20
241.7736142928
 11
549.5591527736
 21
241.7736142928
  0
LINE
  8
1
  6
BYBLOCK
 62
5
 10
543.8284050021
 20
235.2736141587
 11
549.5591527736
 21
235.2736141587
  0
LINE
  8
1
  6
BYBLOCK
 62
5
 10
548.5591527736
 20
232.7736141587
 11
548.5591527736
 21
244.2736142928
  0
SOLID
  8
1
  6
CONTINUOUS
 62
5
 10
548.0415146834
 20
243.7054659454
 11
549.0767908638
 21
243.7054659454
 12
548.5591527736
 22
241.7736142928
 13
548.5591527736
 23
241.7736142928
  0
SOLID
  8
1
  6
CONTINUOUS
 62
5
 10
549.0767908638
 20
233.3417625061
 11
548.0415146834
 21
233.3417625061
 12
548.5591527736
 22
235.2736141587
 13
548.5591527736
 23
235.2736141587
  0
TEXT
  8
1
  6
CONTINUOUS
 62
7
 10
547.559153
 20
236.273614
 40
3.000000
  1
6.5
 41
0.815217
 50
90.000000
 51
0.000000
 72
   5
 73
   0
 11
547.559153
 21
240.773614
  0
POINT
  8
DEFPOINTS
  6
BYBLOCK
 62
5
 10
543.3284050021
 20
241.7736142928
  0
POINT
  8
DEFPOINTS
  6
BYBLOCK
 62
5
 10
543.3284050021
 20
235.2736141587
  0
POINT
  8
DEFPOINTS
  6
BYBLOCK
 62
5
 10
548.5591527736
 20
235.2736141587
  0
ENDBLK
  8
0
  0
BLOCK
  8
1
  2
*D6
 70
     1
 10
0.0000000000
 20
0.0000000000
  3
*D6
  0
LINE
  8
1
  6
BYBLOCK
 62
5
 10
546.7679115571
 20
218.7736142928
 11
549.5591527736
 21
218.7736142928
  0
LINE
  8
1
  6
BYBLOCK
 62
5
 10
548.5591527736
 20
218.7736142928
 11
548.5591527736
 21
235.2736141587
  0
SOLID
  8
1
  6
CONTINUOUS
 62
5
 10
549.0767908638
 20
233.3417625061
 11
548.0415146834
 21
233.3417625061
 12
548.5591527736
 22
235.2736141587
 13
548.5591527736
 23
235.2736141587
  0
SOLID
  8
1
  6
CONTINUOUS
 62
5
 10
548.0415146834
 20
220.7054659454
 11
549.0767908638
 21
220.7054659454
 12
548.5591527736
 22
218.7736142928
 13
548.5591527736
 23
218.7736142928
  0
TEXT
  8
1
  6
CONTINUOUS
 62
7
 10
547.559153
 20
224.023614
 40
3.000000
  1
16.5
 41
0.796813
 50
90.000000
 51
0.000000
 72
   5
 73
   0
 11
547.559153
 21
230.023614
  0
POINT
  8
DEFPOINTS
  6
BYBLOCK
 62
5
 10
543.3284050021
 20
235.2736141587
  0
POINT
  8
DEFPOINTS
  6
BYBLOCK
 62
5
 10
546.2679115571
 20
218.7736142928
  0
POINT
  8
DEFPOINTS
  6
BYBLOCK
 62
5
 10
548.5591527736
 20
218.7736142928
  0
ENDBLK
  8
0
  0
BLOCK
  8
1
  2
*D7
 70
     1
 10
0.0000000000
 20
0.0000000000
  3
*D7
  0
LINE
  8
1
  6
BYBLOCK
 62
5
 10
562.8284045551
 20
235.2736141587
 11
559.3972323923
 21
235.2736141587
  0
LINE
  8
1
  6
BYBLOCK
 62
5
 10
562.3284061932
 20
224.2736142932
 11
559.3972323923
 21
224.2736142932
  0
LINE
  8
1
  6
BYBLOCK
 62
5
 10
560.3972323923
 20
224.2736142932
 11
560.3972323923
 21
235.2736141587
  0
SOLID
  8
1
  6
CONTINUOUS
 62
5
 10
560.9148704825
 20
233.3417625061
 11
559.8795943021
 21
233.3417625061
 12
560.3972323923
 22
235.2736141587
 13
560.3972323923
 23
235.2736141587
  0
SOLID
  8
1
  6
CONTINUOUS
 62
5
 10
559.8795943021
 20
226.2054659457
 11
560.9148704825
 21
226.2054659457
 12
560.3972323923
 22
224.2736142932
 13
560.3972323923
 23
224.2736142932
  0
TEXT
  8
1
  6
CONTINUOUS
 62
7
 10
559.397232
 20
228.273614
 40
3.000000
  1
11
 41
0.854701
 50
90.000000
 51
0.000000
 72
   5
 73
   0
 11
559.397232
 21
231.273614
  0
POINT
  8
DEFPOINTS
  6
BYBLOCK
 62
5
 10
563.3284045551
 20
235.2736141587
  0
POINT
  8
DEFPOINTS
  6
BYBLOCK
 62
5
 10
562.8284061932
 20
224.2736142932
  0
POINT
  8
DEFPOINTS
  6
BYBLOCK
 62
5
 10
560.3972323923
 20
224.2736142932
  0
ENDBLK
  8
0
  0
BLOCK
  8
1
  2
*D8
 70
     1
 10
0.0000000000
 20
0.0000000000
  3
*D8
  0
LINE
  8
1
  6
BYBLOCK
 62
5
 10
525.3284058589
 20
235.2736141587
 11
522.0690942397
 21
235.2736141587
  0
LINE
  8
1
  6
BYBLOCK
 62
5
 10
529.5784060899
 20
239.2736143487
 11
522.0690942397
 21
239.2736143487
  0
LINE
  8
1
  6
BYBLOCK
 62
5
 10
523.0690942397
 20
239.2736143487
 11
523.0690942397
 21
235.2736141587
  0
SOLID
  8
1
  6
CONTINUOUS
 62
5
 10
522.5514561495
 20
237.2054658113
 11
523.5867323299
 21
237.2054658113
 12
523.0690942397
 22
235.2736141587
 13
523.0690942397
 23
235.2736141587
  0
SOLID
  8
1
  6
CONTINUOUS
 62
5
 10
523.5867323299
 20
237.3417626961
 11
522.5514561495
 21
237.3417626961
 12
523.0690942397
 22
239.2736143487
 13
523.0690942397
 23
239.2736143487
  0
TEXT
  8
1
  6
CONTINUOUS
 62
7
 10
522.069094
 20
236.523614
 40
3.000000
  1
4
 41
1.000000
 50
90.000000
 51
0.000000
 72
   5
 73
   0
 11
522.069094
 21
238.023614
  0
POINT
  8
DEFPOINTS
  6
BYBLOCK
 62
5
 10
525.8284058589
 20
235.2736141587
  0
POINT
  8
DEFPOINTS
  6
BYBLOCK
 62
5
 10
530.0784060899
 20
239.2736143487
  0
POINT
  8
DEFPOINTS
  6
BYBLOCK
 62
5
 10
523.0690942397
 20
239.2736143487
  0
ENDBLK
  8
0
  0
BLOCK
  8
1
  2
*D9
 70
     1
 10
0.0000000000
 20
0.0000000000
  3
*D9
  0
LINE
  8
1
  6
BYBLOCK
 62
5
 10
531.0784054044
 20
241.7736142928
 11
522.0690942397
 21
241.7736142928
  0
LINE
  8
1
  6
BYBLOCK
 62
5
 10
523.0690942397
 20
244.2736142928
 11
523.0690942397
 21
236.7736143487
  0
SOLID
  8
1
  6
CONTINUOUS
 62
5
 10
522.5514561495
 20
243.7054659454
 11
523.5867323299
 21
243.7054659454
 12
523.0690942397
 22
241.7736142928
 13
523.0690942397
 23
241.7736142928
  0
TEXT
  8
1
  6
CONTINUOUS
 62
7
 10
522.069094
 20
243.773614
 40
3.000000
  1
2.5
 41
0.815217
 50
90.000000
 51
0.000000
 72
   5
 73
   0
 11
522.069094
 21
248.273614
  0
POINT
  8
DEFPOINTS
  6
BYBLOCK
 62
5
 10
530.0784060899
 20
239.2736143487
  0
POINT
  8
DEFPOINTS
  6
BYBLOCK
 62
5
 10
531.5784054044
 20
241.7736142928
  0
POINT
  8
DEFPOINTS
  6
BYBLOCK
 62
5
 10
523.0690942397
 20
241.7736142928
  0
ENDBLK
  8
0
  0
BLOCK
  8
1
  2
*D10
 70
     1
 10
0.0000000000
 20
0.0000000000
  3
*D10
  0
LINE
  8
1
  6
BYBLOCK
 62
5
 10
574.3284082208
 20
23.7736094499
 11
574.3284082208
 21
16.8508802516
  0
LINE
  8
1
  6
BYBLOCK
 62
5
 10
579.3284034524
 20
23.7736094499
 11
579.3284034524
 21
16.8508802516
  0
LINE
  8
1
  6
BYBLOCK
 62
5
 10
581.8284034524
 20
17.8508802516
 11
571.8284082208
 21
17.8508802516
  0
SOLID
  8
1
  6
CONTINUOUS
 62
5
 10
572.3965565682
 20
17.3332421614
 11
572.3965565682
 21
18.3685183418
 12
574.3284082208
 22
17.8508802516
 13
574.3284082208
 23
17.8508802516
  0
SOLID
  8
1
  6
CONTINUOUS
 62
5
 10
581.2602551050
 20
18.3685183418
 11
581.2602551050
 21
17.3332421614
 12
579.3284034524
 22
17.8508802516
 13
579.3284034524
 23
17.8508802516
  0
TEXT
  8
1
  6
CONTINUOUS
 62
7
 10
575.953406
 20
18.850880
 40
3.500000
  1
5
 41
1.000000
 50
0.000000
 51
0.000000
 72
   5
 73
   0
 11
577.703406
 21
18.850880
  0
POINT
  8
DEFPOINTS
  6
BYBLOCK
 62
5
 10
574.3284082208
 20
24.2736094499
  0
POINT
  8
DEFPOINTS
  6
BYBLOCK
 62
5
 10
579.3284034524
 20
24.2736094499
  0
POINT
  8
DEFPOINTS
  6
BYBLOCK
 62
5
 10
579.3284034524
 20
17.8508802516
  0
ENDBLK
  8
0
  0
BLOCK
  8
1
  2
*D11
 70
     1
 10
0.0000000000
 20
0.0000000000
  3
*D11
  0
LINE
  8
1
  6
BYBLOCK
 62
5
 10
650.3284044061
 20
95.5236113126
 11
657.4831566607
 21
95.5236113126
  0
LINE
  8
1
  6
BYBLOCK
 62
5
 10
650.3284048382
 20
104.5236109251
 11
657.4831566607
 21
104.5236109251
  0
LINE
  8
1
  6
BYBLOCK
 62
5
 10
656.4831566607
 20
104.5236109251
 11
656.4831566607
 21
95.5236113126
  0
SOLID
  8
1
  6
CONTINUOUS
 62
5
 10
655.9655185705
 20
97.4554629651
 11
657.0007947509
 21
97.4554629651
 12
656.4831566607
 22
95.5236113126
 13
656.4831566607
 23
95.5236113126
  0
SOLID
  8
1
  6
CONTINUOUS
 62
5
 10
657.0007947509
 20
102.5917592725
 11
655.9655185705
 21
102.5917592725
 12
656.4831566607
 22
104.5236109251
 13
656.4831566607
 23
104.5236109251
  0
TEXT
  8
1
  6
CONTINUOUS
 62
7
 10
655.483157
 20
99.148611
 40
3.500000
  1
9
 41
1.000000
 50
90.000000
 51
0.000000
 72
   5
 73
   0
 11
655.483157
 21
100.898611
  0
POINT
  8
DEFPOINTS
  6
BYBLOCK
 62
5
 10
649.8284044061
 20
95.5236113126
  0
POINT
  8
DEFPOINTS
  6
BYBLOCK
 62
5
 10
649.8284048382
 20
104.5236109251
  0
POINT
  8
DEFPOINTS
  6
BYBLOCK
 62
5
 10
656.4831566607
 20
104.5236109251
  0
ENDBLK
  8
0
  0
BLOCK
  8
5
  2
S1
 70
     0
 10
785.9409558390
 20
229.8560849505
  3
S1
  0
LINE
  8
5
  6
CONTINUOUS
 62
6
 10
785.9409558390
 20
279.8560849505
 11
785.9409558390
 21
284.8560849505
  0
LINE
  8
5
  6
CONTINUOUS
 62
6
 10
785.9409558390
 20
284.8560849505
 11
790.9409558390
 21
284.8560849505
  0
LINE
  8
5
  6
CONTINUOUS
 62
6
 10
790.9409558390
 20
284.8560849505
 11
810.9409558390
 21
284.8560849505
  0
LINE
  8
5
  6
CONTINUOUS
 62
6
 10
810.9409558390
 20
284.8560849505
 11
850.9409558390
 21
284.8560849505
  0
LINE
  8
5
  6
CONTINUOUS
 62
6
 10
850.9409558390
 20
284.8560849505
 11
865.9409558390
 21
284.8560849505
  0
LINE
  8
5
  6
CONTINUOUS
 62
6
 10
865.9409558390
 20
284.8560849505
 11
870.9409558390
 21
284.8560849505
  0
LINE
  8
5
  6
CONTINUOUS
 62
6
 10
870.9409558390
 20
284.8560849505
 11
870.9409558390
 21
279.8560849505
  0
LINE
  8
5
  6
CONTINUOUS
 62
6
 10
870.9409558390
 20
279.8560849505
 11
865.9409558390
 21
279.8560849505
  0
LINE
  8
5
  6
CONTINUOUS
 62
6
 10
865.9409558390
 20
279.8560849505
 11
850.9409558390
 21
279.8560849505
  0
LINE
  8
5
  6
CONTINUOUS
 62
6
 10
850.9409558390
 20
279.8560849505
 11
810.9409558390
 21
279.8560849505
  0
LINE
  8
5
  6
CONTINUOUS
 62
6
 10
810.9409558390
 20
279.8560849505
 11
790.9409558390
 21
279.8560849505
  0
LINE
  8
5
  6
CONTINUOUS
 62
6
 10
790.9409558390
 20
279.8560849505
 11
785.9409558390
 21
279.8560849505
  0
LINE
  8
5
  6
CONTINUOUS
 62
6
 10
790.9409558390
 20
284.8560849505
 11
790.9409558390
 21
279.8560849505
  0
LINE
  8
5
  6
CONTINUOUS
 62
6
 10
810.9409558390
 20
284.8560849505
 11
810.9409558390
 21
279.8560849505
  0
LINE
  8
5
  6
CONTINUOUS
 62
6
 10
850.9409558390
 20
284.8560849505
 11
850.9409558390
 21
279.8560849505
  0
LINE
  8
5
  6
CONTINUOUS
 62
6
 10
865.9409558390
 20
284.8560849505
 11
865.9409558390
 21
279.8560849505
  0
TEXT
  8
5
  6
CONTINUOUS
 62
7
 10
786.140956
 20
281.206085
 40
2.300000
  1
項番
 41
0.921659
 50
0.000000
 51
0.000000
 72
   5
 73
   0
 11
790.740956
 21
281.206085
  0
TEXT
  8
5
  6
CONTINUOUS
 62
7
 10
795.948956
 20
280.856085
 40
3.000000
  1
品　　名
 41
0.737916
 50
0.000000
 51
0.000000
 72
   5
 73
   0
 11
805.932956
 21
280.856085
  0
TEXT
  8
5
  6
CONTINUOUS
 62
7
 10
815.787956
 20
280.856085
 40
3.000000
  1
定  格 / 型  番 / 材　質
 41
0.686277
 50
0.000000
 51
0.000000
 72
   5
 73
   0
 11
846.093956
 21
280.856085
  0
TEXT
  8
5
  6
CONTINUOUS
 62
7
 10
853.243456
 20
280.856085
 40
3.000000
  1
メーカー
 41
0.768293
 50
0.000000
 51
0.000000
 72
   5
 73
   0
 11
863.638456
 21
280.856085
  0
TEXT
  8
5
  6
CONTINUOUS
 62
7
 10
866.140956
 20
281.206085
 40
2.300000
  1
数量
 41
0.921659
 50
0.000000
 51
0.000000
 72
   5
 73
   0
 11
870.740956
 21
281.206085
  0
LINE
  8
5
  6
CONTINUOUS
 62
6
 10
785.9409558390
 20
274.8560849505
 11
785.9409558390
 21
279.8560849505
  0
LINE
  8
5
  6
CONTINUOUS
 62
6
 10
785.9409558390
 20
279.8560849505
 11
790.9409558390
 21
279.8560849505
  0
LINE
  8
5
  6
CONTINUOUS
 62
6
 10
790.9409558390
 20
279.8560849505
 11
810.9409558390
 21
279.8560849505
  0
LINE
  8
5
  6
CONTINUOUS
 62
6
 10
810.9409558390
 20
279.8560849505
 11
850.9409558390
 21
279.8560849505
  0
LINE
  8
5
  6
CONTINUOUS
 62
6
 10
850.9409558390
 20
279.8560849505
 11
865.9409558390
 21
279.8560849505
  0
LINE
  8
5
  6
CONTINUOUS
 62
6
 10
865.9409558390
 20
279.8560849505
 11
870.9409558390
 21
279.8560849505
  0
LINE
  8
5
  6
CONTINUOUS
 62
6
 10
870.9409558390
 20
279.8560849505
 11
870.9409558390
 21
274.8560849505
  0
LINE
  8
5
  6
CONTINUOUS
 62
6
 10
870.9409558390
 20
274.8560849505
 11
865.9409558390
 21
274.8560849505
  0
LINE
  8
5
  6
CONTINUOUS
 62
6
 10
865.9409558390
 20
274.8560849505
 11
850.9409558390
 21
274.8560849505
  0
LINE
  8
5
  6
CONTINUOUS
 62
6
 10
810.9409558390
 20
274.8560849505
 11
790.9409558390
 21
274.8560849505
  0
LINE
  8
5
  6
CONTINUOUS
 62
6
 10
790.9409558390
 20
274.8560849505
 11
785.9409558390
 21
274.8560849505
  0
LINE
  8
5
  6
CONTINUOUS
 62
6
 10
790.9409558390
 20
279.8560849505
 11
790.9409558390
 21
274.8560849505
  0
LINE
  8
5
  6
CONTINUOUS
 62
6
 10
810.9409558390
 20
279.8560849505
 11
810.9409558390
 21
274.8560849505
  0
LINE
  8
5
  6
CONTINUOUS
 62
6
 10
850.9409558390
 20
279.8560849505
 11
850.9409558390
 21
274.8560849505
  0
LINE
  8
5
  6
CONTINUOUS
 62
6
 10
865.9409558390
 20
279.8560849505
 11
865.9409558390
 21
274.8560849505
  0
TEXT
  8
5
  6
CONTINUOUS
 62
7
 10
787.565956
 20
275.606085
 40
3.500000
  1
1
 41
1.000000
 50
0.000000
 51
0.000000
 72
   5
 73
   0
 11
789.315956
 21
275.606085
  0
TEXT
  8
5
  6
CONTINUOUS
 62
7
 10
791.940956
 20
275.856085
 40
3.000000
  1
ベース
 41
0.841018
 50
0.000000
 51
0.000000
 72
   5
 73
   0
 11
800.367956
 21
275.856085
  0
TEXT
  8
5
  6
CONTINUOUS
 62
7
 10
867.565956
 20
275.606085
 40
3.500000
  1
1
 41
1.000000
 50
0.000000
 51
0.000000
 72
   5
 73
   0
 11
869.315956
 21
275.606085
  0
LINE
  8
5
  6
CONTINUOUS
 62
6
 10
870.9409558390
 20
269.8560849505
 11
865.9409558390
 21
269.8560849505
  0
LINE
  8
5
  6
CONTINUOUS
 62
6
 10
870.9409558390
 20
264.8560849505
 11
865.9409558390
 21
264.8560849505
  0
LINE
  8
5
  6
CONTINUOUS
 62
6
 10
870.9409558390
 20
259.8560849505
 11
865.9409558390
 21
259.8560849505
  0
LINE
  8
5
  6
CONTINUOUS
 62
6
 10
870.9409558390
 20
254.8560849505
 11
865.9409558390
 21
254.8560849505
  0
LINE
  8
5
  6
CONTINUOUS
 62
6
 10
870.9409558390
 20
249.8560849505
 11
865.9409558390
 21
249.8560849505
  0
LINE
  8
5
  6
CONTINUOUS
 62
6
 10
870.9409558390
 20
244.8560849505
 11
865.9409558390
 21
244.8560849505
  0
LINE
  8
5
  6
CONTINUOUS
 62
6
 10
870.9409558390
 20
239.8560849505
 11
865.9409558390
 21
239.8560849505
  0
LINE
  8
5
  6
CONTINUOUS
 62
6
 10
870.9409558390
 20
234.8560849505
 11
865.9409558390
 21
234.8560849505
  0
LINE
  8
5
  6
CONTINUOUS
 62
6
 10
865.9409558390
 20
269.8560849505
 11
850.9409558390
 21
269.8560849505
  0
LINE
  8
5
  6
CONTINUOUS
 62
6
 10
865.9409558390
 20
264.8560849505
 11
850.9409558390
 21
264.8560849505
  0
LINE
  8
5
  6
CONTINUOUS
 62
6
 10
865.9409558390
 20
259.8560849505
 11
850.9409558390
 21
259.8560849505
  0
LINE
  8
5
  6
CONTINUOUS
 62
6
 10
865.9409558390
 20
254.8560849505
 11
850.9409558390
 21
254.8560849505
  0
LINE
  8
5
  6
CONTINUOUS
 62
6
 10
865.9409558390
 20
249.8560849505
 11
850.9409558390
 21
249.8560849505
  0
LINE
  8
5
  6
CONTINUOUS
 62
6
 10
865.9409558390
 20
244.8560849505
 11
850.9409558390
 21
244.8560849505
  0
LINE
  8
5
  6
CONTINUOUS
 62
6
 10
865.9409558390
 20
239.8560849505
 11
850.9409558390
 21
239.8560849505
  0
LINE
  8
5
  6
CONTINUOUS
 62
6
 10
865.9409558390
 20
234.8560849505
 11
850.9409558390
 21
234.8560849505
  0
LINE
  8
5
  6
CONTINUOUS
 62
6
 10
850.9409558390
 20
269.8560849505
 11
810.9409558390
 21
269.8560849505
  0
LINE
  8
5
  6
CONTINUOUS
 62
6
 10
850.9409558390
 20
264.8560849505
 11
810.9409558390
 21
264.8560849505
  0
LINE
  8
5
  6
CONTINUOUS
 62
6
 10
850.9409558390
 20
259.8560849505
 11
810.9409558390
 21
259.8560849505
  0
LINE
  8
5
  6
CONTINUOUS
 62
6
 10
850.9409558390
 20
254.8560849505
 11
810.9409558390
 21
254.8560849505
  0
LINE
  8
5
  6
CONTINUOUS
 62
6
 10
850.9409558390
 20
249.8560849505
 11
810.9409558390
 21
249.8560849505
  0
LINE
  8
5
  6
CONTINUOUS
 62
6
 10
850.9409558390
 20
244.8560849505
 11
810.9409558390
 21
244.8560849505
  0
LINE
  8
5
  6
CONTINUOUS
 62
6
 10
850.9409558390
 20
239.8560849505
 11
810.9409558390
 21
239.8560849505
  0
LINE
  8
5
  6
CONTINUOUS
 62
6
 10
850.9409558390
 20
234.8560849505
 11
810.9409558390
 21
234.8560849505
  0
LINE
  8
5
  6
CONTINUOUS
 62
6
 10
810.9409558390
 20
269.8560849505
 11
790.9409558390
 21
269.8560849505
  0
LINE
  8
5
  6
CONTINUOUS
 62
6
 10
810.9409558390
 20
264.8560849505
 11
790.9409558390
 21
264.8560849505
  0
LINE
  8
5
  6
CONTINUOUS
 62
6
 10
810.9409558390
 20
259.8560849505
 11
790.9409558390
 21
259.8560849505
  0
LINE
  8
5
  6
CONTINUOUS
 62
6
 10
810.9409558390
 20
254.8560849505
 11
790.9409558390
 21
254.8560849505
  0
LINE
  8
5
  6
CONTINUOUS
 62
6
 10
810.9409558390
 20
249.8560849505
 11
790.9409558390
 21
249.8560849505
  0
LINE
  8
5
  6
CONTINUOUS
 62
6
 10
810.9409558390
 20
244.8560849505
 11
790.9409558390
 21
244.8560849505
  0
LINE
  8
5
  6
CONTINUOUS
 62
6
 10
810.9409558390
 20
239.8560849505
 11
790.9409558390
 21
239.8560849505
  0
LINE
  8
5
  6
CONTINUOUS
 62
6
 10
810.9409558390
 20
234.8560849505
 11
790.9409558390
 21
234.8560849505
  0
LINE
  8
5
  6
CONTINUOUS
 62
6
 10
790.9409558390
 20
269.8560849505
 11
785.9409558390
 21
269.8560849505
  0
LINE
  8
5
  6
CONTINUOUS
 62
6
 10
790.9409558390
 20
264.8560849505
 11
785.9409558390
 21
264.8560849505
  0
LINE
  8
5
  6
CONTINUOUS
 62
6
 10
790.9409558390
 20
259.8560849505
 11
785.9409558390
 21
259.8560849505
  0
LINE
  8
5
  6
CONTINUOUS
 62
6
 10
790.9409558390
 20
254.8560849505
 11
785.9409558390
 21
254.8560849505
  0
LINE
  8
5
  6
CONTINUOUS
 62
6
 10
790.9409558390
 20
249.8560849505
 11
785.9409558390
 21
249.8560849505
  0
LINE
  8
5
  6
CONTINUOUS
 62
6
 10
790.9409558390
 20
244.8560849505
 11
785.9409558390
 21
244.8560849505
  0
LINE
  8
5
  6
CONTINUOUS
 62
6
 10
790.9409558390
 20
239.8560849505
 11
785.9409558390
 21
239.8560849505
  0
LINE
  8
5
  6
CONTINUOUS
 62
6
 10
790.9409558390
 20
234.8560849505
 11
785.9409558390
 21
234.8560849505
  0
TEXT
  8
5
  6
CONTINUOUS
 62
7
 10
787.565956
 20
270.606085
 40
3.500000
  1
2
 41
1.000000
 50
0.000000
 51
0.000000
 72
   5
 73
   0
 11
789.315956
 21
270.606085
  0
TEXT
  8
5
  6
CONTINUOUS
 62
7
 10
787.565956
 20
265.606085
 40
3.500000
  1
3
 41
1.000000
 50
0.000000
 51
0.000000
 72
   5
 73
   0
 11
789.315956
 21
265.606085
  0
TEXT
  8
5
  6
CONTINUOUS
 62
7
 10
787.565956
 20
260.606085
 40
3.500000
  1
4
 41
1.000000
 50
0.000000
 51
0.000000
 72
   5
 73
   0
 11
789.315956
 21
260.606085
  0
TEXT
  8
5
  6
CONTINUOUS
 62
7
 10
787.565956
 20
255.606085
 40
3.500000
  1
5
 41
1.000000
 50
0.000000
 51
0.000000
 72
   5
 73
   0
 11
789.315956
 21
255.606085
  0
TEXT
  8
5
  6
CONTINUOUS
 62
7
 10
787.565956
 20
250.606085
 40
3.500000
  1
6
 41
1.000000
 50
0.000000
 51
0.000000
 72
   5
 73
   0
 11
789.315956
 21
250.606085
  0
TEXT
  8
5
  6
CONTINUOUS
 62
7
 10
787.565956
 20
245.606085
 40
3.500000
  1
7
 41
1.000000
 50
0.000000
 51
0.000000
 72
   5
 73
   0
 11
789.315956
 21
245.606085
  0
TEXT
  8
5
  6
CONTINUOUS
 62
7
 10
787.565956
 20
240.606085
 40
3.500000
  1
8
 41
1.000000
 50
0.000000
 51
0.000000
 72
   5
 73
   0
 11
789.315956
 21
240.606085
  0
TEXT
  8
5
  6
CONTINUOUS
 62
7
 10
787.565956
 20
235.606085
 40
3.500000
  1
9
 41
1.000000
 50
0.000000
 51
0.000000
 72
   5
 73
   0
 11
789.315956
 21
235.606085
  0
TEXT
  8
5
  6
CONTINUOUS
 62
7
 10
791.940956
 20
270.856085
 40
3.000000
  1
カバー
 41
0.833832
 50
0.000000
 51
0.000000
 72
   5
 73
   0
 11
800.295956
 21
270.856085
  0
TEXT
  8
5
  6
CONTINUOUS
 62
7
 10
791.940956
 20
265.856085
 40
3.000000
  1
ロック
 41
0.719162
 50
0.000000
 51
0.000000
 72
   5
 73
   0
 11
799.146956
 21
265.856085
  0
TEXT
  8
5
  6
CONTINUOUS
 62
7
 10
791.940956
 20
260.856085
 40
3.000000
  1
添付品ﾋﾞｽ
 41
0.822804
 50
0.000000
 51
0.000000
 72
   5
 73
   0
 11
805.146956
 21
260.856085
  0
TEXT
  8
5
  6
CONTINUOUS
 62
7
 10
791.940956
 20
255.856085
 40
3.000000
  1
添付品ﾋﾞｽ
 41
0.822804
 50
0.000000
 51
0.000000
 72
   5
 73
   0
 11
805.146956
 21
255.856085
  0
TEXT
  8
5
  6
CONTINUOUS
 62
7
 10
791.940956
 20
250.856085
 40
3.000000
  1
添付品ﾋﾞｽ
 41
0.822804
 50
0.000000
 51
0.000000
 72
   5
 73
   0
 11
805.146956
 21
250.856085
  0
TEXT
  8
5
  6
CONTINUOUS
 62
7
 10
811.940956
 20
265.856085
 40
3.000000
  1
ABS ﾛｯｸ部白色　ｽﾗｲﾄﾞ部黒色
 41
0.803861
 50
0.000000
 51
0.000000
 72
   5
 73
   0
 11
850.670956
 21
265.856085
  0
TEXT
  8
5
  6
CONTINUOUS
 62
7
 10
811.940956
 20
260.856085
 40
3.000000
  1
M3×8小ワｾﾑｽ(ﾍﾞｰｽ&内部ﾊﾟﾈﾙ固定用)
 41
0.832896
 50
0.000000
 51
0.000000
 72
   5
 73
   0
 11
863.363956
 21
260.856085
  0
TEXT
  8
5
  6
CONTINUOUS
 62
7
 10
811.940956
 20
255.856085
 40
3.000000
  1
M5×10ｱﾌﾞｾｯﾄ
 41
0.813247
 50
0.000000
 51
0.000000
 72
   5
 73
   0
 11
830.726956
 21
255.856085
  0
TEXT
  8
5
  6
CONTINUOUS
 62
7
 10
811.940956
 20
250.856085
 40
3.000000
  1
M5 内歯菊座金
 41
0.851365
 50
0.000000
 51
0.000000
 72
   5
 73
   0
 11
831.581956
 21
250.856085
  0
TEXT
  8
5
  6
CONTINUOUS
 62
7
 10
867.565956
 20
270.606085
 40
3.500000
  1
1
 41
1.000000
 50
0.000000
 51
0.000000
 72
   5
 73
   0
 11
869.315956
 21
270.606085
  0
TEXT
  8
5
  6
CONTINUOUS
 62
7
 10
867.565956
 20
265.606085
 40
3.500000
  1
1
 41
1.000000
 50
0.000000
 51
0.000000
 72
   5
 73
   0
 11
869.315956
 21
265.606085
  0
TEXT
  8
5
  6
CONTINUOUS
 62
7
 10
867.565956
 20
260.606085
 40
3.500000
  1
4
 41
1.000000
 50
0.000000
 51
0.000000
 72
   5
 73
   0
 11
869.315956
 21
260.606085
  0
TEXT
  8
5
  6
CONTINUOUS
 62
7
 10
867.565956
 20
255.606085
 40
3.500000
  1
1
 41
1.000000
 50
0.000000
 51
0.000000
 72
   5
 73
   0
 11
869.315956
 21
255.606085
  0
TEXT
  8
5
  6
CONTINUOUS
 62
7
 10
867.565956
 20
250.606085
 40
3.500000
  1
1
 41
1.000000
 50
0.000000
 51
0.000000
 72
   5
 73
   0
 11
869.315956
 21
250.606085
  0
LINE
  8
5
  6
CONTINUOUS
 62
6
 10
785.9409558390
 20
269.8560849505
 11
785.9409558390
 21
274.8560849505
  0
LINE
  8
5
  6
CONTINUOUS
 62
6
 10
785.9409558390
 20
264.8560849505
 11
785.9409558390
 21
269.8560849505
  0
LINE
  8
5
  6
CONTINUOUS
 62
6
 10
785.9409558390
 20
259.8560849505
 11
785.9409558390
 21
264.8560849505
  0
LINE
  8
5
  6
CONTINUOUS
 62
6
 10
785.9409558390
 20
254.8560849505
 11
785.9409558390
 21
259.8560849505
  0
LINE
  8
5
  6
CONTINUOUS
 62
6
 10
785.9409558390
 20
249.8560849505
 11
785.9409558390
 21
254.8560849505
  0
LINE
  8
5
  6
CONTINUOUS
 62
6
 10
785.9409558390
 20
244.8560849505
 11
785.9409558390
 21
249.8560849505
  0
LINE
  8
5
  6
CONTINUOUS
 62
6
 10
785.9409558390
 20
239.8560849505
 11
785.9409558390
 21
244.8560849505
  0
LINE
  8
5
  6
CONTINUOUS
 62
6
 10
785.9409558390
 20
234.8560849505
 11
785.9409558390
 21
239.8560849505
  0
LINE
  8
5
  6
CONTINUOUS
 62
6
 10
790.9409558390
 20
274.8560849505
 11
790.9409558390
 21
269.8560849505
  0
LINE
  8
5
  6
CONTINUOUS
 62
6
 10
790.9409558390
 20
269.8560849505
 11
790.9409558390
 21
264.8560849505
  0
LINE
  8
5
  6
CONTINUOUS
 62
6
 10
790.9409558390
 20
264.8560849505
 11
790.9409558390
 21
259.8560849505
  0
LINE
  8
5
  6
CONTINUOUS
 62
6
 10
790.9409558390
 20
259.8560849505
 11
790.9409558390
 21
254.8560849505
  0
LINE
  8
5
  6
CONTINUOUS
 62
6
 10
790.9409558390
 20
254.8560849505
 11
790.9409558390
 21
249.8560849505
  0
LINE
  8
5
  6
CONTINUOUS
 62
6
 10
790.9409558390
 20
249.8560849505
 11
790.9409558390
 21
244.8560849505
  0
LINE
  8
5
  6
CONTINUOUS
 62
6
 10
790.9409558390
 20
244.8560849505
 11
790.9409558390
 21
239.8560849505
  0
LINE
  8
5
  6
CONTINUOUS
 62
6
 10
790.9409558390
 20
239.8560849505
 11
790.9409558390
 21
234.8560849505
  0
LINE
  8
5
  6
CONTINUOUS
 62
6
 10
810.9409558390
 20
274.8560849505
 11
810.9409558390
 21
269.8560849505
  0
LINE
  8
5
  6
CONTINUOUS
 62
6
 10
810.9409558390
 20
269.8560849505
 11
810.9409558390
 21
264.8560849505
  0
LINE
  8
5
  6
CONTINUOUS
 62
6
 10
810.9409558390
 20
264.8560849505
 11
810.9409558390
 21
259.8560849505
  0
LINE
  8
5
  6
CONTINUOUS
 62
6
 10
810.9409558390
 20
259.8560849505
 11
810.9409558390
 21
254.8560849505
  0
LINE
  8
5
  6
CONTINUOUS
 62
6
 10
810.9409558390
 20
254.8560849505
 11
810.9409558390
 21
249.8560849505
  0
LINE
  8
5
  6
CONTINUOUS
 62
6
 10
810.9409558390
 20
249.8560849505
 11
810.9409558390
 21
244.8560849505
  0
LINE
  8
5
  6
CONTINUOUS
 62
6
 10
810.9409558390
 20
244.8560849505
 11
810.9409558390
 21
239.8560849505
  0
LINE
  8
5
  6
CONTINUOUS
 62
6
 10
810.9409558390
 20
239.8560849505
 11
810.9409558390
 21
234.8560849505
  0
LINE
  8
5
  6
CONTINUOUS
 62
6
 10
850.9409558390
 20
274.8560849505
 11
850.9409558390
 21
269.8560849505
  0
LINE
  8
5
  6
CONTINUOUS
 62
6
 10
850.9409558390
 20
269.8560849505
 11
850.9409558390
 21
264.8560849505
  0
LINE
  8
5
  6
CONTINUOUS
 62
6
 10
850.9409558390
 20
259.8560849505
 11
850.9409558390
 21
254.8560849505
  0
LINE
  8
5
  6
CONTINUOUS
 62
6
 10
850.9409558390
 20
254.8560849505
 11
850.9409558390
 21
249.8560849505
  0
LINE
  8
5
  6
CONTINUOUS
 62
6
 10
850.9409558390
 20
249.8560849505
 11
850.9409558390
 21
244.8560849505
  0
LINE
  8
5
  6
CONTINUOUS
 62
6
 10
850.9409558390
 20
244.8560849505
 11
850.9409558390
 21
239.8560849505
  0
LINE
  8
5
  6
CONTINUOUS
 62
6
 10
850.9409558390
 20
239.8560849505
 11
850.9409558390
 21
234.8560849505
  0
LINE
  8
5
  6
CONTINUOUS
 62
6
 10
865.9409558390
 20
274.8560849505
 11
865.9409558390
 21
269.8560849505
  0
LINE
  8
5
  6
CONTINUOUS
 62
6
 10
865.9409558390
 20
269.8560849505
 11
865.9409558390
 21
264.8560849505
  0
LINE
  8
5
  6
CONTINUOUS
 62
6
 10
865.9409558390
 20
264.8560849505
 11
865.9409558390
 21
259.8560849505
  0
LINE
  8
5
  6
CONTINUOUS
 62
6
 10
865.9409558390
 20
259.8560849505
 11
865.9409558390
 21
254.8560849505
  0
LINE
  8
5
  6
CONTINUOUS
 62
6
 10
865.9409558390
 20
254.8560849505
 11
865.9409558390
 21
249.8560849505
  0
LINE
  8
5
  6
CONTINUOUS
 62
6
 10
865.9409558390
 20
249.8560849505
 11
865.9409558390
 21
244.8560849505
  0
LINE
  8
5
  6
CONTINUOUS
 62
6
 10
865.9409558390
 20
244.8560849505
 11
865.9409558390
 21
239.8560849505
  0
LINE
  8
5
  6
CONTINUOUS
 62
6
 10
865.9409558390
 20
239.8560849505
 11
865.9409558390
 21
234.8560849505
  0
LINE
  8
5
  6
CONTINUOUS
 62
6
 10
870.9409558390
 20
274.8560849505
 11
870.9409558390
 21
269.8560849505
  0
LINE
  8
5
  6
CONTINUOUS
 62
6
 10
870.9409558390
 20
269.8560849505
 11
870.9409558390
 21
264.8560849505
  0
LINE
  8
5
  6
CONTINUOUS
 62
6
 10
870.9409558390
 20
264.8560849505
 11
870.9409558390
 21
259.8560849505
  0
LINE
  8
5
  6
CONTINUOUS
 62
6
 10
870.9409558390
 20
259.8560849505
 11
870.9409558390
 21
254.8560849505
  0
LINE
  8
5
  6
CONTINUOUS
 62
6
 10
870.9409558390
 20
254.8560849505
 11
870.9409558390
 21
249.8560849505
  0
LINE
  8
5
  6
CONTINUOUS
 62
6
 10
870.9409558390
 20
249.8560849505
 11
870.9409558390
 21
244.8560849505
  0
LINE
  8
5
  6
CONTINUOUS
 62
6
 10
870.9409558390
 20
244.8560849505
 11
870.9409558390
 21
239.8560849505
  0
LINE
  8
5
  6
CONTINUOUS
 62
6
 10
870.9409558390
 20
239.8560849505
 11
870.9409558390
 21
234.8560849505
  0
LINE
  8
5
  6
CONTINUOUS
 62
6
 10
870.9409558390
 20
229.8560849505
 11
865.9409558390
 21
229.8560849505
  0
LINE
  8
5
  6
CONTINUOUS
 62
6
 10
865.9409558390
 20
229.8560849505
 11
850.9409558390
 21
229.8560849505
  0
LINE
  8
5
  6
CONTINUOUS
 62
6
 10
850.9409558390
 20
229.8560849505
 11
810.9409558390
 21
229.8560849505
  0
LINE
  8
5
  6
CONTINUOUS
 62
6
 10
810.9409558390
 20
229.8560849505
 11
790.9409558390
 21
229.8560849505
  0
LINE
  8
5
  6
CONTINUOUS
 62
6
 10
790.9409558390
 20
229.8560849505
 11
785.9409558390
 21
229.8560849505
  0
TEXT
  8
5
  6
CONTINUOUS
 62
7
 10
786.690956
 20
230.606085
 40
3.500000
  1
10
 41
0.854701
 50
0.000000
 51
0.000000
 72
   5
 73
   0
 11
790.190956
 21
230.606085
  0
LINE
  8
5
  6
CONTINUOUS
 62
6
 10
785.9409558390
 20
229.8560849505
 11
785.9409558390
 21
234.8560849505
  0
LINE
  8
5
  6
CONTINUOUS
 62
6
 10
790.9409558390
 20
234.8560849505
 11
790.9409558390
 21
229.8560849505
  0
LINE
  8
5
  6
CONTINUOUS
 62
6
 10
810.9409558390
 20
234.8560849505
 11
810.9409558390
 21
229.8560849505
  0
LINE
  8
5
  6
CONTINUOUS
 62
6
 10
850.9409558390
 20
234.8560849505
 11
850.9409558390
 21
229.8560849505
  0
LINE
  8
5
  6
CONTINUOUS
 62
6
 10
865.9409558390
 20
234.8560849505
 11
865.9409558390
 21
229.8560849505
  0
LINE
  8
5
  6
CONTINUOUS
 62
6
 10
870.9409558390
 20
234.8560849505
 11
870.9409558390
 21
229.8560849505
  0
ENDBLK
  8
0
  0
BLOCK
  8
1
  2
BALN0
 70
     0
 10
631.1600150337
 20
195.8053296886
  3
BALN0
  0
SOLID
  8
1
  6
CONTINUOUS
 62
5
 10
630.7765190102
 20
197.7682180705
 11
631.8093419261
 21
197.6969889039
 12
631.1600150337
 22
195.8053296886
 13
631.1600150337
 23
195.8053296886
  0
LINE
  8
1
  6
BYBLOCK
 62
5
 10
631.1600150337
 20
195.8053296886
 11
632.0638475509
 21
208.9109011878
  0
CIRCLE
  8
1
  6
BYBLOCK
 62
5
 10
632.2702538258
 20
211.9037921730
 40
3.0000000000
  0
TEXT
  8
1
  6
CONTINUOUS
 62
7
 10
631.395254
 20
210.153792
 40
3.500000
  1
1
 41
1.000000
 50
0.000000
 51
0.000000
 72
   5
 73
   0
 11
633.145254
 21
210.153792
  0
ENDBLK
  8
0
  0
BLOCK
  8
1
  2
BALN1
 70
     0
 10
616.1717913413
 20
194.9726505946
  3
BALN1
  0
SOLID
  8
1
  6
CONTINUOUS
 62
5
 10
615.3777222126
 20
196.8082579106
 11
616.4019109615
 21
196.9593677260
 12
616.1717913413
 22
194.9726505946
 13
616.1717913413
 23
194.9726505946
  0
LINE
  8
1
  6
BYBLOCK
 62
5
 10
616.1717913413
 20
194.9726505946
 11
614.1116366792
 21
208.9359210823
  0
CIRCLE
  8
1
  6
BYBLOCK
 62
5
 10
613.6737540593
 20
211.9037921730
 40
3.0000000000
  0
TEXT
  8
1
  6
CONTINUOUS
 62
7
 10
612.798754
 20
210.153792
 40
3.500000
  1
2
 41
1.000000
 50
0.000000
 51
0.000000
 72
   5
 73
   0
 11
614.548754
 21
210.153792
  0
ENDBLK
  8
0
  0
BLOCK
  8
1
  2
BALN2
 70
     0
 10
587.8607021446
 20
132.7992782409
  3
BALN2
  0
SOLID
  8
1
  6
CONTINUOUS
 62
5
 10
589.4933290504
 20
133.9544965694
 11
589.8522076842
 21
132.9834132074
 12
587.8607021446
 22
132.7992782409
 13
587.8607021446
 23
132.7992782409
  0
LINE
  8
1
  6
BYBLOCK
 62
5
 10
587.8607021446
 20
132.7992782409
 11
597.8144647564
 21
136.4778426844
  0
CIRCLE
  8
1
  6
BYBLOCK
 62
5
 10
600.6284482529
 20
137.5177931070
 40
3.0000000000
  0
TEXT
  8
1
  6
CONTINUOUS
 62
7
 10
599.753448
 20
135.767793
 40
3.500000
  1
3
 41
1.000000
 50
0.000000
 51
0.000000
 72
   5
 73
   0
 11
601.503448
 21
135.767793
  0
ENDBLK
  8
0
  0
BLOCK
  8
3
  2
BALN3
 70
     0
 10
698.8046731667
 20
189.5236120874
  3
BALN3
  0
SOLID
  8
3
  6
CONTINUOUS
 62
5
 10
698.4433727354
 20
191.4907068991
 11
699.4753252206
 21
191.4078163817
 12
698.8046731667
 22
189.5236120874
 13
698.8046731667
 23
189.5236120874
  0
LINE
  8
3
  6
BYBLOCK
 62
5
 10
698.8046731667
 20
189.5236120874
 11
700.3621397404
 21
208.9134235020
  0
CIRCLE
  8
3
  6
BYBLOCK
 62
5
 10
700.6023380151
 20
211.9037921730
 40
3.0000000000
  0
TEXT
  8
3
  6
CONTINUOUS
 62
7
 10
699.727338
 20
210.153792
 40
3.500000
  1
4
 41
1.000000
 50
0.000000
 51
0.000000
 72
   5
 73
   0
 11
701.477338
 21
210.153792
  0
ENDBLK
  8
0
  0
BLOCK
  8
3
  2
BALN4
 70
     0
 10
705.3046731667
 20
192.5521835160
  3
BALN4
  0
SOLID
  8
3
  6
CONTINUOUS
 62
5
 10
705.2474038067
 20
194.5513634029
 11
706.2546663896
 21
194.3121587648
 12
705.3046731667
 22
192.5521835160
 13
705.3046731667
 23
192.5521835160
  0
LINE
  8
3
  6
BYBLOCK
 62
5
 10
705.3046731667
 20
192.5521835160
 11
709.2071298396
 21
208.9849693451
  0
CIRCLE
  8
3
  6
BYBLOCK
 62
5
 10
709.9002916528
 20
211.9037921730
 40
3.0000000000
  0
TEXT
  8
3
  6
CONTINUOUS
 62
7
 10
709.025292
 20
210.153792
 40
3.500000
  1
4
 41
1.000000
 50
0.000000
 51
0.000000
 72
   5
 73
   0
 11
710.775292
 21
210.153792
  0
ENDBLK
  8
0
  0
BLOCK
  8
3
  2
BALN5
 70
     0
 10
735.1118717325
 20
178.4263828043
  3
BALN5
  0
SOLID
  8
3
  6
CONTINUOUS
 62
5
 10
734.8219103406
 20
180.4052517720
 11
735.8501922848
 21
180.2851142970
 12
735.1118717325
 22
178.4263828043
 13
735.1118717325
 23
178.4263828043
  0
LINE
  8
3
  6
BYBLOCK
 62
5
 10
735.1118717325
 20
178.4263828043
 11
738.6750130869
 21
208.9240599131
  0
CIRCLE
  8
3
  6
BYBLOCK
 62
5
 10
739.0231447561
 20
211.9037921730
 40
3.0000000000
  0
TEXT
  8
3
  6
CONTINUOUS
 62
7
 10
738.148145
 20
210.153792
 40
3.500000
  1
7
 41
1.000000
 50
0.000000
 51
0.000000
 72
   5
 73
   0
 11
739.898145
 21
210.153792
  0
ENDBLK
  8
0
  0
BLOCK
  8
1
  2
BALN6
 70
     0
 10
710.0046731667
 20
170.5236120874
  3
BALN6
  0
SOLID
  8
1
  6
CONTINUOUS
 62
5
 10
709.8543100569
 20
172.5179518116
 11
710.8716247559
 21
172.3259425072
 12
710.0046731667
 22
170.5236120874
 13
710.0046731667
 23
170.5236120874
  0
LINE
  8
1
  6
BYBLOCK
 62
5
 10
710.0046731667
 20
170.5236120874
 11
711.2063201528
 21
176.8902470067
  0
CIRCLE
  8
1
  6
BYBLOCK
 62
5
 10
711.7627203907
 20
179.8381986304
 40
3.0000000000
  0
TEXT
  8
1
  6
CONTINUOUS
 62
7
 10
710.887720
 20
178.088199
 40
3.500000
  1
8
 41
1.000000
 50
0.000000
 51
0.000000
 72
   5
 73
   0
 11
712.637720
 21
178.088199
  0
ENDBLK
  8
0
  0
BLOCK
  8
1
  2
BALN7
 70
     0
 10
710.0046731667
 20
124.5236120874
  3
BALN7
  0
SOLID
  8
1
  6
CONTINUOUS
 62
5
 10
709.8543100569
 20
126.5179518115
 11
710.8716247559
 21
126.3259425072
 12
710.0046731667
 22
124.5236120874
 13
710.0046731667
 23
124.5236120874
  0
LINE
  8
1
  6
BYBLOCK
 62
5
 10
710.0046731667
 20
124.5236120874
 11
711.2063201528
 21
130.8902470067
  0
CIRCLE
  8
1
  6
BYBLOCK
 62
5
 10
711.7627203907
 20
133.8381986304
 40
3.0000000000
  0
TEXT
  8
1
  6
CONTINUOUS
 62
7
 10
710.887720
 20
132.088199
 40
3.500000
  1
8
 41
1.000000
 50
0.000000
 51
0.000000
 72
   5
 73
   0
 11
712.637720
 21
132.088199
  0
ENDBLK
  8
0
  0
BLOCK
  8
1
  2
LTEX1
 70
     0
 10
645.8284040708
 20
97.5236129815
  3
LTEX1
  0
SOLID
  8
1
  6
CONTINUOUS
 62
5
 10
646.5880313270
 20
95.6734869232
 11
645.5611975429
 21
95.5415431867
 12
645.8284040708
 22
97.5236129815
 13
645.8284040708
 23
97.5236129815
  0
TEXT
  8
1
  6
CONTINUOUS
 62
7
 10
649.334987
 20
71.234115
 40
5.000000
  1
⑤⑥
 41
0.921659
 50
0.000000
 51
0.000000
 72
   5
 73
   0
 11
659.334987
 21
71.234115
  0
LINE
  8
1
  6
BYBLOCK
 62
5
 10
645.8284040708
 20
97.5236129815
 11
649.3349874931
 21
70.2341150401
  0
LINE
  8
1
  6
BYBLOCK
 62
5
 10
649.3349874931
 20
70.2341150401
 11
659.3349874931
 21
70.2341150401
  0
ENDBLK
  8
0
  0
BLOCK
  8
1
  2
S2
 70
     0
 10
783.0918620429
 20
247.3682736575
  3
S2
  0
LINE
  8
1
  6
CONTINUOUS
 62
6
 10
785.5918620429
 20
245.3682736575
 11
780.5918620429
 21
245.3682736575
  0
TEXT
  8
1
  6
CONTINUOUS
 62
6
 10
782.040812
 20
244.989946
 40
3.300000
  1
B
 41
1.274000
 50
0.000000
 51
0.000000
 72
   5
 73
   0
 11
784.142912
 21
244.989946
  0
LINE
  8
1
  6
CONTINUOUS
 62
6
 10
783.0918620429
 20
249.3682736575
 11
780.5918620429
 21
245.3682736575
  0
LINE
  8
1
  6
CONTINUOUS
 62
6
 10
783.0918620429
 20
249.3682736575
 11
785.5918620429
 21
245.3682736575
  0
POINT
  8
1
  6
CONTINUOUS
 62
6
 10
783.0918620429
 20
247.3682736575
  0
ENDBLK
  8
0
  0
BLOCK
  8
1
  2
S3
 70
     0
 10
482.8730305766
 20
270.6315670415
  3
S3
  0
LINE
  8
1
  6
CONTINUOUS
 62
6
 10
485.3730305766
 20
268.6315670415
 11
480.3730305766
 21
268.6315670414
  0
TEXT
  8
1
  6
CONTINUOUS
 62
6
 10
481.821981
 20
268.253240
 40
3.300000
  1
B
 41
1.274000
 50
0.000000
 51
0.000000
 72
   5
 73
   0
 11
483.924081
 21
268.253240
  0
LINE
  8
1
  6
CONTINUOUS
 62
6
 10
482.8730305766
 20
272.6315670415
 11
480.3730305766
 21
268.6315670414
  0
LINE
  8
1
  6
CONTINUOUS
 62
6
 10
482.8730305766
 20
272.6315670415
 11
485.3730305766
 21
268.6315670415
  0
POINT
  8
1
  6
CONTINUOUS
 62
6
 10
482.8730305766
 20
270.6315670415
  0
ENDBLK
  8
0
  0
BLOCK
  8
1
  2
*D12
 70
     1
 10
0.0000000000
 20
0.0000000000
  3
*D12
  0
LINE
  8
1
  6
BYBLOCK
 62
5
 10
853.6316884153
 20
189.5236120874
 11
789.1629186357
 21
189.5236120874
  0
LINE
  8
1
  6
BYBLOCK
 62
5
 10
853.6316884153
 20
90.5236120874
 11
789.1629186357
 21
90.5236120874
  0
LINE
  8
1
  6
BYBLOCK
 62
5
 10
790.1629186357
 20
90.5236120874
 11
790.1629186357
 21
189.5236120874
  0
SOLID
  8
1
  6
CONTINUOUS
 62
5
 10
790.6805567259
 20
187.5917604348
 11
789.6452805455
 21
187.5917604348
 12
790.1629186357
 22
189.5236120874
 13
790.1629186357
 23
189.5236120874
  0
SOLID
  8
1
  6
CONTINUOUS
 62
5
 10
789.6452805455
 20
92.4554637400
 11
790.6805567259
 21
92.4554637400
 12
790.1629186357
 22
90.5236120874
 13
790.1629186357
 23
90.5236120874
  0
TEXT
  8
1
  6
CONTINUOUS
 62
7
 10
789.162919
 20
138.273612
 40
3.500000
  1
99
 41
0.854701
 50
90.000000
 51
0.000000
 72
   5
 73
   0
 11
789.162919
 21
141.773612
  0
POINT
  8
DEFPOINTS
  6
BYBLOCK
 62
5
 10
854.1316884153
 20
189.5236120874
  0
POINT
  8
DEFPOINTS
  6
BYBLOCK
 62
5
 10
854.1316884153
 20
90.5236120874
  0
POINT
  8
DEFPOINTS
  6
BYBLOCK
 62
5
 10
790.1629186357
 20
90.5236120874
  0
ENDBLK
  8
0
  0
BLOCK
  8
1
  2
*D13
 70
     1
 10
0.0000000000
 20
0.0000000000
  3
*D13
  0
LINE
  8
1
  6
BYBLOCK
 62
5
 10
803.6316884153
 20
185.0236120874
 11
795.7476000373
 21
185.0236120874
  0
LINE
  8
1
  6
BYBLOCK
 62
5
 10
803.6316884153
 20
95.0236120874
 11
795.7476000373
 21
95.0236120874
  0
LINE
  8
1
  6
BYBLOCK
 62
5
 10
796.7476000373
 20
95.0236120874
 11
796.7476000373
 21
185.0236120874
  0
SOLID
  8
1
  6
CONTINUOUS
 62
5
 10
797.2652381275
 20
183.0917604348
 11
796.2299619471
 21
183.0917604348
 12
796.7476000373
 22
185.0236120874
 13
796.7476000373
 23
185.0236120874
  0
SOLID
  8
1
  6
CONTINUOUS
 62
5
 10
796.2299619471
 20
96.9554637400
 11
797.2652381275
 21
96.9554637400
 12
796.7476000373
 22
95.0236120874
 13
796.7476000373
 23
95.0236120874
  0
TEXT
  8
1
  6
CONTINUOUS
 62
7
 10
795.747600
 20
138.273612
 40
3.500000
  1
90
 41
0.854701
 50
90.000000
 51
0.000000
 72
   5
 73
   0
 11
795.747600
 21
141.773612
  0
POINT
  8
DEFPOINTS
  6
BYBLOCK
 62
5
 10
804.1316884153
 20
185.0236120874
  0
POINT
  8
DEFPOINTS
  6
BYBLOCK
 62
5
 10
804.1316884153
 20
95.0236120874
  0
POINT
  8
DEFPOINTS
  6
BYBLOCK
 62
5
 10
796.7476000373
 20
95.0236120874
  0
ENDBLK
  8
0
  0
BLOCK
  8
1
  2
*D14
 70
     1
 10
0.0000000000
 20
0.0000000000
  3
*D14
  0
LINE
  8
1
  6
BYBLOCK
 62
5
 10
811.6140105483
 20
91.6255793097
 11
809.9178807700
 21
93.4621913468
  0
LINE
  8
1
  6
BYBLOCK
 62
5
 10
813.6493662824
 20
89.4216448651
 11
815.3454960607
 21
87.5850328280
  0
SOLID
  8
1
  6
CONTINUOUS
 62
5
 10
809.9230619633
 20
92.6936115577
 11
810.6836222411
 21
93.3959966610
 12
811.6140105483
 22
91.6255793097
 13
811.6140105483
 23
91.6255793097
  0
SOLID
  8
1
  6
CONTINUOUS
 62
5
 10
815.3403148674
 20
88.3536126172
 11
814.5797545895
 21
87.6512275138
 12
813.6493662824
 22
89.4216448651
 13
813.6493662824
 23
89.4216448651
  0
TEXT
  8
1
  6
CONTINUOUS
 62
7
 10
819.366627
 20
84.704795
 40
3.500000
  1
4-M3
 41
0.796813
 50
312.722788
 51
0.000000
 72
   5
 73
   0
 11
824.115791
 21
79.562281
  0
POINT
  8
DEFPOINTS
  6
BYBLOCK
 62
5
 10
811.6140105483
 20
91.6255793097
  0
POINT
  8
DEFPOINTS
  6
BYBLOCK
 62
5
 10
813.6493662824
 20
89.4216448651
  0
LINE
  8
1
  6
BYBLOCK
 62
5
 10
811.6140105483
 20
91.6255793097
 11
823.3811457223
 21
78.8838290152
  0
ENDBLK
  8
0
  0
BLOCK
  8
1
  2
*D15
 70
     1
 10
0.0000000000
 20
0.0000000000
  3
*D15
  0
LINE
  8
1
  6
BYBLOCK
 62
5
 10
812.6316884153
 20
89.5236120874
 11
812.6316884153
 21
194.1152651088
  0
LINE
  8
1
  6
BYBLOCK
 62
5
 10
852.6316884153
 20
89.5236120874
 11
852.6316884153
 21
194.1152651088
  0
LINE
  8
1
  6
BYBLOCK
 62
5
 10
852.6316884153
 20
193.1152651088
 11
812.6316884153
 21
193.1152651088
  0
SOLID
  8
1
  6
CONTINUOUS
 62
5
 10
814.5635400679
 20
193.6329031990
 11
814.5635400679
 21
192.5976270186
 12
812.6316884153
 22
193.1152651088
 13
812.6316884153
 23
193.1152651088
  0
SOLID
  8
1
  6
CONTINUOUS
 62
5
 10
850.6998367628
 20
192.5976270186
 11
850.6998367628
 21
193.6329031990
 12
852.6316884153
 22
193.1152651088
 13
852.6316884153
 23
193.1152651088
  0
TEXT
  8
1
  6
CONTINUOUS
 62
7
 10
830.881688
 20
194.115265
 40
3.500000
  1
40
 41
0.854701
 50
0.000000
 51
0.000000
 72
   5
 73
   0
 11
834.381688
 21
194.115265
  0
POINT
  8
DEFPOINTS
  6
BYBLOCK
 62
5
 10
812.6316884153
 20
89.0236120874
  0
POINT
  8
DEFPOINTS
  6
BYBLOCK
 62
5
 10
852.6316884153
 20
89.0236120874
  0
POINT
  8
DEFPOINTS
  6
BYBLOCK
 62
5
 10
852.6316884153
 20
193.1152651088
  0
ENDBLK
  8
0
  0
BLOCK
  8
1
  2
*D16
 70
     1
 10
0.0000000000
 20
0.0000000000
  3
*D16
  0
LINE
  8
1
  6
BYBLOCK
 62
5
 10
783.1316884153
 20
201.2785773972
 11
783.1316884153
 21
208.6540891221
  0
LINE
  8
1
  6
BYBLOCK
 62
5
 10
804.1316884153
 20
185.5236120874
 11
804.1316884153
 21
208.6540891221
  0
LINE
  8
1
  6
BYBLOCK
 62
5
 10
804.1316884153
 20
207.6540891221
 11
783.1316884153
 21
207.6540891221
  0
SOLID
  8
1
  6
CONTINUOUS
 62
5
 10
785.0635400679
 20
208.1717272123
 11
785.0635400679
 21
207.1364510319
 12
783.1316884153
 22
207.6540891221
 13
783.1316884153
 23
207.6540891221
  0
SOLID
  8
1
  6
CONTINUOUS
 62
5
 10
802.1998367628
 20
207.1364510319
 11
802.1998367628
 21
208.1717272123
 12
804.1316884153
 22
207.6540891221
 13
804.1316884153
 23
207.6540891221
  0
TEXT
  8
1
  6
CONTINUOUS
 62
7
 10
791.881688
 20
208.654089
 40
3.500000
  1
21
 41
0.854701
 50
0.000000
 51
0.000000
 72
   5
 73
   0
 11
795.381688
 21
208.654089
  0
POINT
  8
DEFPOINTS
  6
BYBLOCK
 62
5
 10
783.1316884153
 20
200.7785773972
  0
POINT
  8
DEFPOINTS
  6
BYBLOCK
 62
5
 10
804.1316884153
 20
185.0236120874
  0
POINT
  8
DEFPOINTS
  6
BYBLOCK
 62
5
 10
804.1316884153
 20
207.6540891221
  0
ENDBLK
  8
0
  0
BLOCK
  8
1
  2
*D17
 70
     1
 10
0.0000000000
 20
0.0000000000
  3
*D17
  0
LINE
  8
1
  6
BYBLOCK
 62
5
 10
861.1316884153
 20
185.5236120874
 11
861.1316884153
 21
208.6540891221
  0
LINE
  8
1
  6
BYBLOCK
 62
5
 10
861.1316884153
 20
207.6540891221
 11
804.1316884153
 21
207.6540891221
  0
SOLID
  8
1
  6
CONTINUOUS
 62
5
 10
806.0635400679
 20
208.1717272123
 11
806.0635400679
 21
207.1364510319
 12
804.1316884153
 22
207.6540891221
 13
804.1316884153
 23
207.6540891221
  0
SOLID
  8
1
  6
CONTINUOUS
 62
5
 10
859.1998367628
 20
207.1364510319
 11
859.1998367628
 21
208.1717272123
 12
861.1316884153
 22
207.6540891221
 13
861.1316884153
 23
207.6540891221
  0
TEXT
  8
1
  6
CONTINUOUS
 62
7
 10
830.881688
 20
208.654089
 40
3.500000
  1
57
 41
0.854701
 50
0.000000
 51
0.000000
 72
   5
 73
   0
 11
834.381688
 21
208.654089
  0
POINT
  8
DEFPOINTS
  6
BYBLOCK
 62
5
 10
804.1316884153
 20
185.0236120874
  0
POINT
  8
DEFPOINTS
  6
BYBLOCK
 62
5
 10
861.1316884153
 20
185.0236120874
  0
POINT
  8
DEFPOINTS
  6
BYBLOCK
 62
5
 10
861.1316884153
 20
207.6540891221
  0
ENDBLK
  8
0
  0
BLOCK
  8
1
  2
*D18
 70
     1
 10
0.0000000000
 20
0.0000000000
  3
*D18
  0
LINE
  8
1
  6
BYBLOCK
 62
5
 10
870.1316884153
 20
201.2785773972
 11
870.1316884153
 21
208.6540891221
  0
LINE
  8
1
  6
BYBLOCK
 62
5
 10
870.1316884153
 20
207.6540891221
 11
861.1316884153
 21
207.6540891221
  0
SOLID
  8
1
  6
CONTINUOUS
 62
5
 10
863.0635400679
 20
208.1717272123
 11
863.0635400679
 21
207.1364510319
 12
861.1316884153
 22
207.6540891221
 13
861.1316884153
 23
207.6540891221
  0
SOLID
  8
1
  6
CONTINUOUS
 62
5
 10
868.1998367628
 20
207.1364510319
 11
868.1998367628
 21
208.1717272123
 12
870.1316884153
 22
207.6540891221
 13
870.1316884153
 23
207.6540891221
  0
TEXT
  8
1
  6
CONTINUOUS
 62
7
 10
864.756688
 20
208.654089
 40
3.500000
  1
9
 41
1.000000
 50
0.000000
 51
0.000000
 72
   5
 73
   0
 11
866.506688
 21
208.654089
  0
POINT
  8
DEFPOINTS
  6
BYBLOCK
 62
5
 10
861.1316884153
 20
185.0236120874
  0
POINT
  8
DEFPOINTS
  6
BYBLOCK
 62
5
 10
870.1316884153
 20
200.7785773972
  0
POINT
  8
DEFPOINTS
  6
BYBLOCK
 62
5
 10
870.1316884153
 20
207.6540891221
  0
ENDBLK
  8
0
  0
BLOCK
  8
1
  2
LTEX2
 70
     0
 10
830.4888935555
 20
78.2736098821
  3
LTEX2
  0
SOLID
  8
1
  6
CONTINUOUS
 62
5
 10
830.6827030632
 20
80.2641972011
 11
831.6520311722
 21
79.9006043149
 12
830.4888935555
 22
78.2736098821
 13
830.4888935555
 23
78.2736098821
  0
TEXT
  8
1
  6
CONTINUOUS
 62
7
 10
832.424178
 20
84.433022
 40
3.000000
  1
製品外形
 41
0.886918
 50
0.000000
 51
0.000000
 72
   5
 73
   0
 11
844.424178
 21
84.433022
  0
LINE
  8
1
  6
BYBLOCK
 62
5
 10
830.4888935555
 20
78.2736098821
 11
832.4241779499
 21
83.4330220540
  0
LINE
  8
1
  6
BYBLOCK
 62
5
 10
832.4241779499
 20
83.4330220540
 11
844.4241779499
 21
83.4330220540
  0
ENDBLK
  8
0
  0
BLOCK
  8
1
  2
S4
 70
     0
 10
778.0518508651
 20
247.3682736575
  3
S4
  0
LINE
  8
1
  6
CONTINUOUS
 62
6
 10
780.5518508651
 20
245.3682736575
 11
775.5518508651
 21
245.3682736575
  0
TEXT
  8
1
  6
CONTINUOUS
 62
6
 10
776.956251
 20
244.989946
 40
3.300000
  1
C
 41
1.328000
 50
0.000000
 51
0.000000
 72
   5
 73
   0
 11
779.147451
 21
244.989946
  0
LINE
  8
1
  6
CONTINUOUS
 62
6
 10
778.0518508651
 20
249.3682736575
 11
775.5518508651
 21
245.3682736575
  0
LINE
  8
1
  6
CONTINUOUS
 62
6
 10
778.0518508651
 20
249.3682736575
 11
780.5518508651
 21
245.3682736575
  0
POINT
  8
1
  6
CONTINUOUS
 62
6
 10
778.0518508651
 20
247.3682736575
  0
ENDBLK
  8
0
  0
BLOCK
  8
1
  2
S5
 70
     0
 10
778.0518508651
 20
242.3682736575
  3
S5
  0
LINE
  8
1
  6
CONTINUOUS
 62
6
 10
780.5518508651
 20
240.3682736575
 11
775.5518508651
 21
240.3682736575
  0
TEXT
  8
1
  6
CONTINUOUS
 62
6
 10
776.956251
 20
239.989946
 40
3.300000
  1
C
 41
1.328000
 50
0.000000
 51
0.000000
 72
   5
 73
   0
 11
779.147451
 21
239.989946
  0
LINE
  8
1
  6
CONTINUOUS
 62
6
 10
778.0518508651
 20
244.3682736575
 11
775.5518508651
 21
240.3682736575
  0
LINE
  8
1
  6
CONTINUOUS
 62
6
 10
778.0518508651
 20
244.3682736575
 11
780.5518508651
 21
240.3682736575
  0
POINT
  8
1
  6
CONTINUOUS
 62
6
 10
778.0518508651
 20
242.3682736575
  0
ENDBLK
  8
0
  0
BLOCK
  8
1
  2
S6
 70
     0
 10
698.8046730773
 20
116.5236113126
  3
S6
  0
CIRCLE
  8
1
  6
HIDDEN
 62
5
 10
698.8046730773
 20
116.5236113126
 40
4.5000000000
  0
LINE
  8
1
  6
HIDDEN
 62
5
 10
698.8046730773
 20
119.8986113127
 11
698.8046730773
 21
113.1486113127
  0
LINE
  8
1
  6
HIDDEN
 62
5
 10
700.4921730773
 20
118.7736113127
 11
700.4921730773
 21
114.2736113127
  0
LINE
  8
1
  6
HIDDEN
 62
5
 10
702.1796730773
 20
117.6486113127
 11
702.1796730773
 21
115.3986113127
  0
LINE
  8
1
  6
HIDDEN
 62
5
 10
698.8046730773
 20
116.5236113126
 11
695.4296730773
 21
116.5236113127
  0
ENDBLK
  8
0
  0
BLOCK
  8
3
  2
LTEX3
 70
     0
 10
695.0546731667
 20
101.0236113126
  3
LTEX3
  0
SOLID
  8
3
  6
CONTINUOUS
 62
5
 10
693.1158116032
 20
101.5143412154
 11
693.6209347497
 21
102.4180266566
 12
695.0546731667
 22
101.0236113126
 13
695.0546731667
 23
101.0236113126
  0
TEXT
  8
3
  6
CONTINUOUS
 62
7
 10
646.645379
 20
119.300640
 40
3.500000
  1
  M4ｱｰｽﾎﾞｽ
 41
0.765697
 50
0.000000
 51
0.000000
 72
   5
 73
   0
 11
664.145379
 21
119.300640
  0
LINE
  8
3
  6
BYBLOCK
 62
5
 10
695.0546731667
 20
101.0236113126
 11
664.1453794939
 21
118.3006404261
  0
LINE
  8
3
  6
BYBLOCK
 62
5
 10
664.1453794939
 20
118.3006404261
 11
646.6453794939
 21
118.3006404261
  0
ENDBLK
  8
0
  0
BLOCK
  8
1
  2
S7
 70
     0
 10
651.6110543453
 20
126.2171002987
  3
S7
  0
LINE
  8
1
  6
CONTINUOUS
 62
6
 10
654.1110543453
 20
124.2171002987
 11
649.1110543453
 21
124.2171002987
  0
TEXT
  8
1
  6
CONTINUOUS
 62
6
 10
650.541854
 20
123.838773
 40
3.300000
  1
D
 41
1.296000
 50
0.000000
 51
0.000000
 72
   5
 73
   0
 11
652.680254
 21
123.838773
  0
LINE
  8
1
  6
CONTINUOUS
 62
6
 10
651.6110543453
 20
128.2171002987
 11
649.1110543453
 21
124.2171002987
  0
LINE
  8
1
  6
CONTINUOUS
 62
6
 10
651.6110543453
 20
128.2171002987
 11
654.1110543453
 21
124.2171002987
  0
POINT
  8
1
  6
CONTINUOUS
 62
6
 10
651.6110543453
 20
126.2171002987
  0
ENDBLK
  8
0
  0
BLOCK
  8
1
  2
S8
 70
     0
 10
482.8730305766
 20
285.6315670415
  3
S8
  0
TEXT
  8
1
  6
CONTINUOUS
 62
6
 10
481.803831
 20
283.253240
 40
3.300000
  1
D
 41
1.296000
 50
0.000000
 51
0.000000
 72
   5
 73
   0
 11
483.942231
 21
283.253240
  0
LINE
  8
1
  6
CONTINUOUS
 62
6
 10
482.8730305766
 20
287.6315670415
 11
480.3730305766
 21
283.6315670414
  0
POINT
  8
1
  6
CONTINUOUS
 62
6
 10
482.8730305766
 20
285.6315670415
  0
ENDBLK
  8
0
  0
BLOCK
  8
3
  2
LTEX4
 70
     0
 10
643.3284040708
 20
180.0236111933
  3
LTEX4
  0
SOLID
  8
3
  6
CONTINUOUS
 62
5
 10
642.6193974548
 20
181.8937207138
 11
643.6494410901
 21
181.9976768539
 12
643.3284040708
 22
180.0236111933
 13
643.3284040708
 23
180.0236111933
  0
TEXT
  8
3
  6
CONTINUOUS
 62
7
 10
637.981657
 20
234.001552
 40
3.500000
  1
PBT品はｱｰｽ部(2箇所)
 41
0.811272
 50
0.000000
 51
0.000000
 72
   5
 73
   0
 11
671.231657
 21
234.001552
  0
TEXT
  8
3
  6
CONTINUOUS
 62
7
 10
637.981657
 20
229.001552
 40
3.500000
  1
%%u は無いです%%u
 41
0.866142
 50
0.000000
 51
0.000000
 72
   5
 73
   0
 11
657.231657
 21
229.001552
  0
LINE
  8
3
  6
BYBLOCK
 62
5
 10
643.3284040708
 20
180.0236111933
 11
637.9816574868
 21
233.0015524896
  0
LINE
  8
3
  6
BYBLOCK
 62
5
 10
637.9816574868
 20
233.0015524896
 11
671.2316574868
 21
233.0015524896
  0
ENDBLK
  8
0
  0
BLOCK
  8
1
  2
S9
 70
     0
 10
636.9229126384
 20
239.8211871414
  3
S9
  0
LINE
  8
1
  6
CONTINUOUS
 62
6
 10
639.4229126384
 20
237.8211871414
 11
634.4229126384
 21
237.8211871414
  0
TEXT
  8
1
  6
CONTINUOUS
 62
6
 10
635.853713
 20
237.442860
 40
3.300000
  1
D
 41
1.296000
 50
0.000000
 51
0.000000
 72
   5
 73
   0
 11
637.992113
 21
237.442860
  0
LINE
  8
1
  6
CONTINUOUS
 62
6
 10
636.9229126384
 20
241.8211871414
 11
634.4229126384
 21
237.8211871414
  0
LINE
  8
1
  6
CONTINUOUS
 62
6
 10
636.9229126384
 20
241.8211871414
 11
639.4229126384
 21
237.8211871414
  0
POINT
  8
1
  6
CONTINUOUS
 62
6
 10
636.9229126384
 20
239.8211871414
  0
ENDBLK
  8
0
  0
BLOCK
  8
3
  2
LTEX5
 70
     0
 10
531.3284061942
 20
255.7736142928
  3
LTEX5
  0
SOLID
  8
3
  6
CONTINUOUS
 62
5
 10
533.3257603839
 20
255.8764551451
 11
533.1095860890
 21
254.8639999886
 12
531.3284061942
 22
255.7736142928
 13
531.3284061942
 23
255.7736142928
  0
TEXT
  8
3
  6
CONTINUOUS
 62
7
 10
637.981657
 20
234.001552
 40
3.500000
  1
 
 41
1.000000
 50
0.000000
 51
0.000000
 72
   5
 73
   0
 11
639.731657
 21
234.001552
  0
LINE
  8
3
  6
BYBLOCK
 62
5
 10
531.3284061942
 20
255.7736142928
 11
637.9816574868
 21
233.0015524896
  0
LINE
  8
3
  6
BYBLOCK
 62
5
 10
637.9816574868
 20
233.0015524896
 11
639.7316574868
 21
233.0015524896
  0
ENDBLK
  8
0
  0
BLOCK
  8
3
  2
LTEX6
 70
     0
 10
578.3284061942
 20
255.7736142928
  3
LTEX6
  0
SOLID
  8
3
  6
CONTINUOUS
 62
5
 10
580.3178337739
 20
255.5682416920
 11
579.9486147168
 21
254.6010426134
 12
578.3284061942
 22
255.7736142928
 13
578.3284061942
 23
255.7736142928
  0
TEXT
  8
3
  6
CONTINUOUS
 62
7
 10
637.981657
 20
234.001552
 40
3.500000
  1
 
 41
1.000000
 50
0.000000
 51
0.000000
 72
   5
 73
   0
 11
639.731657
 21
234.001552
  0
LINE
  8
3
  6
BYBLOCK
 62
5
 10
578.3284061942
 20
255.7736142928
 11
637.9816574868
 21
233.0015524896
  0
LINE
  8
3
  6
BYBLOCK
 62
5
 10
637.9816574868
 20
233.0015524896
 11
639.7316574868
 21
233.0015524896
  0
ENDBLK
  8
0
  0
BLOCK
  8
3
  2
LTEX7
 70
     0
 10
638.6408163129
 20
103.3849799526
  3
LTEX7
  0
SOLID
  8
3
  6
CONTINUOUS
 62
5
 10
638.1133607047
 20
105.3141742356
 11
639.1486234983
 21
105.3194390146
 12
638.6408163129
 22
103.3849799526
 13
638.6408163129
 23
103.3849799526
  0
TEXT
  8
3
  6
CONTINUOUS
 62
7
 10
637.981657
 20
234.001552
 40
3.500000
  1
 
 41
1.000000
 50
0.000000
 51
0.000000
 72
   5
 73
   0
 11
639.731657
 21
234.001552
  0
LINE
  8
3
  6
BYBLOCK
 62
5
 10
638.6408163129
 20
103.3849799526
 11
637.9816574868
 21
233.0015524896
  0
LINE
  8
3
  6
BYBLOCK
 62
5
 10
637.9816574868
 20
233.0015524896
 11
639.7316574868
 21
233.0015524896
  0
ENDBLK
  8
0
  0
BLOCK
  8
1
  2
S10
 70
     0
 10
697.7036523109
 20
256.6027388889
  3
S10
  0
LINE
  8
1
  6
CONTINUOUS
 62
6
 10
700.2036523109
 20
254.6027388889
 11
695.2036523109
 21
254.6027388889
  0
TEXT
  8
1
  6
CONTINUOUS
 62
6
 10
696.634452
 20
254.224412
 40
3.300000
  1
D
 41
1.296000
 50
0.000000
 51
0.000000
 72
   5
 73
   0
 11
698.772852
 21
254.224412
  0
LINE
  8
1
  6
CONTINUOUS
 62
6
 10
697.7036523109
 20
258.6027388889
 11
695.2036523109
 21
254.6027388889
  0
LINE
  8
1
  6
CONTINUOUS
 62
6
 10
697.7036523109
 20
258.6027388889
 11
700.2036523109
 21
254.6027388889
  0
POINT
  8
1
  6
CONTINUOUS
 62
6
 10
697.7036523109
 20
256.6027388889
  0
ENDBLK
  8
0
  0
BLOCK
  8
1
  2
S11
 70
     0
 10
782.4938061827
 20
274.6769006342
  3
S11
  0
LINE
  8
1
  6
CONTINUOUS
 62
6
 10
784.9938061827
 20
272.6769006342
 11
779.9938061827
 21
272.6769006342
  0
TEXT
  8
1
  6
CONTINUOUS
 62
6
 10
781.424606
 20
272.298573
 40
3.300000
  1
D
 41
1.296000
 50
0.000000
 51
0.000000
 72
   5
 73
   0
 11
783.563006
 21
272.298573
  0
LINE
  8
1
  6
CONTINUOUS
 62
6
 10
782.4938061827
 20
276.6769006342
 11
779.9938061827
 21
272.6769006342
  0
LINE
  8
1
  6
CONTINUOUS
 62
6
 10
782.4938061827
 20
276.6769006342
 11
784.9938061827
 21
272.6769006342
  0
POINT
  8
1
  6
CONTINUOUS
 62
6
 10
782.4938061827
 20
274.6769006342
  0
ENDBLK
  8
0
  0
BLOCK
  8
1
  2
S12
 70
     0
 10
773.0118396874
 20
247.3682736575
  3
S12
  0
LINE
  8
1
  6
CONTINUOUS
 62
6
 10
775.5118396874
 20
245.3682736575
 11
770.5118396874
 21
245.3682736575
  0
TEXT
  8
1
  6
CONTINUOUS
 62
6
 10
771.942640
 20
244.989946
 40
3.300000
  1
D
 41
1.296000
 50
0.000000
 51
0.000000
 72
   5
 73
   0
 11
774.081040
 21
244.989946
  0
LINE
  8
1
  6
CONTINUOUS
 62
6
 10
773.0118396874
 20
249.3682736575
 11
770.5118396874
 21
245.3682736575
  0
LINE
  8
1
  6
CONTINUOUS
 62
6
 10
773.0118396874
 20
249.3682736575
 11
775.5118396874
 21
245.3682736575
  0
POINT
  8
1
  6
CONTINUOUS
 62
6
 10
773.0118396874
 20
247.3682736575
  0
ENDBLK
  8
0
  0
ENDSEC
  0
SECTION
  2
ENTITIES
  0
INSERT
  8
5
  6
CONTINUOUS
 62
7
  2
S0
 10
473.8730305766
 20
8.6315670415
  0
TEXT
  8
5
  6
CONTINUOUS
 62
7
 10
827.373031
 20
13.631567
 40
6.000000
  1
M0051A371D
 41
0.845789
 50
0.000000
 51
0.000000
 72
   5
 73
   0
 11
860.511031
 21
13.631567
  0
TEXT
  8
5
  6
CONTINUOUS
 62
7
 10
822.526099
 20
29.274124
 40
5.000000
  1
Panel Interface
 41
0.641296
 50
0.000000
 51
0.000000
 72
   5
 73
   0
 11
854.206099
 21
29.274124
  0
TEXT
  8
5
  6
CONTINUOUS
 62
7
 10
822.526099
 20
24.274124
 40
5.000000
  1
Type:MCON-030-371
 41
0.803922
 50
0.000000
 51
0.000000
 72
   5
 73
   0
 11
867.626099
 21
24.274124
  0
TEXT
  8
5
  6
CONTINUOUS
 62
7
 10
766.998031
 20
19.381567
 40
3.000000
  1
Yamada
 41
0.844156
 50
0.000000
 51
0.000000
 72
   5
 73
   0
 11
776.748031
 21
19.381567
  0
TEXT
  8
5
  6
CONTINUOUS
 62
7
 10
777.998031
 20
19.381567
 40
3.000000
  1
Yamada
 41
0.844156
 50
0.000000
 51
0.000000
 72
   5
 73
   0
 11
787.748031
 21
19.381567
  0
TEXT
  8
1
  6
CONTINUOUS
 62
7
 10
805.314013
 20
69.151989
 40
5.000000
  1
パネルカット図
 41
0.872818
 50
0.000000
 51
0.000000
 72
   5
 73
   0
 11
840.314013
 21
69.151989
  0
TEXT
  8
1
  6
CONTINUOUS
 62
7
 10
805.314013
 20
64.151989
 40
5.000000
  1
推奨板厚 t=1.6以上
 41
0.827967
 50
0.000000
 51
0.000000
 72
   5
 73
   0
 11
850.314013
 21
64.151989
  0
LINE
  8
1
  6
CONTINUOUS
 62
7
 10
504.8284061421
 20
195.7736133093
 11
516.8284062464
 21
195.7736133093
  0
LINE
  8
1
  6
CONTINUOUS
 62
7
 10
504.8284061421
 20
199.4686244482
 11
504.8284061421
 21
195.7736133093
  0
LINE
  8
1
  6
CONTINUOUS
 62
7
 10
516.8284062464
 20
199.4686244482
 11
516.8284062464
 21
195.7736133093
  0
POLYLINE
  8
1
  6
CONTINUOUS
 62
7
 66
     1
 70
     0
  0
VERTEX
  8
1
 62
7
 10
515.2932054633
 20
79.8086320162
 42
0.0225421746
  0
VERTEX
  8
1
 62
7
 10
514.3639401004
 20
79.9371175752
 42
0.0121462168
  0
VERTEX
  8
1
 62
7
 10
513.0644741718
 20
80.0307780166
 42
0.0122764779
  0
VERTEX
  8
1
 62
7
 10
510.8284061942
 20
80.0835645543
 42
0.0122764779
  0
VERTEX
  8
1
 62
7
 10
508.5923382166
 20
80.0307780166
 42
0.0121462168
  0
VERTEX
  8
1
 62
7
 10
507.2928722880
 20
79.9371175752
 42
0.0228681651
  0
VERTEX
  8
1
 62
7
 10
506.3657034322
 20
79.8090474317
 42
0.0101065848
  0
SEQEND
  8
1
  0
LINE
  8
1
  6
CONTINUOUS
 62
7
 10
516.8284062464
 20
84.2736108655
 11
516.8284062464
 21
80.5785997266
  0
LINE
  8
1
  6
CONTINUOUS
 62
7
 10
504.8284061421
 20
84.2736108655
 11
504.8284061421
 21
80.5785997266
  0
LINE
  8
1
  6
CONTINUOUS
 62
7
 10
504.8284061421
 20
84.2736108655
 11
516.8284062464
 21
84.2736108655
  0
LINE
  8
1
  6
CONTINUOUS
 62
7
 10
515.8284060824
 20
200.8636637086
 11
588.9234176073
 21
200.8636637086
  0
LINE
  8
1
  6
CONTINUOUS
 62
7
 10
504.8234435897
 20
201.7736142928
 11
589.8333719168
 21
201.7736142928
  0
LINE
  8
1
  6
CONTINUOUS
 62
7
 10
515.8284060824
 20
79.1835604662
 11
515.8284060824
 21
79.5835635120
  0
LINE
  8
1
  6
CONTINUOUS
 62
7
 10
588.9234176073
 20
79.1835604662
 11
515.8284060824
 21
79.1835604662
  0
LINE
  8
1
  6
CONTINUOUS
 62
7
 10
504.8234435897
 20
78.2736098820
 11
589.8333719168
 21
78.2736098820
  0
LINE
  8
1
  6
CONTINUOUS
 62
7
 10
505.8284063060
 20
79.5835635120
 11
505.8284063060
 21
79.2785739953
  0
POLYLINE
  8
1
  6
CONTINUOUS
 62
7
 66
     1
 70
     1
  0
VERTEX
  8
1
 10
512.8284061942
 20
79.5736128699
 42
0.1629625566
  0
VERTEX
  8
1
 10
512.6172605763
 20
79.6630558149
 42
0.0228681651
  0
VERTEX
  8
1
 10
512.2426197567
 20
79.7150345832
 42
0.0121462168
  0
VERTEX
  8
1
 10
511.7228333852
 20
79.7524987598
 42
0.0122764779
  0
VERTEX
  8
1
 10
510.8284061942
 20
79.7736133749
 42
0.0122764779
  0
VERTEX
  8
1
 10
509.9339790032
 20
79.7524987598
 42
0.0121462168
  0
VERTEX
  8
1
 10
509.4141926318
 20
79.7150345832
 42
0.0228681651
  0
VERTEX
  8
1
 10
509.0395518121
 20
79.6630558149
 42
0.1629625566
  0
VERTEX
  8
1
 10
508.8284061942
 20
79.5736128699
 42
0.1629625566
  0
VERTEX
  8
1
 10
509.0395518121
 20
79.4841699250
 42
0.0228681651
  0
VERTEX
  8
1
 10
509.4141926318
 20
79.4321911566
 42
0.0121462168
  0
VERTEX
  8
1
 10
509.9339790032
 20
79.3947269800
 42
0.0122764779
  0
VERTEX
  8
1
 10
510.8284061942
 20
79.3736123649
 42
0.0122764779
  0
VERTEX
  8
1
 10
511.7228333852
 20
79.3947269800
 42
0.0121462168
  0
VERTEX
  8
1
 10
512.2426197567
 20
79.4321911566
 42
0.0228681651
  0
VERTEX
  8
1
 10
512.6172605763
 20
79.4841699250
 42
0.1629625566
  0
SEQEND
  8
1
  0
POLYLINE
  8
1
  6
CONTINUOUS
 62
7
 66
     1
 70
     0
  0
VERTEX
  8
1
 62
7
 10
504.8284061941
 20
80.2785996997
 42
0.0441499573
  0
VERTEX
  8
1
 62
7
 10
504.8284552104
 20
80.2686983190
 42
0.0392133150
  0
SEQEND
  8
1
  0
LINE
  8
1
  6
CONTINUOUS
 62
7
 10
504.8284061421
 20
80.2785983736
 11
504.8284061421
 21
80.5785997266
  0
POLYLINE
  8
1
  6
CONTINUOUS
 62
7
 66
     1
 70
     0
  0
VERTEX
  8
1
 62
7
 10
504.8284552104
 20
80.2686983190
 42
0.0158105905
  0
VERTEX
  8
1
 62
7
 10
504.8311005584
 20
80.2055427025
 42
0.0807888691
  0
VERTEX
  8
1
 62
7
 10
504.9054769880
 20
79.8951106662
 42
0.0804310507
  0
VERTEX
  8
1
 62
7
 10
505.0745767836
 20
79.6235255230
 42
0.1157045986
  0
VERTEX
  8
1
 62
7
 10
505.4480113892
 20
79.3552561881
 42
0.1157045986
  0
VERTEX
  8
1
 62
7
 10
505.8284061941
 20
79.2785749596
 42
0.0182734515
  0
SEQEND
  8
1
  0
LINE
  8
1
  6
CONTINUOUS
 62
7
 10
516.8284062464
 20
80.5785997266
 11
516.8284062464
 21
80.2785983736
  0
POLYLINE
  8
1
  6
CONTINUOUS
 62
7
 66
     1
 70
     0
  0
VERTEX
  8
1
 62
7
 10
516.8234433596
 20
80.1785994472
 42
0.0250460769
  0
VERTEX
  8
1
 62
7
 10
516.8284061943
 20
80.2785996997
 42
0.1159165546
  0
VERTEX
  8
1
 62
7
 10
516.8284061943
 20
80.2785996997
 42
0.1159165546
  0
SEQEND
  8
1
  0
POLYLINE
  8
1
  6
CONTINUOUS
 62
7
 66
     1
 70
     0
  0
VERTEX
  8
1
 62
7
 10
515.8284061943
 20
79.1835622818
 42
0.0714605935
  0
VERTEX
  8
1
 62
7
 10
516.0969838246
 20
79.2468464349
 42
0.1063852091
  0
VERTEX
  8
1
 62
7
 10
516.4994114223
 20
79.5075942191
 42
0.1063852091
  0
VERTEX
  8
1
 62
7
 10
516.7601592065
 20
79.9100218168
 42
0.0777603711
  0
VERTEX
  8
1
 62
7
 10
516.8234433596
 20
80.1785994472
 42
0.0123362576
  0
SEQEND
  8
1
  0
POLYLINE
  8
1
  6
CONTINUOUS
 62
7
 66
     1
 70
     0
  0
VERTEX
  8
1
 62
7
 10
503.8284061942
 20
79.2686467776
 42
0.0791249785
  0
VERTEX
  8
1
 62
7
 10
503.8784176047
 20
78.9560749423
 42
0.1174683520
  0
VERTEX
  8
1
 62
7
 10
504.1192517974
 20
78.5644534125
 42
0.1174683520
  0
VERTEX
  8
1
 62
7
 10
504.5108739353
 20
78.3236202087
 42
0.0808607469
  0
VERTEX
  8
1
 62
7
 10
504.8234433595
 20
78.2736095874
 42
0.0012380847
  0
SEQEND
  8
1
  0
POLYLINE
  8
1
  6
CONTINUOUS
 62
7
 66
     1
 70
     0
  0
VERTEX
  8
1
 62
7
 10
504.8234433595
 20
201.7736145874
 42
0.0796147256
  0
VERTEX
  8
1
 62
7
 10
504.5108739353
 20
201.7236039661
 42
0.1174683520
  0
VERTEX
  8
1
 62
7
 10
504.1192517974
 20
201.4827707623
 42
0.1174683520
  0
VERTEX
  8
1
 62
7
 10
503.8784176047
 20
201.0911492326
 42
0.0808607469
  0
VERTEX
  8
1
 62
7
 10
503.8284061942
 20
200.7785773972
 42
0.0012373217
  0
SEQEND
  8
1
  0
LINE
  8
1
  6
CONTINUOUS
 62
7
 10
504.3784059752
 20
84.2736108655
 11
504.3784059752
 21
195.7736133093
  0
LINE
  8
1
  6
CONTINUOUS
 62
7
 10
503.8284059781
 20
200.7785780782
 11
503.8284059781
 21
79.2686460966
  0
LINE
  8
1
  6
CONTINUOUS
 62
7
 10
504.3784059752
 20
84.2736108655
 11
504.8284061421
 21
84.2736108655
  0
LINE
  8
1
  6
CONTINUOUS
 62
7
 10
504.3784059752
 20
195.7736133093
 11
504.8284061421
 21
195.7736133093
  0
ARC
  8
1
  6
CONTINUOUS
 62
7
 10
588.9114353475
 20
80.1905826659
 40
1.0070934838
 50
270.6817133899
 51
359.3182866101
  0
ARC
  8
1
  6
CONTINUOUS
 62
7
 10
588.9114353475
 20
199.8566415090
 40
1.0070934838
 50
0.6817133898
 51
89.3182866101
  0
LINE
  8
1
  6
CONTINUOUS
 62
7
 10
589.9184575472
 20
199.8686237687
 11
589.9184575472
 21
151.0236120874
  0
LINE
  8
1
  6
CONTINUOUS
 62
7
 10
589.9184575472
 20
129.0236120874
 11
589.9184575472
 21
80.1786004061
  0
LINE
  8
1
  6
CONTINUOUS
 62
7
 10
517.8284064103
 20
84.2736108655
 11
517.8284064103
 21
195.7736133093
  0
LINE
  8
1
  6
CONTINUOUS
 62
7
 10
516.8284062464
 20
84.2736108655
 11
517.8284064103
 21
84.2736108655
  0
LINE
  8
1
  6
CONTINUOUS
 62
7
 10
516.8284062464
 20
195.7736133093
 11
517.8284064103
 21
195.7736133093
  0
POLYLINE
  8
1
  6
CONTINUOUS
 62
7
 66
     1
 70
     0
  0
VERTEX
  8
1
 62
7
 10
590.8284061942
 20
200.7785773972
 42
0.0796153609
  0
VERTEX
  8
1
 62
7
 10
590.7783947837
 20
201.0911492326
 42
0.1174683520
  0
VERTEX
  8
1
 62
7
 10
590.5375605910
 20
201.4827707623
 42
0.1174683520
  0
VERTEX
  8
1
 62
7
 10
590.1459384532
 20
201.7236039661
 42
0.0808607469
  0
VERTEX
  8
1
 62
7
 10
589.8333690289
 20
201.7736145874
 42
0.0012379529
  0
SEQEND
  8
1
  0
POLYLINE
  8
1
  6
CONTINUOUS
 62
7
 66
     1
 70
     0
  0
VERTEX
  8
1
 62
7
 10
589.8333690289
 20
78.2736095874
 42
0.0791243434
  0
VERTEX
  8
1
 62
7
 10
590.1459384532
 20
78.3236202087
 42
0.1174683520
  0
VERTEX
  8
1
 62
7
 10
590.5375605910
 20
78.5644534125
 42
0.1174683520
  0
VERTEX
  8
1
 62
7
 10
590.7783947837
 20
78.9560749423
 42
0.0808607469
  0
VERTEX
  8
1
 62
7
 10
590.8284061942
 20
79.2686467776
 42
0.0012374534
  0
SEQEND
  8
1
  0
LINE
  8
1
  6
CONTINUOUS
 62
7
 10
590.0784066114
 20
152.5236122737
 11
590.8284044061
 21
152.5236122737
  0
LINE
  8
1
  6
CONTINUOUS
 62
7
 10
590.0784066114
 20
127.5236119012
 11
590.0784066114
 21
129.0236120874
  0
LINE
  8
1
  6
CONTINUOUS
 62
7
 10
590.0784066114
 20
151.0236120874
 11
590.0784066114
 21
152.5236122737
  0
LINE
  8
1
  6
CONTINUOUS
 62
7
 10
590.0784066114
 20
127.5236119012
 11
590.8284044061
 21
127.5236119012
  0
LINE
  8
1
  6
CONTINUOUS
 62
7
 10
590.8284044061
 20
79.2686460966
 11
590.8284044061
 21
127.5236119012
  0
LINE
  8
1
  6
CONTINUOUS
 62
7
 10
590.8284044061
 20
152.5236122737
 11
590.8284044061
 21
200.7785780782
  0
POLYLINE
  8
1
  6
CONTINUOUS
 62
7
 66
     1
 70
     0
  0
VERTEX
  8
1
 62
7
 10
515.8284061943
 20
79.5835632918
 42
0.1629625566
  0
VERTEX
  8
1
 62
7
 10
515.3005421495
 20
79.8071706542
 42
0.0228681651
  0
VERTEX
  8
1
 62
7
 10
515.2932054633
 20
79.8086320162
 42
0.0225421746
  0
SEQEND
  8
1
  0
POLYLINE
  8
1
  6
CONTINUOUS
 62
7
 66
     1
 70
     0
  0
VERTEX
  8
1
 62
7
 10
506.3657034322
 20
79.8090474317
 42
0.0101065848
  0
VERTEX
  8
1
 62
7
 10
506.3562702390
 20
79.8071706542
 42
0.1629625566
  0
VERTEX
  8
1
 62
7
 10
505.8284061941
 20
79.5835632918
 42
0.1629625566
  0
VERTEX
  8
1
 62
7
 10
505.8284061941
 20
79.5835632918
 42
0.1629625566
  0
SEQEND
  8
1
  0
ARC
  8
1
  6
CONTINUOUS
 62
7
 10
617.8284044060
 20
198.9686224552
 40
1.0000000000
 50
95.7106074615
 51
126.3907459364
  0
ARC
  8
1
  6
CONTINUOUS
 62
7
 10
617.8284044060
 20
81.0786017197
 40
1.0000000000
 50
233.6092540636
 51
264.2893925385
  0
LINE
  8
1
  6
CONTINUOUS
 62
7
 10
628.3284045737
 20
152.5236122737
 11
635.8284044061
 21
152.5236122737
  0
LINE
  8
1
  6
CONTINUOUS
 62
7
 10
628.3284045737
 20
127.5236119012
 11
628.3284045737
 21
134.0236120879
  0
LINE
  8
1
  6
CONTINUOUS
 62
7
 10
628.3284045737
 20
146.0236120879
 11
628.3284045737
 21
152.5236122737
  0
LINE
  8
1
  6
CONTINUOUS
 62
7
 10
628.3284045737
 20
127.5236119012
 11
635.8284044061
 21
127.5236119012
  0
LINE
  8
1
  6
CONTINUOUS
 62
7
 10
635.8284044061
 20
79.2686460966
 11
635.8284044061
 21
127.5236119012
  0
LINE
  8
1
  6
CONTINUOUS
 62
7
 10
635.8284044061
 20
152.5236122737
 11
635.8284044061
 21
200.7785780782
  0
LINE
  8
1
  6
CONTINUOUS
 62
7
 10
626.7289004270
 20
200.8636637086
 11
635.8284044061
 21
201.7736142928
  0
LINE
  8
1
  6
CONTINUOUS
 62
7
 10
635.8284044061
 20
201.7736142928
 11
635.8284044061
 21
200.7785780782
  0
LINE
  8
1
  6
CONTINUOUS
 62
7
 10
635.8284044061
 20
78.2736098820
 11
626.7289004270
 21
79.1835604662
  0
LINE
  8
1
  6
CONTINUOUS
 62
7
 10
635.8284044061
 20
79.2686460966
 11
635.8284044061
 21
78.2736098820
  0
LINE
  8
1
  6
CONTINUOUS
 62
7
 10
625.8284046296
 20
80.1786004061
 11
625.8284046296
 21
134.0236120879
  0
LINE
  8
1
  6
CONTINUOUS
 62
7
 10
625.8284046296
 20
146.0236120879
 11
625.8284046296
 21
199.8686237687
  0
ARC
  8
1
  6
CONTINUOUS
 62
7
 10
626.8284044061
 20
80.1785994472
 40
1.0000000000
 50
180.0000000000
 51
264.2893925385
  0
ARC
  8
1
  6
CONTINUOUS
 62
7
 10
626.8284044061
 20
199.8686247277
 40
1.0000000000
 50
95.7106074615
 51
180.0000000000
  0
LINE
  8
1
  6
CONTINUOUS
 62
7
 10
635.8284044061
 20
127.5236119012
 11
635.8284044061
 21
152.5236122737
  0
ARC
  8
1
  6
CONTINUOUS
 62
7
 10
649.8284044061
 20
96.5236120874
 40
1.0000000000
 50
270.0000000000
 51
0.0000000000
  0
LINE
  8
1
  6
CONTINUOUS
 62
7
 10
649.8284048382
 20
104.5236109251
 11
635.8284044061
 21
104.5236109251
  0
LINE
  8
1
  6
CONTINUOUS
 62
7
 10
650.8284040708
 20
103.5236126239
 11
650.8284040708
 21
96.5236133391
  0
ARC
  8
1
  6
CONTINUOUS
 62
7
 10
649.8284044061
 20
103.5236120874
 40
1.0000000000
 50
0.0000000000
 51
90.0000000000
  0
LINE
  8
1
  6
CONTINUOUS
 62
7
 10
649.8284048382
 20
95.5236113126
 11
635.8284044061
 21
95.5236113126
  0
ARC
  8
1
  6
CONTINUOUS
 62
7
 10
649.8284044061
 20
183.5236120874
 40
1.0000000000
 50
0.0000000000
 51
90.0000000000
  0
LINE
  8
1
  6
CONTINUOUS
 62
7
 10
650.8284040708
 20
183.5236108357
 11
650.8284040708
 21
176.5236115510
  0
ARC
  8
1
  6
CONTINUOUS
 62
7
 10
649.8284044061
 20
176.5236120874
 40
1.0000000000
 50
270.0000000000
 51
0.0000000000
  0
LINE
  8
1
  6
CONTINUOUS
 62
7
 10
649.8284048382
 20
175.5236132497
 11
635.8284044061
 21
175.5236132497
  0
LINE
  8
1
  6
CONTINUOUS
 62
7
 10
649.8284048382
 20
184.5236128623
 11
635.8284044061
 21
184.5236128623
  0
LINE
  8
1
  6
CONTINUOUS
 62
7
 10
622.7289007027
 20
200.4636606628
 11
626.7289004270
 21
200.8636637086
  0
LINE
  8
1
  6
CONTINUOUS
 62
7
 10
626.7289004270
 20
79.1835604662
 11
622.7289007027
 21
79.5835635120
  0
LINE
  8
1
  6
CONTINUOUS
 62
7
 10
617.7289008144
 20
199.9636596495
 11
617.7502299640
 21
199.9657942409
  0
LINE
  8
1
  6
CONTINUOUS
 62
7
 10
617.7502299640
 20
199.9657942409
 11
617.9197716508
 21
199.9827480370
  0
LINE
  8
1
  6
CONTINUOUS
 62
7
 10
617.9197716508
 20
199.9827480370
 11
618.2530845497
 21
200.0160782093
  0
LINE
  8
1
  6
CONTINUOUS
 62
7
 10
618.2530845497
 20
200.0160782093
 11
618.7388139758
 21
200.0646522695
  0
LINE
  8
1
  6
CONTINUOUS
 62
7
 10
618.7388139758
 20
200.0646522695
 11
619.3604215029
 21
200.1268124634
  0
LINE
  8
1
  6
CONTINUOUS
 62
7
 10
619.3604215029
 20
200.1268124634
 11
620.0967400316
 21
200.2004428262
  0
LINE
  8
1
  6
CONTINUOUS
 62
7
 10
620.0967400316
 20
200.2004428262
 11
620.9226918388
 21
200.2830399627
  0
LINE
  8
1
  6
CONTINUOUS
 62
7
 10
620.9226918388
 20
200.2830399627
 11
621.8101528454
 21
200.3717875535
  0
LINE
  8
1
  6
CONTINUOUS
 62
7
 10
621.8101528454
 20
200.3717875535
 11
622.7289007027
 21
200.4636606628
  0
LINE
  8
1
  6
CONTINUOUS
 62
7
 10
622.7289007027
 20
79.5835635120
 11
621.8606594000
 21
79.6703888530
  0
LINE
  8
1
  6
CONTINUOUS
 62
7
 10
621.8606594000
 20
79.6703888530
 11
621.0187996719
 21
79.7545729632
  0
LINE
  8
1
  6
CONTINUOUS
 62
7
 10
621.0187996719
 20
79.7545729632
 11
620.2289002929
 21
79.8335640187
  0
LINE
  8
1
  6
CONTINUOUS
 62
7
 10
620.2289002929
 20
79.8335640187
 11
619.5149633083
 21
79.9049592072
  0
LINE
  8
1
  6
CONTINUOUS
 62
7
 10
619.5149633083
 20
79.9049592072
 11
618.8986773584
 21
79.9665866846
  0
LINE
  8
1
  6
CONTINUOUS
 62
7
 10
618.8986773584
 20
79.9665866846
 11
618.3987732027
 21
80.0165763551
  0
LINE
  8
1
  6
CONTINUOUS
 62
7
 10
618.3987732027
 20
80.0165763551
 11
618.0304369870
 21
80.0534120256
  0
LINE
  8
1
  6
CONTINUOUS
 62
7
 10
618.0304369870
 20
80.0534120256
 11
617.8048613462
 21
80.0759686584
  0
LINE
  8
1
  6
CONTINUOUS
 62
7
 10
617.8048613462
 20
80.0759686584
 11
617.7289008144
 21
80.0835645253
  0
LINE
  8
1
  6
CONTINUOUS
 62
7
 10
503.8284059781
 20
241.7736142928
 11
504.8234435897
 21
241.7736142928
  0
LINE
  8
1
  6
CONTINUOUS
 62
7
 10
504.8284550365
 20
231.7731237093
 11
503.8284059781
 21
241.7736142928
  0
LINE
  8
1
  6
CONTINUOUS
 62
7
 10
504.8234435897
 20
241.7736142928
 11
589.8333719168
 21
241.7736142928
  0
LINE
  8
1
  6
CONTINUOUS
 62
7
 10
590.8284044061
 20
241.7736142928
 11
589.9184575472
 21
232.6741103137
  0
LINE
  8
1
  6
CONTINUOUS
 62
7
 10
589.8333719168
 20
241.7736142928
 11
590.8284044061
 21
241.7736142928
  0
LINE
  8
1
  6
CONTINUOUS
 62
7
 10
516.8284062464
 20
231.7736145163
 11
516.8284062464
 21
228.7736140246
  0
ARC
  8
1
  6
CONTINUOUS
 62
7
 10
588.9234186321
 20
232.7736142928
 40
1.0000000000
 50
270.0000000000
 51
354.2894068625
  0
LINE
  8
1
  6
CONTINUOUS
 62
7
 10
588.9234176073
 20
231.7736145163
 11
516.8234432284
 21
231.7736145163
  0
LINE
  8
1
  6
CONTINUOUS
 62
7
 10
504.8284061421
 20
228.7736140246
 11
504.8284061421
 21
231.7736145163
  0
ARC
  8
1
  6
CONTINUOUS
 62
7
 10
510.8284061942
 20
228.7736142928
 40
6.0000000001
 50
180.0000000000
 51
257.0277601138
  0
ARC
  8
1
  6
CONTINUOUS
 62
7
 10
510.8284061942
 20
228.7736142928
 40
6.0000000001
 50
257.0277601138
 51
0.0000000000
  0
LINE
  8
1
  6
HIDDEN
 62
7
 10
582.3284095321
 20
231.2736142928
 11
582.3284095321
 21
228.2736139426
  0
LINE
  8
1
  6
CONTINUOUS
 62
7
 10
582.3284095321
 20
231.7736145163
 11
582.3284095321
 21
231.2736142928
  0
LINE
  8
1
  6
CONTINUOUS
 62
7
 10
524.3284065444
 20
231.7736145163
 11
524.3284065444
 21
231.2736142928
  0
LINE
  8
1
  6
HIDDEN
 62
7
 10
524.3284065444
 20
231.2736142928
 11
524.3284065444
 21
228.2736139426
  0
LINE
  8
1
  6
HIDDEN
 62
7
 10
581.8284085188
 20
227.7736138607
 11
524.8284061942
 21
227.7736138607
  0
ARC
  8
1
  6
HIDDEN
 62
7
 10
581.8284061942
 20
228.2736142928
 40
0.5000000000
 50
270.0000000000
 51
0.0000000000
  0
ARC
  8
1
  6
HIDDEN
 62
7
 10
524.8284061942
 20
228.2736142928
 40
0.5000000000
 50
180.0000000000
 51
270.0000000000
  0
ARC
  8
1
  6
CONTINUOUS
 62
7
 10
531.3284061942
 20
255.7736142928
 40
1.0000000000
 50
0.0000000000
 51
90.0000000000
  0
ARC
  8
1
  6
CONTINUOUS
 62
7
 10
528.3284061942
 20
255.7736142928
 40
1.0000000000
 50
90.0000000000
 51
180.0000000000
  0
LINE
  8
1
  6
CONTINUOUS
 62
7
 10
528.3284062687
 20
256.7736139575
 11
531.3284067605
 21
256.7736139575
  0
LINE
  8
1
  6
CONTINUOUS
 62
7
 10
527.3284061048
 20
255.7736147249
 11
527.3284061048
 21
241.7736142928
  0
LINE
  8
1
  6
CONTINUOUS
 62
7
 10
532.3284069244
 20
255.7736147249
 11
532.3284069244
 21
241.7736142928
  0
ARC
  8
1
  6
CONTINUOUS
 62
7
 10
575.3284061942
 20
255.7736142928
 40
1.0000000000
 50
89.9999999971
 51
180.0000000000
  0
ARC
  8
1
  6
CONTINUOUS
 62
7
 10
578.3284061942
 20
255.7736142928
 40
1.0000000000
 50
0.0000000000
 51
90.0000000000
  0
LINE
  8
1
  6
CONTINUOUS
 62
7
 10
575.3284027967
 20
256.7736139575
 11
578.3284088764
 21
256.7736139575
  0
LINE
  8
1
  6
CONTINUOUS
 62
7
 10
574.3284082208
 20
255.7736147249
 11
574.3284082208
 21
241.7736142928
  0
LINE
  8
1
  6
CONTINUOUS
 62
7
 10
579.3284034524
 20
255.7736147249
 11
579.3284034524
 21
241.7736142928
  0
LINE
  8
1
  6
HIDDEN
 62
7
 10
517.8284064103
 20
236.2736143226
 11
504.3784059752
 21
236.2736143226
  0
LINE
  8
1
  6
HIDDEN
 62
7
 10
517.8284064103
 20
231.7736145163
 11
517.8284064103
 21
236.2736143226
  0
ARC
  8
1
  6
HIDDEN
 62
7
 10
581.3284061942
 20
228.2736142928
 40
0.5000000000
 50
180.0000000000
 51
270.0000000000
  0
ARC
  8
1
  6
HIDDEN
 62
7
 10
525.3284061942
 20
228.2736142928
 40
0.5000000000
 50
270.0000000000
 51
0.0000000000
  0
LINE
  8
1
  6
HIDDEN
 62
7
 10
543.3284050021
 20
241.7736142928
 11
543.3284050021
 21
235.2736141587
  0
LINE
  8
1
  6
HIDDEN
 62
7
 10
543.3284050021
 20
235.2736141587
 11
527.3284061048
 21
235.2736141587
  0
LINE
  8
1
  6
HIDDEN
 62
7
 10
563.3284045551
 20
241.7736142928
 11
563.3284045551
 21
235.2736141587
  0
LINE
  8
1
  6
HIDDEN
 62
7
 10
580.8284064922
 20
235.2736141587
 11
579.3284034524
 21
235.2736141587
  0
LINE
  8
1
  6
HIDDEN
 62
7
 10
580.8284064922
 20
228.2736139426
 11
580.8284064922
 21
235.2736141587
  0
LINE
  8
1
  6
HIDDEN
 62
7
 10
579.3284034524
 20
235.2736141587
 11
563.3284045551
 21
235.2736141587
  0
LINE
  8
1
  6
HIDDEN
 62
7
 10
525.8284058589
 20
228.2736139426
 11
525.8284058589
 21
235.2736141587
  0
LINE
  8
1
  6
HIDDEN
 62
7
 10
527.3284061048
 20
235.2736141587
 11
525.8284058589
 21
235.2736141587
  0
LINE
  8
1
  6
HIDDEN
 62
7
 10
536.5784062240
 20
239.2736143487
 11
530.0784060899
 21
239.2736143487
  0
LINE
  8
1
  6
HIDDEN
 62
7
 10
576.5784090552
 20
239.2736143487
 11
570.0784070585
 21
239.2736143487
  0
LINE
  8
1
  6
HIDDEN
 62
7
 10
588.8284078035
 20
241.7736142928
 11
588.8284078035
 21
234.2736144604
  0
LINE
  8
1
  6
HIDDEN
 62
7
 10
588.8284078035
 20
234.2736144604
 11
590.0784066114
 21
234.2736144604
  0
LINE
  8
1
  6
HIDDEN
 62
7
 10
536.5784062240
 20
235.2736141587
 11
536.5784062240
 21
239.2736143487
  0
LINE
  8
1
  6
HIDDEN
 62
7
 10
530.0784060899
 20
239.2736143487
 11
530.0784060899
 21
235.2736141587
  0
LINE
  8
1
  6
HIDDEN
 62
7
 10
576.5784090552
 20
235.2736141587
 11
576.5784090552
 21
239.2736143487
  0
LINE
  8
1
  6
HIDDEN
 62
7
 10
570.0784070585
 20
239.2736143487
 11
570.0784070585
 21
235.2736141587
  0
LINE
  8
1
  6
HIDDEN
 62
7
 10
535.0784069095
 20
239.2736143487
 11
535.0784069095
 21
241.7736142928
  0
LINE
  8
1
  6
HIDDEN
 62
7
 10
531.5784054044
 20
241.7736142928
 11
531.5784054044
 21
239.2736143487
  0
LINE
  8
1
  6
HIDDEN
 62
7
 10
575.0784060154
 20
239.2736143487
 11
575.0784060154
 21
241.7736142928
  0
LINE
  8
1
  6
HIDDEN
 62
7
 10
571.5784063730
 20
241.7736142928
 11
571.5784063730
 21
239.2736143487
  0
LINE
  8
1
  6
HIDDEN
 62
7
 10
532.3284069244
 20
253.7736143971
 11
527.3284061048
 21
253.7736143971
  0
LINE
  8
1
  6
HIDDEN
 62
7
 10
527.3284061048
 20
249.7736146728
 11
532.3284069244
 21
249.7736146728
  0
LINE
  8
1
  6
HIDDEN
 62
7
 10
579.3284034524
 20
253.7736143971
 11
574.3284082208
 21
253.7736143971
  0
LINE
  8
1
  6
HIDDEN
 62
7
 10
574.3284082208
 20
249.7736146728
 11
579.3284034524
 21
249.7736146728
  0
LINE
  8
1
  6
CONTINUOUS
 62
7
 10
503.8284059781
 20
38.2736098820
 11
504.8284550365
 21
48.2741004655
  0
LINE
  8
1
  6
CONTINUOUS
 62
7
 10
504.8234435897
 20
38.2736098820
 11
503.8284059781
 21
38.2736098820
  0
LINE
  8
1
  6
CONTINUOUS
 62
7
 10
589.9184575472
 20
47.3731138611
 11
590.8284044061
 21
38.2736098820
  0
LINE
  8
1
  6
CONTINUOUS
 62
7
 10
590.8284044061
 20
38.2736098820
 11
589.8333719168
 21
38.2736098820
  0
LINE
  8
1
  6
CONTINUOUS
 62
7
 10
504.8234435897
 20
38.2736098820
 11
589.8333719168
 21
38.2736098820
  0
LINE
  8
1
  6
CONTINUOUS
 62
7
 10
516.8284062464
 20
51.2736101503
 11
516.8284062464
 21
48.2736096585
  0
LINE
  8
1
  6
CONTINUOUS
 62
7
 10
516.8234432284
 20
48.2736096585
 11
588.9234176073
 21
48.2736096585
  0
ARC
  8
1
  6
CONTINUOUS
 62
7
 10
588.9234186321
 20
47.2736098820
 40
1.0000000000
 50
5.7105931375
 51
90.0000000000
  0
LINE
  8
1
  6
CONTINUOUS
 62
7
 10
504.8284061421
 20
48.2736096585
 11
504.8284061421
 21
51.2736101503
  0
ARC
  8
1
  6
CONTINUOUS
 62
7
 10
510.8284061942
 20
51.2736098820
 40
6.0000000001
 50
0.0000000000
 51
180.0000000000
  0
LINE
  8
1
  6
CONTINUOUS
 62
7
 10
582.3284095321
 20
48.2736096585
 11
582.3284095321
 21
48.7736098820
  0
LINE
  8
1
  6
CONTINUOUS
 62
7
 10
524.3284065444
 20
48.2736096585
 11
524.3284065444
 21
48.7736098820
  0
ARC
  8
1
  6
CONTINUOUS
 62
7
 10
578.3284061942
 20
24.2736098820
 40
1.0000000000
 50
270.0000000000
 51
0.0000000000
  0
LINE
  8
1
  6
CONTINUOUS
 62
7
 10
578.3284088764
 20
23.2736102173
 11
575.3284027967
 21
23.2736102173
  0
ARC
  8
1
  6
CONTINUOUS
 62
7
 10
575.3284061942
 20
24.2736098820
 40
1.0000000000
 50
180.0000000000
 51
270.0000000000
  0
LINE
  8
1
  6
CONTINUOUS
 62
7
 10
574.3284082208
 20
24.2736094499
 11
574.3284082208
 21
38.2736098820
  0
LINE
  8
1
  6
CONTINUOUS
 62
7
 10
579.3284034524
 20
24.2736094499
 11
579.3284034524
 21
38.2736098820
  0
LINE
  8
1
  6
CONTINUOUS
 62
7
 10
590.6384071503
 20
40.1736099141
 11
590.8284044061
 21
38.2736098820
  0
LINE
  8
1
  6
CONTINUOUS
 62
7
 10
531.3284067605
 20
23.2736102173
 11
528.3284062687
 21
23.2736102173
  0
ARC
  8
1
  6
CONTINUOUS
 62
7
 10
528.3284061942
 20
24.2736098820
 40
1.0000000000
 50
180.0000000000
 51
270.0000000000
  0
ARC
  8
1
  6
CONTINUOUS
 62
7
 10
531.3284061942
 20
24.2736098820
 40
1.0000000000
 50
270.0000000000
 51
0.0000000000
  0
LINE
  8
1
  6
CONTINUOUS
 62
7
 10
527.3284061048
 20
24.2736094499
 11
527.3284061048
 21
38.2736098820
  0
LINE
  8
1
  6
CONTINUOUS
 62
7
 10
532.3284069244
 20
24.2736094499
 11
532.3284069244
 21
38.2736098820
  0
LINE
  8
1
  6
CONTINUOUS
 62
7
 10
516.8284062464
 20
48.2736096585
 11
517.8284064103
 21
48.2736096585
  0
LINE
  8
1
  6
CONTINUOUS
 62
7
 10
504.3784059752
 20
43.7736098522
 11
504.8284061421
 21
48.2736096585
  0
POLYLINE
  8
1
  6
CONTINUOUS
 62
7
 66
     1
 70
     0
  0
VERTEX
  8
1
 62
7
 10
506.3657034322
 20
200.2381767431
 42
0.0224498690
  0
VERTEX
  8
1
 62
7
 10
507.2928722880
 20
200.1101065997
 42
0.0121462168
  0
VERTEX
  8
1
 62
7
 10
508.5923382166
 20
200.0164461583
 42
0.0122764779
  0
VERTEX
  8
1
 62
7
 10
510.8284061942
 20
199.9636596205
 42
0.0122764779
  0
VERTEX
  8
1
 62
7
 10
513.0644741718
 20
200.0164461583
 42
0.0121462168
  0
VERTEX
  8
1
 62
7
 10
514.3639401004
 20
200.1101065997
 42
0.0228681651
  0
VERTEX
  8
1
 62
7
 10
515.2932054633
 20
200.2385921587
 42
0.0078670227
  0
SEQEND
  8
1
  0
LINE
  8
1
  6
CONTINUOUS
 62
7
 10
515.8284060824
 20
200.8636637086
 11
515.8284060824
 21
200.4636606628
  0
LINE
  8
1
  6
CONTINUOUS
 62
7
 10
505.8284063060
 20
200.4636606628
 11
505.8284063060
 21
200.7686501796
  0
POLYLINE
  8
1
  6
CONTINUOUS
 62
7
 66
     1
 70
     1
  0
VERTEX
  8
1
 10
508.8284061942
 20
200.4736113049
 42
0.1629625566
  0
VERTEX
  8
1
 10
509.0395518121
 20
200.3841683600
 42
0.0228681651
  0
VERTEX
  8
1
 10
509.4141926318
 20
200.3321895916
 42
0.0121462168
  0
VERTEX
  8
1
 10
509.9339790032
 20
200.2947254150
 42
0.0122764779
  0
VERTEX
  8
1
 10
510.8284061942
 20
200.2736107999
 42
0.0122764779
  0
VERTEX
  8
1
 10
511.7228333852
 20
200.2947254150
 42
0.0121462168
  0
VERTEX
  8
1
 10
512.2426197567
 20
200.3321895916
 42
0.0228681651
  0
VERTEX
  8
1
 10
512.6172605763
 20
200.3841683600
 42
0.1629625566
  0
VERTEX
  8
1
 10
512.8284061942
 20
200.4736113049
 42
0.1629625566
  0
VERTEX
  8
1
 10
512.6172605763
 20
200.5630542499
 42
0.0228681651
  0
VERTEX
  8
1
 10
512.2426197567
 20
200.6150330182
 42
0.0121462168
  0
VERTEX
  8
1
 10
511.7228333852
 20
200.6524971948
 42
0.0122764779
  0
VERTEX
  8
1
 10
510.8284061942
 20
200.6736118099
 42
0.0122764779
  0
VERTEX
  8
1
 10
509.9339790032
 20
200.6524971948
 42
0.0121462168
  0
VERTEX
  8
1
 10
509.4141926318
 20
200.6150330182
 42
0.0228681651
  0
VERTEX
  8
1
 10
509.0395518121
 20
200.5630542499
 42
0.1629625566
  0
SEQEND
  8
1
  0
POLYLINE
  8
1
  6
CONTINUOUS
 62
7
 66
     1
 70
     0
  0
VERTEX
  8
1
 62
7
 10
504.8284552104
 20
199.7785258558
 42
0.0482940236
  0
VERTEX
  8
1
 62
7
 10
504.8284061941
 20
199.7686244752
 42
0.0458989087
  0
SEQEND
  8
1
  0
LINE
  8
1
  6
CONTINUOUS
 62
7
 10
504.8284061421
 20
199.7686258013
 11
504.8284061421
 21
199.4686244482
  0
POLYLINE
  8
1
  6
CONTINUOUS
 62
7
 66
     1
 70
     0
  0
VERTEX
  8
1
 62
7
 10
505.8284061941
 20
200.7686492152
 42
0.0985048074
  0
VERTEX
  8
1
 62
7
 10
505.4480113892
 20
200.6919679868
 42
0.1157045986
  0
VERTEX
  8
1
 62
7
 10
505.0745767836
 20
200.4236986518
 42
0.0804310507
  0
VERTEX
  8
1
 62
7
 10
504.9054769880
 20
200.1521135086
 42
0.0807888691
  0
VERTEX
  8
1
 62
7
 10
504.8311005584
 20
199.8416814723
 42
0.1171664547
  0
VERTEX
  8
1
 62
7
 10
504.8284552104
 20
199.7785258558
 42
0.1010165726
  0
SEQEND
  8
1
  0
LINE
  8
1
  6
CONTINUOUS
 62
7
 10
516.8284062464
 20
199.4686244482
 11
516.8284062464
 21
199.7686258013
  0
POLYLINE
  8
1
  6
CONTINUOUS
 62
7
 66
     1
 70
     0
  0
VERTEX
  8
1
 62
7
 10
516.8284061943
 20
199.7686244752
 42
0.1159165546
  0
VERTEX
  8
1
 62
7
 10
516.8234433596
 20
199.8686247277
 42
0.0908633124
  0
SEQEND
  8
1
  0
POLYLINE
  8
1
  6
CONTINUOUS
 62
7
 66
     1
 70
     0
  0
VERTEX
  8
1
 62
7
 10
516.8234433596
 20
199.8686247277
 42
0.0714605935
  0
VERTEX
  8
1
 62
7
 10
516.7601592065
 20
200.1372023581
 42
0.1063852091
  0
VERTEX
  8
1
 62
7
 10
516.4994114223
 20
200.5396299558
 42
0.1063852091
  0
VERTEX
  8
1
 62
7
 10
516.0969838246
 20
200.8003777399
 42
0.0777603711
  0
VERTEX
  8
1
 62
7
 10
515.8284061943
 20
200.8636618930
 42
0.0123362576
  0
SEQEND
  8
1
  0
POLYLINE
  8
1
  6
CONTINUOUS
 62
7
 66
     1
 70
     0
  0
VERTEX
  8
1
 62
7
 10
515.2932054633
 20
200.2385921587
 42
0.0078670227
  0
VERTEX
  8
1
 62
7
 10
515.3005421495
 20
200.2400535206
 42
0.1629625566
  0
VERTEX
  8
1
 62
7
 10
515.8284061943
 20
200.4636608830
 42
0.1629625566
  0
VERTEX
  8
1
 62
7
 10
515.8284061943
 20
200.4636608830
 42
0.1629625566
  0
SEQEND
  8
1
  0
POLYLINE
  8
1
  6
CONTINUOUS
 62
7
 66
     1
 70
     0
  0
VERTEX
  8
1
 62
7
 10
505.8284061941
 20
200.4636608830
 42
0.1629625566
  0
VERTEX
  8
1
 62
7
 10
506.3562702390
 20
200.2400535206
 42
0.0228681651
  0
VERTEX
  8
1
 62
7
 10
506.3657034322
 20
200.2381767431
 42
0.0224498690
  0
SEQEND
  8
1
  0
CIRCLE
  8
1
  6
CONTINUOUS
 62
7
 10
510.8284061942
 20
51.2736098820
 40
2.0000000000
  0
LINE
  8
1
  6
HIDDEN
 62
7
 10
532.3284069244
 20
254.2736146728
 11
527.3284061048
 21
254.2736146728
  0
LINE
  8
1
  6
HIDDEN
 62
7
 10
532.3284069244
 20
249.2736146728
 11
527.3284061048
 21
249.2736146728
  0
LINE
  8
1
  6
HIDDEN
 62
7
 10
579.3284034524
 20
254.2736146728
 11
574.3284026328
 21
254.2736146728
  0
LINE
  8
1
  6
HIDDEN
 62
7
 10
579.3284034524
 20
249.2736146728
 11
574.3284026328
 21
249.2736146728
  0
CIRCLE
  8
1
  6
CONTINUOUS
 62
7
 10
645.8284040708
 20
100.0236129815
 40
2.0000000000
  0
CIRCLE
  8
1
  6
HIDDEN
 62
7
 10
645.8284040708
 20
100.0236129815
 40
2.5000000000
  0
CIRCLE
  8
1
  6
CONTINUOUS
 62
7
 10
645.8284040708
 20
180.0236111933
 40
2.0000000000
  0
CIRCLE
  8
1
  6
HIDDEN
 62
7
 10
645.8284040708
 20
180.0236111933
 40
2.5000000000
  0
CIRCLE
  8
1
  6
CONTINUOUS
 62
7
 10
639.5784044061
 20
100.0236129815
 40
2.0000000000
  0
LINE
  8
1
  6
CONTINUOUS
 62
7
 10
638.0784044059
 20
100.0236129815
 11
641.0784044059
 21
100.0236129815
  0
LINE
  8
1
  6
CONTINUOUS
 62
7
 10
638.5784044059
 20
99.2736129815
 11
640.5784044059
 21
99.2736129815
  0
LINE
  8
1
  6
CONTINUOUS
 62
7
 10
639.0784044059
 20
98.5236129815
 11
640.0784044059
 21
98.5236129815
  0
LINE
  8
1
  6
CONTINUOUS
 62
7
 10
639.5784044061
 20
100.0236129815
 11
639.5784044059
 21
101.5236129815
  0
LINE
  8
1
  6
HIDDEN
 62
7
 10
541.0784061942
 20
241.7736142928
 11
541.0784061942
 21
235.2736141587
  0
LINE
  8
1
  6
HIDDEN
 62
7
 10
541.3284061942
 20
235.2736141587
 11
541.3284061942
 21
241.7736142928
  0
LINE
  8
1
  6
HIDDEN
 62
7
 10
538.5784061942
 20
241.7736142928
 11
538.5784061942
 21
235.2736141587
  0
LINE
  8
1
  6
HIDDEN
 62
7
 10
538.3284061942
 20
235.2736141587
 11
538.3284061942
 21
241.7736142928
  0
LINE
  8
1
  6
HIDDEN
 62
7
 10
565.5784061942
 20
241.7736142928
 11
565.5784061942
 21
235.2736141587
  0
LINE
  8
1
  6
HIDDEN
 62
7
 10
565.3284061942
 20
235.2736141587
 11
565.3284061942
 21
241.7736142928
  0
LINE
  8
1
  6
HIDDEN
 62
7
 10
568.0784061942
 20
241.7736142928
 11
568.0784061942
 21
235.2736141587
  0
LINE
  8
1
  6
HIDDEN
 62
7
 10
568.3284061942
 20
235.2736141587
 11
568.3284061942
 21
241.7736142928
  0
CIRCLE
  8
1
  6
CONTINUOUS
 62
7
 10
510.8266287288
 20
228.7736142928
 40
2.0000000000
  0
LINE
  8
2
  6
CONTINUOUS
 62
3
 10
504.8284061942
 20
137.3236120874
 11
504.8284061942
 21
84.4736120874
  0
LINE
  8
2
  6
CONTINUOUS
 62
3
 10
504.8284061942
 20
195.5736120874
 11
504.8284061942
 21
142.7236120874
  0
POLYLINE
  8
2
  6
CONTINUOUS
 62
3
 66
     1
 70
     0
  0
VERTEX
  8
2
 62
3
 10
525.7781536625
 20
196.3593985250
 42
0.0167340424
  0
VERTEX
  8
2
 62
3
 10
525.4639807476
 20
196.3003151943
 42
0.1432191097
  0
VERTEX
  8
2
 62
3
 10
523.4087428109
 20
195.1932754707
 42
0.1432191097
  0
VERTEX
  8
2
 62
3
 10
522.3017030873
 20
193.1380375339
 42
0.0846102946
  0
VERTEX
  8
2
 62
3
 10
522.2426197565
 20
192.8238646191
 42
0.0678163039
  0
SEQEND
  8
2
  0
ARC
  8
2
  6
CONTINUOUS
 62
3
 10
588.0784061942
 20
194.5916315721
 40
1.7853571071
 50
11.4217536597
 51
98.0494669760
  0
LINE
  8
2
  6
CONTINUOUS
 62
3
 10
525.7781536625
 20
196.3593985250
 11
587.8284061942
 21
196.3593985250
  0
LINE
  8
2
  6
CONTINUOUS
 62
3
 10
522.2426197565
 20
87.2233595557
 11
522.2426197565
 21
192.8238646191
  0
POLYLINE
  8
2
  6
CONTINUOUS
 62
3
 66
     1
 70
     0
  0
VERTEX
  8
2
 62
3
 10
522.2426197565
 20
87.2233595557
 42
0.0141047934
  0
VERTEX
  8
2
 62
3
 10
522.3017030873
 20
86.9091866409
 42
0.1432191097
  0
VERTEX
  8
2
 62
3
 10
523.4087428109
 20
84.8539487042
 42
0.1432191097
  0
VERTEX
  8
2
 62
3
 10
525.4639807476
 20
83.7469089806
 42
0.0846102946
  0
VERTEX
  8
2
 62
3
 10
525.7781536625
 20
83.6878256498
 42
0.0670035827
  0
SEQEND
  8
2
  0
LINE
  8
2
  6
CONTINUOUS
 62
3
 10
589.8284061942
 20
194.9451849627
 11
589.8284061942
 21
153.1236120874
  0
LINE
  8
2
  6
CONTINUOUS
 62
3
 10
553.8284061942
 20
91.2736120874
 11
553.8284061942
 21
188.7736120874
  0
LINE
  8
2
  6
CONTINUOUS
 62
3
 10
551.8284061942
 20
190.7736120874
 11
530.8284061942
 21
190.7736120874
  0
LINE
  8
2
  6
CONTINUOUS
 62
3
 10
528.8284061942
 20
188.7736120874
 11
528.8284061942
 21
91.2736120874
  0
LINE
  8
2
  6
CONTINUOUS
 62
3
 10
530.8284061942
 20
89.2736120874
 11
551.8284061942
 21
89.2736120874
  0
ARC
  8
2
  6
CONTINUOUS
 62
3
 10
551.8284061942
 20
91.2736120874
 40
2.0000000000
 50
270.0000000000
 51
0.0000000000
  0
ARC
  8
2
  6
CONTINUOUS
 62
3
 10
530.8284061942
 20
91.2736120874
 40
2.0000000000
 50
180.0000000000
 51
270.0000000000
  0
ARC
  8
2
  6
CONTINUOUS
 62
3
 10
551.8284061942
 20
188.7736120874
 40
2.0000000000
 50
0.0000000000
 51
90.0000000000
  0
ARC
  8
2
  6
CONTINUOUS
 62
3
 10
530.8284061942
 20
188.7736120874
 40
2.0000000000
 50
90.0000000000
 51
180.0000000000
  0
LINE
  8
2
  6
CONTINUOUS
 62
3
 10
589.8284061942
 20
126.9236120874
 11
589.8284061942
 21
85.1020392122
  0
ARC
  8
2
  6
CONTINUOUS
 62
3
 10
588.0784061942
 20
85.4555926027
 40
1.7853571071
 50
261.9505330247
 51
348.5782463413
  0
LINE
  8
2
  6
CONTINUOUS
 62
3
 10
587.8284061942
 20
83.6878256498
 11
525.7781536625
 21
83.6878256498
  0
LINE
  8
2
  6
CONTINUOUS
 62
3
 10
518.8284061942
 20
196.2380781815
 11
518.8284061942
 21
198.7133132314
  0
ARC
  8
2
  6
CONTINUOUS
 62
3
 10
519.8002286374
 20
198.7717819558
 40
0.9735797106
 50
88.3415014311
 51
183.4429930186
  0
ARC
  8
2
  6
CONTINUOUS
 62
3
 10
519.7900671085
 20
81.2655923459
 40
0.9640846150
 50
175.9364035055
 51
272.2791020229
  0
LINE
  8
2
  6
CONTINUOUS
 62
3
 10
518.8284061942
 20
81.3339109435
 11
518.8284061942
 21
83.8091459934
  0
LINE
  8
2
  6
CONTINUOUS
 62
3
 10
589.8284061942
 20
197.7736120874
 11
589.8284061942
 21
194.9451849627
  0
LINE
  8
2
  6
CONTINUOUS
 62
3
 10
518.8284061942
 20
83.8091459934
 11
518.8284061942
 21
84.4736120874
  0
LINE
  8
2
  6
CONTINUOUS
 62
3
 10
519.2342961999
 20
195.5736120874
 11
519.2342961999
 21
84.4736120874
  0
LINE
  8
2
  6
CONTINUOUS
 62
3
 10
518.8284061942
 20
196.2380781814
 11
518.8284061942
 21
195.5736120874
  0
LINE
  8
2
  6
CONTINUOUS
 62
3
 10
589.8284061942
 20
85.1020392122
 11
589.8284061942
 21
82.2736120874
  0
LINE
  8
2
  6
CONTINUOUS
 62
3
 10
519.8284061942
 20
199.7736120874
 11
519.8284061942
 21
199.7449538205
  0
LINE
  8
2
  6
CONTINUOUS
 62
3
 10
519.8284061942
 20
199.7736120874
 11
587.8284061942
 21
199.7736120874
  0
ARC
  8
2
  6
CONTINUOUS
 62
3
 10
587.8284061942
 20
197.7736120874
 40
2.0000000000
 50
0.0000000000
 51
90.0000000000
  0
LINE
  8
2
  6
CONTINUOUS
 62
3
 10
587.8284061942
 20
80.2736120874
 11
519.8284061942
 21
80.2736120874
  0
LINE
  8
2
  6
CONTINUOUS
 62
3
 10
519.8284061942
 20
80.3022703543
 11
519.8284061942
 21
80.2736120874
  0
ARC
  8
2
  6
CONTINUOUS
 62
3
 10
587.8284061942
 20
82.2736120874
 40
2.0000000000
 50
270.0000000000
 51
0.0000000000
  0
LINE
  8
2
  6
CONTINUOUS
 62
3
 10
519.2342961999
 20
84.4736120874
 11
518.2690405183
 21
84.4736120874
  0
LINE
  8
2
  6
CONTINUOUS
 62
3
 10
518.2690405183
 20
195.5736120874
 11
519.2342961999
 21
195.5736120874
  0
LINE
  8
2
  6
CONTINUOUS
 62
3
 10
511.2284061942
 20
137.3236120874
 11
509.4815325517
 21
137.3236120874
  0
LINE
  8
2
  6
CONTINUOUS
 62
3
 10
511.2284061942
 20
137.3236120874
 11
511.2284061942
 21
142.7236120874
  0
LINE
  8
2
  6
CONTINUOUS
 62
3
 10
511.2284061942
 20
142.7236120874
 11
509.4815325517
 21
142.7236120874
  0
LINE
  8
2
  6
CONTINUOUS
 62
3
 10
509.4815325517
 20
84.4736120874
 11
518.2690405183
 21
84.4736120874
  0
LINE
  8
2
  6
CONTINUOUS
 62
3
 10
518.2690405183
 20
195.5736120874
 11
509.4815325517
 21
195.5736120874
  0
ARC
  8
2
  6
CONTINUOUS
 62
3
 10
519.8284061942
 20
81.2736120874
 40
1.0000000000
 50
180.0000000000
 51
270.0000000000
  0
ARC
  8
2
  6
CONTINUOUS
 62
3
 10
519.8284061942
 20
198.7736120874
 40
1.0000000000
 50
90.0000000000
 51
180.0000000000
  0
LINE
  8
2
  6
CONTINUOUS
 62
3
 10
509.4815325517
 20
84.4736120874
 11
504.8284061942
 21
84.4736120874
  0
LINE
  8
2
  6
CONTINUOUS
 62
3
 10
504.8284061942
 20
137.3236120874
 11
509.4815325517
 21
137.3236120874
  0
LINE
  8
2
  6
CONTINUOUS
 62
3
 10
504.8284061942
 20
142.7236120874
 11
509.4815325517
 21
142.7236120874
  0
LINE
  8
2
  6
CONTINUOUS
 62
3
 10
504.8284061942
 20
195.5736120874
 11
509.4815325517
 21
195.5736120874
  0
LINE
  8
2
  6
CONTINUOUS
 62
3
 10
615.6568315309
 20
199.7736120874
 11
625.3284044061
 21
199.7736120874
  0
LINE
  8
2
  6
CONTINUOUS
 62
3
 10
625.3284044061
 20
80.2736120874
 11
615.6568315309
 21
80.2736120874
  0
LINE
  8
2
  6
CONTINUOUS
 62
3
 10
625.3284044061
 20
199.7736120874
 11
625.3284044061
 21
146.0236120879
  0
LINE
  8
2
  6
CONTINUOUS
 62
3
 10
625.3284044061
 20
134.0236120878
 11
625.3284044061
 21
80.2736120874
  0
LINE
  8
2
  6
CONTINUOUS
 62
3
 10
614.2426179685
 20
80.8593985250
 11
611.4141908437
 21
83.6878256498
  0
ARC
  8
2
  6
CONTINUOUS
 62
3
 10
615.6568315309
 20
82.2736120874
 40
2.0000000000
 50
225.0000000000
 51
270.0000000000
  0
ARC
  8
2
  6
CONTINUOUS
 62
3
 10
615.6568315309
 20
197.7736120874
 40
2.0000000000
 50
90.0000000000
 51
135.0000000000
  0
LINE
  8
2
  6
CONTINUOUS
 62
3
 10
611.4141908437
 20
196.3593985250
 11
614.2426179685
 21
199.1878256498
  0
LINE
  8
2
  6
CONTINUOUS
 62
3
 10
610.8284044061
 20
154.1236120869
 11
610.8284044061
 21
194.9451849627
  0
LINE
  8
2
  6
CONTINUOUS
 62
3
 10
610.8284044061
 20
85.1020392122
 11
610.8284044061
 21
125.9236120869
  0
ARC
  8
2
  6
CONTINUOUS
 62
3
 10
612.8284044061
 20
85.1020392122
 40
2.0000000000
 50
180.0000000000
 51
225.0000000000
  0
ARC
  8
2
  6
CONTINUOUS
 62
3
 10
612.8284044061
 20
194.9451849627
 40
2.0000000000
 50
135.0000000000
 51
180.0000000000
  0
LINE
  8
2
  6
CONTINUOUS
 62
3
 10
625.8284046296
 20
198.2736120874
 11
625.3284044061
 21
198.2736120874
  0
LINE
  8
2
  6
CONTINUOUS
 62
3
 10
625.8284046296
 20
81.7736120874
 11
625.3284044061
 21
81.7736120874
  0
LINE
  8
2
  6
CONTINUOUS
 62
3
 10
518.8284061942
 20
221.2600446924
 11
518.8284061942
 21
221.6020414176
  0
LINE
  8
2
  6
CONTINUOUS
 62
3
 10
519.8284061942
 20
221.6020414176
 11
518.8284061942
 21
221.6020414176
  0
LINE
  8
2
  6
CONTINUOUS
 62
3
 10
522.2426197565
 20
217.3594007304
 11
518.8284061942
 21
220.7736142928
  0
LINE
  8
2
  6
CONTINUOUS
 62
3
 10
518.8284061942
 20
220.7736142928
 11
518.8284061942
 21
221.2600446924
  0
LINE
  8
2
  6
CONTINUOUS
 62
3
 10
519.8284061942
 20
221.6020414176
 11
587.8284061942
 21
221.6020414176
  0
LINE
  8
2
  6
CONTINUOUS
 62
3
 10
587.8284061942
 20
231.2736142928
 11
519.8284061942
 21
231.2736142928
  0
LINE
  8
2
  6
CONTINUOUS
 62
3
 10
589.8284061942
 20
229.2736142928
 11
589.8284061942
 21
221.6020414176
  0
LINE
  8
2
  6
CONTINUOUS
 62
3
 10
589.8284061942
 20
221.6020414176
 11
587.8284061942
 21
221.6020414176
  0
ARC
  8
2
  6
CONTINUOUS
 62
3
 10
587.8284061942
 20
229.2736142928
 40
2.0000000000
 50
0.0000000000
 51
90.0000000000
  0
LINE
  8
2
  6
CONTINUOUS
 62
3
 10
518.8284061942
 20
221.6020414176
 11
518.8284061942
 21
231.2736142928
  0
LINE
  8
2
  6
CONTINUOUS
 62
3
 10
518.8284061942
 20
231.2736142928
 11
519.8284061942
 21
231.2736142928
  0
LINE
  8
2
  6
CONTINUOUS
 62
3
 10
589.8284061942
 20
221.6020414176
 11
589.8284061942
 21
218.7736142928
  0
LINE
  8
2
  6
HIDDEN
 62
3
 10
520.3284061942
 20
232.2736142928
 11
584.8284061942
 21
232.2736142928
  0
LINE
  8
2
  6
HIDDEN
 62
3
 10
584.8284061942
 20
232.2736142928
 11
584.8284061942
 21
231.7736145163
  0
LINE
  8
2
  6
CONTINUOUS
 62
3
 10
584.8284061942
 20
231.7736145163
 11
584.8284061942
 21
231.2736142928
  0
LINE
  8
2
  6
HIDDEN
 62
3
 10
520.3284061942
 20
232.2736142928
 11
520.3284061942
 21
231.7736145163
  0
LINE
  8
2
  6
CONTINUOUS
 62
3
 10
520.3284061942
 20
231.7736145163
 11
520.3284061942
 21
231.2736142928
  0
ARC
  8
2
  6
CONTINUOUS
 62
3
 10
587.8284061942
 20
218.7736142928
 40
2.0000000000
 50
270.0000000000
 51
0.0000000000
  0
LINE
  8
2
  6
CONTINUOUS
 62
3
 10
587.8284061942
 20
216.7736142928
 11
525.7781536625
 21
216.7736142928
  0
LINE
  8
2
  6
CONTINUOUS
 62
3
 10
523.6568333189
 20
216.7736142928
 11
525.7781536625
 21
216.7736142928
  0
ARC
  8
2
  6
CONTINUOUS
 62
3
 10
523.6568333189
 20
218.7736142928
 40
2.0000000000
 50
225.0000000000
 51
270.0000000000
  0
CIRCLE
  8
2
  6
CONTINUOUS
 62
3
 10
510.8284061942
 20
228.7736142928
 40
2.0000000000
  0
ARC
  8
2
  6
CONTINUOUS
 62
3
 10
517.8200826375
 20
218.9535107248
 40
2.0000000000
 50
45.0000000000
 51
77.0277601138
  0
LINE
  8
2
  6
CONTINUOUS
 62
3
 10
518.2690405183
 20
220.9024686056
 11
509.4815325517
 21
222.9267406503
  0
ARC
  8
2
  6
HIDDEN
 62
3
 10
510.8284061942
 20
228.7736142928
 40
6.0000000000
 50
24.6243183522
 51
180.0000000000
  0
LINE
  8
2
  6
CONTINUOUS
 62
3
 10
518.8284061942
 20
231.2736142928
 11
516.2827622515
 21
231.2736142928
  0
LINE
  8
2
  6
HIDDEN
 62
3
 10
583.8284061942
 20
232.2736142928
 11
583.8284061942
 21
218.7736142928
  0
LINE
  8
2
  6
HIDDEN
 62
3
 10
521.3284061942
 20
232.2736142928
 11
521.3284061942
 21
221.1020142928
  0
LINE
  8
2
  6
HIDDEN
 62
3
 10
521.3284061942
 20
221.1020142928
 11
521.7677460224
 21
220.6626744646
  0
LINE
  8
2
  6
HIDDEN
 62
3
 10
521.7677460224
 20
220.6626744646
 11
523.6568061942
 21
218.7736142928
  0
LINE
  8
2
  6
HIDDEN
 62
3
 10
523.6568061942
 20
218.7736142928
 11
583.8284061942
 21
218.7736142928
  0
LINE
  8
2
  6
HIDDEN
 62
3
 10
506.8284061941
 20
233.2457502477
 11
506.8284061941
 21
228.7736142928
  0
LINE
  8
2
  6
HIDDEN
 62
3
 10
517.8284061940
 20
222.6616345760
 11
517.8284061940
 21
231.2736142928
  0
ARC
  8
2
  6
HIDDEN
 62
3
 10
510.8284061942
 20
228.7736142928
 40
4.0000000001
 50
180.0000000000
 51
254.3699999996
  0
LINE
  8
2
  6
HIDDEN
 62
3
 10
509.7507098163
 20
224.9215277779
 11
517.8284061940
 21
222.6616345760
  0
LINE
  8
2
  6
HIDDEN
 62
3
 10
530.8284061942
 20
216.9736142928
 11
528.8284061942
 21
216.9736142928
  0
LINE
  8
2
  6
HIDDEN
 62
3
 10
528.8284061942
 20
216.9736142928
 11
528.8284061942
 21
216.7736142928
  0
LINE
  8
2
  6
HIDDEN
 62
3
 10
551.8284061942
 20
216.9736142928
 11
530.8284061942
 21
216.9736142928
  0
LINE
  8
2
  6
HIDDEN
 62
3
 10
553.8284061942
 20
216.9736142928
 11
553.8284061942
 21
216.7736142928
  0
LINE
  8
2
  6
HIDDEN
 62
3
 10
553.8284061942
 20
216.9736142928
 11
551.8284061942
 21
216.9736142928
  0
LINE
  8
2
  6
HIDDEN
 62
3
 10
511.2284061942
 20
224.5081133782
 11
511.2284061942
 21
222.5243344740
  0
ARC
  8
2
  6
HIDDEN
 62
3
 10
563.7284061942
 20
218.7736142924
 40
2.0000000000
 50
270.0000000000
 51
359.9999999995
  0
LINE
  8
2
  6
HIDDEN
 62
3
 10
562.8284061931
 20
218.7736142928
 11
562.8284061931
 21
224.2736142928
  0
LINE
  8
2
  6
HIDDEN
 62
3
 10
562.8284061931
 20
224.2736142928
 11
583.8284061942
 21
224.2736142928
  0
LINE
  8
2
  6
HIDDEN
 62
3
 10
588.3284061942
 20
231.2101059659
 11
588.3284061942
 21
230.1396396966
  0
LINE
  8
2
  6
HIDDEN
 62
3
 10
588.3284061942
 20
230.1396396966
 11
588.3284061942
 21
223.1736142928
  0
ARC
  8
2
  6
HIDDEN
 62
3
 10
587.3284061942
 20
223.1736142928
 40
1.0000000000
 50
270.0000000000
 51
0.0000000000
  0
LINE
  8
2
  6
HIDDEN
 62
3
 10
565.7284061942
 20
222.1736142924
 11
565.7284061942
 21
218.7736142924
  0
LINE
  8
2
  6
HIDDEN
 62
3
 10
565.7284061951
 20
222.1736142924
 11
587.3284061942
 21
222.1736142855
  0
LINE
  8
2
  6
HIDDEN
 62
3
 10
575.6284061932
 20
226.2736142928
 11
575.6284061931
 21
224.2736142936
  0
LINE
  8
2
  6
HIDDEN
 62
3
 10
575.6284061816
 20
226.2736142928
 11
580.8284061942
 21
226.2736142919
  0
LINE
  8
2
  6
HIDDEN
 62
3
 10
583.8284061942
 20
227.2736142928
 11
580.8284061942
 21
227.2736142928
  0
LINE
  8
2
  6
HIDDEN
 62
3
 10
589.8284061942
 20
221.6020414176
 11
587.8284061942
 21
221.6020414176
  0
LINE
  8
2
  6
HIDDEN
 62
3
 10
518.8284061942
 20
221.6020414176
 11
519.8284061942
 21
221.6020414176
  0
LINE
  8
2
  6
HIDDEN
 62
3
 10
587.8284061942
 20
221.6020414176
 11
519.8284061942
 21
221.6020414176
  0
LINE
  8
2
  6
CONTINUOUS
 62
3
 10
518.8284061942
 20
59.2736098821
 11
522.2426197565
 21
62.6878234444
  0
LINE
  8
2
  6
CONTINUOUS
 62
3
 10
518.8284061942
 20
58.7871794825
 11
518.8284061942
 21
59.2736098820
  0
LINE
  8
2
  6
CONTINUOUS
 62
3
 10
518.8284061942
 20
58.4451827573
 11
519.8284061942
 21
58.4451827573
  0
LINE
  8
2
  6
CONTINUOUS
 62
3
 10
518.8284061942
 20
58.4451827573
 11
518.8284061942
 21
58.7871794825
  0
LINE
  8
2
  6
CONTINUOUS
 62
3
 10
587.8284061942
 20
58.4451827573
 11
519.8284061942
 21
58.4451827573
  0
LINE
  8
2
  6
CONTINUOUS
 62
3
 10
587.8284061942
 20
48.7736098820
 11
519.8284061942
 21
48.7736098820
  0
LINE
  8
2
  6
CONTINUOUS
 62
3
 10
589.8284061942
 20
58.4451827573
 11
589.8284061942
 21
50.7736098820
  0
LINE
  8
2
  6
CONTINUOUS
 62
3
 10
589.8284061942
 20
58.4451827573
 11
587.8284061942
 21
58.4451827573
  0
ARC
  8
2
  6
CONTINUOUS
 62
3
 10
587.8284061942
 20
50.7736098820
 40
2.0000000000
 50
270.0000000000
 51
0.0000000000
  0
LINE
  8
2
  6
CONTINUOUS
 62
3
 10
518.8284061942
 20
48.7736098820
 11
518.8284061942
 21
58.4451827573
  0
LINE
  8
2
  6
CONTINUOUS
 62
3
 10
519.8284061942
 20
48.7736098820
 11
518.8284061942
 21
48.7736098820
  0
LINE
  8
2
  6
CONTINUOUS
 62
3
 10
589.8284061942
 20
61.2736098820
 11
589.8284061942
 21
58.4451827573
  0
LINE
  8
2
  6
CONTINUOUS
 62
3
 10
520.3284061942
 20
48.2736096585
 11
520.3284061942
 21
48.7736098820
  0
LINE
  8
2
  6
CONTINUOUS
 62
3
 10
584.8284061942
 20
48.2736096585
 11
584.8284061942
 21
48.7736098820
  0
ARC
  8
2
  6
CONTINUOUS
 62
3
 10
587.8284061942
 20
61.2736098820
 40
2.0000000000
 50
0.0000000000
 51
90.0000000000
  0
ARC
  8
2
  6
CONTINUOUS
 62
3
 10
523.6568333189
 20
61.2736098820
 40
2.0000000000
 50
90.0000000000
 51
135.0000000000
  0
LINE
  8
2
  6
CONTINUOUS
 62
3
 10
525.7781536625
 20
63.2736098820
 11
523.6568333189
 21
63.2736098820
  0
LINE
  8
2
  6
CONTINUOUS
 62
3
 10
525.7781536625
 20
63.2736098820
 11
587.8284061942
 21
63.2736098820
  0
CIRCLE
  8
2
  6
CONTINUOUS
 62
3
 10
510.8284061942
 20
51.2736098820
 40
2.0000000000
  0
LINE
  8
2
  6
CONTINUOUS
 62
3
 10
509.4815325517
 20
57.1204835245
 11
518.2690405183
 21
59.1447555692
  0
ARC
  8
2
  6
CONTINUOUS
 62
3
 10
517.8200826375
 20
61.0937134501
 40
2.0000000000
 50
282.9722398862
 51
315.0000000000
  0
LINE
  8
2
  6
CONTINUOUS
 62
3
 10
516.8284062464
 20
48.7736098820
 11
518.8284061942
 21
48.7736098820
  0
LINE
  8
2
  6
CONTINUOUS
 62
3
 10
562.8284061942
 20
63.2736098820
 11
574.8284061942
 21
63.2736098820
  0
LINE
  8
2
  6
CONTINUOUS
 62
3
 10
574.8284061942
 20
63.2736098820
 11
587.8284061942
 21
63.2736098820
  0
LINE
  8
2
  6
CONTINUOUS
 62
3
 10
588.3284061942
 20
152.1236120874
 11
588.3284061942
 21
151.0236120874
  0
LINE
  8
2
  6
CONTINUOUS
 62
3
 10
588.3284061942
 20
129.0236120874
 11
588.3284061942
 21
127.9236120874
  0
LINE
  8
2
  6
CONTINUOUS
 62
3
 10
574.8284061942
 20
152.1236120874
 11
588.8284061942
 21
152.1236120874
  0
ARC
  8
2
  6
CONTINUOUS
 62
3
 10
588.8284061942
 20
153.1236120874
 40
1.0000000000
 50
270.0000000000
 51
0.0000000000
  0
LINE
  8
2
  6
CONTINUOUS
 62
3
 10
574.8284061942
 20
127.9236120874
 11
588.8284061942
 21
127.9236120874
  0
ARC
  8
2
  6
CONTINUOUS
 62
3
 10
588.8284061942
 20
126.9236120874
 40
1.0000000000
 50
0.0000000000
 51
90.0000000000
  0
ARC
  8
2
  6
CONTINUOUS
 62
6
 10
532.4289821102
 20
140.0236120874
 40
60.9994240841
 50
351.3115966921
 51
8.6884033079
  0
ARC
  8
2
  6
CONTINUOUS
 62
6
 10
591.5891958557
 20
130.0236120874
 40
1.0000000000
 50
270.0000000000
 51
350.4058388122
  0
ARC
  8
2
  6
CONTINUOUS
 62
6
 10
591.5891958557
 20
150.0236120874
 40
1.0000000000
 50
9.5941611878
 51
90.0000000000
  0
ARC
  8
2
  6
CONTINUOUS
 62
6
 10
532.4289821102
 20
140.0236120874
 40
60.9994240841
 50
8.6884033079
 51
9.5941611878
  0
ARC
  8
2
  6
CONTINUOUS
 62
6
 10
532.4289821102
 20
140.0236120874
 40
60.9994240841
 50
350.4058388122
 51
351.3115966921
  0
LINE
  8
2
  6
CONTINUOUS
 62
6
 10
580.9284062002
 20
147.0236120882
 11
578.9284061797
 21
147.0236120914
  0
LINE
  8
2
  6
CONTINUOUS
 62
6
 10
578.9284061797
 20
147.0236120914
 11
578.9284061798
 21
148.0236120866
  0
LINE
  8
2
  6
CONTINUOUS
 62
6
 10
578.9284061799
 20
145.0236120866
 11
578.9284061781
 21
146.0236120866
  0
LINE
  8
2
  6
CONTINUOUS
 62
6
 10
578.9284061815
 20
146.0236120891
 11
580.9284061995
 21
146.0236120874
  0
LINE
  8
2
  6
CONTINUOUS
 62
6
 10
580.9284062002
 20
147.0236120882
 11
580.9284062004
 21
148.0236120882
  0
LINE
  8
2
  6
CONTINUOUS
 62
6
 10
580.9284062004
 20
145.0236120882
 11
580.9284062011
 21
146.0236120882
  0
POINT
  8
2
  6
CONTINUOUS
 62
6
 10
579.9284061942
 20
146.5236120842
  0
LINE
  8
2
  6
CONTINUOUS
 62
6
 10
584.1784061944
 20
145.0236120842
 11
584.1784061944
 21
145.2736120633
  0
LINE
  8
2
  6
CONTINUOUS
 62
6
 10
584.1784061944
 20
145.7736120871
 11
584.1784061944
 21
147.2736120785
  0
LINE
  8
2
  6
CONTINUOUS
 62
6
 10
584.1784061944
 20
147.7736120910
 11
584.1784061944
 21
148.0236120842
  0
LINE
  8
2
  6
CONTINUOUS
 62
6
 10
584.1784061928
 20
148.0236120842
 11
586.4284061934
 21
148.0236120842
  0
LINE
  8
2
  6
CONTINUOUS
 62
6
 10
586.4284061934
 20
148.0236120842
 11
586.4284061934
 21
145.0236120842
  0
LINE
  8
2
  6
CONTINUOUS
 62
6
 10
586.4284061934
 20
145.0236120842
 11
584.1784061928
 21
145.0236120842
  0
ARC
  8
2
  6
CONTINUOUS
 62
6
 10
583.6784061953
 20
146.5236120842
 40
0.7500000000
 50
90.0000000000
 51
270.0000000000
  0
ARC
  8
2
  6
CONTINUOUS
 62
6
 10
583.6784061953
 20
146.5236120842
 40
1.2500000000
 50
90.0000000000
 51
270.0000000000
  0
LINE
  8
2
  6
CONTINUOUS
 62
6
 10
583.6784061937
 20
145.7736120842
 11
584.1784061944
 21
145.7736120871
  0
LINE
  8
2
  6
CONTINUOUS
 62
6
 10
583.6784061937
 20
145.2736120842
 11
584.1784061944
 21
145.2736120633
  0
LINE
  8
2
  6
CONTINUOUS
 62
6
 10
583.6784061937
 20
147.2736120842
 11
584.1784061944
 21
147.2736120785
  0
LINE
  8
2
  6
CONTINUOUS
 62
6
 10
583.6784061937
 20
147.7736120842
 11
584.1784061944
 21
147.7736120910
  0
LINE
  8
2
  6
CONTINUOUS
 62
6
 10
575.1784061857
 20
148.0236120874
 11
575.1784061857
 21
147.7736120955
  0
LINE
  8
2
  6
CONTINUOUS
 62
6
 10
575.1784061857
 20
147.2736120856
 11
575.1784061857
 21
145.0236120874
  0
LINE
  8
2
  6
CONTINUOUS
 62
6
 10
575.1784061857
 20
145.0236120874
 11
577.4284061847
 21
145.0236120874
  0
LINE
  8
2
  6
CONTINUOUS
 62
6
 10
577.4284061847
 20
145.0236120874
 11
577.4284061847
 21
148.0236120874
  0
LINE
  8
2
  6
CONTINUOUS
 62
6
 10
577.4284061847
 20
148.0236120874
 11
575.1784061857
 21
148.0236120874
  0
ARC
  8
2
  6
CONTINUOUS
 62
6
 10
574.6784061866
 20
148.5236120874
 40
0.7500000000
 50
89.9999999999
 51
269.9999999999
  0
ARC
  8
2
  6
CONTINUOUS
 62
6
 10
574.6784061866
 20
148.5236120874
 40
1.2500000000
 50
89.9999999999
 51
269.9999999999
  0
LINE
  8
2
  6
CONTINUOUS
 62
6
 10
574.6784061866
 20
147.2736120874
 11
575.1784061856
 21
147.2736120856
  0
LINE
  8
2
  6
CONTINUOUS
 62
6
 10
574.6784061866
 20
147.7736120874
 11
575.1784061857
 21
147.7736120955
  0
LINE
  8
2
  6
CONTINUOUS
 62
6
 10
574.6784061866
 20
149.2736120874
 11
575.1784061857
 21
149.2736120874
  0
LINE
  8
2
  6
CONTINUOUS
 62
6
 10
574.6784061866
 20
149.7736120874
 11
575.1784061857
 21
149.7736120874
  0
LINE
  8
2
  6
CONTINUOUS
 62
6
 10
575.1784061857
 20
149.7736120874
 11
575.1784061857
 21
149.2736120874
  0
LINE
  8
2
  6
CONTINUOUS
 62
6
 10
581.9284062038
 20
146.5236120874
 11
580.9284062004
 21
148.0236120882
  0
LINE
  8
2
  6
CONTINUOUS
 62
6
 10
581.9284062038
 20
146.5236120874
 11
580.9284062004
 21
145.0236120882
  0
LINE
  8
2
  6
CONTINUOUS
 62
6
 10
577.9284061847
 20
146.5236120874
 11
578.9284061881
 21
145.0236120882
  0
LINE
  8
2
  6
CONTINUOUS
 62
6
 10
577.9284061847
 20
146.5236120874
 11
578.9284061880
 21
148.0236120882
  0
ARC
  8
2
  6
CONTINUOUS
 62
6
 10
575.3284061942
 20
137.5236120874
 40
8.5000000000
 50
180.0000000000
 51
270.0000000000
  0
LINE
  8
2
  6
CONTINUOUS
 62
6
 10
566.8284061942
 20
142.5236120874
 11
566.8284061942
 21
137.5236120874
  0
ARC
  8
2
  6
CONTINUOUS
 62
6
 10
575.3284061942
 20
142.5236120874
 40
8.5000000000
 50
90.0000000000
 51
180.0000000000
  0
LINE
  8
2
  6
CONTINUOUS
 62
6
 10
591.5891958557
 20
151.0236120874
 11
575.3284061942
 21
151.0236120874
  0
LINE
  8
2
  6
CONTINUOUS
 62
6
 10
575.3284061942
 20
129.0236120874
 11
591.5891958557
 21
129.0236120874
  0
LINE
  8
2
  6
CONTINUOUS
 62
6
 10
576.8284061942
 20
142.0236120874
 11
583.0284061942
 21
142.0236120874
  0
LINE
  8
2
  6
CONTINUOUS
 62
6
 10
583.0284061942
 20
142.0236120874
 11
583.0284061942
 21
138.0236120874
  0
LINE
  8
2
  6
CONTINUOUS
 62
6
 10
583.0284061942
 20
138.0236120874
 11
576.8284061942
 21
138.0236120874
  0
LINE
  8
2
  6
CONTINUOUS
 62
6
 10
576.8284061942
 20
138.0236120874
 11
576.8284061942
 21
142.0236120874
  0
LINE
  8
2
  6
CONTINUOUS
 62
6
 10
577.7284061942
 20
142.0236120874
 11
577.7284061942
 21
138.0236120874
  0
LINE
  8
2
  6
CONTINUOUS
 62
6
 10
578.9284061942
 20
138.0236120874
 11
578.9284061942
 21
142.0236120874
  0
LINE
  8
2
  6
CONTINUOUS
 62
6
 10
579.8284061942
 20
138.0236120874
 11
579.8284061942
 21
142.0236120874
  0
INSERT
  8
2
  6
CONTINUOUS
 62
6
  2
*X0
 10
576.8284061942
 20
142.0236120874
  0
INSERT
  8
2
  6
CONTINUOUS
 62
6
  2
*X1
 10
578.9284061942
 20
142.0236120874
  0
TEXT
  8
2
  6
CONTINUOUS
 62
6
 10
590.778406
 20
135.637672
 40
3.500000
  1
CLOSE
 41
0.786164
 50
90.000000
 51
0.000000
 72
   5
 73
   0
 11
590.778406
 21
144.387672
  0
TEXT
  8
2
  6
CONTINUOUS
 62
6
 10
572.578406
 20
136.512672
 40
3.500000
  1
OPEN
 41
0.796813
 50
90.000000
 51
0.000000
 72
   5
 73
   0
 11
572.578406
 21
143.512672
  0
ARC
  8
2
  6
CONTINUOUS
 62
3
 10
575.3284061942
 20
142.5236120874
 40
9.6000000000
 50
90.0000000000
 51
180.0000000000
  0
LINE
  8
2
  6
CONTINUOUS
 62
3
 10
565.7284061942
 20
142.5236120874
 11
565.7284061942
 21
137.5236120874
  0
ARC
  8
2
  6
CONTINUOUS
 62
3
 10
575.3284061942
 20
137.5236120874
 40
9.6000000000
 50
180.0000000000
 51
270.0000000000
  0
LINE
  8
2
  6
CONTINUOUS
 62
3
 10
624.2579381368
 20
152.1236120870
 11
623.3284044061
 21
152.1236120869
  0
ARC
  8
2
  6
CONTINUOUS
 62
3
 10
624.2994702381
 20
153.1521023903
 40
1.0293285285
 50
267.6875601889
 51
358.4139343022
  0
LINE
  8
2
  6
CONTINUOUS
 62
3
 10
623.3284044061
 20
152.1236120869
 11
612.8284044061
 21
152.1236120869
  0
ARC
  8
2
  6
CONTINUOUS
 62
3
 10
612.8284044061
 20
154.1236120869
 40
2.0000000000
 50
180.0000000000
 51
270.0000000000
  0
LINE
  8
2
  6
CONTINUOUS
 62
3
 10
616.3284044061
 20
127.9236120870
 11
616.3284044061
 21
133.9378256499
  0
LINE
  8
2
  6
CONTINUOUS
 62
3
 10
616.3284044061
 20
146.1093985258
 11
616.3284044061
 21
152.1236120869
  0
LINE
  8
2
  6
CONTINUOUS
 62
3
 10
624.2579381368
 20
127.9236120869
 11
623.3284044061
 21
127.9236120869
  0
ARC
  8
2
  6
CONTINUOUS
 62
3
 10
624.2994702381
 20
126.8951217836
 40
1.0293285285
 50
1.5860656978
 51
92.3124398111
  0
LINE
  8
2
  6
CONTINUOUS
 62
3
 10
623.3284044061
 20
127.9236120869
 11
612.8284044061
 21
127.9236120869
  0
ARC
  8
2
  6
CONTINUOUS
 62
3
 10
612.8284044061
 20
125.9236120869
 40
2.0000000000
 50
90.0000000000
 51
180.0000000000
  0
LINE
  8
2
  6
CONTINUOUS
 62
6
 10
615.8284044061
 20
146.0236120879
 11
612.2721456110
 21
146.0236120879
  0
LINE
  8
2
  6
CONTINUOUS
 62
6
 10
617.3284044061
 20
147.5236120881
 11
617.3284044061
 21
151.1236120879
  0
LINE
  8
2
  6
CONTINUOUS
 62
6
 10
617.3284044061
 20
151.1236120879
 11
619.3284044061
 21
151.1236120879
  0
LINE
  8
2
  6
CONTINUOUS
 62
6
 10
619.3284044061
 20
147.5236120878
 11
619.3284044061
 21
151.1236120879
  0
LINE
  8
2
  6
CONTINUOUS
 62
6
 10
610.8284044061
 20
129.0236120879
 11
610.8284044061
 21
151.0236120870
  0
LINE
  8
2
  6
CONTINUOUS
 62
6
 10
612.2721456110
 20
129.0236120879
 11
610.8284044061
 21
129.0236120879
  0
LINE
  8
2
  6
CONTINUOUS
 62
6
 10
612.2721456110
 20
151.0236120879
 11
610.8284044061
 21
151.0236120870
  0
LINE
  8
2
  6
CONTINUOUS
 62
6
 10
612.2721456110
 20
151.0236120879
 11
612.2721456110
 21
129.0236120726
  0
LINE
  8
2
  6
CONTINUOUS
 62
6
 10
615.8284044061
 20
134.0236120879
 11
612.2721456110
 21
134.0236120879
  0
LINE
  8
2
  6
CONTINUOUS
 62
6
 10
617.3284044061
 20
132.5236120875
 11
617.3284044061
 21
128.9236120879
  0
LINE
  8
2
  6
CONTINUOUS
 62
6
 10
617.3284044061
 20
128.9236120879
 11
619.3284044061
 21
128.9236120879
  0
LINE
  8
2
  6
CONTINUOUS
 62
6
 10
619.3284044061
 20
132.5236120880
 11
619.3284044061
 21
128.9236120879
  0
LINE
  8
2
  6
CONTINUOUS
 62
6
 10
620.8284044061
 20
146.0236120879
 11
630.6284044061
 21
146.0236120879
  0
LINE
  8
2
  6
CONTINUOUS
 62
6
 10
630.6284044061
 20
146.0236120879
 11
630.6284044061
 21
134.0236120879
  0
LINE
  8
2
  6
CONTINUOUS
 62
6
 10
620.8284044061
 20
134.0236120879
 11
630.6284044061
 21
134.0236120879
  0
LINE
  8
2
  6
CONTINUOUS
 62
6
 10
612.2721456110
 20
141.0236120879
 11
629.6333757514
 21
141.0236120879
  0
LINE
  8
2
  6
CONTINUOUS
 62
6
 10
629.6333757514
 20
141.0236120879
 11
629.6333757514
 21
139.0236120879
  0
LINE
  8
2
  6
CONTINUOUS
 62
6
 10
629.6333757514
 20
139.0236120879
 11
612.2721456110
 21
139.0236120879
  0
LINE
  8
2
  6
CONTINUOUS
 62
6
 10
627.9914492128
 20
141.0236120878
 11
627.9914492128
 21
139.0236120879
  0
ARC
  8
2
  6
CONTINUOUS
 62
6
 10
615.8284044061
 20
147.5236120881
 40
1.5000000000
 50
270.0000000000
 51
0.0000000000
  0
ARC
  8
2
  6
CONTINUOUS
 62
6
 10
620.8284044061
 20
147.5236120878
 40
1.5000000000
 50
180.0000000000
 51
270.0000000000
  0
ARC
  8
2
  6
CONTINUOUS
 62
6
 10
615.8284044061
 20
132.5236120875
 40
1.5000000000
 50
0.0000000000
 51
90.0000000000
  0
ARC
  8
2
  6
CONTINUOUS
 62
6
 10
620.8284044061
 20
132.5236120880
 40
1.5000000000
 50
90.0000000000
 51
180.0000000000
  0
LINE
  8
2
  6
CONTINUOUS
 62
3
 10
581.8284061942
 20
110.2736120874
 11
578.8284061942
 21
110.2736120874
  0
LINE
  8
2
  6
CONTINUOUS
 62
3
 10
582.8284061942
 20
91.2736120874
 11
582.8284061942
 21
109.2736120874
  0
LINE
  8
2
  6
CONTINUOUS
 62
3
 10
578.8284061942
 20
90.2736120874
 11
581.8284061942
 21
90.2736120874
  0
LINE
  8
2
  6
CONTINUOUS
 62
3
 10
577.8284061942
 20
91.2736120874
 11
577.8284061942
 21
109.2736120874
  0
ARC
  8
2
  6
CONTINUOUS
 62
3
 10
578.8284061942
 20
109.2736120874
 40
1.0000000000
 50
90.0000000000
 51
180.0000000000
  0
ARC
  8
2
  6
CONTINUOUS
 62
3
 10
581.8284061942
 20
109.2736120874
 40
1.0000000000
 50
0.0000000000
 51
90.0000000000
  0
ARC
  8
2
  6
CONTINUOUS
 62
3
 10
581.8284061942
 20
91.2736120874
 40
1.0000000000
 50
270.0000000000
 51
0.0000000000
  0
ARC
  8
2
  6
CONTINUOUS
 62
3
 10
578.8284061942
 20
91.2736120874
 40
1.0000000000
 50
180.0000000000
 51
270.0000000000
  0
TEXT
  8
2
  6
CONTINUOUS
 62
3
 10
582.078406
 20
92.023612
 40
3.500000
  1
MADOKA
 41
1.224490
 50
90.000000
 51
0.000000
 72
   5
 73
   0
 11
582.078406
 21
108.523612
  0
LINE
  8
2
  6
CONTINUOUS
 62
3
 10
610.8284044061
 20
154.1236120869
 11
610.8284044061
 21
125.9236120869
  0
LINE
  8
2
  6
HIDDEN
 62
3
 10
580.8284061942
 20
227.2736142928
 11
580.8284061942
 21
224.2736142936
  0
LINE
  8
2
  6
DASHDOT
 62
3
 10
510.8284061942
 20
199.7736120874
 11
510.8284061942
 21
80.2736120874
  0
POINT
  8
2
  6
CONTINUOUS
 62
3
 10
510.8284061942
 20
140.0236120874
  0
POINT
  8
2
  6
CONTINUOUS
 62
3
 10
622.8284044061
 20
140.0236120874
  0
LINE
  8
2
  6
CONTINUOUS
 62
6
 10
575.3284061942
 20
63.2736098820
 11
593.4284061942
 21
63.2736098820
  0
LINE
  8
2
  6
CONTINUOUS
 62
6
 10
589.7648978673
 20
61.7736098820
 11
593.4284061942
 21
61.7736098820
  0
LINE
  8
2
  6
CONTINUOUS
 62
6
 10
566.8284061942
 20
63.2736098820
 11
575.3284061942
 21
63.2736098820
  0
LINE
  8
2
  6
CONTINUOUS
 62
6
 10
590.6863638529
 20
54.7736098820
 11
589.8284061942
 21
54.7736098820
  0
LINE
  8
2
  6
CONTINUOUS
 62
6
 10
589.8284061942
 20
56.7736098820
 11
590.4861906473
 21
56.7736098820
  0
LINE
  8
2
  6
CONTINUOUS
 62
6
 10
590.0958117644
 20
60.6740208443
 11
590.4861906473
 21
56.7736098820
  0
LINE
  8
2
  6
CONTINUOUS
 62
6
 10
589.1467283682
 20
45.2871001894
 11
589.1467283682
 21
45.7871001894
  0
LINE
  8
2
  6
CONTINUOUS
 62
6
 10
589.1467283682
 20
45.7871001894
 11
590.0784061942
 21
45.7736098820
  0
LINE
  8
2
  6
CONTINUOUS
 62
6
 10
590.0784061942
 20
45.7736098820
 11
589.6589691642
 21
49.9679801824
  0
LINE
  8
2
  6
CONTINUOUS
 62
6
 10
590.4861906473
 20
56.7736098820
 11
591.8173424648
 21
43.4736098820
  0
LINE
  8
2
  6
CONTINUOUS
 62
6
 10
593.4284061942
 20
63.2736098820
 11
593.4284061942
 21
61.7736098820
  0
LINE
  8
2
  6
CONTINUOUS
 62
6
 10
591.8173424648
 20
43.4736098820
 11
590.8123462817
 21
43.4736098817
  0
ARC
  8
2
  6
CONTINUOUS
 62
6
 10
591.0908404191
 20
60.7736098820
 40
1.0000000000
 50
90.0000000000
 51
185.7155059431
  0
LINE
  8
2
  6
CONTINUOUS
 62
6
 10
590.8123462817
 20
43.4736098817
 11
589.1467283682
 21
45.2871001894
  0
LINE
  8
2
  6
CONTINUOUS
 62
6
 10
591.7177534271
 20
44.4686385367
 11
593.0609128524
 21
46.1105650753
  0
LINE
  8
2
  6
CONTINUOUS
 62
6
 10
593.0609128524
 20
46.1105650753
 11
591.4932519078
 21
61.7736098820
  0
LINE
  8
2
  6
CONTINUOUS
 62
6
 10
575.3284061892
 20
216.7736142928
 11
593.4284061942
 21
216.7736142928
  0
LINE
  8
2
  6
HIDDEN
 62
6
 10
566.8284061891
 20
218.2736142931
 11
589.7648978674
 21
218.2736142931
  0
LINE
  8
2
  6
CONTINUOUS
 62
6
 10
589.7648978674
 20
218.2736142931
 11
593.4284061891
 21
218.2736142931
  0
LINE
  8
2
  6
HIDDEN
 62
6
 10
566.8284061891
 20
218.2736142931
 11
566.8284061892
 21
216.7736142928
  0
LINE
  8
2
  6
CONTINUOUS
 62
6
 10
566.8284061892
 20
216.7736142928
 11
575.3284061892
 21
216.7736142928
  0
LINE
  8
2
  6
HIDDEN
 62
6
 10
589.1784061890
 20
225.2736142931
 11
588.3284061942
 21
225.2736142931
  0
LINE
  8
2
  6
HIDDEN
 62
6
 10
589.8284061942
 20
225.2736142931
 11
589.1784061890
 21
225.2736142931
  0
LINE
  8
2
  6
CONTINUOUS
 62
6
 10
590.6863638477
 20
225.2736142931
 11
589.8284061942
 21
225.2736142931
  0
LINE
  8
2
  6
HIDDEN
 62
6
 10
588.3284061942
 20
223.2736142931
 11
588.9784061890
 21
223.2736142931
  0
LINE
  8
2
  6
HIDDEN
 62
6
 10
588.9784061890
 20
223.2736142931
 11
589.8284061942
 21
223.2736142931
  0
LINE
  8
2
  6
CONTINUOUS
 62
6
 10
589.8284061942
 20
223.2736142931
 11
590.4861906421
 21
223.2736142931
  0
LINE
  8
2
  6
HIDDEN
 62
6
 10
588.6585054453
 20
220.0746068551
 11
588.9784061890
 21
223.2736142931
  0
LINE
  8
2
  6
CONTINUOUS
 62
6
 10
590.0958117593
 20
219.3732033309
 11
590.4861906421
 21
223.2736142931
  0
LINE
  8
2
  6
CONTINUOUS
 62
6
 10
589.1467283628
 20
234.7601239857
 11
589.1467283628
 21
234.2601239857
  0
LINE
  8
2
  6
CONTINUOUS
 62
6
 10
589.1467283628
 20
234.2601239857
 11
590.0784061888
 21
234.2736142931
  0
LINE
  8
2
  6
HIDDEN
 62
6
 10
589.6589691598
 20
230.0792440024
 11
589.1784061890
 21
225.2736142931
  0
LINE
  8
2
  6
CONTINUOUS
 62
6
 10
590.0784061888
 20
234.2736142931
 11
589.6589691598
 21
230.0792440024
  0
LINE
  8
2
  6
CONTINUOUS
 62
6
 10
590.4861906421
 20
223.2736142931
 11
591.8173424594
 21
236.5736142931
  0
LINE
  8
2
  6
CONTINUOUS
 62
6
 10
593.4284061942
 20
216.7736142928
 11
593.4284061891
 21
218.2736142931
  0
LINE
  8
2
  6
CONTINUOUS
 62
6
 10
591.8173424594
 20
236.5736142931
 11
590.8123462762
 21
236.5736142934
  0
ARC
  8
2
  6
HIDDEN
 62
6
 10
586.6684310649
 20
220.2736142931
 40
2.0000000000
 50
270.0000000012
 51
354.2894068626
  0
ARC
  8
2
  6
CONTINUOUS
 62
6
 10
591.0908404140
 20
219.2736142931
 40
1.0000000000
 50
174.2844940570
 51
270.0000000012
  0
LINE
  8
2
  6
CONTINUOUS
 62
6
 10
590.8123462762
 20
236.5736142934
 11
589.1467283628
 21
234.7601239857
  0
LINE
  8
2
  6
CONTINUOUS
 62
6
 10
591.7177534216
 20
235.5785856385
 11
593.0609128470
 21
233.9366590999
  0
LINE
  8
2
  6
CONTINUOUS
 62
6
 10
593.0609128470
 20
233.9366590999
 11
591.4932519027
 21
218.2736142931
  0
DIMENSION
  8
1
  6
CONTINUOUS
 62
5
  2
*D0
 10
494.7772118209
 20
78.2736098820
 11
492.0272118209
 21
140.0236120874
  70
0
 13
504.8234435897
 23
201.7736142928
 14
504.8234435897
 24
78.2736098820
 50
90.000000
  0
DIMENSION
  8
1
  6
CONTINUOUS
 62
5
  2
*D1
 10
590.8284061942
 20
206.7403423294
 11
547.3284061942
 21
209.4903423294
  70
0
 13
503.8284061942
 23
200.7785773972
 14
590.8284061942
 24
200.7785773972
 50
0.000000
  0
DIMENSION
  8
1
  6
CONTINUOUS
 62
5
  2
*D2
 10
593.4284061942
 20
206.7403423294
 11
592.1284061942
 21
209.4903423294
  70
0
 13
590.8284061942
 23
200.7785773972
 14
593.4284061942
 24
140.0236120874
 50
0.000000
  0
DIMENSION
  8
1
  6
CONTINUOUS
 62
5
  2
*D3
 10
494.7772118209
 20
63.2736098820
 11
492.0272118209
 21
50.7736098820
  70
0
 13
503.8284059781
 23
38.2736098820
 14
523.6568333189
 24
63.2736098820
 50
90.000000
  0
INSERT
  8
1
  6
CONTINUOUS
 62
5
  2
LTEX0
 10
578.3818727375
 20
138.7012842432
  0
LINE
  8
1
  6
CONTINUOUS
 62
7
 10
670.3046731145
 20
195.7736133093
 11
682.3046732189
 21
195.7736133093
  0
LINE
  8
1
  6
CONTINUOUS
 62
7
 10
670.3046731145
 20
199.4686244482
 11
670.3046731145
 21
195.7736133093
  0
LINE
  8
1
  6
CONTINUOUS
 62
7
 10
682.3046732189
 20
199.4686244482
 11
682.3046732189
 21
195.7736133093
  0
POLYLINE
  8
1
  6
CONTINUOUS
 62
7
 66
     1
 70
     0
  0
VERTEX
  8
1
 62
7
 10
680.7694724358
 20
79.8086320162
 42
0.0225421746
  0
VERTEX
  8
1
 62
7
 10
679.8402070729
 20
79.9371175752
 42
0.0121462168
  0
VERTEX
  8
1
 62
7
 10
678.5407411443
 20
80.0307780166
 42
0.0122764779
  0
VERTEX
  8
1
 62
7
 10
676.3046731667
 20
80.0835645543
 42
0.0122764779
  0
VERTEX
  8
1
 62
7
 10
674.0686051891
 20
80.0307780166
 42
0.0121462168
  0
VERTEX
  8
1
 62
7
 10
672.7691392605
 20
79.9371175752
 42
0.0228681651
  0
VERTEX
  8
1
 62
7
 10
671.8419704047
 20
79.8090474317
 42
0.0101065848
  0
SEQEND
  8
1
  0
LINE
  8
1
  6
CONTINUOUS
 62
7
 10
682.3046732189
 20
84.2736108655
 11
682.3046732189
 21
80.5785997266
  0
LINE
  8
1
  6
CONTINUOUS
 62
7
 10
670.3046731145
 20
84.2736108655
 11
670.3046731145
 21
80.5785997266
  0
LINE
  8
1
  6
CONTINUOUS
 62
7
 10
670.3046731145
 20
84.2736108655
 11
682.3046732189
 21
84.2736108655
  0
LINE
  8
1
  6
CONTINUOUS
 62
7
 10
681.3046730549
 20
200.8636637086
 11
754.3996845798
 21
200.8636637086
  0
LINE
  8
1
  6
CONTINUOUS
 62
7
 10
670.2997105622
 20
201.7736142928
 11
755.3096388893
 21
201.7736142928
  0
LINE
  8
1
  6
CONTINUOUS
 62
7
 10
681.3046730549
 20
79.1835604662
 11
681.3046730549
 21
79.5835635120
  0
LINE
  8
1
  6
CONTINUOUS
 62
7
 10
754.3996845798
 20
79.1835604662
 11
681.3046730549
 21
79.1835604662
  0
LINE
  8
1
  6
CONTINUOUS
 62
7
 10
670.2997105622
 20
78.2736098820
 11
755.3096388893
 21
78.2736098820
  0
LINE
  8
1
  6
CONTINUOUS
 62
7
 10
671.3046732785
 20
79.5835635120
 11
671.3046732785
 21
79.2785739953
  0
POLYLINE
  8
1
  6
CONTINUOUS
 62
7
 66
     1
 70
     1
  0
VERTEX
  8
1
 10
678.3046731667
 20
79.5736128699
 42
0.1629625566
  0
VERTEX
  8
1
 10
678.0935275488
 20
79.6630558149
 42
0.0228681651
  0
VERTEX
  8
1
 10
677.7188867291
 20
79.7150345832
 42
0.0121462168
  0
VERTEX
  8
1
 10
677.1991003577
 20
79.7524987598
 42
0.0122764779
  0
VERTEX
  8
1
 10
676.3046731667
 20
79.7736133749
 42
0.0122764779
  0
VERTEX
  8
1
 10
675.4102459757
 20
79.7524987598
 42
0.0121462168
  0
VERTEX
  8
1
 10
674.8904596043
 20
79.7150345832
 42
0.0228681651
  0
VERTEX
  8
1
 10
674.5158187846
 20
79.6630558149
 42
0.1629625566
  0
VERTEX
  8
1
 10
674.3046731667
 20
79.5736128699
 42
0.1629625566
  0
VERTEX
  8
1
 10
674.5158187846
 20
79.4841699250
 42
0.0228681651
  0
VERTEX
  8
1
 10
674.8904596043
 20
79.4321911566
 42
0.0121462168
  0
VERTEX
  8
1
 10
675.4102459757
 20
79.3947269800
 42
0.0122764779
  0
VERTEX
  8
1
 10
676.3046731667
 20
79.3736123649
 42
0.0122764779
  0
VERTEX
  8
1
 10
677.1991003577
 20
79.3947269800
 42
0.0121462168
  0
VERTEX
  8
1
 10
677.7188867291
 20
79.4321911566
 42
0.0228681651
  0
VERTEX
  8
1
 10
678.0935275488
 20
79.4841699250
 42
0.1629625566
  0
SEQEND
  8
1
  0
LINE
  8
1
  6
CONTINUOUS
 62
7
 10
747.8046765046
 20
88.2736115212
 11
747.8046765046
 21
191.7736126537
  0
LINE
  8
1
  6
CONTINUOUS
 62
7
 10
744.8046704249
 20
194.7736112828
 11
692.8046730773
 21
194.7736112828
  0
ARC
  8
1
  6
CONTINUOUS
 62
7
 10
692.8046731667
 20
191.7736120874
 40
3.0000000000
 50
90.0000000000
 51
180.0000000000
  0
LINE
  8
1
  6
CONTINUOUS
 62
7
 10
691.3046728314
 20
88.2736115212
 11
691.3046728314
 21
191.7736126537
  0
ARC
  8
1
  6
CONTINUOUS
 62
7
 10
744.8046731667
 20
88.2736120874
 40
3.0000000000
 50
270.0000000000
 51
0.0000000000
  0
LINE
  8
1
  6
CONTINUOUS
 62
7
 10
744.8046704249
 20
193.2736119682
 11
692.8046730773
 21
193.2736119682
  0
ARC
  8
1
  6
CONTINUOUS
 62
7
 10
744.8046731667
 20
191.7736120874
 40
3.0000000000
 50
0.0000000000
 51
90.0000000000
  0
ARC
  8
1
  6
CONTINUOUS
 62
7
 10
692.8046731667
 20
88.2736120874
 40
1.5000000000
 50
180.0000000000
 51
270.0000000000
  0
LINE
  8
1
  6
CONTINUOUS
 62
7
 10
692.8046730773
 20
85.2736128921
 11
744.8046704249
 21
85.2736128921
  0
ARC
  8
1
  6
HIDDEN
 62
7
 10
744.8046731667
 20
191.7736120874
 40
1.5000000000
 50
0.0000000000
 51
90.0000000000
  0
ARC
  8
1
  6
CONTINUOUS
 62
7
 10
692.8046731667
 20
191.7736120874
 40
1.5000000000
 50
90.0000000000
 51
180.0000000000
  0
LINE
  8
1
  6
CONTINUOUS
 62
7
 10
689.8046735169
 20
88.2736115212
 11
689.8046735169
 21
191.7736126537
  0
LINE
  8
1
  6
CONTINUOUS
 62
7
 10
746.3046734647
 20
88.2736115212
 11
746.3046734647
 21
191.7736126537
  0
ARC
  8
1
  6
CONTINUOUS
 62
7
 10
744.8046731667
 20
88.2736120874
 40
1.5000000000
 50
270.0000000000
 51
0.0000000000
  0
ARC
  8
1
  6
CONTINUOUS
 62
7
 10
692.8046731667
 20
88.2736120874
 40
3.0000000000
 50
180.0000000000
 51
270.0000000000
  0
LINE
  8
1
  6
CONTINUOUS
 62
7
 10
692.8046730773
 20
86.7736122066
 11
744.8046704249
 21
86.7736122066
  0
POLYLINE
  8
1
  6
CONTINUOUS
 62
7
 66
     1
 70
     0
  0
VERTEX
  8
1
 62
7
 10
670.3046731666
 20
80.2785996997
 42
0.0441499573
  0
VERTEX
  8
1
 62
7
 10
670.3047221829
 20
80.2686983190
 42
0.0392133150
  0
SEQEND
  8
1
  0
LINE
  8
1
  6
CONTINUOUS
 62
7
 10
670.3046731145
 20
80.2785983736
 11
670.3046731145
 21
80.5785997266
  0
POLYLINE
  8
1
  6
CONTINUOUS
 62
7
 66
     1
 70
     0
  0
VERTEX
  8
1
 62
7
 10
670.3047221829
 20
80.2686983190
 42
0.0158105905
  0
VERTEX
  8
1
 62
7
 10
670.3073675309
 20
80.2055427025
 42
0.0807888691
  0
VERTEX
  8
1
 62
7
 10
670.3817439605
 20
79.8951106662
 42
0.0804310507
  0
VERTEX
  8
1
 62
7
 10
670.5508437561
 20
79.6235255230
 42
0.1157045986
  0
VERTEX
  8
1
 62
7
 10
670.9242783617
 20
79.3552561881
 42
0.1157045986
  0
VERTEX
  8
1
 62
7
 10
671.3046731666
 20
79.2785749596
 42
0.0182734515
  0
SEQEND
  8
1
  0
LINE
  8
1
  6
CONTINUOUS
 62
7
 10
682.3046732189
 20
80.5785997266
 11
682.3046732189
 21
80.2785983736
  0
POLYLINE
  8
1
  6
CONTINUOUS
 62
7
 66
     1
 70
     0
  0
VERTEX
  8
1
 62
7
 10
682.2997103321
 20
80.1785994472
 42
0.0250460769
  0
VERTEX
  8
1
 62
7
 10
682.3046731668
 20
80.2785996997
 42
0.1159165546
  0
VERTEX
  8
1
 62
7
 10
682.3046731668
 20
80.2785996997
 42
0.1159165546
  0
SEQEND
  8
1
  0
POLYLINE
  8
1
  6
CONTINUOUS
 62
7
 66
     1
 70
     0
  0
VERTEX
  8
1
 62
7
 10
681.3046731668
 20
79.1835622818
 42
0.0714605935
  0
VERTEX
  8
1
 62
7
 10
681.5732507971
 20
79.2468464349
 42
0.1063852091
  0
VERTEX
  8
1
 62
7
 10
681.9756783948
 20
79.5075942191
 42
0.1063852091
  0
VERTEX
  8
1
 62
7
 10
682.2364261790
 20
79.9100218168
 42
0.0777603711
  0
VERTEX
  8
1
 62
7
 10
682.2997103321
 20
80.1785994472
 42
0.0123362576
  0
SEQEND
  8
1
  0
POLYLINE
  8
1
  6
CONTINUOUS
 62
7
 66
     1
 70
     0
  0
VERTEX
  8
1
 62
7
 10
669.3046731667
 20
79.2686467776
 42
0.0791249785
  0
VERTEX
  8
1
 62
7
 10
669.3546845772
 20
78.9560749423
 42
0.1174683520
  0
VERTEX
  8
1
 62
7
 10
669.5955187699
 20
78.5644534125
 42
0.1174683520
  0
VERTEX
  8
1
 62
7
 10
669.9871409078
 20
78.3236202087
 42
0.0808607469
  0
VERTEX
  8
1
 62
7
 10
670.2997103320
 20
78.2736095874
 42
0.0012380847
  0
SEQEND
  8
1
  0
POLYLINE
  8
1
  6
CONTINUOUS
 62
7
 66
     1
 70
     0
  0
VERTEX
  8
1
 62
7
 10
670.2997103320
 20
201.7736145874
 42
0.0796147256
  0
VERTEX
  8
1
 62
7
 10
669.9871409078
 20
201.7236039661
 42
0.1174683520
  0
VERTEX
  8
1
 62
7
 10
669.5955187699
 20
201.4827707623
 42
0.1174683520
  0
VERTEX
  8
1
 62
7
 10
669.3546845772
 20
201.0911492326
 42
0.0808607469
  0
VERTEX
  8
1
 62
7
 10
669.3046731667
 20
200.7785773972
 42
0.0012373217
  0
SEQEND
  8
1
  0
LINE
  8
1
  6
CONTINUOUS
 62
7
 10
669.8546729477
 20
84.2736108655
 11
669.8546729477
 21
195.7736133093
  0
LINE
  8
1
  6
CONTINUOUS
 62
7
 10
669.3046729506
 20
200.7785780782
 11
669.3046729506
 21
79.2686460966
  0
LINE
  8
1
  6
CONTINUOUS
 62
7
 10
669.8546729477
 20
84.2736108655
 11
670.3046731145
 21
84.2736108655
  0
LINE
  8
1
  6
CONTINUOUS
 62
7
 10
669.8546729477
 20
195.7736133093
 11
670.3046731145
 21
195.7736133093
  0
ARC
  8
1
  6
CONTINUOUS
 62
7
 10
754.3877023200
 20
80.1905826659
 40
1.0070934838
 50
270.6817133899
 51
359.3182866101
  0
ARC
  8
1
  6
CONTINUOUS
 62
7
 10
754.3877023200
 20
199.8566415090
 40
1.0070934838
 50
0.6817133898
 51
89.3182866101
  0
LINE
  8
1
  6
CONTINUOUS
 62
7
 10
755.3947245197
 20
199.8686237687
 11
755.3947245197
 21
80.1786004061
  0
LINE
  8
1
  6
CONTINUOUS
 62
7
 10
683.3046733828
 20
84.2736108655
 11
683.3046733828
 21
195.7736133093
  0
ARC
  8
1
  6
CONTINUOUS
 62
7
 10
688.3046731667
 20
84.2736120874
 40
3.0000000000
 50
180.0000000000
 51
270.0000000000
  0
LINE
  8
1
  6
CONTINUOUS
 62
7
 10
688.3046732710
 20
81.2736122364
 11
747.8046765046
 21
81.2736122364
  0
ARC
  8
1
  6
CONTINUOUS
 62
7
 10
747.8046731667
 20
84.2736120874
 40
3.0000000000
 50
270.0000000000
 51
0.0000000000
  0
LINE
  8
1
  6
CONTINUOUS
 62
7
 10
750.8046751337
 20
84.2736108655
 11
750.8046751337
 21
195.7736133093
  0
ARC
  8
1
  6
CONTINUOUS
 62
7
 10
747.8046731667
 20
195.7736120874
 40
3.0000000000
 50
0.0000000000
 51
90.0000000000
  0
LINE
  8
1
  6
CONTINUOUS
 62
7
 10
747.8046765046
 20
198.7736119384
 11
688.3046732710
 21
198.7736119384
  0
ARC
  8
1
  6
CONTINUOUS
 62
7
 10
688.3046731667
 20
195.7736120874
 40
3.0000000000
 50
90.0000000000
 51
180.0000000000
  0
LINE
  8
1
  6
CONTINUOUS
 62
7
 10
685.3046727793
 20
84.2736108655
 11
685.3046727793
 21
195.7736133093
  0
LINE
  8
1
  6
CONTINUOUS
 62
7
 10
682.3046732189
 20
84.2736108655
 11
683.3046733828
 21
84.2736108655
  0
LINE
  8
1
  6
CONTINUOUS
 62
7
 10
682.3046732189
 20
195.7736133093
 11
683.3046733828
 21
195.7736133093
  0
ARC
  8
1
  6
CONTINUOUS
 62
7
 10
747.8046731667
 20
195.7736120874
 40
1.0000000000
 50
0.0000000000
 51
90.0000000000
  0
ARC
  8
1
  6
CONTINUOUS
 62
7
 10
747.8046731667
 20
84.2736120874
 40
1.0000000000
 50
270.0000000000
 51
0.0000000000
  0
LINE
  8
1
  6
CONTINUOUS
 62
7
 10
688.3046732710
 20
83.2736125643
 11
747.8046765046
 21
83.2736125643
  0
ARC
  8
1
  6
CONTINUOUS
 62
7
 10
688.3046731667
 20
84.2736120874
 40
1.0000000000
 50
180.0000000000
 51
270.0000000000
  0
LINE
  8
1
  6
CONTINUOUS
 62
7
 10
687.3046731071
 20
84.2736108655
 11
687.3046731071
 21
195.7736133093
  0
ARC
  8
1
  6
CONTINUOUS
 62
7
 10
688.3046731667
 20
195.7736120874
 40
1.0000000000
 50
90.0000000000
 51
180.0000000000
  0
LINE
  8
1
  6
CONTINUOUS
 62
7
 10
747.8046765046
 20
196.7736116106
 11
688.3046732710
 21
196.7736116106
  0
LINE
  8
1
  6
CONTINUOUS
 62
7
 10
748.8046710805
 20
84.2736108655
 11
748.8046710805
 21
195.7736133093
  0
POLYLINE
  8
1
  6
CONTINUOUS
 62
7
 66
     1
 70
     0
  0
VERTEX
  8
1
 62
7
 10
756.3046731667
 20
200.7785773972
 42
0.0796153609
  0
VERTEX
  8
1
 62
7
 10
756.2546617562
 20
201.0911492326
 42
0.1174683520
  0
VERTEX
  8
1
 62
7
 10
756.0138275635
 20
201.4827707623
 42
0.1174683520
  0
VERTEX
  8
1
 62
7
 10
755.6222054256
 20
201.7236039661
 42
0.0808607469
  0
VERTEX
  8
1
 62
7
 10
755.3096360014
 20
201.7736145874
 42
0.0012379529
  0
SEQEND
  8
1
  0
POLYLINE
  8
1
  6
CONTINUOUS
 62
7
 66
     1
 70
     0
  0
VERTEX
  8
1
 62
7
 10
755.3096360014
 20
78.2736095874
 42
0.0791243434
  0
VERTEX
  8
1
 62
7
 10
755.6222054256
 20
78.3236202087
 42
0.1174683520
  0
VERTEX
  8
1
 62
7
 10
756.0138275635
 20
78.5644534125
 42
0.1174683520
  0
VERTEX
  8
1
 62
7
 10
756.2546617562
 20
78.9560749423
 42
0.0808607469
  0
VERTEX
  8
1
 62
7
 10
756.3046731667
 20
79.2686467776
 42
0.0012374534
  0
SEQEND
  8
1
  0
LINE
  8
1
  6
CONTINUOUS
 62
7
 10
755.5546735839
 20
152.5236122737
 11
756.3046713786
 21
152.5236122737
  0
LINE
  8
1
  6
CONTINUOUS
 62
7
 10
755.5546735839
 20
127.5236119012
 11
755.5546735839
 21
152.5236122737
  0
LINE
  8
1
  6
CONTINUOUS
 62
7
 10
755.5546735839
 20
127.5236119012
 11
756.3046713786
 21
127.5236119012
  0
LINE
  8
1
  6
CONTINUOUS
 62
7
 10
756.3046713786
 20
79.2686460966
 11
756.3046713786
 21
127.5236119012
  0
LINE
  8
1
  6
CONTINUOUS
 62
7
 10
756.3046713786
 20
152.5236122737
 11
756.3046713786
 21
200.7785780782
  0
CIRCLE
  8
1
  6
HIDDEN
 62
7
 10
738.8046731667
 20
189.5236120874
 40
3.2500000000
  0
CIRCLE
  8
1
  6
HIDDEN
 62
7
 10
738.8046731667
 20
90.5236120874
 40
3.2500000000
  0
CIRCLE
  8
1
  6
HIDDEN
 62
7
 10
732.3046731667
 20
189.5236120874
 40
1.2500000000
  0
CIRCLE
  8
1
  6
HIDDEN
 62
7
 10
732.3046731667
 20
90.5236120874
 40
1.2500000000
  0
LINE
  8
1
  6
HIDDEN
 62
7
 10
728.8046715276
 20
86.7736122066
 11
728.8046715276
 21
92.5236126835
  0
LINE
  8
1
  6
HIDDEN
 62
7
 10
728.8046715276
 20
92.5236126835
 11
731.8046738820
 21
95.5236113126
  0
LINE
  8
1
  6
HIDDEN
 62
7
 10
731.8046738820
 20
95.5236113126
 11
739.8046751933
 21
95.5236113126
  0
LINE
  8
1
  6
HIDDEN
 62
7
 10
739.8046751933
 20
95.5236113126
 11
739.8046751933
 21
103.5236126239
  0
ARC
  8
1
  6
HIDDEN
 62
7
 10
740.8046731668
 20
103.5236120873
 40
1.0000000001
 50
90.0000000000
 51
180.0000000000
  0
LINE
  8
1
  6
HIDDEN
 62
7
 10
740.8046697692
 20
104.5236109251
 11
744.8046704249
 21
104.5236109251
  0
LINE
  8
1
  6
HIDDEN
 62
7
 10
744.8046704249
 20
104.5236109251
 11
744.8046704249
 21
183.5236108357
  0
ARC
  8
1
  6
HIDDEN
 62
7
 10
743.8046731667
 20
183.5236120874
 40
1.0000000000
 50
0.0000000000
 51
90.0000000000
  0
LINE
  8
1
  6
HIDDEN
 62
7
 10
743.8046758489
 20
184.5236128623
 11
731.8046738820
 21
184.5236128623
  0
LINE
  8
1
  6
HIDDEN
 62
7
 10
731.8046738820
 20
184.5236128623
 11
728.8046715276
 21
187.5236114914
  0
LINE
  8
1
  6
HIDDEN
 62
7
 10
728.8046715276
 20
187.5236114914
 11
728.8046715276
 21
193.2736119682
  0
CIRCLE
  8
1
  6
HIDDEN
 62
7
 10
705.3046731667
 20
90.5236120874
 40
1.2500000000
  0
CIRCLE
  8
1
  6
HIDDEN
 62
7
 10
705.3046731667
 20
189.5236120874
 40
1.2500000000
  0
CIRCLE
  8
1
  6
HIDDEN
 62
7
 10
698.8046731667
 20
90.5236120874
 40
3.2500000000
  0
CIRCLE
  8
1
  6
HIDDEN
 62
7
 10
698.8046731667
 20
189.5236120874
 40
3.2500000000
  0
LINE
  8
1
  6
HIDDEN
 62
7
 10
708.8046719746
 20
193.2736119682
 11
708.8046719746
 21
187.5236114914
  0
LINE
  8
1
  6
HIDDEN
 62
7
 10
708.8046719746
 20
187.5236114914
 11
705.8046733455
 21
184.5236128623
  0
LINE
  8
1
  6
HIDDEN
 62
7
 10
696.8046737329
 20
175.5236132497
 11
692.8046730773
 21
175.5236132497
  0
LINE
  8
1
  6
HIDDEN
 62
7
 10
708.8046719746
 20
92.5236126835
 11
708.8046719746
 21
86.7736122066
  0
LINE
  8
1
  6
HIDDEN
 62
7
 10
697.8046738969
 20
184.5236128623
 11
697.8046738969
 21
176.5236115510
  0
LINE
  8
1
  6
HIDDEN
 62
7
 10
705.8046733455
 20
95.5236113126
 11
708.8046719746
 21
92.5236126835
  0
ARC
  8
1
  6
HIDDEN
 62
7
 10
696.8046731667
 20
176.5236120874
 40
1.0000000000
 50
270.0000000000
 51
0.0000000000
  0
LINE
  8
1
  6
HIDDEN
 62
7
 10
705.8046733455
 20
184.5236128623
 11
697.8046738969
 21
184.5236128623
  0
ARC
  8
1
  6
HIDDEN
 62
7
 10
693.8046731667
 20
96.5236120874
 40
1.0000000000
 50
180.0000000000
 51
270.0000000000
  0
LINE
  8
1
  6
HIDDEN
 62
7
 10
693.8046732412
 20
95.5236113126
 11
705.8046733455
 21
95.5236113126
  0
LINE
  8
1
  6
HIDDEN
 62
7
 10
692.8046730773
 20
175.5236132497
 11
692.8046730773
 21
96.5236133391
  0
CIRCLE
  8
1
  6
HIDDEN
 62
7
 10
738.8046731667
 20
90.5236120874
 40
1.7500000000
  0
CIRCLE
  8
1
  6
HIDDEN
 62
7
 10
698.8046731667
 20
189.5236120874
 40
1.7500000000
  0
CIRCLE
  8
1
  6
HIDDEN
 62
7
 10
738.8046731667
 20
189.5236120874
 40
1.7500000000
  0
CIRCLE
  8
1
  6
HIDDEN
 62
7
 10
698.8046731667
 20
90.5236120874
 40
1.7500000000
  0
POLYLINE
  8
1
  6
CONTINUOUS
 62
7
 66
     1
 70
     0
  0
VERTEX
  8
1
 62
7
 10
681.3046731668
 20
79.5835632918
 42
0.1629625566
  0
VERTEX
  8
1
 62
7
 10
680.7768091220
 20
79.8071706542
 42
0.0228681651
  0
VERTEX
  8
1
 62
7
 10
680.7694724358
 20
79.8086320162
 42
0.0225421746
  0
SEQEND
  8
1
  0
POLYLINE
  8
1
  6
CONTINUOUS
 62
7
 66
     1
 70
     0
  0
VERTEX
  8
1
 62
7
 10
671.8419704047
 20
79.8090474317
 42
0.0101065848
  0
VERTEX
  8
1
 62
7
 10
671.8325372114
 20
79.8071706542
 42
0.1629625566
  0
VERTEX
  8
1
 62
7
 10
671.3046731666
 20
79.5835632918
 42
0.1629625566
  0
VERTEX
  8
1
 62
7
 10
671.3046731666
 20
79.5835632918
 42
0.1629625566
  0
SEQEND
  8
1
  0
POLYLINE
  8
1
  6
CONTINUOUS
 62
7
 66
     1
 70
     0
  0
VERTEX
  8
1
 62
7
 10
671.8419704047
 20
200.2381767431
 42
0.0224498690
  0
VERTEX
  8
1
 62
7
 10
672.7691392605
 20
200.1101065997
 42
0.0121462168
  0
VERTEX
  8
1
 62
7
 10
674.0686051891
 20
200.0164461583
 42
0.0122764779
  0
VERTEX
  8
1
 62
7
 10
676.3046731667
 20
199.9636596205
 42
0.0122764779
  0
VERTEX
  8
1
 62
7
 10
678.5407411443
 20
200.0164461583
 42
0.0121462168
  0
VERTEX
  8
1
 62
7
 10
679.8402070729
 20
200.1101065997
 42
0.0228681651
  0
VERTEX
  8
1
 62
7
 10
680.7694724358
 20
200.2385921587
 42
0.0078670227
  0
SEQEND
  8
1
  0
LINE
  8
1
  6
CONTINUOUS
 62
7
 10
681.3046730549
 20
200.8636637086
 11
681.3046730549
 21
200.4636606628
  0
LINE
  8
1
  6
CONTINUOUS
 62
7
 10
671.3046732785
 20
200.4636606628
 11
671.3046732785
 21
200.7686501796
  0
POLYLINE
  8
1
  6
CONTINUOUS
 62
7
 66
     1
 70
     1
  0
VERTEX
  8
1
 10
674.3046731667
 20
200.4736113049
 42
0.1629625566
  0
VERTEX
  8
1
 10
674.5158187846
 20
200.3841683600
 42
0.0228681651
  0
VERTEX
  8
1
 10
674.8904596043
 20
200.3321895916
 42
0.0121462168
  0
VERTEX
  8
1
 10
675.4102459757
 20
200.2947254150
 42
0.0122764779
  0
VERTEX
  8
1
 10
676.3046731667
 20
200.2736107999
 42
0.0122764779
  0
VERTEX
  8
1
 10
677.1991003577
 20
200.2947254150
 42
0.0121462168
  0
VERTEX
  8
1
 10
677.7188867291
 20
200.3321895916
 42
0.0228681651
  0
VERTEX
  8
1
 10
678.0935275488
 20
200.3841683600
 42
0.1629625566
  0
VERTEX
  8
1
 10
678.3046731667
 20
200.4736113049
 42
0.1629625566
  0
VERTEX
  8
1
 10
678.0935275488
 20
200.5630542499
 42
0.0228681651
  0
VERTEX
  8
1
 10
677.7188867291
 20
200.6150330182
 42
0.0121462168
  0
VERTEX
  8
1
 10
677.1991003577
 20
200.6524971948
 42
0.0122764779
  0
VERTEX
  8
1
 10
676.3046731667
 20
200.6736118099
 42
0.0122764779
  0
VERTEX
  8
1
 10
675.4102459757
 20
200.6524971948
 42
0.0121462168
  0
VERTEX
  8
1
 10
674.8904596043
 20
200.6150330182
 42
0.0228681651
  0
VERTEX
  8
1
 10
674.5158187846
 20
200.5630542499
 42
0.1629625566
  0
SEQEND
  8
1
  0
POLYLINE
  8
1
  6
CONTINUOUS
 62
7
 66
     1
 70
     0
  0
VERTEX
  8
1
 62
7
 10
670.3047221829
 20
199.7785258558
 42
0.0482940236
  0
VERTEX
  8
1
 62
7
 10
670.3046731666
 20
199.7686244752
 42
0.0458989087
  0
SEQEND
  8
1
  0
LINE
  8
1
  6
CONTINUOUS
 62
7
 10
670.3046731145
 20
199.7686258013
 11
670.3046731145
 21
199.4686244482
  0
POLYLINE
  8
1
  6
CONTINUOUS
 62
7
 66
     1
 70
     0
  0
VERTEX
  8
1
 62
7
 10
671.3046731666
 20
200.7686492152
 42
0.0985048074
  0
VERTEX
  8
1
 62
7
 10
670.9242783617
 20
200.6919679868
 42
0.1157045986
  0
VERTEX
  8
1
 62
7
 10
670.5508437561
 20
200.4236986518
 42
0.0804310507
  0
VERTEX
  8
1
 62
7
 10
670.3817439605
 20
200.1521135086
 42
0.0807888691
  0
VERTEX
  8
1
 62
7
 10
670.3073675309
 20
199.8416814723
 42
0.1171664547
  0
VERTEX
  8
1
 62
7
 10
670.3047221829
 20
199.7785258558
 42
0.1010165726
  0
SEQEND
  8
1
  0
LINE
  8
1
  6
CONTINUOUS
 62
7
 10
682.3046732189
 20
199.4686244482
 11
682.3046732189
 21
199.7686258013
  0
POLYLINE
  8
1
  6
CONTINUOUS
 62
7
 66
     1
 70
     0
  0
VERTEX
  8
1
 62
7
 10
682.3046731668
 20
199.7686244752
 42
0.1159165546
  0
VERTEX
  8
1
 62
7
 10
682.2997103321
 20
199.8686247277
 42
0.0908633124
  0
SEQEND
  8
1
  0
POLYLINE
  8
1
  6
CONTINUOUS
 62
7
 66
     1
 70
     0
  0
VERTEX
  8
1
 62
7
 10
682.2997103321
 20
199.8686247277
 42
0.0714605935
  0
VERTEX
  8
1
 62
7
 10
682.2364261790
 20
200.1372023581
 42
0.1063852091
  0
VERTEX
  8
1
 62
7
 10
681.9756783948
 20
200.5396299558
 42
0.1063852091
  0
VERTEX
  8
1
 62
7
 10
681.5732507971
 20
200.8003777399
 42
0.0777603711
  0
VERTEX
  8
1
 62
7
 10
681.3046731668
 20
200.8636618930
 42
0.0123362576
  0
SEQEND
  8
1
  0
POLYLINE
  8
1
  6
CONTINUOUS
 62
7
 66
     1
 70
     0
  0
VERTEX
  8
1
 62
7
 10
680.7694724358
 20
200.2385921587
 42
0.0078670227
  0
VERTEX
  8
1
 62
7
 10
680.7768091220
 20
200.2400535206
 42
0.1629625566
  0
VERTEX
  8
1
 62
7
 10
681.3046731668
 20
200.4636608830
 42
0.1629625566
  0
VERTEX
  8
1
 62
7
 10
681.3046731668
 20
200.4636608830
 42
0.1629625566
  0
SEQEND
  8
1
  0
POLYLINE
  8
1
  6
CONTINUOUS
 62
7
 66
     1
 70
     0
  0
VERTEX
  8
1
 62
7
 10
671.3046731666
 20
200.4636608830
 42
0.1629625566
  0
VERTEX
  8
1
 62
7
 10
671.8325372114
 20
200.2400535206
 42
0.0228681651
  0
VERTEX
  8
1
 62
7
 10
671.8419704047
 20
200.2381767431
 42
0.0224498690
  0
SEQEND
  8
1
  0
CIRCLE
  8
1
  6
HIDDEN
 62
7
 10
705.3046731667
 20
189.5236120874
 40
1.5000000000
  0
CIRCLE
  8
1
  6
HIDDEN
 62
7
 10
732.3046731667
 20
189.5236120874
 40
1.5000000000
  0
CIRCLE
  8
1
  6
HIDDEN
 62
7
 10
732.3046731667
 20
90.5236120874
 40
1.5000000000
  0
CIRCLE
  8
1
  6
HIDDEN
 62
7
 10
705.3046731667
 20
90.5236120874
 40
1.5000000000
  0
DIMENSION
  8
1
  6
CONTINUOUS
 62
5
  2
*D4
 10
644.5325619930
 20
97.8856716097
 11
643.4766685618
 21
101.4490392671
  70
3
 15
647.1242461486
 25
102.1615543533
  0
DIMENSION
  8
1
  6
CONTINUOUS
 62
5
  2
*D5
 10
548.5591527736
 20
235.2736141587
 11
546.0591527736
 21
238.5236142257
  70
0
 13
543.3284050021
 23
241.7736142928
 14
543.3284050021
 24
235.2736141587
 50
90.000000
  0
DIMENSION
  8
1
  6
CONTINUOUS
 62
5
  2
*D6
 10
548.5591527736
 20
218.7736142928
 11
546.0591527736
 21
227.0236142257
  70
0
 13
543.3284050021
 23
235.2736141587
 14
546.2679115571
 24
218.7736142928
 50
90.000000
  0
DIMENSION
  8
1
  6
CONTINUOUS
 62
5
  2
*D7
 10
560.3972323923
 20
224.2736142932
 11
557.8972323923
 21
229.7736142259
  70
0
 13
563.3284045551
 23
235.2736141587
 14
562.8284061932
 24
224.2736142932
 50
90.000000
  0
DIMENSION
  8
1
  6
CONTINUOUS
 62
5
  2
*D8
 10
523.0690942397
 20
239.2736143487
 11
520.5690942397
 21
237.2736142537
  70
0
 13
525.8284058589
 23
235.2736141587
 14
530.0784060899
 24
239.2736143487
 50
90.000000
  0
DIMENSION
  8
1
  6
CONTINUOUS
 62
5
  2
*D9
 10
523.0690942397
 20
241.7736142928
 11
520.5690942397
 21
240.5236143207
  70
0
 13
530.0784060899
 23
239.2736143487
 14
531.5784054044
 24
241.7736142928
 50
90.000000
  0
DIMENSION
  8
1
  6
CONTINUOUS
 62
5
  2
*D10
 10
579.3284034524
 20
17.8508802516
 11
576.8284058366
 21
20.6008802516
  70
0
 13
574.3284082208
 23
24.2736094499
 14
579.3284034524
 24
24.2736094499
 50
0.000000
  0
DIMENSION
  8
1
  6
CONTINUOUS
 62
5
  2
*D11
 10
656.4831566607
 20
104.5236109251
 11
653.7331566607
 21
100.0236111188
  70
0
 13
649.8284044061
 23
95.5236113126
 14
649.8284048382
 24
104.5236109251
 50
90.000000
  0
TEXT
  8
1
  6
CONTINUOUS
 62
7
 10
709.004817
 20
65.849955
 40
5.000000
  1
内 部 図
 41
0.854701
 50
0.000000
 51
0.000000
 72
   5
 73
   0
 11
729.004817
 21
65.849955
  0
INSERT
  8
5
  6
CONTINUOUS
 62
7
  2
S1
 10
785.9409558390
 20
229.8560849505
  0
LINE
  8
5
  6
CONTINUOUS
 62
6
 10
487.3730305766
 20
263.1315670415
 11
487.3730305766
 21
288.1315670415
  0
LINE
  8
5
  6
CONTINUOUS
 62
6
 10
499.3730305766
 20
263.1315670415
 11
499.3730305766
 21
288.1315670415
  0
LINE
  8
5
  6
CONTINUOUS
 62
6
 10
563.8730305766
 20
263.1315670415
 11
563.8730305766
 21
288.1315670415
  0
LINE
  8
5
  6
CONTINUOUS
 62
6
 10
572.8730305766
 20
288.1315670415
 11
572.8730305766
 21
263.1315670415
  0
TEXT
  8
5
  6
CONTINUOUS
 62
6
 10
490.407531
 20
264.131567
 40
3.000000
  1
Date
 41
0.787649
 50
0.000000
 51
0.000000
 72
   5
 73
   0
 11
496.338531
 21
264.131567
  0
TEXT
  8
5
  6
CONTINUOUS
 62
6
 10
480.165531
 20
264.131567
 40
3.000000
  1
Rev.
 41
0.719124
 50
0.000000
 51
0.000000
 72
   5
 73
   0
 11
485.580531
 21
264.131567
  0
TEXT
  8
5
  6
CONTINUOUS
 62
6
 10
500.873031
 20
264.131567
 40
3.000000
  1
Content
 41
0.746681
 50
0.000000
 51
0.000000
 72
   5
 73
   0
 11
510.998031
 21
264.131567
  0
TEXT
  8
5
  6
CONTINUOUS
 62
6
 10
564.845031
 20
264.131567
 40
3.000000
  1
Name
 41
0.937052
 50
0.000000
 51
0.000000
 72
   5
 73
   0
 11
571.901031
 21
264.131567
  0
LINE
  8
5
  6
CONTINUOUS
 62
6
 10
478.3730305766
 20
268.1315670415
 11
572.8730305766
 21
268.1315670415
  0
LINE
  8
5
  6
CONTINUOUS
 62
6
 10
478.3730305766
 20
273.1315670415
 11
572.8730305766
 21
273.1315670415
  0
LINE
  8
5
  6
CONTINUOUS
 62
6
 10
478.3730305766
 20
283.1315670415
 11
572.8730305766
 21
283.1315670415
  0
LINE
  8
5
  6
CONTINUOUS
 62
6
 10
478.3730305766
 20
263.1315670415
 11
572.8730305766
 21
263.1315670415
  0
POINT
  8
5
  6
CONTINUOUS
 62
6
 10
482.8730305766
 20
270.6315670415
  0
POINT
  8
5
  6
CONTINUOUS
 62
6
 10
482.8730305766
 20
275.6315670415
  0
POINT
  8
5
  6
CONTINUOUS
 62
6
 10
482.8730305766
 20
280.6315670415
  0
POINT
  8
5
  6
CONTINUOUS
 62
6
 10
482.8730305766
 20
285.6315670415
  0
POINT
  8
5
  6
CONTINUOUS
 62
6
 10
493.3730305766
 20
285.6315670415
  0
POINT
  8
5
  6
CONTINUOUS
 62
6
 10
493.3730305766
 20
280.6315670415
  0
POINT
  8
5
  6
CONTINUOUS
 62
6
 10
493.3730305766
 20
275.6315670415
  0
POINT
  8
5
  6
CONTINUOUS
 62
6
 10
493.3730305766
 20
270.6315670415
  0
POINT
  8
5
  6
CONTINUOUS
 62
6
 10
568.3730305766
 20
270.6315670415
  0
POINT
  8
5
  6
CONTINUOUS
 62
6
 10
568.3730305766
 20
275.6315670415
  0
POINT
  8
5
  6
CONTINUOUS
 62
6
 10
568.3730305766
 20
280.6315670415
  0
POINT
  8
5
  6
CONTINUOUS
 62
6
 10
568.3730305766
 20
285.6315670415
  0
POINT
  8
5
  6
CONTINUOUS
 62
6
 10
499.3730305766
 20
285.6315670415
  0
POINT
  8
5
  6
CONTINUOUS
 62
6
 10
499.3730305766
 20
280.6315670415
  0
POINT
  8
5
  6
CONTINUOUS
 62
6
 10
499.3730305766
 20
275.6315670415
  0
POINT
  8
5
  6
CONTINUOUS
 62
6
 10
499.3730305766
 20
270.6315670415
  0
INSERT
  8
1
  6
CONTINUOUS
 62
5
  2
BALN0
 10
631.1600150337
 20
195.8053296886
  0
INSERT
  8
1
  6
CONTINUOUS
 62
5
  2
BALN1
 10
616.1717913413
 20
194.9726505946
  0
INSERT
  8
1
  6
CONTINUOUS
 62
5
  2
BALN2
 10
587.8607021446
 20
132.7992782409
  0
LINE
  8
3
  6
CONTINUOUS
 62
7
 10
692.5546731667
 20
193.0236120874
 11
745.0546731667
 21
193.0236120874
  0
LINE
  8
3
  6
CONTINUOUS
 62
7
 10
746.0546731667
 20
192.0236120874
 11
746.0546731667
 21
88.0236120874
  0
LINE
  8
3
  6
CONTINUOUS
 62
7
 10
745.0546731667
 20
87.0236120874
 11
692.5546731667
 21
87.0236120874
  0
LINE
  8
3
  6
CONTINUOUS
 62
7
 10
691.5546731667
 20
88.0236120874
 11
691.5546731667
 21
192.0236120874
  0
LINE
  8
3
  6
CONTINUOUS
 62
7
 10
746.0546731667
 20
88.0236120874
 11
745.0546731667
 21
87.0236120874
  0
LINE
  8
3
  6
CONTINUOUS
 62
7
 10
746.0546731667
 20
192.0236120874
 11
745.0546731667
 21
193.0236120874
  0
LINE
  8
3
  6
CONTINUOUS
 62
7
 10
691.5546731667
 20
192.0236120874
 11
692.5546731667
 21
193.0236120874
  0
LINE
  8
3
  6
CONTINUOUS
 62
7
 10
691.5546731667
 20
88.0236120874
 11
692.5546731667
 21
87.0236120874
  0
POINT
  8
3
  6
CONTINUOUS
 62
7
 10
705.3046731667
 20
189.5236120874
  0
POINT
  8
3
  6
CONTINUOUS
 62
7
 10
732.3046731667
 20
189.5236120874
  0
POINT
  8
3
  6
CONTINUOUS
 62
7
 10
732.3046731667
 20
90.5236120874
  0
POINT
  8
3
  6
CONTINUOUS
 62
7
 10
705.3046731667
 20
90.5236120874
  0
CIRCLE
  8
3
  6
CONTINUOUS
 62
6
 10
705.3046731667
 20
189.5236120874
 40
3.0285714286
  0
LINE
  8
3
  6
CONTINUOUS
 62
6
 10
703.9662210452
 20
190.8620642089
 11
706.6431252882
 21
188.1851599659
  0
LINE
  8
3
  6
CONTINUOUS
 62
6
 10
703.9662210452
 20
188.1851599659
 11
706.6431252882
 21
190.8620642089
  0
CIRCLE
  8
3
  6
CONTINUOUS
 62
6
 10
705.3046731667
 20
189.5236120874
 40
2.6500000000
  0
CIRCLE
  8
3
  6
CONTINUOUS
 62
6
 10
732.3046731667
 20
189.5236120874
 40
3.0285714286
  0
LINE
  8
3
  6
CONTINUOUS
 62
6
 10
730.9662210452
 20
190.8620642089
 11
733.6431252882
 21
188.1851599659
  0
LINE
  8
3
  6
CONTINUOUS
 62
6
 10
730.9662210452
 20
188.1851599659
 11
733.6431252882
 21
190.8620642089
  0
CIRCLE
  8
3
  6
CONTINUOUS
 62
6
 10
732.3046731667
 20
189.5236120874
 40
2.6500000000
  0
CIRCLE
  8
3
  6
CONTINUOUS
 62
6
 10
732.3046731667
 20
90.5236120874
 40
3.0285714286
  0
LINE
  8
3
  6
CONTINUOUS
 62
6
 10
730.9662210452
 20
91.8620642089
 11
733.6431252882
 21
89.1851599659
  0
LINE
  8
3
  6
CONTINUOUS
 62
6
 10
730.9662210452
 20
89.1851599659
 11
733.6431252882
 21
91.8620642089
  0
CIRCLE
  8
3
  6
CONTINUOUS
 62
6
 10
732.3046731667
 20
90.5236120874
 40
2.6500000000
  0
CIRCLE
  8
3
  6
CONTINUOUS
 62
6
 10
705.3046731667
 20
90.5236120874
 40
3.0285714286
  0
LINE
  8
3
  6
CONTINUOUS
 62
6
 10
703.9662210452
 20
91.8620642089
 11
706.6431252882
 21
89.1851599659
  0
LINE
  8
3
  6
CONTINUOUS
 62
6
 10
703.9662210452
 20
89.1851599659
 11
706.6431252882
 21
91.8620642089
  0
CIRCLE
  8
3
  6
CONTINUOUS
 62
6
 10
705.3046731667
 20
90.5236120874
 40
2.6500000000
  0
INSERT
  8
3
  6
CONTINUOUS
 62
5
  2
BALN3
 10
698.8046731667
 20
189.5236120874
  0
INSERT
  8
3
  6
CONTINUOUS
 62
5
  2
BALN4
 10
705.3046731667
 20
192.5521835160
  0
TEXT
  8
5
  6
CONTINUOUS
 62
7
 10
791.940956
 20
245.856085
 40
3.000000
  1
パネル
 41
0.877246
 50
0.000000
 51
0.000000
 72
   5
 73
   0
 11
800.730956
 21
245.856085
  0
TEXT
  8
5
  6
CONTINUOUS
 62
7
 10
811.940956
 20
245.606085
 40
3.500000
  1
M0051B371D (SPCCt=1.6)
 41
0.757927
 50
0.000000
 51
0.000000
 72
   5
 73
   0
 11
850.591456
 21
245.606085
  0
TEXT
  8
5
  6
CONTINUOUS
 62
7
 10
851.940956
 20
245.856085
 40
3.000000
  1
MADOKA
 41
1.028831
 50
0.000000
 51
0.000000
 72
   5
 73
   0
 11
863.823956
 21
245.856085
  0
TEXT
  8
5
  6
CONTINUOUS
 62
7
 10
867.565956
 20
245.606085
 40
3.500000
  1
1
 41
1.000000
 50
0.000000
 51
0.000000
 72
   5
 73
   0
 11
869.315956
 21
245.606085
  0
INSERT
  8
3
  6
CONTINUOUS
 62
5
  2
BALN5
 10
735.1118717325
 20
178.4263828043
  0
POINT
  8
3
  6
CONTINUOUS
 62
7
 10
718.8046731667
 20
140.0236120874
  0
POINT
  8
3
  6
CONTINUOUS
 62
7
 10
718.8046731667
 20
140.0236120874
  0
POINT
  8
3
  6
CONTINUOUS
 62
7
 10
718.8046731667
 20
140.0236120874
  0
POINT
  8
3
  6
CONTINUOUS
 62
7
 10
718.8046731667
 20
140.0236120874
  0
POINT
  8
3
  6
CONTINUOUS
 62
7
 10
718.8046731667
 20
140.0236120874
  0
POINT
  8
3
  6
CONTINUOUS
 62
7
 10
718.8046731667
 20
140.0236120874
  0
POINT
  8
3
  6
CONTINUOUS
 62
7
 10
718.8046731667
 20
140.0236120874
  0
TEXT
  8
5
  6
CONTINUOUS
 62
7
 10
791.940956
 20
230.606085
 40
3.500000
  1
--
 41
0.854701
 50
0.000000
 51
0.000000
 72
   5
 73
   0
 11
795.440956
 21
230.606085
  0
TEXT
  8
5
  6
CONTINUOUS
 62
7
 10
866.690956
 20
230.606085
 40
3.500000
  1
--
 41
0.854701
 50
0.000000
 51
0.000000
 72
   5
 73
   0
 11
870.190956
 21
230.606085
  0
TEXT
  8
5
  6
CONTINUOUS
 62
7
 10
811.940956
 20
230.856085
 40
3.000000
  1
--
 41
0.854701
 50
0.000000
 51
0.000000
 72
   5
 73
   0
 11
814.940956
 21
230.856085
  0
TEXT
  8
5
  6
CONTINUOUS
 62
7
 10
851.940956
 20
230.856085
 40
3.000000
  1
--
 41
0.854701
 50
0.000000
 51
0.000000
 72
   5
 73
   0
 11
854.940956
 21
230.856085
  0
TEXT
  8
5
  6
CONTINUOUS
 62
7
 10
791.940956
 20
240.856085
 40
3.000000
  1
USB中継B→A
 41
0.918984
 50
0.000000
 51
0.000000
 72
   5
 73
   0
 11
810.384956
 21
240.856085
  0
TEXT
  8
5
  6
CONTINUOUS
 62
7
 10
791.940956
 20
235.856085
 40
3.000000
  1
↑固定ビス
 41
0.839085
 50
0.000000
 51
0.000000
 72
   5
 73
   0
 11
806.238956
 21
235.856085
  0
TEXT
  8
5
  6
CONTINUOUS
 62
7
 10
811.940956
 20
235.856085
 40
3.000000
  1
M3×8小ワｾﾑｽ
 41
0.900136
 50
0.000000
 51
0.000000
 72
   5
 73
   0
 11
831.815956
 21
235.856085
  0
TEXT
  8
5
  6
CONTINUOUS
 62
7
 10
811.940956
 20
240.606085
 40
3.500000
  1
MIUSB1-A-B
 41
0.863247
 50
0.000000
 51
0.000000
 72
   5
 73
   0
 11
831.670456
 21
240.606085
  0
TEXT
  8
5
  6
CONTINUOUS
 62
7
 10
851.940956
 20
235.856085
 40
3.000000
  1
--
 41
0.854701
 50
0.000000
 51
0.000000
 72
   5
 73
   0
 11
854.940956
 21
235.856085
  0
TEXT
  8
5
  6
CONTINUOUS
 62
7
 10
867.565956
 20
240.606085
 40
3.500000
  1
2
 41
1.000000
 50
0.000000
 51
0.000000
 72
   5
 73
   0
 11
869.315956
 21
240.606085
  0
TEXT
  8
5
  6
CONTINUOUS
 62
7
 10
867.565956
 20
235.606085
 40
3.500000
  1
4
 41
1.000000
 50
0.000000
 51
0.000000
 72
   5
 73
   0
 11
869.315956
 21
235.606085
  0
INSERT
  8
1
  6
CONTINUOUS
 62
5
  2
BALN6
 10
710.0046731667
 20
170.5236120874
  0
INSERT
  8
1
  6
CONTINUOUS
 62
5
  2
BALN7
 10
710.0046731667
 20
124.5236120874
  0
TEXT
  8
1
  6
CONTINUOUS
 62
7
 10
701.794220
 20
54.275432
 40
3.500000
  1
⑧USB中継は内部のﾓｼﾞｭｰﾙを
 41
0.821288
 50
0.000000
 51
0.000000
 72
   5
 73
   0
 11
745.544220
 21
54.275432
  0
TEXT
  8
1
  6
CONTINUOUS
 62
7
 10
701.794220
 20
50.775432
 40
3.500000
  1
　差し替えることにより表裏を
 41
0.863664
 50
0.000000
 51
0.000000
 72
   5
 73
   0
 11
750.794220
 21
50.775432
  0
TEXT
  8
1
  6
CONTINUOUS
 62
7
 10
701.794220
 20
47.275432
 40
3.500000
  1
　変えることが可能です。
 41
0.865177
 50
0.000000
 51
0.000000
 72
   5
 73
   0
 11
743.794220
 21
47.275432
  0
INSERT
  8
1
  6
CONTINUOUS
 62
5
  2
LTEX1
 10
645.8284040708
 20
97.5236129815
  0
INSERT
  8
1
  6
CONTINUOUS
 62
7
  2
S2
 10
783.0918620429
 20
247.3682736575
  0
INSERT
  8
1
  6
CONTINUOUS
 62
7
  2
S3
 10
482.8730305766
 20
270.6315670415
  0
TEXT
  8
1
  6
CONTINUOUS
 62
7
 10
487.373031
 20
269.131567
 40
3.000000
  1
'08.6.20
 41
0.770713
 50
0.000000
 51
0.000000
 72
   5
 73
   0
 11
499.373031
 21
269.131567
  0
TEXT
  8
1
  6
CONTINUOUS
 62
7
 10
501.548401
 20
268.587040
 40
4.000000
  1
図番誤記訂正B301A→B371B
 41
0.815217
 50
0.000000
 51
0.000000
 72
   5
 73
   0
 11
549.548401
 21
268.587040
  0
TEXT
  8
1
  6
CONTINUOUS
 62
7
 10
564.373031
 20
268.631567
 40
4.000000
  1
山田
 41
0.921659
 50
0.000000
 51
0.000000
 72
   5
 73
   0
 11
572.373031
 21
268.631567
  0
LINE
  8
4
  6
CONTINUOUS
 62
6
 10
804.1316884153
 20
185.0236120874
 11
861.1316884153
 21
185.0236120874
  0
LINE
  8
4
  6
CONTINUOUS
 62
6
 10
861.1316884153
 20
185.0236120874
 11
861.1316884153
 21
95.0236120874
  0
LINE
  8
4
  6
CONTINUOUS
 62
6
 10
861.1316884153
 20
95.0236120874
 11
804.1316884153
 21
95.0236120874
  0
LINE
  8
4
  6
CONTINUOUS
 62
6
 10
804.1316884153
 20
95.0236120874
 11
804.1316884153
 21
185.0236120874
  0
CIRCLE
  8
4
  6
CONTINUOUS
 62
6
 10
852.6316884153
 20
189.5236120874
 40
1.5000000000
  0
CIRCLE
  8
4
  6
CONTINUOUS
 62
6
 10
812.6316884153
 20
189.5236120874
 40
1.5000000000
  0
CIRCLE
  8
4
  6
CONTINUOUS
 62
6
 10
812.6316884153
 20
90.5236120874
 40
1.5000000000
  0
CIRCLE
  8
4
  6
CONTINUOUS
 62
6
 10
852.6316884153
 20
90.5236120874
 40
1.5000000000
  0
DIMENSION
  8
1
  6
CONTINUOUS
 62
5
  2
*D12
 10
790.1629186357
 20
90.5236120874
 11
787.4129186357
 21
140.0236120874
  70
0
 13
854.1316884153
 23
189.5236120874
 14
854.1316884153
 24
90.5236120874
 50
90.000000
  0
DIMENSION
  8
1
  6
CONTINUOUS
 62
5
  2
*D13
 10
796.7476000373
 20
95.0236120874
 11
793.9976000373
 21
140.0236120874
  70
0
 13
804.1316884153
 23
185.0236120874
 14
804.1316884153
 24
95.0236120874
 50
90.000000
  0
DIMENSION
  8
1
  6
CONTINUOUS
 62
5
  2
*D14
 10
811.6140105483
 20
91.6255793097
 11
814.6519616562
 21
92.3893548436
  70
3
 15
813.6493662824
 25
89.4216448651
  0
LINE
  8
1
  6
HIDDEN
 62
1
 10
870.1316866272
 20
79.2785971747
 11
870.1316866272
 21
200.7785780782
  0
POLYLINE
  8
1
  6
HIDDEN
 62
1
 66
     1
 70
     0
  0
VERTEX
  8
1
 62
1
 10
870.1316884153
 20
200.7785773972
 42
0.0796153609
  0
VERTEX
  8
1
 62
1
 10
870.0816770048
 20
201.0911492326
 42
0.1174683520
  0
VERTEX
  8
1
 62
1
 10
869.8408428122
 20
201.4827707623
 42
0.1174683520
  0
VERTEX
  8
1
 62
1
 10
869.4492206743
 20
201.7236039661
 42
0.0808607469
  0
VERTEX
  8
1
 62
1
 10
869.1366512500
 20
201.7736145874
 42
0.0012379529
  0
SEQEND
  8
1
  0
LINE
  8
1
  6
HIDDEN
 62
1
 10
784.1267258108
 20
201.7736142928
 11
869.1366541379
 21
201.7736142928
  0
LINE
  8
1
  6
HIDDEN
 62
1
 10
783.1316881993
 20
200.7785780782
 11
783.1316881993
 21
79.2686460966
  0
POLYLINE
  8
1
  6
HIDDEN
 62
1
 66
     1
 70
     0
  0
VERTEX
  8
1
 62
1
 10
784.1267255807
 20
201.7736145874
 42
0.0796147256
  0
VERTEX
  8
1
 62
1
 10
783.8141561564
 20
201.7236039662
 42
0.1174683520
  0
VERTEX
  8
1
 62
1
 10
783.4225340185
 20
201.4827707623
 42
0.1174683520
  0
VERTEX
  8
1
 62
1
 10
783.1816998259
 20
201.0911492326
 42
0.0808607469
  0
VERTEX
  8
1
 62
1
 10
783.1316884153
 20
200.7785773972
 42
0.0012373217
  0
SEQEND
  8
1
  0
POLYLINE
  8
1
  6
HIDDEN
 62
1
 66
     1
 70
     0
  0
VERTEX
  8
1
 62
1
 10
783.1316884153
 20
79.2686467776
 42
0.0791249785
  0
VERTEX
  8
1
 62
1
 10
783.1816998259
 20
78.9560749423
 42
0.1174683520
  0
VERTEX
  8
1
 62
1
 10
783.4225340185
 20
78.5644534125
 42
0.1174683520
  0
VERTEX
  8
1
 62
1
 10
783.8141561564
 20
78.3236202087
 42
0.0808607469
  0
VERTEX
  8
1
 62
1
 10
784.1267255807
 20
78.2736095874
 42
0.0012380847
  0
SEQEND
  8
1
  0
LINE
  8
1
  6
HIDDEN
 62
1
 10
784.1267258108
 20
78.2736098821
 11
869.1366541379
 21
78.2736098821
  0
POLYLINE
  8
1
  6
HIDDEN
 62
1
 66
     1
 70
     0
  0
VERTEX
  8
1
 62
1
 10
869.1366512500
 20
78.2736095874
 42
0.0791243434
  0
VERTEX
  8
1
 62
1
 10
869.4492206743
 20
78.3236202087
 42
0.1174683520
  0
VERTEX
  8
1
 62
1
 10
869.8408428122
 20
78.5644534125
 42
0.1174683520
  0
VERTEX
  8
1
 62
1
 10
870.0816770048
 20
78.9560749423
 42
0.0808607469
  0
VERTEX
  8
1
 62
1
 10
870.1316884153
 20
79.2686467776
 42
0.0012374534
  0
SEQEND
  8
1
  0
DIMENSION
  8
1
  6
CONTINUOUS
 62
5
  2
*D15
 10
852.6316884153
 20
193.1152651088
 11
832.6316884153
 21
195.8652651088
  70
0
 13
812.6316884153
 23
89.0236120874
 14
852.6316884153
 24
89.0236120874
 50
0.000000
  0
DIMENSION
  8
1
  6
CONTINUOUS
 62
5
  2
*D16
 10
804.1316884153
 20
207.6540891221
 11
793.6316884153
 21
210.4040891221
  70
0
 13
783.1316884153
 23
200.7785773972
 14
804.1316884153
 24
185.0236120874
 50
0.000000
  0
DIMENSION
  8
1
  6
CONTINUOUS
 62
5
  2
*D17
 10
861.1316884153
 20
207.6540891221
 11
832.6316884153
 21
210.4040891221
  70
0
 13
804.1316884153
 23
185.0236120874
 14
861.1316884153
 24
185.0236120874
 50
0.000000
  0
DIMENSION
  8
1
  6
CONTINUOUS
 62
5
  2
*D18
 10
870.1316884153
 20
207.6540891221
 11
865.6316884153
 21
210.4040891221
  70
0
 13
861.1316884153
 23
185.0236120874
 14
870.1316884153
 24
200.7785773972
 50
0.000000
  0
INSERT
  8
1
  6
CONTINUOUS
 62
5
  2
LTEX2
 10
830.4888935555
 20
78.2736098821
  0
TEXT
  8
1
  6
CONTINUOUS
 62
7
 10
500.403771
 20
276.449057
 40
3.000000
  1
USBｺﾈｸﾀ変更
 41
0.801749
 50
0.000000
 51
0.000000
 72
   5
 73
   0
 11
516.903771
 21
276.449057
  0
TEXT
  8
1
  6
CONTINUOUS
 62
7
 10
500.403771
 20
273.449057
 40
3.000000
  1
M0051B371 改訂B→C
 41
0.790861
 50
0.000000
 51
0.000000
 72
   5
 73
   0
 11
527.403771
 21
273.449057
  0
TEXT
  8
1
  6
CONTINUOUS
 62
7
 10
564.873031
 20
273.881567
 40
3.500000
  1
山田
 41
0.921659
 50
0.000000
 51
0.000000
 72
   5
 73
   0
 11
571.873031
 21
273.881567
  0
TEXT
  8
1
  6
CONTINUOUS
 62
7
 10
488.709531
 20
274.131567
 40
3.000000
  1
'09.12.8
 41
0.599037
 50
0.000000
 51
0.000000
 72
   5
 73
   0
 11
498.036531
 21
274.131567
  0
POINT
  8
5
  6
CONTINUOUS
 62
6
 10
482.8730305766
 20
275.6315670415
  0
POINT
  8
5
  6
CONTINUOUS
 62
6
 10
482.8730305766
 20
275.6315670415
  0
POINT
  8
5
  6
CONTINUOUS
 62
6
 10
482.8730305766
 20
275.6315670415
  0
LINE
  8
1
  6
CONTINUOUS
 62
7
 10
485.3730305766
 20
273.6315670415
 11
480.3730305766
 21
273.6315670414
  0
TEXT
  8
1
  6
CONTINUOUS
 62
7
 10
481.777431
 20
273.253240
 40
3.300000
  1
C
 41
1.328000
 50
0.000000
 51
0.000000
 72
   5
 73
   0
 11
483.968631
 21
273.253240
  0
LINE
  8
1
  6
CONTINUOUS
 62
7
 10
482.8730305766
 20
277.6315670415
 11
480.3730305766
 21
273.6315670414
  0
LINE
  8
1
  6
CONTINUOUS
 62
7
 10
482.8730305766
 20
277.6315670415
 11
485.3730305766
 21
273.6315670415
  0
POINT
  8
1
  6
CONTINUOUS
 62
7
 10
482.8730305766
 20
275.6315670415
  0
INSERT
  8
1
  6
CONTINUOUS
 62
7
  2
S4
 10
778.0518508651
 20
247.3682736575
  0
INSERT
  8
1
  6
CONTINUOUS
 62
7
  2
S5
 10
778.0518508651
 20
242.3682736575
  0
TEXT
  8
5
  6
CONTINUOUS
 62
7
 10
851.940956
 20
240.856085
 40
3.000000
  1
MADOKA
 41
1.028831
 50
0.000000
 51
0.000000
 72
   5
 73
   0
 11
863.823956
 21
240.856085
  0
LINE
  8
2
  6
CONTINUOUS
 62
1
 10
724.0646731667
 20
112.1136105874
 11
724.0646731667
 21
117.0236125874
  0
LINE
  8
2
  6
CONTINUOUS
 62
1
 10
724.7046731667
 20
111.4736155874
 11
725.9046731667
 21
111.4736155874
  0
LINE
  8
2
  6
CONTINUOUS
 62
1
 10
725.5246741667
 20
111.9736155874
 11
725.5246741667
 21
122.0736095874
  0
LINE
  8
2
  6
CONTINUOUS
 62
1
 10
725.9046731667
 20
111.4736155874
 11
725.9046731667
 21
117.0236125874
  0
LINE
  8
2
  6
CONTINUOUS
 62
1
 10
723.9846731667
 20
110.8236095874
 11
724.9446721667
 21
110.8236095874
  0
LINE
  8
2
  6
CONTINUOUS
 62
1
 10
725.5246741667
 20
111.9736155874
 11
724.5646731667
 21
111.9736155874
  0
LINE
  8
2
  6
CONTINUOUS
 62
1
 10
725.9046731667
 20
114.1136105874
 11
727.2846731667
 21
114.1136105874
  0
LINE
  8
2
  6
CONTINUOUS
 62
1
 10
725.9046731667
 20
112.9336125874
 11
727.2846731667
 21
112.9336125874
  0
LINE
  8
2
  6
CONTINUOUS
 62
1
 10
725.9046731667
 20
116.6136105874
 11
727.2846731667
 21
116.6136105874
  0
LINE
  8
2
  6
CONTINUOUS
 62
1
 10
725.9046731667
 20
115.4336125874
 11
727.2846731667
 21
115.4336125874
  0
LINE
  8
2
  6
CONTINUOUS
 62
1
 10
727.2846731667
 20
115.4336125874
 11
727.2846731667
 21
116.6136105874
  0
LINE
  8
2
  6
CONTINUOUS
 62
1
 10
727.2846731667
 20
112.9336125874
 11
727.2846731667
 21
114.1136105874
  0
LINE
  8
2
  6
CONTINUOUS
 62
1
 10
723.8846721667
 20
111.3236095874
 11
723.8846721667
 21
113.3140845874
  0
LINE
  8
2
  6
CONTINUOUS
 62
1
 10
723.8846721667
 20
111.3236095874
 11
724.9946761667
 21
111.3236095874
  0
LINE
  8
2
  6
CONTINUOUS
 62
1
 10
724.0346721667
 20
113.3955895874
 11
723.9456451667
 21
113.3065625874
  0
LINE
  8
2
  6
CONTINUOUS
 62
1
 10
725.0946721667
 20
111.4236065874
 11
724.9446721667
 21
111.2736065874
  0
LINE
  8
2
  6
CONTINUOUS
 62
1
 10
724.9446721667
 20
111.2736105874
 11
724.9446721667
 21
110.7736105874
  0
LINE
  8
2
  6
CONTINUOUS
 62
1
 10
726.9446731667
 20
111.2736105874
 11
726.9446731667
 21
110.7736105874
  0
LINE
  8
2
  6
CONTINUOUS
 62
1
 10
726.7946721667
 20
111.4236115874
 11
725.0946721667
 21
111.4236115874
  0
LINE
  8
2
  6
CONTINUOUS
 62
1
 10
726.7946731667
 20
111.4236095874
 11
726.9446731667
 21
111.2736095874
  0
LINE
  8
2
  6
CONTINUOUS
 62
1
 10
724.0346741667
 20
114.0236045874
 11
724.0346741667
 21
114.6516255874
  0
LINE
  8
2
  6
CONTINUOUS
 62
1
 10
724.0346751667
 20
114.6516235874
 11
723.9456451667
 21
114.7406535874
  0
LINE
  8
2
  6
CONTINUOUS
 62
1
 10
724.0346741667
 20
114.0236125874
 11
724.0346741667
 21
113.3955895874
  0
LINE
  8
2
  6
CONTINUOUS
 62
1
 10
724.0346721667
 20
113.3955955874
 11
723.9456421667
 21
113.3065645874
  0
LINE
  8
2
  6
CONTINUOUS
 62
1
 10
723.4069661667
 20
112.8340805874
 11
723.4742121667
 21
113.0516715874
  0
LINE
  8
2
  6
CONTINUOUS
 62
1
 10
723.7013401667
 20
113.2571295874
 11
723.9456431667
 21
113.3065615874
  0
LINE
  8
2
  6
CONTINUOUS
 62
1
 10
723.5163931667
 20
113.3217335874
 11
723.6322751667
 21
113.3451815874
  0
LINE
  8
2
  6
CONTINUOUS
 62
1
 10
723.4069641667
 20
115.2131395874
 11
723.4742101667
 21
114.9955505874
  0
LINE
  8
2
  6
CONTINUOUS
 62
1
 10
723.7013401667
 20
114.7900865874
 11
723.9456431667
 21
114.7406535874
  0
LINE
  8
2
  6
CONTINUOUS
 62
1
 10
723.5163921667
 20
114.7254815874
 11
723.6322741667
 21
114.7020345874
  0
LINE
  8
2
  6
CONTINUOUS
 62
1
 10
723.9456451667
 20
114.7406555874
 11
723.4046731667
 21
114.6739873450
  0
LINE
  8
2
  6
CONTINUOUS
 62
1
 10
723.9456451667
 20
113.3065665874
 11
723.4046731667
 21
113.3732339843
  0
LINE
  8
2
  6
CONTINUOUS
 62
1
 10
727.8546731667
 20
114.0236125874
 11
727.8546731667
 21
113.3955895874
  0
LINE
  8
2
  6
CONTINUOUS
 62
1
 10
727.8546741667
 20
113.3955935874
 11
727.9437031667
 21
113.3065645874
  0
LINE
  8
2
  6
CONTINUOUS
 62
1
 10
727.8546731667
 20
114.0236045874
 11
727.8546731667
 21
114.6516255874
  0
LINE
  8
2
  6
CONTINUOUS
 62
1
 10
727.8546711667
 20
114.6516275874
 11
727.9437001667
 21
114.7406565874
  0
LINE
  8
2
  6
CONTINUOUS
 62
1
 10
728.4823791667
 20
115.2131385874
 11
728.4151331667
 21
114.9955495874
  0
LINE
  8
2
  6
CONTINUOUS
 62
1
 10
728.3729551667
 20
114.7254835874
 11
728.2570731667
 21
114.7020365874
  0
LINE
  8
2
  6
CONTINUOUS
 62
1
 10
728.4823781667
 20
112.8340845874
 11
728.4151321667
 21
113.0516755874
  0
LINE
  8
2
  6
CONTINUOUS
 62
1
 10
728.1880091667
 20
113.2571325874
 11
727.9437041667
 21
113.3065655874
  0
LINE
  8
2
  6
CONTINUOUS
 62
1
 10
728.3729561667
 20
113.3217365874
 11
728.2570741667
 21
113.3451845874
  0
LINE
  8
2
  6
CONTINUOUS
 62
1
 10
727.9437001667
 20
113.3065635874
 11
728.5046721667
 21
113.3756955874
  0
LINE
  8
2
  6
CONTINUOUS
 62
1
 10
727.9437011667
 20
114.7406615874
 11
728.5046711667
 21
114.6715295874
  0
LINE
  8
2
  6
CONTINUOUS
 62
1
 10
728.1880081667
 20
114.7900865874
 11
727.9437031667
 21
114.7406535874
  0
LINE
  8
2
  6
CONTINUOUS
 62
1
 10
723.8846721667
 20
114.7331385874
 11
723.8846721667
 21
117.0236125874
  0
LINE
  8
2
  6
CONTINUOUS
 62
1
 10
726.9446731667
 20
110.8236095874
 11
728.3564311667
 21
110.8236095874
  0
LINE
  8
2
  6
CONTINUOUS
 62
1
 10
726.8946731667
 20
111.3236095874
 11
728.5046731667
 21
111.3236095874
  0
LINE
  8
2
  6
CONTINUOUS
 62
1
 10
726.4046731667
 20
115.7736145874
 11
726.4046731667
 21
115.5236125874
  0
LINE
  8
2
  6
CONTINUOUS
 62
1
 10
726.0369001667
 20
115.5236125874
 11
726.4046731667
 21
115.5236125874
  0
LINE
  8
2
  6
CONTINUOUS
 62
1
 10
726.3578251667
 20
115.7736145874
 11
726.4046731667
 21
115.7736145874
  0
LINE
  8
2
  6
CONTINUOUS
 62
1
 10
726.4046731667
 20
116.2736145874
 11
726.4046731667
 21
116.5236145874
  0
LINE
  8
2
  6
CONTINUOUS
 62
1
 10
726.3578251667
 20
116.2736145874
 11
726.4046731667
 21
116.2736145874
  0
LINE
  8
2
  6
CONTINUOUS
 62
1
 10
726.0369001667
 20
116.5236145874
 11
726.4046731667
 21
116.5236145874
  0
LINE
  8
2
  6
CONTINUOUS
 62
1
 10
725.9046731667
 20
116.4298625874
 11
726.0081231667
 21
116.4776025874
  0
LINE
  8
2
  6
CONTINUOUS
 62
1
 10
725.9046721667
 20
115.6173645874
 11
726.0081231667
 21
115.5696235874
  0
LINE
  8
2
  6
CONTINUOUS
 62
1
 10
726.4046731667
 20
113.2736145874
 11
726.4046731667
 21
113.0236105874
  0
LINE
  8
2
  6
CONTINUOUS
 62
1
 10
726.0369001667
 20
113.0236105874
 11
726.4046731667
 21
113.0236105874
  0
LINE
  8
2
  6
CONTINUOUS
 62
1
 10
726.3578251667
 20
113.2736105874
 11
726.4046731667
 21
113.2736105874
  0
LINE
  8
2
  6
CONTINUOUS
 62
1
 10
726.4046731667
 20
113.7736145874
 11
726.4046731667
 21
114.0236145874
  0
LINE
  8
2
  6
CONTINUOUS
 62
1
 10
726.3578251667
 20
113.7736145874
 11
726.4046731667
 21
113.7736145874
  0
LINE
  8
2
  6
CONTINUOUS
 62
1
 10
726.0369001667
 20
114.0236145874
 11
726.4046731667
 21
114.0236145874
  0
LINE
  8
2
  6
CONTINUOUS
 62
1
 10
725.9046731667
 20
113.9298615874
 11
726.0081241667
 21
113.9776015874
  0
LINE
  8
2
  6
CONTINUOUS
 62
1
 10
725.9046741667
 20
113.1173625874
 11
726.0081231667
 21
113.0696235874
  0
LINE
  8
2
  6
CONTINUOUS
 62
1
 10
724.0646731667
 20
121.9336145874
 11
724.0646731667
 21
117.0236125874
  0
LINE
  8
2
  6
CONTINUOUS
 62
1
 10
724.7046731667
 20
122.5736095874
 11
725.9046731667
 21
122.5736095874
  0
LINE
  8
2
  6
CONTINUOUS
 62
1
 10
724.5646731667
 20
122.0736095874
 11
724.5646731667
 21
111.9736155874
  0
LINE
  8
2
  6
CONTINUOUS
 62
1
 10
725.9046731667
 20
122.5736095874
 11
725.9046731667
 21
117.0236125874
  0
LINE
  8
2
  6
CONTINUOUS
 62
1
 10
723.9846731667
 20
123.2236135874
 11
724.9446721667
 21
123.2236135874
  0
LINE
  8
2
  6
CONTINUOUS
 62
1
 10
725.5246741667
 20
122.0736095874
 11
724.5646731667
 21
122.0736095874
  0
LINE
  8
2
  6
CONTINUOUS
 62
1
 10
725.9046731667
 20
119.9336145874
 11
727.2846731667
 21
119.9336145874
  0
LINE
  8
2
  6
CONTINUOUS
 62
1
 10
725.9046731667
 20
121.1136125874
 11
727.2846731667
 21
121.1136125874
  0
LINE
  8
2
  6
CONTINUOUS
 62
1
 10
725.9046731667
 20
117.4336125874
 11
727.2846731667
 21
117.4336125874
  0
LINE
  8
2
  6
CONTINUOUS
 62
1
 10
725.9046731667
 20
118.6136125874
 11
727.2846731667
 21
118.6136125874
  0
LINE
  8
2
  6
CONTINUOUS
 62
1
 10
727.2846731667
 20
118.6136125874
 11
727.2846731667
 21
117.4336125874
  0
LINE
  8
2
  6
CONTINUOUS
 62
1
 10
727.2846731667
 20
121.1136125874
 11
727.2846731667
 21
119.9336145874
  0
LINE
  8
2
  6
CONTINUOUS
 62
1
 10
723.8846721667
 20
122.7236135874
 11
723.8846721667
 21
120.7331405874
  0
LINE
  8
2
  6
CONTINUOUS
 62
1
 10
723.8846721667
 20
122.7236135874
 11
724.9946761667
 21
122.7236135874
  0
LINE
  8
2
  6
CONTINUOUS
 62
1
 10
724.0346731667
 20
120.6516335874
 11
723.9456441667
 21
120.7406625874
  0
LINE
  8
2
  6
CONTINUOUS
 62
1
 10
725.0946731667
 20
122.6236165874
 11
724.9446731667
 21
122.7736165874
  0
LINE
  8
2
  6
CONTINUOUS
 62
1
 10
724.9446721667
 20
122.7736125874
 11
724.9446721667
 21
123.2736125874
  0
LINE
  8
2
  6
CONTINUOUS
 62
1
 10
726.9446731667
 20
122.7736125874
 11
726.9446731667
 21
123.2736125874
  0
LINE
  8
2
  6
CONTINUOUS
 62
1
 10
726.7946721667
 20
122.6236125874
 11
725.0946721667
 21
122.6236125874
  0
LINE
  8
2
  6
CONTINUOUS
 62
1
 10
726.7946731667
 20
122.6236155874
 11
726.9446731667
 21
122.7736155874
  0
LINE
  8
2
  6
CONTINUOUS
 62
1
 10
724.0346741667
 20
120.0236185874
 11
724.0346741667
 21
119.3955965874
  0
LINE
  8
2
  6
CONTINUOUS
 62
1
 10
724.0346731667
 20
119.3955995874
 11
723.9456441667
 21
119.3065695874
  0
LINE
  8
2
  6
CONTINUOUS
 62
1
 10
724.0346741667
 20
120.0236125874
 11
724.0346741667
 21
120.6516335874
  0
LINE
  8
2
  6
CONTINUOUS
 62
1
 10
724.0346711667
 20
120.6516285874
 11
723.9456421667
 21
120.7406575874
  0
LINE
  8
2
  6
CONTINUOUS
 62
1
 10
723.4069661667
 20
121.2131425874
 11
723.4742111667
 21
120.9955535874
  0
LINE
  8
2
  6
CONTINUOUS
 62
1
 10
723.7013401667
 20
120.7900965874
 11
723.9456421667
 21
120.7406645874
  0
LINE
  8
2
  6
CONTINUOUS
 62
1
 10
723.5163921667
 20
120.7254925874
 11
723.6322751667
 21
120.7020445874
  0
LINE
  8
2
  6
CONTINUOUS
 62
1
 10
723.4069641667
 20
118.8340865874
 11
723.4742091667
 21
119.0516755874
  0
LINE
  8
2
  6
CONTINUOUS
 62
1
 10
723.7013391667
 20
119.2571395874
 11
723.9456421667
 21
119.3065725874
  0
LINE
  8
2
  6
CONTINUOUS
 62
1
 10
723.5163921667
 20
119.3217425874
 11
723.6322741667
 21
119.3451905874
  0
LINE
  8
2
  6
CONTINUOUS
 62
1
 10
723.9456451667
 20
119.3065705874
 11
723.4046731667
 21
119.3732378655
  0
LINE
  8
2
  6
CONTINUOUS
 62
1
 10
723.9456451667
 20
120.7406595874
 11
723.4046731667
 21
120.6739913450
  0
LINE
  8
2
  6
CONTINUOUS
 62
1
 10
727.8546731667
 20
120.0236125874
 11
727.8546731667
 21
120.6516335874
  0
LINE
  8
2
  6
CONTINUOUS
 62
1
 10
727.8546751667
 20
120.6516315874
 11
727.9437041667
 21
120.7406605874
  0
LINE
  8
2
  6
CONTINUOUS
 62
1
 10
727.8546731667
 20
120.0236185874
 11
727.8546731667
 21
119.3955965874
  0
LINE
  8
2
  6
CONTINUOUS
 62
1
 10
727.8546741667
 20
119.3955975874
 11
727.9437031667
 21
119.3065685874
  0
LINE
  8
2
  6
CONTINUOUS
 62
1
 10
728.4823801667
 20
118.8340855874
 11
728.4151341667
 21
119.0516765874
  0
LINE
  8
2
  6
CONTINUOUS
 62
1
 10
728.3729561667
 20
119.3217415874
 11
728.2570741667
 21
119.3451895874
  0
LINE
  8
2
  6
CONTINUOUS
 62
1
 10
728.4823791667
 20
121.2131385874
 11
728.4151331667
 21
120.9955475874
  0
LINE
  8
2
  6
CONTINUOUS
 62
1
 10
728.1880071667
 20
120.7900935874
 11
727.9437031667
 21
120.7406605874
  0
LINE
  8
2
  6
CONTINUOUS
 62
1
 10
728.3729531667
 20
120.7254905874
 11
728.2570721667
 21
120.7020425874
  0
LINE
  8
2
  6
CONTINUOUS
 62
1
 10
727.9436991667
 20
120.7406585874
 11
728.5046711667
 21
120.6715255874
  0
LINE
  8
2
  6
CONTINUOUS
 62
1
 10
727.9437011667
 20
119.3065615874
 11
728.5046731667
 21
119.3756945874
  0
LINE
  8
2
  6
CONTINUOUS
 62
1
 10
728.1880081667
 20
119.2571375874
 11
727.9437041667
 21
119.3065705874
  0
LINE
  8
2
  6
CONTINUOUS
 62
1
 10
723.8846721667
 20
119.3140865874
 11
723.8846721667
 21
117.0236125874
  0
LINE
  8
2
  6
CONTINUOUS
 62
1
 10
726.9446731667
 20
123.2236135874
 11
728.3564311667
 21
123.2236135874
  0
LINE
  8
2
  6
CONTINUOUS
 62
1
 10
726.8946731667
 20
122.7236135874
 11
728.5046731667
 21
122.7236135874
  0
LINE
  8
2
  6
CONTINUOUS
 62
1
 10
726.4046731667
 20
118.2736105874
 11
726.4046731667
 21
118.5236105874
  0
LINE
  8
2
  6
CONTINUOUS
 62
1
 10
726.0369001667
 20
118.5236105874
 11
726.4046731667
 21
118.5236105874
  0
LINE
  8
2
  6
CONTINUOUS
 62
1
 10
726.3578251667
 20
118.2736105874
 11
726.4046731667
 21
118.2736105874
  0
LINE
  8
2
  6
CONTINUOUS
 62
1
 10
726.4046731667
 20
117.7736105874
 11
726.4046731667
 21
117.5236105874
  0
LINE
  8
2
  6
CONTINUOUS
 62
1
 10
726.3578251667
 20
117.7736105874
 11
726.4046731667
 21
117.7736105874
  0
LINE
  8
2
  6
CONTINUOUS
 62
1
 10
726.0369001667
 20
117.5236105874
 11
726.4046731667
 21
117.5236105874
  0
LINE
  8
2
  6
CONTINUOUS
 62
1
 10
725.9046741667
 20
117.6173625874
 11
726.0081231667
 21
117.5696225874
  0
LINE
  8
2
  6
CONTINUOUS
 62
1
 10
725.9046741667
 20
118.4298615874
 11
726.0081241667
 21
118.4776015874
  0
LINE
  8
2
  6
CONTINUOUS
 62
1
 10
726.4046731667
 20
120.7736105874
 11
726.4046731667
 21
121.0236105874
  0
LINE
  8
2
  6
CONTINUOUS
 62
1
 10
726.0369001667
 20
121.0236105874
 11
726.4046731667
 21
121.0236105874
  0
LINE
  8
2
  6
CONTINUOUS
 62
1
 10
726.3578251667
 20
120.7736105874
 11
726.4046731667
 21
120.7736105874
  0
LINE
  8
2
  6
CONTINUOUS
 62
1
 10
726.4046731667
 20
120.2736105874
 11
726.4046731667
 21
120.0236105874
  0
LINE
  8
2
  6
CONTINUOUS
 62
1
 10
726.3578251667
 20
120.2736105874
 11
726.4046731667
 21
120.2736105874
  0
LINE
  8
2
  6
CONTINUOUS
 62
1
 10
726.0369001667
 20
120.0236105874
 11
726.4046731667
 21
120.0236105874
  0
LINE
  8
2
  6
CONTINUOUS
 62
1
 10
725.9046731667
 20
120.1173615874
 11
726.0081231667
 21
120.0696215874
  0
LINE
  8
2
  6
CONTINUOUS
 62
1
 10
725.9046751667
 20
120.9298605874
 11
726.0081241667
 21
120.9776005874
  0
ARC
  8
2
  6
CONTINUOUS
 62
1
 10
724.7046731667
 20
112.1136105874
 40
0.6400000000
 50
179.9999960000
 51
270.0000050000
  0
ARC
  8
2
  6
CONTINUOUS
 62
1
 10
723.9846731667
 20
111.4236115874
 40
0.6000000000
 50
194.8351115820
 51
270.0000050000
  0
ARC
  8
2
  6
CONTINUOUS
 62
1
 10
728.1846721667
 20
111.0936105874
 40
0.3200000000
 50
270.0000090000
 51
359.9999970000
  0
ARC
  8
2
  6
CONTINUOUS
 62
1
 10
723.6155531667
 20
112.8316685874
 40
0.5000000000
 50
101.4389220000
 51
114.9457536051
  0
ARC
  8
2
  6
CONTINUOUS
 62
1
 10
723.7608351667
 20
112.9630885874
 40
0.3000000000
 50
101.4389220000
 51
162.8263110000
  0
ARC
  8
2
  6
CONTINUOUS
 62
1
 10
723.6155531667
 20
115.2155525874
 40
0.5000000000
 50
245.0542463949
 51
258.5610770000
  0
ARC
  8
2
  6
CONTINUOUS
 62
1
 10
723.7608351667
 20
115.0841285874
 40
0.3000000000
 50
197.1736870000
 51
258.5610770000
  0
ARC
  8
2
  6
CONTINUOUS
 62
1
 10
728.2737931667
 20
115.2155545874
 40
0.5000000000
 50
281.4389230000
 51
297.5006860000
  0
ARC
  8
2
  6
CONTINUOUS
 62
1
 10
728.0046721667
 20
115.3607705874
 40
0.5000000000
 50
342.8263130000
 51
0.0000040000
  0
ARC
  8
2
  6
CONTINUOUS
 62
1
 10
728.1285111667
 20
115.0841285874
 40
0.3000000000
 50
281.4389230000
 51
342.8263130000
  0
ARC
  8
2
  6
CONTINUOUS
 62
1
 10
728.2737931667
 20
112.8316685874
 40
0.5000000000
 50
62.4993140000
 51
78.5610780000
  0
ARC
  8
2
  6
CONTINUOUS
 62
1
 10
728.0046721667
 20
112.6864465874
 40
0.5000000000
 50
0.0000040000
 51
17.1736890000
  0
ARC
  8
2
  6
CONTINUOUS
 62
1
 10
728.1285111667
 20
112.9630885874
 40
0.3000000000
 50
17.1736890000
 51
78.5610780000
  0
ARC
  8
2
  6
CONTINUOUS
 62
1
 10
726.3578251667
 20
116.0236145874
 40
0.2500000000
 50
90.0000090000
 51
180.0000030000
  0
ARC
  8
2
  6
CONTINUOUS
 62
1
 10
726.0369001667
 20
116.0236145874
 40
0.5000000000
 50
254.6655340000
 51
269.9999910000
  0
ARC
  8
2
  6
CONTINUOUS
 62
1
 10
725.8046721667
 20
116.0236145874
 40
0.6500000000
 50
337.3801390000
 51
0.0000040000
  0
ARC
  8
2
  6
CONTINUOUS
 62
1
 10
726.3578251667
 20
116.0236145874
 40
0.2500000000
 50
179.9999960000
 51
269.9999910000
  0
ARC
  8
2
  6
CONTINUOUS
 62
1
 10
726.2176311667
 20
116.0236145874
 40
0.5000000000
 50
90.0000090000
 51
114.7724080000
  0
ARC
  8
2
  6
CONTINUOUS
 62
1
 10
726.0369001667
 20
116.0236145874
 40
0.5000000000
 50
90.0000090000
 51
105.3344680000
  0
ARC
  8
2
  6
CONTINUOUS
 62
1
 10
725.8046721667
 20
116.0236145874
 40
0.6500000000
 50
0.0000040000
 51
22.6198700000
  0
ARC
  8
2
  6
CONTINUOUS
 62
1
 10
726.2176311667
 20
116.0236145874
 40
0.5000000000
 50
245.2275920000
 51
269.9999910000
  0
ARC
  8
2
  6
CONTINUOUS
 62
1
 10
726.2176311667
 20
113.5236145874
 40
0.5000000000
 50
245.2275920000
 51
269.9999910000
  0
ARC
  8
2
  6
CONTINUOUS
 62
1
 10
726.3578251667
 20
113.5236145874
 40
0.2500000000
 50
90.0000090000
 51
180.0000030000
  0
ARC
  8
2
  6
CONTINUOUS
 62
1
 10
726.0369001667
 20
113.5236145874
 40
0.5000000000
 50
254.6655340000
 51
269.9999910000
  0
ARC
  8
2
  6
CONTINUOUS
 62
1
 10
725.8046721667
 20
113.5236145874
 40
0.6500000000
 50
337.3801390000
 51
0.0000040000
  0
ARC
  8
2
  6
CONTINUOUS
 62
1
 10
726.3578251667
 20
113.5236145874
 40
0.2500000000
 50
179.9999960000
 51
269.9999910000
  0
ARC
  8
2
  6
CONTINUOUS
 62
1
 10
726.2176311667
 20
113.5236145874
 40
0.5000000000
 50
90.0000090000
 51
114.7724080000
  0
ARC
  8
2
  6
CONTINUOUS
 62
1
 10
726.0369001667
 20
113.5236145874
 40
0.5000000000
 50
90.0000090000
 51
105.3344680000
  0
ARC
  8
2
  6
CONTINUOUS
 62
1
 10
725.8046721667
 20
113.5236145874
 40
0.6500000000
 50
0.0000040000
 51
22.6198700000
  0
ARC
  8
2
  6
CONTINUOUS
 62
1
 10
725.8046721667
 20
120.5236105874
 40
0.6500000000
 50
337.3801320000
 51
359.9999970000
  0
ARC
  8
2
  6
CONTINUOUS
 62
1
 10
726.0369001667
 20
120.5236105874
 40
0.5000000000
 50
254.6655340000
 51
269.9999910000
  0
ARC
  8
2
  6
CONTINUOUS
 62
1
 10
724.7046731667
 20
121.9336145874
 40
0.6400000000
 50
90.0000000000
 51
180.0000030000
  0
ARC
  8
2
  6
CONTINUOUS
 62
1
 10
723.9846731667
 20
122.6236125874
 40
0.6000000000
 50
90.0000000000
 51
165.1648884180
  0
ARC
  8
2
  6
CONTINUOUS
 62
1
 10
728.1846721667
 20
122.9536145874
 40
0.3200000000
 50
359.9999970000
 51
90.0000000000
  0
ARC
  8
2
  6
CONTINUOUS
 62
1
 10
723.6155531667
 20
121.2155565874
 40
0.5000000000
 50
245.0542463949
 51
258.5610770000
  0
ARC
  8
2
  6
CONTINUOUS
 62
1
 10
723.7608351667
 20
121.0841345874
 40
0.3000000000
 50
197.1736870000
 51
258.5610770000
  0
ARC
  8
2
  6
CONTINUOUS
 62
1
 10
723.6155531667
 20
118.8316725874
 40
0.5000000000
 50
101.4389220000
 51
114.9457536051
  0
ARC
  8
2
  6
CONTINUOUS
 62
1
 10
723.7608351667
 20
118.9630965874
 40
0.3000000000
 50
101.4389220000
 51
162.8263110000
  0
ARC
  8
2
  6
CONTINUOUS
 62
1
 10
728.2737931667
 20
118.8316685874
 40
0.5000000000
 50
62.4993140000
 51
78.5610780000
  0
ARC
  8
2
  6
CONTINUOUS
 62
1
 10
728.0046721667
 20
118.6864545874
 40
0.5000000000
 50
359.9999970000
 51
17.1736890000
  0
ARC
  8
2
  6
CONTINUOUS
 62
1
 10
728.1285111667
 20
118.9630965874
 40
0.3000000000
 50
17.1736890000
 51
78.5610780000
  0
ARC
  8
2
  6
CONTINUOUS
 62
1
 10
728.2737931667
 20
121.2155565874
 40
0.5000000000
 50
281.4389230000
 51
297.5006860000
  0
ARC
  8
2
  6
CONTINUOUS
 62
1
 10
728.0046721667
 20
121.3607765874
 40
0.5000000000
 50
342.8263130000
 51
359.9999970000
  0
ARC
  8
2
  6
CONTINUOUS
 62
1
 10
728.1285111667
 20
121.0841345874
 40
0.3000000000
 50
281.4389230000
 51
342.8263130000
  0
ARC
  8
2
  6
CONTINUOUS
 62
1
 10
726.3578251667
 20
118.0236105874
 40
0.2500000000
 50
179.9999960000
 51
269.9999910000
  0
ARC
  8
2
  6
CONTINUOUS
 62
1
 10
726.0369001667
 20
118.0236105874
 40
0.5000000000
 50
90.0000030000
 51
105.3344680000
  0
ARC
  8
2
  6
CONTINUOUS
 62
1
 10
725.8046721667
 20
118.0236105874
 40
0.6500000000
 50
359.9999970000
 51
22.6198630000
  0
ARC
  8
2
  6
CONTINUOUS
 62
1
 10
726.3578251667
 20
118.0236105874
 40
0.2500000000
 50
90.0000030000
 51
180.0000030000
  0
ARC
  8
2
  6
CONTINUOUS
 62
1
 10
726.2176311667
 20
118.0236105874
 40
0.5000000000
 50
245.2275920000
 51
269.9999910000
  0
ARC
  8
2
  6
CONTINUOUS
 62
1
 10
726.0369001667
 20
118.0236105874
 40
0.5000000000
 50
254.6655340000
 51
269.9999910000
  0
ARC
  8
2
  6
CONTINUOUS
 62
1
 10
725.8046721667
 20
118.0236105874
 40
0.6500000000
 50
337.3801320000
 51
359.9999970000
  0
ARC
  8
2
  6
CONTINUOUS
 62
1
 10
726.2176311667
 20
118.0236105874
 40
0.5000000000
 50
90.0000090000
 51
114.7724080000
  0
ARC
  8
2
  6
CONTINUOUS
 62
1
 10
726.2176311667
 20
120.5236105874
 40
0.5000000000
 50
90.0000090000
 51
114.7724080000
  0
ARC
  8
2
  6
CONTINUOUS
 62
1
 10
726.3578251667
 20
120.5236105874
 40
0.2500000000
 50
179.9999960000
 51
269.9999910000
  0
ARC
  8
2
  6
CONTINUOUS
 62
1
 10
726.0369001667
 20
120.5236105874
 40
0.5000000000
 50
90.0000030000
 51
105.3344680000
  0
ARC
  8
2
  6
CONTINUOUS
 62
1
 10
725.8046721667
 20
120.5236105874
 40
0.6500000000
 50
359.9999970000
 51
22.6198630000
  0
ARC
  8
2
  6
CONTINUOUS
 62
1
 10
726.3578251667
 20
120.5236105874
 40
0.2500000000
 50
90.0000030000
 51
180.0000030000
  0
ARC
  8
2
  6
CONTINUOUS
 62
1
 10
726.2176311667
 20
120.5236105874
 40
0.5000000000
 50
245.2275920000
 51
269.9999910000
  0
LINE
  8
2
  6
CONTINUOUS
 62
1
 10
728.5046721667
 20
122.9536145707
 11
728.5046721667
 21
111.0936105874
  0
LINE
  8
1
  6
CONTINUOUS
 62
1
 10
723.4046731667
 20
110.7736120874
 11
723.4046731667
 21
123.2736120874
  0
LINE
  8
1
  6
CONTINUOUS
 62
1
 10
723.4046731667
 20
123.2736120874
 11
728.8046731667
 21
123.2736120874
  0
LINE
  8
1
  6
CONTINUOUS
 62
1
 10
728.8046731667
 20
123.2736120874
 11
728.8046731667
 21
110.7736120874
  0
LINE
  8
1
  6
CONTINUOUS
 62
1
 10
728.8046731667
 20
110.7736120874
 11
723.4046731667
 21
110.7736120874
  0
POINT
  8
3
  6
CONTINUOUS
 62
7
 10
725.8046731667
 20
117.0236120874
  0
CIRCLE
  8
3
  6
CONTINUOUS
 62
6
 10
740.3046731667
 20
163.0236120874
 40
3.0285714286
  0
LINE
  8
3
  6
CONTINUOUS
 62
6
 10
738.9662210452
 20
161.6851599659
 11
741.6431252882
 21
164.3620642090
  0
LINE
  8
3
  6
CONTINUOUS
 62
6
 10
741.6431252882
 20
161.6851599659
 11
738.9662210452
 21
164.3620642090
  0
CIRCLE
  8
3
  6
CONTINUOUS
 62
6
 10
740.3046731667
 20
163.0236120874
 40
2.6500000000
  0
CIRCLE
  8
3
  6
CONTINUOUS
 62
6
 10
711.3046731667
 20
163.0236120874
 40
3.0285714286
  0
LINE
  8
3
  6
CONTINUOUS
 62
6
 10
709.9662210452
 20
161.6851599659
 11
712.6431252882
 21
164.3620642090
  0
LINE
  8
3
  6
CONTINUOUS
 62
6
 10
712.6431252882
 20
161.6851599659
 11
709.9662210452
 21
164.3620642090
  0
CIRCLE
  8
3
  6
CONTINUOUS
 62
6
 10
711.3046731667
 20
163.0236120874
 40
2.6500000000
  0
LINE
  8
1
  6
HIDDEN
 62
1
 10
708.0046731667
 20
171.5236120874
 11
708.0046731667
 21
154.5236120874
  0
LINE
  8
1
  6
HIDDEN
 62
1
 10
742.6046731667
 20
153.5236120874
 11
741.8046731667
 21
153.5236120874
  0
LINE
  8
1
  6
HIDDEN
 62
1
 10
738.8046731667
 20
153.5236120874
 11
712.8046731667
 21
153.5236120874
  0
LINE
  8
1
  6
HIDDEN
 62
1
 10
709.8046731667
 20
153.5236120874
 11
709.0046731667
 21
153.5236120874
  0
LINE
  8
1
  6
HIDDEN
 62
1
 10
743.6046731667
 20
154.5236120874
 11
743.6046731667
 21
171.5236120874
  0
LINE
  8
1
  6
HIDDEN
 62
1
 10
742.6046731667
 20
172.5236120874
 11
741.8046731667
 21
172.5236120874
  0
LINE
  8
1
  6
HIDDEN
 62
1
 10
738.8046731667
 20
172.5236120874
 11
712.8046731667
 21
172.5236120874
  0
LINE
  8
1
  6
HIDDEN
 62
1
 10
709.8046731667
 20
172.5236120874
 11
709.0046731667
 21
172.5236120874
  0
LINE
  8
1
  6
CONTINUOUS
 62
1
 10
714.4046731667
 20
155.1236120874
 11
714.4046731667
 21
170.9236120874
  0
LINE
  8
1
  6
CONTINUOUS
 62
1
 10
736.7046731667
 20
154.6236120874
 11
714.9046731667
 21
154.6236120874
  0
LINE
  8
1
  6
CONTINUOUS
 62
1
 10
737.2046731667
 20
170.9236120874
 11
737.2046731667
 21
155.1236120874
  0
LINE
  8
1
  6
CONTINUOUS
 62
1
 10
736.7046731667
 20
171.4236120874
 11
714.9046731667
 21
171.4236120874
  0
ARC
  8
1
  6
HIDDEN
 62
1
 10
709.0046731667
 20
154.5236120874
 40
1.0000000000
 50
180.0000000000
 51
270.0000000000
  0
ARC
  8
1
  6
HIDDEN
 62
1
 10
709.0046731667
 20
171.5236120874
 40
1.0000000000
 50
90.0000000000
 51
180.0000000000
  0
ARC
  8
1
  6
HIDDEN
 62
1
 10
742.6046731667
 20
171.5236120874
 40
1.0000000000
 50
0.0000000000
 51
90.0000000000
  0
ARC
  8
1
  6
HIDDEN
 62
1
 10
742.6046731667
 20
154.5236120874
 40
1.0000000000
 50
270.0000000000
 51
0.0000000000
  0
LINE
  8
1
  6
HIDDEN
 62
1
 10
741.8046731667
 20
153.5236120874
 11
741.8046731667
 21
155.5236120874
  0
LINE
  8
1
  6
HIDDEN
 62
1
 10
741.8046731667
 20
155.5236120874
 11
738.8046731667
 21
155.5236120874
  0
LINE
  8
1
  6
HIDDEN
 62
1
 10
738.8046731667
 20
155.5236120874
 11
738.8046731667
 21
153.5236120874
  0
LINE
  8
1
  6
HIDDEN
 62
1
 10
741.8046731667
 20
172.5236120874
 11
741.8046731667
 21
170.5236120874
  0
LINE
  8
1
  6
HIDDEN
 62
1
 10
741.8046731667
 20
170.5236120874
 11
738.8046731667
 21
170.5236120874
  0
LINE
  8
1
  6
HIDDEN
 62
1
 10
738.8046731667
 20
170.5236120874
 11
738.8046731667
 21
172.5236120874
  0
LINE
  8
1
  6
HIDDEN
 62
1
 10
709.8046731667
 20
172.5236120874
 11
709.8046731667
 21
170.5236120874
  0
LINE
  8
1
  6
HIDDEN
 62
1
 10
709.8046731667
 20
170.5236120874
 11
712.8046731667
 21
170.5236120874
  0
LINE
  8
1
  6
HIDDEN
 62
1
 10
712.8046731667
 20
170.5236120874
 11
712.8046731667
 21
172.5236120874
  0
LINE
  8
1
  6
HIDDEN
 62
1
 10
709.8046731667
 20
153.5236120874
 11
709.8046731667
 21
155.5236120874
  0
LINE
  8
1
  6
HIDDEN
 62
1
 10
709.8046731667
 20
155.5236120874
 11
712.8046731667
 21
155.5236120874
  0
LINE
  8
1
  6
HIDDEN
 62
1
 10
712.8046731667
 20
155.5236120874
 11
712.8046731667
 21
153.5236120874
  0
ARC
  8
1
  6
CONTINUOUS
 62
1
 10
714.9046731667
 20
170.9236120874
 40
0.5000000000
 50
90.0000000000
 51
180.0000000000
  0
ARC
  8
1
  6
CONTINUOUS
 62
1
 10
714.9046731667
 20
155.1236120874
 40
0.5000000000
 50
180.0000000000
 51
270.0000000000
  0
ARC
  8
1
  6
CONTINUOUS
 62
1
 10
736.7046731667
 20
155.1236120874
 40
0.5000000000
 50
270.0000000000
 51
0.0000000000
  0
ARC
  8
1
  6
CONTINUOUS
 62
1
 10
736.7046731667
 20
170.9236120874
 40
0.5000000000
 50
0.0000000000
 51
90.0000000000
  0
LINE
  8
3
  6
CONTINUOUS
 62
1
 10
721.7664498620
 20
158.5118353921
 11
720.0828964714
 21
160.1953887827
  0
LINE
  8
3
  6
CONTINUOUS
 62
1
 10
721.8933737436
 20
158.9099115106
 11
720.5159725898
 21
160.2873126643
  0
LINE
  8
3
  6
CONTINUOUS
 62
1
 10
728.2496731667
 20
158.4386120874
 11
727.3546731667
 21
158.4386120874
  0
LINE
  8
3
  6
CONTINUOUS
 62
1
 10
722.8546731667
 20
158.4386120874
 11
721.9432265573
 21
158.4386120874
  0
LINE
  8
3
  6
CONTINUOUS
 62
1
 10
723.3546731667
 20
158.6436120874
 11
726.8546731667
 21
158.6436120874
  0
LINE
  8
3
  6
CONTINUOUS
 62
1
 10
723.3546731667
 20
158.7044287436
 11
726.8546731667
 21
158.7044287436
  0
LINE
  8
3
  6
CONTINUOUS
 62
1
 10
727.8246731667
 20
158.7986120874
 11
727.3546731667
 21
158.7986120874
  0
LINE
  8
3
  6
CONTINUOUS
 62
1
 10
722.8546731667
 20
158.7986120874
 11
722.1620743204
 21
158.7986120874
  0
LINE
  8
3
  6
CONTINUOUS
 62
1
 10
725.5946731667
 20
160.2236120874
 11
723.0146731667
 21
160.2236120874
  0
LINE
  8
3
  6
CONTINUOUS
 62
1
 10
728.4996731667
 20
167.3586120874
 11
728.4996731667
 21
158.6886120874
  0
LINE
  8
3
  6
CONTINUOUS
 62
1
 10
725.3946731667
 20
160.7236120874
 11
723.2146731667
 21
160.7236120874
  0
LINE
  8
3
  6
CONTINUOUS
 62
1
 10
728.2046731667
 20
166.8686120874
 11
728.2046731667
 21
159.1786120874
  0
LINE
  8
3
  6
CONTINUOUS
 62
1
 10
726.9045633038
 20
161.2736120874
 11
725.8946731667
 21
161.2736120874
  0
LINE
  8
3
  6
CONTINUOUS
 62
1
 10
722.7146731667
 20
161.2736120874
 11
721.7047830296
 21
161.2736120874
  0
LINE
  8
3
  6
CONTINUOUS
 62
1
 10
726.9045633038
 20
162.2736120874
 11
725.8946731667
 21
162.2736120874
  0
LINE
  8
3
  6
CONTINUOUS
 62
1
 10
722.7146731667
 20
162.2736120874
 11
721.7047830296
 21
162.2736120874
  0
LINE
  8
3
  6
CONTINUOUS
 62
1
 10
726.9046731667
 20
164.7736120874
 11
726.9046731667
 21
163.7736120874
  0
LINE
  8
3
  6
CONTINUOUS
 62
1
 10
726.9046731667
 20
162.2736120874
 11
726.9046731667
 21
161.2736120874
  0
LINE
  8
3
  6
CONTINUOUS
 62
1
 10
725.8946731667
 20
165.5236120874
 11
725.8946731667
 21
160.5236120874
  0
LINE
  8
3
  6
CONTINUOUS
 62
1
 10
725.3946731667
 20
165.3236120874
 11
725.3946731667
 21
160.7236120874
  0
LINE
  8
3
  6
CONTINUOUS
 62
1
 10
726.9045633038
 20
163.7736120874
 11
725.8946731667
 21
163.7736120874
  0
LINE
  8
3
  6
CONTINUOUS
 62
1
 10
722.7146731667
 20
163.7736120874
 11
721.7047830296
 21
163.7736120874
  0
LINE
  8
3
  6
CONTINUOUS
 62
1
 10
726.9045633038
 20
164.7736120874
 11
725.8946731667
 21
164.7736120874
  0
LINE
  8
3
  6
CONTINUOUS
 62
1
 10
722.7146731667
 20
164.7736120874
 11
721.7047830296
 21
164.7736120874
  0
LINE
  8
3
  6
CONTINUOUS
 62
1
 10
723.2146731667
 20
165.3236120874
 11
725.3946731667
 21
165.3236120874
  0
LINE
  8
3
  6
CONTINUOUS
 62
1
 10
725.5946731667
 20
165.8236120874
 11
723.0146731667
 21
165.8236120874
  0
LINE
  8
3
  6
CONTINUOUS
 62
1
 10
723.2146731667
 20
160.7236120874
 11
723.2146731667
 21
165.3236120874
  0
LINE
  8
3
  6
CONTINUOUS
 62
1
 10
722.7146731667
 20
160.5236120874
 11
722.7146731667
 21
165.5236120874
  0
LINE
  8
3
  6
CONTINUOUS
 62
1
 10
723.3546731667
 20
166.9485801319
 11
726.8546731667
 21
166.9485801319
  0
LINE
  8
3
  6
CONTINUOUS
 62
1
 10
723.3546731667
 20
167.0040306125
 11
726.8546731667
 21
167.0040306125
  0
LINE
  8
3
  6
CONTINUOUS
 62
1
 10
722.1620743204
 20
167.2486120874
 11
722.8546731667
 21
167.2486120874
  0
LINE
  8
3
  6
CONTINUOUS
 62
1
 10
727.3546731667
 20
167.2486120874
 11
727.8246731667
 21
167.2486120874
  0
LINE
  8
3
  6
CONTINUOUS
 62
1
 10
723.3546731667
 20
167.3427954313
 11
726.8546731667
 21
167.3427954313
  0
LINE
  8
3
  6
CONTINUOUS
 62
1
 10
723.3546731667
 20
167.4036120874
 11
726.8546731667
 21
167.4036120874
  0
LINE
  8
3
  6
CONTINUOUS
 62
1
 10
721.9432265573
 20
167.6086120874
 11
722.8546731667
 21
167.6086120874
  0
LINE
  8
3
  6
CONTINUOUS
 62
1
 10
727.3546731667
 20
167.6086120874
 11
728.2496731667
 21
167.6086120874
  0
LINE
  8
3
  6
CONTINUOUS
 62
1
 10
721.7046731667
 20
164.7736120874
 11
721.7046731667
 21
163.7736120874
  0
LINE
  8
3
  6
CONTINUOUS
 62
1
 10
721.7046731667
 20
162.2736120874
 11
721.7046731667
 21
161.2736120874
  0
LINE
  8
3
  6
CONTINUOUS
 62
1
 10
720.4046731667
 20
160.5560132411
 11
720.4046731667
 21
165.4912109337
  0
LINE
  8
3
  6
CONTINUOUS
 62
1
 10
720.5159725898
 20
165.7599115106
 11
721.8933737436
 21
167.1373126643
  0
LINE
  8
3
  6
CONTINUOUS
 62
1
 10
720.0096731667
 20
160.3721654780
 11
720.0096731667
 21
165.6750586968
  0
LINE
  8
3
  6
CONTINUOUS
 62
1
 10
720.0828964714
 20
165.8518353921
 11
721.7664498620
 21
167.5353887827
  0
ARC
  8
3
  6
CONTINUOUS
 62
1
 10
728.2496731667
 20
167.3586120874
 40
0.2500000000
 50
0.0000000000
 51
90.0000000000
  0
ARC
  8
3
  6
CONTINUOUS
 62
1
 10
728.2496731667
 20
158.6886120874
 40
0.2500000000
 50
270.0000000000
 51
0.0000000000
  0
ARC
  8
3
  6
CONTINUOUS
 62
1
 10
721.9432265573
 20
167.3586120874
 40
0.2500000000
 50
90.0000000000
 51
135.0000000000
  0
ARC
  8
3
  6
CONTINUOUS
 62
1
 10
720.2596731667
 20
165.6750586968
 40
0.2500000000
 50
135.0000000000
 51
180.0000000000
  0
ARC
  8
3
  6
CONTINUOUS
 62
1
 10
721.9432265573
 20
158.6886120874
 40
0.2500000000
 50
225.0000000000
 51
270.0000000000
  0
ARC
  8
3
  6
CONTINUOUS
 62
1
 10
720.2596731667
 20
160.3721654780
 40
0.2500000000
 50
180.0000000000
 51
225.0000000000
  0
ARC
  8
3
  6
CONTINUOUS
 62
1
 10
725.5946731667
 20
165.5236120874
 40
0.3000000000
 50
0.0000000000
 51
90.0000000000
  0
ARC
  8
3
  6
CONTINUOUS
 62
1
 10
725.5946731667
 20
160.5236120874
 40
0.3000000000
 50
270.0000000000
 51
0.0000000000
  0
ARC
  8
3
  6
CONTINUOUS
 62
1
 10
723.0146731667
 20
160.5236120874
 40
0.3000000000
 50
180.0000000000
 51
270.0000000000
  0
ARC
  8
3
  6
CONTINUOUS
 62
1
 10
723.0146731667
 20
165.5236120874
 40
0.3000000000
 50
90.0000000000
 51
180.0000000000
  0
ARC
  8
3
  6
CONTINUOUS
 62
1
 10
722.1620743204
 20
166.8686120874
 40
0.3800000000
 50
90.0000000000
 51
135.0000000000
  0
ARC
  8
3
  6
CONTINUOUS
 62
1
 10
720.7846731667
 20
165.4912109337
 40
0.3800000000
 50
135.0000000000
 51
180.0000000000
  0
ARC
  8
3
  6
CONTINUOUS
 62
1
 10
720.7846731667
 20
160.5560132411
 40
0.3800000000
 50
180.0000000000
 51
225.0000000000
  0
ARC
  8
3
  6
CONTINUOUS
 62
1
 10
722.1620743204
 20
159.1786120874
 40
0.3800000000
 50
225.0000000000
 51
270.0000000000
  0
ARC
  8
3
  6
CONTINUOUS
 62
1
 10
727.8246731667
 20
166.8686120874
 40
0.3800000000
 50
0.0000000000
 51
90.0000000000
  0
ARC
  8
3
  6
CONTINUOUS
 62
1
 10
727.8246731667
 20
159.1786120874
 40
0.3800000000
 50
270.0000000000
 51
0.0000000000
  0
LINE
  8
3
  6
CONTINUOUS
 62
1
 10
723.3546731667
 20
159.0986440429
 11
726.8546731667
 21
159.0986440429
  0
LINE
  8
3
  6
CONTINUOUS
 62
1
 10
723.3546731667
 20
159.0431935623
 11
726.8546731667
 21
159.0431935623
  0
LINE
  8
3
  6
CONTINUOUS
 62
1
 10
722.8546731667
 20
167.2486120874
 11
722.8546731667
 21
167.6086120874
  0
LINE
  8
3
  6
CONTINUOUS
 62
1
 10
723.3546731667
 20
166.9486120874
 11
723.3546731666
 21
167.6086120874
  0
LINE
  8
3
  6
CONTINUOUS
 62
1
 10
726.8546731667
 20
167.6086120874
 11
726.8546731667
 21
166.9486120874
  0
LINE
  8
3
  6
CONTINUOUS
 62
1
 10
726.8546731667
 20
159.0986440429
 11
726.8546731667
 21
158.4386120874
  0
LINE
  8
3
  6
CONTINUOUS
 62
1
 10
727.3546731667
 20
158.4386120874
 11
727.3546731667
 21
158.7986120874
  0
LINE
  8
3
  6
CONTINUOUS
 62
1
 10
723.3546731667
 20
158.4386120874
 11
723.3546731667
 21
159.0986440429
  0
LINE
  8
3
  6
CONTINUOUS
 62
1
 10
722.8546731667
 20
158.4386120874
 11
722.8546731667
 21
158.7986120874
  0
LINE
  8
1
  6
CONTINUOUS
 62
1
 10
721.8396731667
 20
158.4386120874
 11
720.0096731667
 21
160.2686120874
  0
LINE
  8
1
  6
CONTINUOUS
 62
1
 10
720.0096731667
 20
160.2686120874
 11
720.0096731667
 21
165.7786120874
  0
LINE
  8
1
  6
CONTINUOUS
 62
1
 10
720.0096731667
 20
165.7786120874
 11
721.8396731667
 21
167.6086120874
  0
LINE
  8
1
  6
CONTINUOUS
 62
1
 10
721.8396731667
 20
167.6086120874
 11
728.4996731667
 21
167.6086120874
  0
LINE
  8
1
  6
CONTINUOUS
 62
1
 10
728.4996731667
 20
167.6086120874
 11
728.4996731667
 21
158.4386120874
  0
LINE
  8
1
  6
CONTINUOUS
 62
1
 10
728.4996731667
 20
158.4386120874
 11
721.8396731667
 21
158.4386120874
  0
POINT
  8
3
  6
CONTINUOUS
 62
7
 10
725.8046731667
 20
163.0236120874
  0
LINE
  8
1
  6
CONTINUOUS
 62
7
 10
714.3046731667
 20
154.5236120874
 11
714.3046731667
 21
171.5236120874
  0
LINE
  8
1
  6
CONTINUOUS
 62
7
 10
714.3046731667
 20
171.5236120874
 11
737.3046731667
 21
171.5236120874
  0
LINE
  8
1
  6
CONTINUOUS
 62
7
 10
737.3046731667
 20
171.5236120874
 11
737.3046731667
 21
154.5236120874
  0
LINE
  8
1
  6
CONTINUOUS
 62
7
 10
737.3046731667
 20
154.5236120874
 11
714.3046731667
 21
154.5236120874
  0
CIRCLE
  8
3
  6
CONTINUOUS
 62
6
 10
740.3046731667
 20
117.0236120874
 40
3.0285714286
  0
LINE
  8
3
  6
CONTINUOUS
 62
6
 10
738.9662210452
 20
115.6851599659
 11
741.6431252882
 21
118.3620642090
  0
LINE
  8
3
  6
CONTINUOUS
 62
6
 10
741.6431252882
 20
115.6851599659
 11
738.9662210452
 21
118.3620642090
  0
CIRCLE
  8
3
  6
CONTINUOUS
 62
6
 10
740.3046731667
 20
117.0236120874
 40
2.6500000000
  0
CIRCLE
  8
3
  6
CONTINUOUS
 62
6
 10
711.3046731667
 20
117.0236120874
 40
3.0285714286
  0
LINE
  8
3
  6
CONTINUOUS
 62
6
 10
709.9662210452
 20
115.6851599659
 11
712.6431252882
 21
118.3620642090
  0
LINE
  8
3
  6
CONTINUOUS
 62
6
 10
712.6431252882
 20
115.6851599659
 11
709.9662210452
 21
118.3620642090
  0
CIRCLE
  8
3
  6
CONTINUOUS
 62
6
 10
711.3046731667
 20
117.0236120874
 40
2.6500000000
  0
LINE
  8
1
  6
HIDDEN
 62
1
 10
708.0046731667
 20
125.5236120874
 11
708.0046731667
 21
108.5236120874
  0
LINE
  8
1
  6
HIDDEN
 62
1
 10
742.6046731667
 20
107.5236120874
 11
741.8046731667
 21
107.5236120874
  0
LINE
  8
1
  6
HIDDEN
 62
1
 10
738.8046731667
 20
107.5236120874
 11
712.8046731667
 21
107.5236120874
  0
LINE
  8
1
  6
HIDDEN
 62
1
 10
709.8046731667
 20
107.5236120874
 11
709.0046731667
 21
107.5236120874
  0
LINE
  8
1
  6
HIDDEN
 62
1
 10
743.6046731667
 20
108.5236120874
 11
743.6046731667
 21
125.5236120874
  0
LINE
  8
1
  6
HIDDEN
 62
1
 10
742.6046731667
 20
126.5236120874
 11
741.8046731667
 21
126.5236120874
  0
LINE
  8
1
  6
HIDDEN
 62
1
 10
738.8046731667
 20
126.5236120874
 11
712.8046731667
 21
126.5236120874
  0
LINE
  8
1
  6
HIDDEN
 62
1
 10
709.8046731667
 20
126.5236120874
 11
709.0046731667
 21
126.5236120874
  0
LINE
  8
1
  6
CONTINUOUS
 62
1
 10
714.4046731667
 20
109.1236120874
 11
714.4046731667
 21
124.9236120874
  0
LINE
  8
1
  6
CONTINUOUS
 62
1
 10
736.7046731667
 20
108.6236120874
 11
714.9046731667
 21
108.6236120874
  0
LINE
  8
1
  6
CONTINUOUS
 62
1
 10
737.2046731667
 20
124.9236120874
 11
737.2046731667
 21
109.1236120874
  0
LINE
  8
1
  6
CONTINUOUS
 62
1
 10
736.7046731667
 20
125.4236120874
 11
714.9046731667
 21
125.4236120874
  0
ARC
  8
1
  6
HIDDEN
 62
1
 10
709.0046731667
 20
108.5236120874
 40
1.0000000000
 50
180.0000000000
 51
270.0000000000
  0
ARC
  8
1
  6
HIDDEN
 62
1
 10
709.0046731667
 20
125.5236120874
 40
1.0000000000
 50
90.0000000000
 51
180.0000000000
  0
ARC
  8
1
  6
HIDDEN
 62
1
 10
742.6046731667
 20
125.5236120874
 40
1.0000000000
 50
0.0000000000
 51
90.0000000000
  0
ARC
  8
1
  6
HIDDEN
 62
1
 10
742.6046731667
 20
108.5236120874
 40
1.0000000000
 50
270.0000000000
 51
0.0000000000
  0
LINE
  8
1
  6
HIDDEN
 62
1
 10
741.8046731667
 20
107.5236120874
 11
741.8046731667
 21
109.5236120874
  0
LINE
  8
1
  6
HIDDEN
 62
1
 10
741.8046731667
 20
109.5236120874
 11
738.8046731667
 21
109.5236120874
  0
LINE
  8
1
  6
HIDDEN
 62
1
 10
738.8046731667
 20
109.5236120874
 11
738.8046731667
 21
107.5236120874
  0
LINE
  8
1
  6
HIDDEN
 62
1
 10
741.8046731667
 20
126.5236120874
 11
741.8046731667
 21
124.5236120874
  0
LINE
  8
1
  6
HIDDEN
 62
1
 10
741.8046731667
 20
124.5236120874
 11
738.8046731667
 21
124.5236120874
  0
LINE
  8
1
  6
HIDDEN
 62
1
 10
738.8046731667
 20
124.5236120874
 11
738.8046731667
 21
126.5236120874
  0
LINE
  8
1
  6
HIDDEN
 62
1
 10
709.8046731667
 20
126.5236120874
 11
709.8046731667
 21
124.5236120874
  0
LINE
  8
1
  6
HIDDEN
 62
1
 10
709.8046731667
 20
124.5236120874
 11
712.8046731667
 21
124.5236120874
  0
LINE
  8
1
  6
HIDDEN
 62
1
 10
712.8046731667
 20
124.5236120874
 11
712.8046731667
 21
126.5236120874
  0
LINE
  8
1
  6
HIDDEN
 62
1
 10
709.8046731667
 20
107.5236120874
 11
709.8046731667
 21
109.5236120874
  0
LINE
  8
1
  6
HIDDEN
 62
1
 10
709.8046731667
 20
109.5236120874
 11
712.8046731667
 21
109.5236120874
  0
LINE
  8
1
  6
HIDDEN
 62
1
 10
712.8046731667
 20
109.5236120874
 11
712.8046731667
 21
107.5236120874
  0
ARC
  8
1
  6
CONTINUOUS
 62
1
 10
714.9046731667
 20
124.9236120874
 40
0.5000000000
 50
90.0000000000
 51
180.0000000000
  0
ARC
  8
1
  6
CONTINUOUS
 62
1
 10
714.9046731667
 20
109.1236120874
 40
0.5000000000
 50
180.0000000000
 51
270.0000000000
  0
ARC
  8
1
  6
CONTINUOUS
 62
1
 10
736.7046731667
 20
109.1236120874
 40
0.5000000000
 50
270.0000000000
 51
0.0000000000
  0
ARC
  8
1
  6
CONTINUOUS
 62
1
 10
736.7046731667
 20
124.9236120874
 40
0.5000000000
 50
0.0000000000
 51
90.0000000000
  0
LINE
  8
1
  6
CONTINUOUS
 62
7
 10
714.3046731667
 20
108.5236120874
 11
714.3046731667
 21
125.5236120874
  0
LINE
  8
1
  6
CONTINUOUS
 62
7
 10
714.3046731667
 20
125.5236120874
 11
737.3046731667
 21
125.5236120874
  0
LINE
  8
1
  6
CONTINUOUS
 62
7
 10
737.3046731667
 20
125.5236120874
 11
737.3046731667
 21
108.5236120874
  0
LINE
  8
1
  6
CONTINUOUS
 62
7
 10
737.3046731667
 20
108.5236120874
 11
714.3046731667
 21
108.5236120874
  0
INSERT
  8
1
  6
CONTINUOUS
 62
7
  2
S6
 10
698.8046730773
 20
116.5236113126
  0
CIRCLE
  8
1
  6
HIDDEN
 62
6
 10
699.0546731667
 20
101.0236113126
 40
2.0000000000
  0
CIRCLE
  8
1
  6
HIDDEN
 62
6
 10
699.0546731667
 20
101.0236113126
 40
4.0000000000
  0
INSERT
  8
3
  6
CONTINUOUS
 62
5
  2
LTEX3
 10
695.0546731667
 20
101.0236113126
  0
INSERT
  8
1
  6
CONTINUOUS
 62
7
  2
S7
 10
651.6110543453
 20
126.2171002987
  0
POINT
  8
5
  6
CONTINUOUS
 62
6
 10
482.8730305766
 20
280.6315670415
  0
POINT
  8
5
  6
CONTINUOUS
 62
6
 10
482.8730305766
 20
285.6315670415
  0
POINT
  8
5
  6
CONTINUOUS
 62
6
 10
482.8730305766
 20
285.6315670415
  0
POINT
  8
5
  6
CONTINUOUS
 62
6
 10
482.8730305766
 20
285.6315670415
  0
POINT
  8
5
  6
CONTINUOUS
 62
6
 10
482.8730305766
 20
285.6315670415
  0
POINT
  8
5
  6
CONTINUOUS
 62
6
 10
482.8730305766
 20
285.6315670415
  0
POINT
  8
1
  6
CONTINUOUS
 62
6
 10
482.8730305766
 20
285.6315670415
  0
POINT
  8
5
  6
CONTINUOUS
 62
6
 10
482.8730305766
 20
285.6315670415
  0
INSERT
  8
1
  6
CONTINUOUS
 62
7
  2
S8
 10
482.8730305766
 20
285.6315670415
  0
TEXT
  8
1
  6
CONTINUOUS
 62
7
 10
488.373031
 20
284.381567
 40
2.500000
  1
'22/3/24
 41
0.770713
 50
0.000000
 51
0.000000
 72
   5
 73
   0
 11
498.373031
 21
284.381567
  0
TEXT
  8
1
  6
CONTINUOUS
 62
7
 10
500.270884
 20
284.243681
 40
2.500000
  1
PB追加に伴う変更
 41
0.854701
 50
0.000000
 51
0.000000
 72
   5
 73
   0
 11
520.270884
 21
284.243681
  0
TEXT
  8
1
  6
CONTINUOUS
 62
7
 10
564.873031
 20
283.881567
 40
3.500000
  1
山田
 41
0.921659
 50
0.000000
 51
0.000000
 72
   5
 73
   0
 11
571.873031
 21
283.881567
  0
LINE
  8
1
  6
CONTINUOUS
 62
6
 10
482.8730305766
 20
287.6315670415
 11
485.3730305766
 21
283.6315670415
  0
LINE
  8
1
  6
CONTINUOUS
 62
6
 10
485.3730305766
 20
283.6315670415
 11
480.3730305766
 21
283.6315670414
  0
INSERT
  8
3
  6
CONTINUOUS
 62
5
  2
LTEX4
 10
643.3284040708
 20
180.0236111933
  0
POINT
  8
5
  6
CONTINUOUS
 62
6
 10
636.9229126384
 20
239.8211871414
  0
POINT
  8
5
  6
CONTINUOUS
 62
6
 10
636.9229126384
 20
239.8211871414
  0
POINT
  8
1
  6
CONTINUOUS
 62
6
 10
636.9229126384
 20
239.8211871414
  0
POINT
  8
5
  6
CONTINUOUS
 62
6
 10
636.9229126384
 20
239.8211871414
  0
INSERT
  8
1
  6
CONTINUOUS
 62
7
  2
S9
 10
636.9229126384
 20
239.8211871414
  0
INSERT
  8
3
  6
CONTINUOUS
 62
5
  2
LTEX5
 10
531.3284061942
 20
255.7736142928
  0
INSERT
  8
3
  6
CONTINUOUS
 62
5
  2
LTEX6
 10
578.3284061942
 20
255.7736142928
  0
INSERT
  8
3
  6
CONTINUOUS
 62
5
  2
LTEX7
 10
638.6408163129
 20
103.3849799526
  0
POINT
  8
5
  6
CONTINUOUS
 62
6
 10
697.7036523109
 20
256.6027388889
  0
POINT
  8
5
  6
CONTINUOUS
 62
6
 10
697.7036523109
 20
256.6027388889
  0
POINT
  8
1
  6
CONTINUOUS
 62
6
 10
697.7036523109
 20
256.6027388889
  0
POINT
  8
5
  6
CONTINUOUS
 62
6
 10
697.7036523109
 20
256.6027388889
  0
INSERT
  8
1
  6
CONTINUOUS
 62
7
  2
S10
 10
697.7036523109
 20
256.6027388889
  0
LINE
  8
3
  6
CONTINUOUS
 62
7
 10
689.5001729390
 20
265.6303128896
 11
689.5001729390
 21
250.4598295305
  0
LINE
  8
3
  6
CONTINUOUS
 62
7
 10
689.5001729390
 20
250.4598295305
 11
695.3349742310
 21
250.4598295305
  0
TEXT
  8
3
  6
CONTINUOUS
 62
7
 10
647.112386
 20
271.645361
 40
6.000000
  1
型番仕様
 41
0.886918
 50
0.000000
 51
0.000000
 72
   5
 73
   0
 11
671.112386
 21
271.645361
  0
TEXT
  8
3
  6
CONTINUOUS
 62
7
 10
647.112386
 20
265.645361
 40
6.000000
  1
MCON-030-371 %%uPB%%u
 41
0.759109
 50
0.000000
 51
0.000000
 72
   5
 73
   0
 11
692.112386
 21
265.645361
  0
TEXT
  8
1
  6
CONTINUOUS
 62
7
 10
695.686275
 20
248.551385
 40
3.500000
  1
①ﾍﾞｰｽ,②ｶﾊﾞｰ材質
 41
0.806452
 50
0.000000
 51
0.000000
 72
   5
 73
   0
 11
725.436275
 21
248.551385
  0
TEXT
  8
1
  6
CONTINUOUS
 62
7
 10
695.686275
 20
245.051385
 40
3.500000
  1
無印:ｱﾙﾐﾀﾞｲｷｬｽﾄ
 41
0.786164
 50
0.000000
 51
0.000000
 72
   5
 73
   0
 11
721.936275
 21
245.051385
  0
TEXT
  8
1
  6
CONTINUOUS
 62
7
 10
695.686275
 20
241.551385
 40
3.500000
  1
PB:PBT(UL:V-0)
 41
0.760043
 50
0.000000
 51
0.000000
 72
   5
 73
   0
 11
720.186275
 21
241.551385
  0
TEXT
  8
5
  6
CONTINUOUS
 62
7
 10
811.820889
 20
276.094548
 40
3.000000
  1
ｱﾙﾐﾀﾞｲｷｬｽﾄ銀色塗装
 41
0.833541
 50
0.000000
 51
0.000000
 72
   5
 73
   0
 11
839.852889
 21
276.094548
  0
TEXT
  8
5
  6
CONTINUOUS
 62
7
 10
811.820889
 20
273.094548
 40
3.000000
  1
又は
 41
0.921659
 50
0.000000
 51
0.000000
 72
   5
 73
   0
 11
817.820889
 21
273.094548
  0
TEXT
  8
5
  6
CONTINUOUS
 62
7
 10
811.820889
 20
270.094548
 40
3.000000
  1
PBT 黒色(UL  V-0)
 41
0.751838
 50
0.000000
 51
0.000000
 72
   5
 73
   0
 11
836.360889
 21
270.094548
  0
POINT
  8
5
  6
CONTINUOUS
 62
6
 10
782.4938061827
 20
274.6769006342
  0
POINT
  8
5
  6
CONTINUOUS
 62
6
 10
782.4938061827
 20
274.6769006342
  0
POINT
  8
1
  6
CONTINUOUS
 62
6
 10
782.4938061827
 20
274.6769006342
  0
POINT
  8
5
  6
CONTINUOUS
 62
6
 10
782.4938061827
 20
274.6769006342
  0
INSERT
  8
1
  6
CONTINUOUS
 62
7
  2
S11
 10
782.4938061827
 20
274.6769006342
  0
INSERT
  8
1
  6
CONTINUOUS
 62
7
  2
S12
 10
773.0118396874
 20
247.3682736575
  0
ENDSEC
  0
EOF
