  0
SECTION
  2
HEADER
  9
$ACADVER
  1
AC1009
  9
$DWGCODEPAGE
  3
dos932
  9
$INSBASE
 10
677.3730305766
 20
150.6315670415
  9
$EXTMIN
 10
415.5257473573
 20
-55.4827885969
  9
$EXTMAX
 10
1163.8390130508
 20
356.7459226799
  9
$LIMMIN
 10
415.5257473573
 20
-55.4827885969
  9
$LIMMAX
 10
1163.8390130508
 20
356.7459226799
  9
$VIEWCTR
 10
0.0000000000
 20
0.0000000000
  9
$VIEWSIZE
 40
0.0000000000
  9
$SNAPMODE
 70
     0
  9
$SNAPUNIT
 10
20.0
 20
20.0
  9
$SNAPBASE
 10
0.000000
 20
0.000000
  9
$SNAPANG
 50
0.0
  9
$SNAPSTYLE
 70
     0
  9
$SNAPISOPAIR
 70
     0
  9
$GRIDMODE
 70
     0
  9
$GRIDUNIT
 10
10.000000
 20
10.000000
  9
$ORTHOMODE
 70
     0
  9
$REGENMODE
 70
     0
  9
$FILLMODE
 70
     1
  9
$QTEXTMODE
 70
     0
  9
$DRAGMODE
 70
     1
  9
$LTSCALE
 40
1.0
  9
$OSMODE
 70
     0
  9
$ATTMODE
 70
     1
  9
$TEXTSIZE
 40
4.000000
  9
$TRACEWID
 40
0.05
  9
$TEXTSTYLE
  7
STANDARD
  9
$CLAYER
  8
3
  9
$CELTYPE
  6
CONTINUOUS
  9
$CECOLOR
  62
7
  9
$DIMSCALE
 40
1.0000000000
  9
$DIMASZ
 40
2.0000000000
  9
$DIMEXO
 40
0.5000000000
  9
$DIMDLI
 40
7.000000
  9
$DIMRND
 40
0.0
  9
$DIMDLE
 40
0.0
  9
$DIMEXE
 40
1.0000000000
  9
$DIMTP
 40
0.0
  9
$DIMTM
 40
0.0
  9
$DIMTXT
 40
3.500000
  9
$DIMCEN
 40
0.09
  9
$DIMTSZ
 40
0.0
  9
$DIMTOL
 70
     0
  9
$DIMLIM
 70
     0
  9
$DIMTIH
 70
     0
  9
$DIMTOH
 70
     0
  9
$DIMSE1
 70
     0
  9
$DIMSE2
 70
     0
  9
$DIMTAD
 70
     1
  9
$DIMZIN
 70
     0
  9
$DIMBLK
  1

  9
$DIMASO
 70
     1
  9
$DIMSHO
 70
     0
  9
$DIMPOST
  1

  9
$DIMAPOST
  1

  9
$DIMALT
 70
     0
  9
$DIMALTD
 70
     3
  9
$DIMCLRD
 70
     5
  9
$DIMCLRE
 70
     5
  9
$DIMCLRT
 70
     7
  9
$DIMALTF
 40
25.4
  9
$DIMLFAC
 40
1.0
  9
$DIMTOFL
 70
     0
  9
$DIMTVP
 40
0.0
  9
$DIMTIX
 70
     0
  9
$DIMSOXD
 70
     0
  9
$DIMSAH
 70
     0
  9
$LUNITS
 70
     2
  9
$LUPREC
 70
     4
  9
$AXISMODE
 70
     0
  9
$AXISUNIT
 10
0.0
 20
0.0
  9
$SKETCHINC
 40
0.1
  9
$FILLETRAD
 40
0.0
  9
$AUNITS
 70
     0
  9
$AUPREC
 70
     0
  9
$MENU
  1
ACAD
  9
$ELEVATION
 40
0.0
  9
$THICKNESS
 40
0.0
  9
$VIEWDIR
 10
0.0
 20
0.0
 30
1.0
  9
$LIMCHECK
 70
     0
  9
$BLIPMODE
 70
     1
  9
$CHAMFERA
 40
0.0
  9
$CHAMFERB
 40
0.0
  9
$FASTZOOM
 70
     1
  9
$SKPOLY
 70
     0
  9
$TDCREATE
 40
2460020.0000000051
  9
$TDUPDATE
 40
2460020.0000000051
  9
$TDINDWG
 40
0.0000000000
  9
$TDUSRTIMER
 40
0.0000000000
  9
$USRTIMER
 70
     1
  9
$ANGBASE
 50
0.0
  9
$ANGDIR
 70
     0
  9
$PDMODE
 70
     65
  9
$PDSIZE
 40
0.2
  9
$PLINEWID
 40
0.0
  9
$COORDS
 70
     2
  9
$USERI1
 70
     0
  9
$USERI2
 70
     0
  9
$USERI3
 70
     0
  9
$USERI4
 70
     0
  9
$USERI5
 70
     0
  9
$USERR1
 40
0.0
  9
$USERR2
 40
0.0
  9
$USERR3
 40
0.0
  9
$USERR4
 40
0.0
  9
$USERR5
 40
0.0
  0
ENDSEC
  0
SECTION
  2
TABLES
  0
TABLE
  2
LTYPE
 70
     9
  0
LTYPE
  2
CONTINUOUS
 70
    64
  3
Solid line
 72
    65
 73
     0
 40
0.0
  0
LTYPE
  2
DASHED
 70
    64
  3
__ __ __ __ __ __ __ __ __ __ __ __ __ __ __
 72
    65
 73
     2
 40
3.0
 49
2.0
 49
-1.0
  0
LTYPE
  2
HIDDEN
 70
    64
  3
_ _ _ _ _ _ _ _ _ _ _ _ _ _ _ _ _ _ _ _ _ _ _
 72
    65
 73
     2
 40
1.5
 49
1.0
 49
-0.5
  0
LTYPE
  2
CENTER
 70
    64
  3
____ _ ____ _ ____ _ ____ _ ____ _ ____ _ ____
 72
    65
 73
     4
 40
24.0
 49
20.0
 49
-1.0
 49
2.0
 49
-1.0
  0
LTYPE
  2
PHANTOM
 70
    64
  3
_____ _ _ _____ _ _ _____ _ _ _____ _ _ ____
 72
    65
 73
     6
 40
27.0
 49
20.0
 49
-1.0
 49
2.0
 49
-1.0
 49
2.0
 49
-1.0
  0
LTYPE
  2
DOT
 70
    64
  3
...............................................
 72
    65
 73
     2
 40
1.5
 49
0.5
 49
-1.0
  0
LTYPE
  2
DASHDOT
 70
    64
  3
__ . __ . __ . __ . __ . __ . __ . __ . __ . __
 72
    65
 73
     4
 40
8.5
 49
6.0
 49
-1.0
 49
0.5
 49
-1.0
  0
LTYPE
  2
DIVIDE
 70
    64
  3
__ . . __ . . __ . . __ . . __ . . __ . . __
 72
    65
 73
     6
 40
10.0
 49
6.0
 49
-1.0
 49
0.5
 49
-1.0
 49
0.5
 49
-1.0
  0
LTYPE
  2
BORDER
 70
    64
  3
__ __ . __ __ . __ __ . __ __ . __ __ . __ __
 72
    65
 73
     6
 40
15.5
 49
6.0
 49
-1.0
 49
6.0
 49
-1.0
 49
0.5
 49
-1.0
  0
ENDTAB
  0
TABLE
  2
LAYER
 70
  7
  0
LAYER
  2
0
 70
    64
 62
     7
  6
CONTINUOUS
  0
LAYER
  2
1
 70
    64
 62
     7
  6
CONTINUOUS
  0
LAYER
  2
2
 70
    64
 62
     7
  6
CONTINUOUS
  0
LAYER
  2
3
 70
    64
 62
     7
  6
CONTINUOUS
  0
LAYER
  2
4
 70
    64
 62
     7
  6
CONTINUOUS
  0
LAYER
  2
5
 70
    64
 62
     7
  6
CONTINUOUS
  0
LAYER
  2
DEFPOINTS
 70
     0
 62
    -7
  6
CONTINUOUS
  0
ENDTAB
  0
TABLE
  2
STYLE
 70
     1
  0
STYLE
  2
STANDARD
 70
    64
 40
0.0
 41
1.0
 71
     0
 42
4.000000
  3
TXT
  4
EXTFONT
 50
0.0
  0
ENDTAB
  0
TABLE
  2
VIEW
 70
     0
  0
ENDTAB
  0
ENDSEC
  0
SECTION
  2
BLOCKS
  0
BLOCK
  8
0
  2
CI
 70
   0
 10
0.0
 20
0.0
  0
CIRCLE
  8
0
  62
0
 10
0.0
 20
0.0
 40
0.1666666666
  0
ENDBLK
  8
0
  0
BLOCK
  8
5
  2
S0
 70
     0
 10
473.8730305766
 20
8.6315670415
  3
S0
  0
POINT
  8
5
  6
CONTINUOUS
 62
6
 10
467.3730305766
 20
2.1315670415
  0
LINE
  8
5
  6
CONTINUOUS
 62
6
 10
478.3730305766
 20
13.1315670415
 11
876.3730305766
 21
13.1315670415
  0
LINE
  8
5
  6
CONTINUOUS
 62
6
 10
478.3730305766
 20
13.1315670415
 11
478.3730305766
 21
288.1315670415
  0
LINE
  8
5
  6
CONTINUOUS
 62
6
 10
518.3730305766
 20
292.6315670415
 11
518.3730305766
 21
288.1315670415
  0
LINE
  8
5
  6
CONTINUOUS
 62
6
 10
518.3730305766
 20
13.1315670415
 11
518.3730305766
 21
8.6315670415
  0
LINE
  8
5
  6
CONTINUOUS
 62
6
 10
558.3730305766
 20
292.6315670415
 11
558.3730305766
 21
288.1315670415
  0
LINE
  8
5
  6
CONTINUOUS
 62
6
 10
598.3730305766
 20
292.6315670415
 11
598.3730305766
 21
288.1315670415
  0
LINE
  8
5
  6
CONTINUOUS
 62
6
 10
638.3730305766
 20
292.6315670415
 11
638.3730305766
 21
288.1315670415
  0
LINE
  8
5
  6
CONTINUOUS
 62
6
 10
678.3730305766
 20
292.6315670415
 11
678.3730305766
 21
288.1315670415
  0
LINE
  8
5
  6
CONTINUOUS
 62
6
 10
718.3730305766
 20
292.6315670415
 11
718.3730305766
 21
288.1315670415
  0
LINE
  8
5
  6
CONTINUOUS
 62
6
 10
558.3730305766
 20
13.1315670415
 11
558.3730305766
 21
8.6315670415
  0
LINE
  8
5
  6
CONTINUOUS
 62
6
 10
598.3730305766
 20
13.1315670415
 11
598.3730305766
 21
8.6315670415
  0
LINE
  8
5
  6
CONTINUOUS
 62
6
 10
638.3730305766
 20
13.1315670415
 11
638.3730305766
 21
8.6315670415
  0
LINE
  8
5
  6
CONTINUOUS
 62
6
 10
678.3730305766
 20
13.1315670415
 11
678.3730305766
 21
8.6315670415
  0
LINE
  8
5
  6
CONTINUOUS
 62
6
 10
718.3730305766
 20
13.1315670415
 11
718.3730305766
 21
8.6315670415
  0
LINE
  8
5
  6
CONTINUOUS
 62
6
 10
473.8730305766
 20
248.1315670415
 11
478.3730305766
 21
248.1315670415
  0
LINE
  8
5
  6
CONTINUOUS
 62
6
 10
876.3730305766
 20
248.1315670415
 11
880.8730305766
 21
248.1315670415
  0
LINE
  8
5
  6
CONTINUOUS
 62
6
 10
473.8730305766
 20
208.1315670415
 11
478.3730305766
 21
208.1315670415
  0
LINE
  8
5
  6
CONTINUOUS
 62
6
 10
473.8730305766
 20
168.1315670415
 11
478.3730305766
 21
168.1315670415
  0
LINE
  8
5
  6
CONTINUOUS
 62
6
 10
473.8730305766
 20
128.1315670415
 11
478.3730305766
 21
128.1315670415
  0
LINE
  8
5
  6
CONTINUOUS
 62
6
 10
876.3730305766
 20
208.1315670415
 11
880.8730305766
 21
208.1315670415
  0
LINE
  8
5
  6
CONTINUOUS
 62
6
 10
876.3730305766
 20
168.1315670415
 11
880.8730305766
 21
168.1315670415
  0
LINE
  8
5
  6
CONTINUOUS
 62
6
 10
876.3730305766
 20
128.1315670415
 11
880.8730305766
 21
128.1315670415
  0
TEXT
  8
5
  6
CONTINUOUS
 62
6
 10
497.373031
 20
288.131567
 40
4.000000
  1
1
 41
1.000000
 50
0.000000
 51
0.000000
 72
   5
 73
   0
 11
499.373031
 21
288.131567
  0
TEXT
  8
5
  6
CONTINUOUS
 62
6
 10
497.373031
 20
9.131567
 40
4.000000
  1
1
 41
1.000000
 50
0.000000
 51
0.000000
 72
   5
 73
   0
 11
499.373031
 21
9.131567
  0
TEXT
  8
5
  6
CONTINUOUS
 62
6
 10
537.373031
 20
288.131567
 40
4.000000
  1
2
 41
1.000000
 50
0.000000
 51
0.000000
 72
   5
 73
   0
 11
539.373031
 21
288.131567
  0
TEXT
  8
5
  6
CONTINUOUS
 62
6
 10
577.373031
 20
288.131567
 40
4.000000
  1
3
 41
1.000000
 50
0.000000
 51
0.000000
 72
   5
 73
   0
 11
579.373031
 21
288.131567
  0
TEXT
  8
5
  6
CONTINUOUS
 62
6
 10
617.373031
 20
288.131567
 40
4.000000
  1
4
 41
1.000000
 50
0.000000
 51
0.000000
 72
   5
 73
   0
 11
619.373031
 21
288.131567
  0
TEXT
  8
5
  6
CONTINUOUS
 62
6
 10
657.373031
 20
288.131567
 40
4.000000
  1
5
 41
1.000000
 50
0.000000
 51
0.000000
 72
   5
 73
   0
 11
659.373031
 21
288.131567
  0
TEXT
  8
5
  6
CONTINUOUS
 62
6
 10
697.373031
 20
288.131567
 40
4.000000
  1
6
 41
1.000000
 50
0.000000
 51
0.000000
 72
   5
 73
   0
 11
699.373031
 21
288.131567
  0
TEXT
  8
5
  6
CONTINUOUS
 62
6
 10
737.373031
 20
288.131567
 40
4.000000
  1
7
 41
1.000000
 50
0.000000
 51
0.000000
 72
   5
 73
   0
 11
739.373031
 21
288.131567
  0
TEXT
  8
5
  6
CONTINUOUS
 62
6
 10
537.373031
 20
9.131567
 40
4.000000
  1
2
 41
1.000000
 50
0.000000
 51
0.000000
 72
   5
 73
   0
 11
539.373031
 21
9.131567
  0
TEXT
  8
5
  6
CONTINUOUS
 62
6
 10
577.373031
 20
9.131567
 40
4.000000
  1
3
 41
1.000000
 50
0.000000
 51
0.000000
 72
   5
 73
   0
 11
579.373031
 21
9.131567
  0
TEXT
  8
5
  6
CONTINUOUS
 62
6
 10
617.373031
 20
9.131567
 40
4.000000
  1
4
 41
1.000000
 50
0.000000
 51
0.000000
 72
   5
 73
   0
 11
619.373031
 21
9.131567
  0
TEXT
  8
5
  6
CONTINUOUS
 62
6
 10
657.373031
 20
9.131567
 40
4.000000
  1
5
 41
1.000000
 50
0.000000
 51
0.000000
 72
   5
 73
   0
 11
659.373031
 21
9.131567
  0
TEXT
  8
5
  6
CONTINUOUS
 62
6
 10
697.373031
 20
9.131567
 40
4.000000
  1
6
 41
1.000000
 50
0.000000
 51
0.000000
 72
   5
 73
   0
 11
699.373031
 21
9.131567
  0
TEXT
  8
5
  6
CONTINUOUS
 62
6
 10
737.373031
 20
9.131567
 40
4.000000
  1
7
 41
1.000000
 50
0.000000
 51
0.000000
 72
   5
 73
   0
 11
739.373031
 21
9.131567
  0
TEXT
  8
5
  6
CONTINUOUS
 62
6
 10
475.499803
 20
266.085710
 40
4.000000
  1
A
 41
1.266000
 50
0.000000
 51
0.000000
 72
   5
 73
   0
 11
478.031803
 21
266.085710
  0
TEXT
  8
5
  6
CONTINUOUS
 62
6
 10
876.659544
 20
266.123921
 40
4.000000
  1
A
 41
1.266000
 50
0.000000
 51
0.000000
 72
   5
 73
   0
 11
879.191544
 21
266.123921
  0
TEXT
  8
5
  6
CONTINUOUS
 62
6
 10
475.483803
 20
226.085710
 40
4.000000
  1
B
 41
1.274000
 50
0.000000
 51
0.000000
 72
   5
 73
   0
 11
478.031803
 21
226.085710
  0
TEXT
  8
5
  6
CONTINUOUS
 62
6
 10
475.375803
 20
186.085710
 40
4.000000
  1
C
 41
1.328000
 50
0.000000
 51
0.000000
 72
   5
 73
   0
 11
478.031803
 21
186.085710
  0
TEXT
  8
5
  6
CONTINUOUS
 62
6
 10
475.439803
 20
146.085710
 40
4.000000
  1
D
 41
1.296000
 50
0.000000
 51
0.000000
 72
   5
 73
   0
 11
478.031803
 21
146.085710
  0
TEXT
  8
5
  6
CONTINUOUS
 62
6
 10
475.767803
 20
106.085710
 40
4.000000
  1
E
 41
1.132000
 50
0.000000
 51
0.000000
 72
   5
 73
   0
 11
478.031803
 21
106.085710
  0
TEXT
  8
5
  6
CONTINUOUS
 62
6
 10
876.659544
 20
226.123921
 40
4.000000
  1
B
 41
1.274000
 50
0.000000
 51
0.000000
 72
   5
 73
   0
 11
879.207544
 21
226.123921
  0
TEXT
  8
5
  6
CONTINUOUS
 62
6
 10
876.659544
 20
186.123921
 40
4.000000
  1
C
 41
1.328000
 50
0.000000
 51
0.000000
 72
   5
 73
   0
 11
879.315544
 21
186.123921
  0
TEXT
  8
5
  6
CONTINUOUS
 62
6
 10
876.659544
 20
146.123921
 40
4.000000
  1
D
 41
1.296000
 50
0.000000
 51
0.000000
 72
   5
 73
   0
 11
879.251544
 21
146.123921
  0
TEXT
  8
5
  6
CONTINUOUS
 62
6
 10
876.659544
 20
106.123921
 40
4.000000
  1
E
 41
1.132000
 50
0.000000
 51
0.000000
 72
   5
 73
   0
 11
878.923544
 21
106.123921
  0
LINE
  8
5
  6
CONTINUOUS
 62
6
 10
821.3730305766
 20
38.1315670415
 11
821.3730305766
 21
13.1315670415
  0
LINE
  8
5
  6
CONTINUOUS
 62
6
 10
821.3730305766
 20
23.1315670415
 11
876.3730305766
 21
23.1315670415
  0
LINE
  8
5
  6
CONTINUOUS
 62
6
 10
821.3730305766
 20
16.1315670415
 11
755.3730305766
 21
16.1315670415
  0
LINE
  8
5
  6
CONTINUOUS
 62
6
 10
777.3730305766
 20
13.1315670415
 11
777.3730305766
 21
29.6315670415
  0
LINE
  8
5
  6
CONTINUOUS
 62
6
 10
810.3730305766
 20
25.6315670415
 11
810.3730305766
 21
13.1315670415
  0
LINE
  8
5
  6
CONTINUOUS
 62
6
 10
799.3730305766
 20
13.1315670415
 11
799.3730305764
 21
29.6315670415
  0
LINE
  8
5
  6
CONTINUOUS
 62
6
 10
788.3730305766
 20
25.6315670415
 11
788.3730305766
 21
13.1315670415
  0
TEXT
  8
5
  6
CONTINUOUS
 62
6
 10
768.396781
 20
13.381567
 40
2.500000
  1
Design
 41
0.722338
 50
0.000000
 51
0.000000
 72
   5
 73
   0
 11
775.349281
 21
13.381567
  0
TEXT
  8
5
  6
CONTINUOUS
 62
6
 10
780.211781
 20
13.381567
 40
2.500000
  1
Draft
 41
0.669497
 50
0.000000
 51
0.000000
 72
   5
 73
   0
 11
785.534281
 21
13.381567
  0
TEXT
  8
5
  6
CONTINUOUS
 62
6
 10
790.591781
 20
13.381567
 40
2.500000
  1
Check
 41
0.825472
 50
0.000000
 51
0.000000
 72
   5
 73
   0
 11
797.154281
 21
13.381567
  0
LINE
  8
5
  6
CONTINUOUS
 62
6
 10
755.3730305766
 20
38.1315670415
 11
876.3730305766
 21
38.1315670415
  0
LINE
  8
5
  6
CONTINUOUS
 62
6
 10
755.3730305766
 20
25.6315670415
 11
821.3730305766
 21
25.6315670415
  0
LINE
  8
5
  6
CONTINUOUS
 62
6
 10
866.3730305766
 20
23.1315670415
 11
866.3730305766
 21
13.1315670415
  0
TEXT
  8
5
  6
CONTINUOUS
 62
6
 10
869.393031
 20
13.631567
 40
2.000000
  1
SIZE
 41
0.788845
 50
0.000000
 51
0.000000
 72
   5
 73
   0
 11
873.353031
 21
13.631567
  0
LINE
  8
5
  6
CONTINUOUS
 62
6
 10
866.3730305766
 20
16.1315670415
 11
876.3730305766
 21
16.1315670415
  0
TEXT
  8
5
  6
CONTINUOUS
 62
6
 10
867.878031
 20
17.131567
 40
5.000000
  1
Ａ３
 41
0.644240
 50
0.000000
 51
0.000000
 72
   5
 73
   0
 11
874.868031
 21
17.131567
  0
TEXT
  8
5
  6
CONTINUOUS
 62
6
 10
813.011781
 20
13.381567
 40
2.500000
  1
Scale
 41
0.719811
 50
0.000000
 51
0.000000
 72
   5
 73
   0
 11
818.734281
 21
13.381567
  0
TEXT
  8
5
  6
CONTINUOUS
 62
6
 10
812.123031
 20
18.381567
 40
5.000000
  1
1/1
 41
0.815217
 50
0.000000
 51
0.000000
 72
   5
 73
   0
 11
819.623031
 21
18.381567
  0
TEXT
  8
5
  6
CONTINUOUS
 62
6
 10
800.785531
 20
13.381567
 40
2.500000
  1
Confirm
 41
0.723451
 50
0.000000
 51
0.000000
 72
   5
 73
   0
 11
808.960531
 21
13.381567
  0
TEXT
  8
5
  6
CONTINUOUS
 62
6
 10
758.401781
 20
13.381567
 40
2.500000
  1
Date
 41
0.787649
 50
0.000000
 51
0.000000
 72
   5
 73
   0
 11
763.344281
 21
13.381567
  0
TEXT
  8
5
  6
CONTINUOUS
 62
6
 10
757.123031
 20
21.094067
 40
3.000000
  1
2008/
 41
0.786164
 50
0.000000
 51
0.000000
 72
   5
 73
   0
 11
764.623031
 21
21.094067
  0
TEXT
  8
5
  6
CONTINUOUS
 62
6
 10
757.123031
 20
17.669067
 40
3.000000
  1
4/10
 41
0.796813
 50
0.000000
 51
0.000000
 72
   5
 73
   0
 11
763.123031
 21
17.669067
  0
LINE
  8
5
  6
CONTINUOUS
 62
6
 10
766.3730305766
 20
25.6315670415
 11
766.3730305766
 21
13.1315670415
  0
LINE
  8
5
  6
CONTINUOUS
 62
6
 10
755.3730305766
 20
13.1315670415
 11
755.3730305766
 21
38.1315670415
  0
TEXT
  8
5
  6
CONTINUOUS
 62
6
 10
755.628324
 20
26.844757
 40
2.000000
  1
Material
 41
0.638921
 50
0.000000
 51
0.000000
 72
   5
 73
   0
 11
762.260324
 21
26.844757
  0
LINE
  8
5
  6
CONTINUOUS
 62
6
 10
762.3730305766
 20
29.6315670415
 11
762.3730305766
 21
25.6315670415
  0
TEXT
  8
5
  6
CONTINUOUS
 62
6
 10
777.478031
 20
26.631567
 40
2.000000
  1
Process
 41
0.751106
 50
0.000000
 51
0.000000
 72
   5
 73
   0
 11
784.268031
 21
26.631567
  0
LINE
  8
5
  6
CONTINUOUS
 62
6
 10
784.3730305766
 20
29.6315670415
 11
784.3730305766
 21
25.6315670415
  0
TEXT
  8
5
  6
CONTINUOUS
 62
6
 10
799.646031
 20
26.631567
 40
2.000000
  1
Amount
 41
0.838182
 50
0.000000
 51
0.000000
 72
   5
 73
   0
 11
806.100031
 21
26.631567
  0
LINE
  8
5
  6
CONTINUOUS
 62
6
 10
806.3730305765
 20
29.6315670415
 11
806.3730305765
 21
25.6315670415
  0
LINE
  8
5
  6
CONTINUOUS
 62
6
 10
821.3730305766
 20
29.6315670415
 11
755.3730305766
 21
29.6315670415
  0
POINT
  8
5
  6
CONTINUOUS
 62
6
 10
763.3730305766
 20
27.6315670415
  0
POINT
  8
5
  6
CONTINUOUS
 62
6
 10
785.3730305766
 20
27.6315670415
  0
POINT
  8
5
  6
CONTINUOUS
 62
6
 10
813.8730305765
 20
27.6315670415
  0
POINT
  8
5
  6
CONTINUOUS
 62
6
 10
771.8730305766
 20
20.8815670415
  0
POINT
  8
5
  6
CONTINUOUS
 62
6
 10
782.8730305766
 20
20.8815670415
  0
POINT
  8
5
  6
CONTINUOUS
 62
6
 10
793.8730305766
 20
20.8815670415
  0
POINT
  8
5
  6
CONTINUOUS
 62
6
 10
804.8730305766
 20
20.8815670415
  0
POINT
  8
5
  6
CONTINUOUS
 62
6
 10
473.8730305766
 20
8.6315670415
  0
TEXT
  8
5
  6
CONTINUOUS
 62
7
 10
774.972836
 20
29.411650
 40
4.000000
  1
MADOKA SYSTEM co,.ltd
 41
0.778201
 50
0.000000
 51
0.000000
 72
   5
 73
   0
 11
818.240836
 21
29.411650
  0
LINE
  8
5
  6
CONTINUOUS
 62
6
 10
758.3730305766
 20
292.6315670415
 11
758.3730305766
 21
288.1315670415
  0
LINE
  8
5
  6
CONTINUOUS
 62
6
 10
758.3730305766
 20
13.1315670415
 11
758.3730305766
 21
8.6315670415
  0
TEXT
  8
5
  6
CONTINUOUS
 62
6
 10
777.373031
 20
288.131567
 40
4.000000
  1
8
 41
1.000000
 50
0.000000
 51
0.000000
 72
   5
 73
   0
 11
779.373031
 21
288.131567
  0
TEXT
  8
5
  6
CONTINUOUS
 62
6
 10
777.373031
 20
9.131567
 40
4.000000
  1
8
 41
1.000000
 50
0.000000
 51
0.000000
 72
   5
 73
   0
 11
779.373031
 21
9.131567
  0
LINE
  8
5
  6
CONTINUOUS
 62
6
 10
798.3730305766
 20
292.6315670415
 11
798.3730305766
 21
288.1315670415
  0
LINE
  8
5
  6
CONTINUOUS
 62
6
 10
798.3730305766
 20
13.1315670415
 11
798.3730305766
 21
8.6315670415
  0
TEXT
  8
5
  6
CONTINUOUS
 62
6
 10
817.373031
 20
288.131567
 40
4.000000
  1
9
 41
1.000000
 50
0.000000
 51
0.000000
 72
   5
 73
   0
 11
819.373031
 21
288.131567
  0
TEXT
  8
5
  6
CONTINUOUS
 62
6
 10
817.373031
 20
9.131567
 40
4.000000
  1
9
 41
1.000000
 50
0.000000
 51
0.000000
 72
   5
 73
   0
 11
819.373031
 21
9.131567
  0
LINE
  8
5
  6
CONTINUOUS
 62
6
 10
838.3730305766
 20
292.6315670415
 11
838.3730305766
 21
288.1315670415
  0
LINE
  8
5
  6
CONTINUOUS
 62
6
 10
838.3730305766
 20
13.1315670415
 11
838.3730305766
 21
8.6315670415
  0
TEXT
  8
5
  6
CONTINUOUS
 62
6
 10
856.373031
 20
288.131567
 40
4.000000
  1
10
 41
0.854701
 50
0.000000
 51
0.000000
 72
   5
 73
   0
 11
860.373031
 21
288.131567
  0
TEXT
  8
5
  6
CONTINUOUS
 62
6
 10
856.373031
 20
9.131567
 40
4.000000
  1
10
 41
0.854701
 50
0.000000
 51
0.000000
 72
   5
 73
   0
 11
860.373031
 21
9.131567
  0
LINE
  8
5
  6
CONTINUOUS
 62
6
 10
473.8730305766
 20
88.1315670415
 11
478.3730305766
 21
88.1315670415
  0
LINE
  8
5
  6
CONTINUOUS
 62
6
 10
876.3730305766
 20
88.1315670415
 11
880.8730305766
 21
88.1315670415
  0
LINE
  8
5
  6
CONTINUOUS
 62
6
 10
473.8730305766
 20
48.1315670415
 11
478.3730305766
 21
48.1315670415
  0
LINE
  8
5
  6
CONTINUOUS
 62
6
 10
876.3730305766
 20
48.1315670415
 11
880.8730305766
 21
48.1315670415
  0
TEXT
  8
5
  6
CONTINUOUS
 62
6
 10
475.827803
 20
66.085710
 40
4.000000
  1
F
 41
1.102000
 50
0.000000
 51
0.000000
 72
   5
 73
   0
 11
478.031803
 21
66.085710
  0
TEXT
  8
5
  6
CONTINUOUS
 62
6
 10
876.659544
 20
66.123921
 40
4.000000
  1
F
 41
1.102000
 50
0.000000
 51
0.000000
 72
   5
 73
   0
 11
878.863544
 21
66.123921
  0
TEXT
  8
5
  6
CONTINUOUS
 62
6
 10
475.311803
 20
26.085710
 40
4.000000
  1
G
 41
1.360000
 50
0.000000
 51
0.000000
 72
   5
 73
   0
 11
478.031803
 21
26.085710
  0
TEXT
  8
5
  6
CONTINUOUS
 62
6
 10
876.659544
 20
26.123921
 40
4.000000
  1
G
 41
1.360000
 50
0.000000
 51
0.000000
 72
   5
 73
   0
 11
879.379544
 21
26.123921
  0
LINE
  8
5
  6
CONTINUOUS
 62
6
 10
478.3730305766
 20
288.1315670415
 11
876.3730305766
 21
288.1315670415
  0
LINE
  8
5
  6
CONTINUOUS
 62
6
 10
876.3730305766
 20
288.1315670415
 11
876.3730305766
 21
13.1315670415
  0
POINT
  8
5
  6
CONTINUOUS
 62
6
 10
827.3730305766
 20
29.1315670415
  0
POINT
  8
5
  6
CONTINUOUS
 62
6
 10
827.3730305766
 20
16.6315670415
  0
LINE
  8
5
  6
CONTINUOUS
 62
6
 10
821.3730305766
 20
35.1315670415
 11
876.3730305766
 21
35.1315670415
  0
LINE
  8
5
  6
CONTINUOUS
 62
6
 10
821.3730305766
 20
20.1315670415
 11
866.3730305766
 21
20.1315670415
  0
TEXT
  8
5
  6
CONTINUOUS
 62
7
 10
836.801531
 20
34.881567
 40
3.500000
  1
Document Name
 41
0.807728
 50
0.000000
 51
0.000000
 72
   5
 73
   0
 11
860.944531
 21
34.881567
  0
TEXT
  8
5
  6
CONTINUOUS
 62
7
 10
833.551531
 20
19.881567
 40
3.500000
  1
Document No.
 41
0.749428
 50
0.000000
 51
0.000000
 72
   5
 73
   0
 11
854.194531
 21
19.881567
  0
ENDBLK
  8
0
  0
BLOCK
  8
2
  2
*X0
 70
     1
 10
570.9099984280
 20
142.0236120874
  3
*X0
  0
LINE
  8
2
  6
CONTINUOUS
 62
6
 10
570.9099984280
 20
141.8821907312
 11
571.0514197842
 21
142.0236120874
  0
LINE
  8
2
  6
CONTINUOUS
 62
6
 10
570.9099984280
 20
141.7407693749
 11
571.1928411405
 21
142.0236120874
  0
LINE
  8
2
  6
CONTINUOUS
 62
6
 10
570.9099984280
 20
141.5993480187
 11
571.3342624967
 21
142.0236120874
  0
LINE
  8
2
  6
CONTINUOUS
 62
6
 10
570.9099984280
 20
141.4579266625
 11
571.4756838529
 21
142.0236120874
  0
LINE
  8
2
  6
CONTINUOUS
 62
6
 10
570.9099984280
 20
141.3165053062
 11
571.6171052092
 21
142.0236120874
  0
LINE
  8
2
  6
CONTINUOUS
 62
6
 10
570.9099984280
 20
141.1750839500
 11
571.7585265654
 21
142.0236120874
  0
LINE
  8
2
  6
CONTINUOUS
 62
6
 10
570.9099984280
 20
141.0336625938
 11
571.8099984280
 21
141.9336625938
  0
LINE
  8
2
  6
CONTINUOUS
 62
6
 10
570.9099984280
 20
140.8922412375
 11
571.8099984280
 21
141.7922412375
  0
LINE
  8
2
  6
CONTINUOUS
 62
6
 10
570.9099984280
 20
140.7508198813
 11
571.8099984280
 21
141.6508198813
  0
LINE
  8
2
  6
CONTINUOUS
 62
6
 10
570.9099984280
 20
140.6093985250
 11
571.8099984280
 21
141.5093985250
  0
LINE
  8
2
  6
CONTINUOUS
 62
6
 10
570.9099984280
 20
140.4679771688
 11
571.8099984280
 21
141.3679771688
  0
LINE
  8
2
  6
CONTINUOUS
 62
6
 10
570.9099984280
 20
140.3265558126
 11
571.8099984280
 21
141.2265558126
  0
LINE
  8
2
  6
CONTINUOUS
 62
6
 10
570.9099984280
 20
140.1851344563
 11
571.8099984280
 21
141.0851344563
  0
LINE
  8
2
  6
CONTINUOUS
 62
6
 10
570.9099984280
 20
140.0437131001
 11
571.8099984280
 21
140.9437131001
  0
LINE
  8
2
  6
CONTINUOUS
 62
6
 10
570.9099984280
 20
139.9022917439
 11
571.8099984280
 21
140.8022917439
  0
LINE
  8
2
  6
CONTINUOUS
 62
6
 10
570.9099984280
 20
139.7608703876
 11
571.8099984280
 21
140.6608703876
  0
LINE
  8
2
  6
CONTINUOUS
 62
6
 10
570.9099984280
 20
139.6194490314
 11
571.8099984280
 21
140.5194490314
  0
LINE
  8
2
  6
CONTINUOUS
 62
6
 10
570.9099984280
 20
139.4780276751
 11
571.8099984280
 21
140.3780276751
  0
LINE
  8
2
  6
CONTINUOUS
 62
6
 10
570.9099984280
 20
139.3366063189
 11
571.8099984280
 21
140.2366063189
  0
LINE
  8
2
  6
CONTINUOUS
 62
6
 10
570.9099984280
 20
139.1951849627
 11
571.8099984280
 21
140.0951849627
  0
LINE
  8
2
  6
CONTINUOUS
 62
6
 10
570.9099984280
 20
139.0537636064
 11
571.8099984280
 21
139.9537636064
  0
LINE
  8
2
  6
CONTINUOUS
 62
6
 10
570.9099984280
 20
138.9123422502
 11
571.8099984280
 21
139.8123422502
  0
LINE
  8
2
  6
CONTINUOUS
 62
6
 10
570.9099984280
 20
138.7709208940
 11
571.8099984280
 21
139.6709208940
  0
LINE
  8
2
  6
CONTINUOUS
 62
6
 10
570.9099984280
 20
138.6294995377
 11
571.8099984280
 21
139.5294995377
  0
LINE
  8
2
  6
CONTINUOUS
 62
6
 10
570.9099984280
 20
138.4880781815
 11
571.8099984280
 21
139.3880781815
  0
LINE
  8
2
  6
CONTINUOUS
 62
6
 10
570.9099984280
 20
138.3466568252
 11
571.8099984280
 21
139.2466568252
  0
LINE
  8
2
  6
CONTINUOUS
 62
6
 10
570.9099984280
 20
138.2052354690
 11
571.8099984280
 21
139.1052354690
  0
LINE
  8
2
  6
CONTINUOUS
 62
6
 10
570.9099984280
 20
138.0638141128
 11
571.8099984280
 21
138.9638141128
  0
LINE
  8
2
  6
CONTINUOUS
 62
6
 10
571.0112177589
 20
138.0236120874
 11
571.8099984280
 21
138.8223927565
  0
LINE
  8
2
  6
CONTINUOUS
 62
6
 10
571.1526391151
 20
138.0236120874
 11
571.8099984280
 21
138.6809714003
  0
LINE
  8
2
  6
CONTINUOUS
 62
6
 10
571.2940604713
 20
138.0236120874
 11
571.8099984280
 21
138.5395500441
  0
LINE
  8
2
  6
CONTINUOUS
 62
6
 10
571.4354818276
 20
138.0236120874
 11
571.8099984280
 21
138.3981286878
  0
LINE
  8
2
  6
CONTINUOUS
 62
6
 10
571.5769031838
 20
138.0236120874
 11
571.8099984280
 21
138.2567073316
  0
LINE
  8
2
  6
CONTINUOUS
 62
6
 10
571.7183245400
 20
138.0236120874
 11
571.8099984280
 21
138.1152859753
  0
LINE
  8
2
  6
CONTINUOUS
 62
6
 10
571.7585265654
 20
142.0236120874
 11
571.8099984280
 21
141.9721402248
  0
LINE
  8
2
  6
CONTINUOUS
 62
6
 10
571.6171052092
 20
142.0236120874
 11
571.8099984280
 21
141.8307188686
  0
LINE
  8
2
  6
CONTINUOUS
 62
6
 10
571.4756838529
 20
142.0236120874
 11
571.8099984280
 21
141.6892975124
  0
LINE
  8
2
  6
CONTINUOUS
 62
6
 10
571.3342624967
 20
142.0236120874
 11
571.8099984280
 21
141.5478761561
  0
LINE
  8
2
  6
CONTINUOUS
 62
6
 10
571.1928411405
 20
142.0236120874
 11
571.8099984280
 21
141.4064547999
  0
LINE
  8
2
  6
CONTINUOUS
 62
6
 10
571.0514197842
 20
142.0236120874
 11
571.8099984280
 21
141.2650334437
  0
LINE
  8
2
  6
CONTINUOUS
 62
6
 10
570.9099984280
 20
142.0236120874
 11
571.8099984280
 21
141.1236120874
  0
LINE
  8
2
  6
CONTINUOUS
 62
6
 10
570.9099984280
 20
141.8821907312
 11
571.8099984280
 21
140.9821907312
  0
LINE
  8
2
  6
CONTINUOUS
 62
6
 10
570.9099984280
 20
141.7407693749
 11
571.8099984280
 21
140.8407693749
  0
LINE
  8
2
  6
CONTINUOUS
 62
6
 10
570.9099984280
 20
141.5993480187
 11
571.8099984280
 21
140.6993480187
  0
LINE
  8
2
  6
CONTINUOUS
 62
6
 10
570.9099984280
 20
141.4579266625
 11
571.8099984280
 21
140.5579266625
  0
LINE
  8
2
  6
CONTINUOUS
 62
6
 10
570.9099984280
 20
141.3165053062
 11
571.8099984280
 21
140.4165053062
  0
LINE
  8
2
  6
CONTINUOUS
 62
6
 10
570.9099984280
 20
141.1750839500
 11
571.8099984280
 21
140.2750839500
  0
LINE
  8
2
  6
CONTINUOUS
 62
6
 10
570.9099984280
 20
141.0336625938
 11
571.8099984280
 21
140.1336625938
  0
LINE
  8
2
  6
CONTINUOUS
 62
6
 10
570.9099984280
 20
140.8922412375
 11
571.8099984280
 21
139.9922412375
  0
LINE
  8
2
  6
CONTINUOUS
 62
6
 10
570.9099984280
 20
140.7508198813
 11
571.8099984280
 21
139.8508198813
  0
LINE
  8
2
  6
CONTINUOUS
 62
6
 10
570.9099984280
 20
140.6093985250
 11
571.8099984280
 21
139.7093985250
  0
LINE
  8
2
  6
CONTINUOUS
 62
6
 10
570.9099984280
 20
140.4679771688
 11
571.8099984280
 21
139.5679771688
  0
LINE
  8
2
  6
CONTINUOUS
 62
6
 10
570.9099984280
 20
140.3265558126
 11
571.8099984280
 21
139.4265558126
  0
LINE
  8
2
  6
CONTINUOUS
 62
6
 10
570.9099984280
 20
140.1851344563
 11
571.8099984280
 21
139.2851344563
  0
LINE
  8
2
  6
CONTINUOUS
 62
6
 10
570.9099984280
 20
140.0437131001
 11
571.8099984280
 21
139.1437131001
  0
LINE
  8
2
  6
CONTINUOUS
 62
6
 10
570.9099984280
 20
139.9022917439
 11
571.8099984280
 21
139.0022917439
  0
LINE
  8
2
  6
CONTINUOUS
 62
6
 10
570.9099984280
 20
139.7608703876
 11
571.8099984280
 21
138.8608703876
  0
LINE
  8
2
  6
CONTINUOUS
 62
6
 10
570.9099984280
 20
139.6194490314
 11
571.8099984280
 21
138.7194490314
  0
LINE
  8
2
  6
CONTINUOUS
 62
6
 10
570.9099984280
 20
139.4780276751
 11
571.8099984280
 21
138.5780276751
  0
LINE
  8
2
  6
CONTINUOUS
 62
6
 10
570.9099984280
 20
139.3366063189
 11
571.8099984280
 21
138.4366063189
  0
LINE
  8
2
  6
CONTINUOUS
 62
6
 10
570.9099984280
 20
139.1951849627
 11
571.8099984280
 21
138.2951849627
  0
LINE
  8
2
  6
CONTINUOUS
 62
6
 10
570.9099984280
 20
139.0537636064
 11
571.8099984280
 21
138.1537636064
  0
LINE
  8
2
  6
CONTINUOUS
 62
6
 10
570.9099984280
 20
138.9123422502
 11
571.7987285908
 21
138.0236120874
  0
LINE
  8
2
  6
CONTINUOUS
 62
6
 10
570.9099984280
 20
138.7709208940
 11
571.6573072345
 21
138.0236120874
  0
LINE
  8
2
  6
CONTINUOUS
 62
6
 10
570.9099984280
 20
138.6294995377
 11
571.5158858783
 21
138.0236120874
  0
LINE
  8
2
  6
CONTINUOUS
 62
6
 10
570.9099984280
 20
138.4880781815
 11
571.3744645220
 21
138.0236120874
  0
LINE
  8
2
  6
CONTINUOUS
 62
6
 10
570.9099984280
 20
138.3466568252
 11
571.2330431658
 21
138.0236120874
  0
LINE
  8
2
  6
CONTINUOUS
 62
6
 10
570.9099984280
 20
138.2052354690
 11
571.0916218096
 21
138.0236120874
  0
LINE
  8
2
  6
CONTINUOUS
 62
6
 10
570.9099984280
 20
138.0638141128
 11
570.9502004533
 21
138.0236120874
  0
ENDBLK
  8
0
  0
BLOCK
  8
2
  2
*X1
 70
     1
 10
573.0099984280
 20
142.0236120874
  3
*X1
  0
LINE
  8
2
  6
CONTINUOUS
 62
6
 10
573.0099984280
 20
141.8821907312
 11
573.1514197842
 21
142.0236120874
  0
LINE
  8
2
  6
CONTINUOUS
 62
6
 10
573.0099984280
 20
141.7407693749
 11
573.2928411404
 21
142.0236120874
  0
LINE
  8
2
  6
CONTINUOUS
 62
6
 10
573.0099984280
 20
141.5993480187
 11
573.4342624967
 21
142.0236120874
  0
LINE
  8
2
  6
CONTINUOUS
 62
6
 10
573.0099984280
 20
141.4579266625
 11
573.5756838529
 21
142.0236120874
  0
LINE
  8
2
  6
CONTINUOUS
 62
6
 10
573.0099984280
 20
141.3165053062
 11
573.7171052092
 21
142.0236120874
  0
LINE
  8
2
  6
CONTINUOUS
 62
6
 10
573.0099984280
 20
141.1750839500
 11
573.8585265654
 21
142.0236120874
  0
LINE
  8
2
  6
CONTINUOUS
 62
6
 10
573.0099984280
 20
141.0336625938
 11
573.9099984280
 21
141.9336625938
  0
LINE
  8
2
  6
CONTINUOUS
 62
6
 10
573.0099984280
 20
140.8922412375
 11
573.9099984280
 21
141.7922412375
  0
LINE
  8
2
  6
CONTINUOUS
 62
6
 10
573.0099984280
 20
140.7508198813
 11
573.9099984280
 21
141.6508198813
  0
LINE
  8
2
  6
CONTINUOUS
 62
6
 10
573.0099984280
 20
140.6093985250
 11
573.9099984280
 21
141.5093985250
  0
LINE
  8
2
  6
CONTINUOUS
 62
6
 10
573.0099984280
 20
140.4679771688
 11
573.9099984280
 21
141.3679771688
  0
LINE
  8
2
  6
CONTINUOUS
 62
6
 10
573.0099984280
 20
140.3265558126
 11
573.9099984280
 21
141.2265558126
  0
LINE
  8
2
  6
CONTINUOUS
 62
6
 10
573.0099984280
 20
140.1851344563
 11
573.9099984280
 21
141.0851344563
  0
LINE
  8
2
  6
CONTINUOUS
 62
6
 10
573.0099984280
 20
140.0437131001
 11
573.9099984280
 21
140.9437131001
  0
LINE
  8
2
  6
CONTINUOUS
 62
6
 10
573.0099984280
 20
139.9022917439
 11
573.9099984280
 21
140.8022917439
  0
LINE
  8
2
  6
CONTINUOUS
 62
6
 10
573.0099984280
 20
139.7608703876
 11
573.9099984280
 21
140.6608703876
  0
LINE
  8
2
  6
CONTINUOUS
 62
6
 10
573.0099984280
 20
139.6194490314
 11
573.9099984280
 21
140.5194490314
  0
LINE
  8
2
  6
CONTINUOUS
 62
6
 10
573.0099984280
 20
139.4780276751
 11
573.9099984280
 21
140.3780276751
  0
LINE
  8
2
  6
CONTINUOUS
 62
6
 10
573.0099984280
 20
139.3366063189
 11
573.9099984280
 21
140.2366063189
  0
LINE
  8
2
  6
CONTINUOUS
 62
6
 10
573.0099984280
 20
139.1951849627
 11
573.9099984280
 21
140.0951849627
  0
LINE
  8
2
  6
CONTINUOUS
 62
6
 10
573.0099984280
 20
139.0537636064
 11
573.9099984280
 21
139.9537636064
  0
LINE
  8
2
  6
CONTINUOUS
 62
6
 10
573.0099984280
 20
138.9123422502
 11
573.9099984280
 21
139.8123422502
  0
LINE
  8
2
  6
CONTINUOUS
 62
6
 10
573.0099984280
 20
138.7709208940
 11
573.9099984280
 21
139.6709208940
  0
LINE
  8
2
  6
CONTINUOUS
 62
6
 10
573.0099984280
 20
138.6294995377
 11
573.9099984280
 21
139.5294995377
  0
LINE
  8
2
  6
CONTINUOUS
 62
6
 10
573.0099984280
 20
138.4880781815
 11
573.9099984280
 21
139.3880781815
  0
LINE
  8
2
  6
CONTINUOUS
 62
6
 10
573.0099984280
 20
138.3466568252
 11
573.9099984280
 21
139.2466568252
  0
LINE
  8
2
  6
CONTINUOUS
 62
6
 10
573.0099984280
 20
138.2052354690
 11
573.9099984280
 21
139.1052354690
  0
LINE
  8
2
  6
CONTINUOUS
 62
6
 10
573.0099984280
 20
138.0638141128
 11
573.9099984280
 21
138.9638141128
  0
LINE
  8
2
  6
CONTINUOUS
 62
6
 10
573.1112177589
 20
138.0236120874
 11
573.9099984280
 21
138.8223927565
  0
LINE
  8
2
  6
CONTINUOUS
 62
6
 10
573.2526391151
 20
138.0236120874
 11
573.9099984280
 21
138.6809714003
  0
LINE
  8
2
  6
CONTINUOUS
 62
6
 10
573.3940604713
 20
138.0236120874
 11
573.9099984280
 21
138.5395500441
  0
LINE
  8
2
  6
CONTINUOUS
 62
6
 10
573.5354818276
 20
138.0236120874
 11
573.9099984280
 21
138.3981286878
  0
LINE
  8
2
  6
CONTINUOUS
 62
6
 10
573.6769031838
 20
138.0236120874
 11
573.9099984280
 21
138.2567073316
  0
LINE
  8
2
  6
CONTINUOUS
 62
6
 10
573.8183245400
 20
138.0236120874
 11
573.9099984280
 21
138.1152859753
  0
LINE
  8
2
  6
CONTINUOUS
 62
6
 10
573.8585265654
 20
142.0236120874
 11
573.9099984280
 21
141.9721402248
  0
LINE
  8
2
  6
CONTINUOUS
 62
6
 10
573.7171052092
 20
142.0236120874
 11
573.9099984280
 21
141.8307188686
  0
LINE
  8
2
  6
CONTINUOUS
 62
6
 10
573.5756838529
 20
142.0236120874
 11
573.9099984280
 21
141.6892975124
  0
LINE
  8
2
  6
CONTINUOUS
 62
6
 10
573.4342624967
 20
142.0236120874
 11
573.9099984280
 21
141.5478761561
  0
LINE
  8
2
  6
CONTINUOUS
 62
6
 10
573.2928411404
 20
142.0236120874
 11
573.9099984280
 21
141.4064547999
  0
LINE
  8
2
  6
CONTINUOUS
 62
6
 10
573.1514197842
 20
142.0236120874
 11
573.9099984280
 21
141.2650334437
  0
LINE
  8
2
  6
CONTINUOUS
 62
6
 10
573.0099984280
 20
142.0236120874
 11
573.9099984280
 21
141.1236120874
  0
LINE
  8
2
  6
CONTINUOUS
 62
6
 10
573.0099984280
 20
141.8821907312
 11
573.9099984280
 21
140.9821907312
  0
LINE
  8
2
  6
CONTINUOUS
 62
6
 10
573.0099984280
 20
141.7407693749
 11
573.9099984280
 21
140.8407693749
  0
LINE
  8
2
  6
CONTINUOUS
 62
6
 10
573.0099984280
 20
141.5993480187
 11
573.9099984280
 21
140.6993480187
  0
LINE
  8
2
  6
CONTINUOUS
 62
6
 10
573.0099984280
 20
141.4579266625
 11
573.9099984280
 21
140.5579266625
  0
LINE
  8
2
  6
CONTINUOUS
 62
6
 10
573.0099984280
 20
141.3165053062
 11
573.9099984280
 21
140.4165053062
  0
LINE
  8
2
  6
CONTINUOUS
 62
6
 10
573.0099984280
 20
141.1750839500
 11
573.9099984280
 21
140.2750839500
  0
LINE
  8
2
  6
CONTINUOUS
 62
6
 10
573.0099984280
 20
141.0336625938
 11
573.9099984280
 21
140.1336625938
  0
LINE
  8
2
  6
CONTINUOUS
 62
6
 10
573.0099984280
 20
140.8922412375
 11
573.9099984280
 21
139.9922412375
  0
LINE
  8
2
  6
CONTINUOUS
 62
6
 10
573.0099984280
 20
140.7508198813
 11
573.9099984280
 21
139.8508198813
  0
LINE
  8
2
  6
CONTINUOUS
 62
6
 10
573.0099984280
 20
140.6093985250
 11
573.9099984280
 21
139.7093985250
  0
LINE
  8
2
  6
CONTINUOUS
 62
6
 10
573.0099984280
 20
140.4679771688
 11
573.9099984280
 21
139.5679771688
  0
LINE
  8
2
  6
CONTINUOUS
 62
6
 10
573.0099984280
 20
140.3265558126
 11
573.9099984280
 21
139.4265558126
  0
LINE
  8
2
  6
CONTINUOUS
 62
6
 10
573.0099984280
 20
140.1851344563
 11
573.9099984280
 21
139.2851344563
  0
LINE
  8
2
  6
CONTINUOUS
 62
6
 10
573.0099984280
 20
140.0437131001
 11
573.9099984280
 21
139.1437131001
  0
LINE
  8
2
  6
CONTINUOUS
 62
6
 10
573.0099984280
 20
139.9022917439
 11
573.9099984280
 21
139.0022917439
  0
LINE
  8
2
  6
CONTINUOUS
 62
6
 10
573.0099984280
 20
139.7608703876
 11
573.9099984280
 21
138.8608703876
  0
LINE
  8
2
  6
CONTINUOUS
 62
6
 10
573.0099984280
 20
139.6194490314
 11
573.9099984280
 21
138.7194490314
  0
LINE
  8
2
  6
CONTINUOUS
 62
6
 10
573.0099984280
 20
139.4780276751
 11
573.9099984280
 21
138.5780276751
  0
LINE
  8
2
  6
CONTINUOUS
 62
6
 10
573.0099984280
 20
139.3366063189
 11
573.9099984280
 21
138.4366063189
  0
LINE
  8
2
  6
CONTINUOUS
 62
6
 10
573.0099984280
 20
139.1951849627
 11
573.9099984280
 21
138.2951849627
  0
LINE
  8
2
  6
CONTINUOUS
 62
6
 10
573.0099984280
 20
139.0537636064
 11
573.9099984280
 21
138.1537636064
  0
LINE
  8
2
  6
CONTINUOUS
 62
6
 10
573.0099984280
 20
138.9123422502
 11
573.8987285908
 21
138.0236120874
  0
LINE
  8
2
  6
CONTINUOUS
 62
6
 10
573.0099984280
 20
138.7709208940
 11
573.7573072345
 21
138.0236120874
  0
LINE
  8
2
  6
CONTINUOUS
 62
6
 10
573.0099984280
 20
138.6294995377
 11
573.6158858783
 21
138.0236120874
  0
LINE
  8
2
  6
CONTINUOUS
 62
6
 10
573.0099984280
 20
138.4880781815
 11
573.4744645220
 21
138.0236120874
  0
LINE
  8
2
  6
CONTINUOUS
 62
6
 10
573.0099984280
 20
138.3466568252
 11
573.3330431658
 21
138.0236120874
  0
LINE
  8
2
  6
CONTINUOUS
 62
6
 10
573.0099984280
 20
138.2052354690
 11
573.1916218096
 21
138.0236120874
  0
LINE
  8
2
  6
CONTINUOUS
 62
6
 10
573.0099984280
 20
138.0638141128
 11
573.0502004533
 21
138.0236120874
  0
ENDBLK
  8
0
  0
BLOCK
  8
1
  2
*D0
 70
     1
 10
0.0000000000
 20
0.0000000000
  3
*D0
  0
LINE
  8
1
  6
BYBLOCK
 62
5
 10
498.4050358235
 20
201.7736142928
 11
487.8588040547
 21
201.7736142928
  0
LINE
  8
1
  6
BYBLOCK
 62
5
 10
498.4050358235
 20
78.2736098820
 11
487.8588040547
 21
78.2736098820
  0
LINE
  8
1
  6
BYBLOCK
 62
5
 10
488.8588040547
 20
78.2736098820
 11
488.8588040547
 21
201.7736142928
  0
SOLID
  8
1
  6
CONTINUOUS
 62
5
 10
489.3764421449
 20
199.8417626402
 11
488.3411659645
 21
199.8417626402
 12
488.8588040547
 22
201.7736142928
 13
488.8588040547
 23
201.7736142928
  0
SOLID
  8
1
  6
CONTINUOUS
 62
5
 10
488.3411659645
 20
80.2054615346
 11
489.3764421449
 21
80.2054615346
 12
488.8588040547
 22
78.2736098820
 13
488.8588040547
 23
78.2736098820
  0
TEXT
  8
1
  6
CONTINUOUS
 62
7
 10
487.858804
 20
135.648612
 40
3.500000
  1
123.5
 41
0.786164
 50
90.000000
 51
0.000000
 72
   5
 73
   0
 11
487.858804
 21
144.398612
  0
POINT
  8
DEFPOINTS
  6
BYBLOCK
 62
5
 10
498.9050358235
 20
201.7736142928
  0
POINT
  8
DEFPOINTS
  6
BYBLOCK
 62
5
 10
498.9050358235
 20
78.2736098820
  0
POINT
  8
DEFPOINTS
  6
BYBLOCK
 62
5
 10
488.8588040547
 20
78.2736098820
  0
ENDBLK
  8
0
  0
BLOCK
  8
1
  2
*D1
 70
     1
 10
0.0000000000
 20
0.0000000000
  3
*D1
  0
LINE
  8
1
  6
BYBLOCK
 62
5
 10
497.9099984280
 20
201.2785773972
 11
497.9099984280
 21
207.7403423294
  0
LINE
  8
1
  6
BYBLOCK
 62
5
 10
584.9099984280
 20
201.2785773972
 11
584.9099984280
 21
207.7403423294
  0
LINE
  8
1
  6
BYBLOCK
 62
5
 10
584.9099984280
 20
206.7403423294
 11
497.9099984280
 21
206.7403423294
  0
SOLID
  8
1
  6
CONTINUOUS
 62
5
 10
499.8418500805
 20
207.2579804196
 11
499.8418500805
 21
206.2227042392
 12
497.9099984280
 22
206.7403423294
 13
497.9099984280
 23
206.7403423294
  0
SOLID
  8
1
  6
CONTINUOUS
 62
5
 10
582.9781467754
 20
206.2227042392
 11
582.9781467754
 21
207.2579804196
 12
584.9099984280
 22
206.7403423294
 13
584.9099984280
 23
206.7403423294
  0
TEXT
  8
1
  6
CONTINUOUS
 62
7
 10
539.659998
 20
207.740342
 40
3.500000
  1
87
 41
0.854701
 50
0.000000
 51
0.000000
 72
   5
 73
   0
 11
543.159998
 21
207.740342
  0
POINT
  8
DEFPOINTS
  6
BYBLOCK
 62
5
 10
497.9099984280
 20
200.7785773972
  0
POINT
  8
DEFPOINTS
  6
BYBLOCK
 62
5
 10
584.9099984280
 20
200.7785773972
  0
POINT
  8
DEFPOINTS
  6
BYBLOCK
 62
5
 10
584.9099984280
 20
206.7403423294
  0
ENDBLK
  8
0
  0
BLOCK
  8
1
  2
*D2
 70
     1
 10
0.0000000000
 20
0.0000000000
  3
*D2
  0
LINE
  8
1
  6
BYBLOCK
 62
5
 10
584.9099984280
 20
201.2785773972
 11
584.9099984280
 21
207.7403423294
  0
LINE
  8
1
  6
BYBLOCK
 62
5
 10
587.5099984280
 20
140.5236120874
 11
587.5099984280
 21
207.7403423294
  0
LINE
  8
1
  6
BYBLOCK
 62
5
 10
590.0099984280
 20
206.7403423294
 11
582.4099984280
 21
206.7403423294
  0
SOLID
  8
1
  6
CONTINUOUS
 62
5
 10
582.9781467754
 20
206.2227042392
 11
582.9781467754
 21
207.2579804196
 12
584.9099984280
 22
206.7403423294
 13
584.9099984280
 23
206.7403423294
  0
SOLID
  8
1
  6
CONTINUOUS
 62
5
 10
589.4418500806
 20
207.2579804196
 11
589.4418500806
 21
206.2227042392
 12
587.5099984280
 22
206.7403423294
 13
587.5099984280
 23
206.7403423294
  0
TEXT
  8
1
  6
CONTINUOUS
 62
7
 10
581.834999
 20
208.740342
 40
3.500000
  1
(2.6)
 41
0.786164
 50
0.000000
 51
0.000000
 72
   5
 73
   0
 11
590.584999
 21
208.740342
  0
POINT
  8
DEFPOINTS
  6
BYBLOCK
 62
5
 10
584.9099984280
 20
200.7785773972
  0
POINT
  8
DEFPOINTS
  6
BYBLOCK
 62
5
 10
587.5099984280
 20
140.0236120874
  0
POINT
  8
DEFPOINTS
  6
BYBLOCK
 62
5
 10
587.5099984280
 20
206.7403423294
  0
ENDBLK
  8
0
  0
BLOCK
  8
1
  2
*D3
 70
     1
 10
0.0000000000
 20
0.0000000000
  3
*D3
  0
LINE
  8
1
  6
BYBLOCK
 62
5
 10
497.4099982119
 20
38.2736098820
 11
487.8588040547
 21
38.2736098820
  0
LINE
  8
1
  6
BYBLOCK
 62
5
 10
517.2384255527
 20
63.2736098820
 11
487.8588040547
 21
63.2736098820
  0
LINE
  8
1
  6
BYBLOCK
 62
5
 10
488.8588040547
 20
63.2736098820
 11
488.8588040547
 21
38.2736098820
  0
SOLID
  8
1
  6
CONTINUOUS
 62
5
 10
488.3411659645
 20
40.2054615346
 11
489.3764421449
 21
40.2054615346
 12
488.8588040547
 22
38.2736098820
 13
488.8588040547
 23
38.2736098820
  0
SOLID
  8
1
  6
CONTINUOUS
 62
5
 10
489.3764421449
 20
61.3417582294
 11
488.3411659645
 21
61.3417582294
 12
488.8588040547
 22
63.2736098820
 13
488.8588040547
 23
63.2736098820
  0
TEXT
  8
1
  6
CONTINUOUS
 62
7
 10
487.858804
 20
49.023610
 40
3.500000
  1
25
 41
0.854701
 50
90.000000
 51
0.000000
 72
   5
 73
   0
 11
487.858804
 21
52.523610
  0
POINT
  8
DEFPOINTS
  6
BYBLOCK
 62
5
 10
497.9099982119
 20
38.2736098820
  0
POINT
  8
DEFPOINTS
  6
BYBLOCK
 62
5
 10
517.7384255527
 20
63.2736098820
  0
POINT
  8
DEFPOINTS
  6
BYBLOCK
 62
5
 10
488.8588040547
 20
63.2736098820
  0
ENDBLK
  8
0
  0
BLOCK
  8
1
  2
LTEX0
 70
     0
 10
572.4634649713
 20
138.7012842432
  3
LTEX0
  0
SOLID
  8
1
  6
CONTINUOUS
 62
5
 10
572.8546276816
 20
136.7399092832
 11
571.8215343353
 21
136.8071023463
 12
572.4634649713
 22
138.7012842432
 13
572.4634649713
 23
138.7012842432
  0
TEXT
  8
1
  6
CONTINUOUS
 62
7
 10
553.968164
 20
124.398532
 40
2.500000
  1
ｽﾗｲﾄﾞﾛｯｸ
 41
0.770713
 50
0.000000
 51
0.000000
 72
   5
 73
   0
 11
563.968164
 21
124.398532
  0
TEXT
  8
1
  6
CONTINUOUS
 62
7
 10
553.968164
 20
120.398532
 40
2.500000
  1
%%u「-」ﾄﾞﾗｲﾊﾞｰを%%u
 41
0.804598
 50
0.000000
 51
0.000000
 72
   5
 73
   0
 11
571.468164
 21
120.398532
  0
TEXT
  8
1
  6
CONTINUOUS
 62
7
 10
553.968164
 20
116.398532
 40
2.500000
  1
%%u使用してｽﾗｲﾄﾞ%%u
 41
0.826972
 50
0.000000
 51
0.000000
 72
   5
 73
   0
 11
570.218164
 21
116.398532
  0
TEXT
  8
1
  6
CONTINUOUS
 62
7
 10
553.968164
 20
112.398532
 40
2.500000
  1
%%uしてください%%u
 41
0.875912
 50
0.000000
 51
0.000000
 72
   5
 73
   0
 11
568.968164
 21
112.398532
  0
LINE
  8
1
  6
BYBLOCK
 62
5
 10
572.4634649713
 20
138.7012842432
 11
571.4681640310
 21
123.3985322864
  0
LINE
  8
1
  6
BYBLOCK
 62
5
 10
571.4681640310
 20
123.3985322864
 11
553.9681640310
 21
123.3985322864
  0
ENDBLK
  8
0
  0
BLOCK
  8
1
  2
*D4
 70
     1
 10
0.0000000000
 20
0.0000000000
  3
*D4
  0
LINE
  8
1
  6
BYBLOCK
 62
5
 10
638.6141542267
 20
97.8856716097
 11
637.3183121489
 21
95.7477302379
  0
LINE
  8
1
  6
BYBLOCK
 62
5
 10
641.2058383824
 20
102.1615543533
 11
642.5016804602
 21
104.2994957251
  0
SOLID
  8
1
  6
CONTINUOUS
 62
5
 10
638.0554763184
 20
95.9652864934
 11
637.1701324074
 21
96.5019082681
 12
638.6141542267
 22
97.8856716097
 13
638.6141542267
 23
97.8856716097
  0
SOLID
  8
1
  6
CONTINUOUS
 62
5
 10
641.7645162907
 20
104.0819394695
 11
642.6498602017
 21
103.5453176948
 12
641.2058383824
 22
102.1615543533
 13
641.2058383824
 23
102.1615543533
  0
TEXT
  8
1
  6
CONTINUOUS
 62
7
 10
642.832365
 20
106.774321
 40
3.500000
  1
2-M5
 41
0.796813
 50
58.779245
 51
0.000000
 72
   5
 73
   0
 11
646.460722
 21
112.760557
  0
POINT
  8
DEFPOINTS
  6
BYBLOCK
 62
5
 10
638.6141542267
 20
97.8856716097
  0
POINT
  8
DEFPOINTS
  6
BYBLOCK
 62
5
 10
641.2058383824
 20
102.1615543533
  0
LINE
  8
1
  6
BYBLOCK
 62
5
 10
638.6141542267
 20
97.8856716097
 11
647.3158989410
 21
112.2422204129
  0
ENDBLK
  8
0
  0
BLOCK
  8
1
  2
*D5
 70
     1
 10
0.0000000000
 20
0.0000000000
  3
*D5
  0
LINE
  8
1
  6
BYBLOCK
 62
5
 10
537.9099972359
 20
241.7736142928
 11
543.6407450074
 21
241.7736142928
  0
LINE
  8
1
  6
BYBLOCK
 62
5
 10
537.9099972359
 20
235.2736141587
 11
543.6407450074
 21
235.2736141587
  0
LINE
  8
1
  6
BYBLOCK
 62
5
 10
542.6407450074
 20
232.7736141587
 11
542.6407450074
 21
244.2736142928
  0
SOLID
  8
1
  6
CONTINUOUS
 62
5
 10
542.1231069171
 20
243.7054659454
 11
543.1583830976
 21
243.7054659454
 12
542.6407450074
 22
241.7736142928
 13
542.6407450074
 23
241.7736142928
  0
SOLID
  8
1
  6
CONTINUOUS
 62
5
 10
543.1583830976
 20
233.3417625061
 11
542.1231069171
 21
233.3417625061
 12
542.6407450074
 22
235.2736141587
 13
542.6407450074
 23
235.2736141587
  0
TEXT
  8
1
  6
CONTINUOUS
 62
7
 10
541.640745
 20
236.273614
 40
3.000000
  1
6.5
 41
0.815217
 50
90.000000
 51
0.000000
 72
   5
 73
   0
 11
541.640745
 21
240.773614
  0
POINT
  8
DEFPOINTS
  6
BYBLOCK
 62
5
 10
537.4099972359
 20
241.7736142928
  0
POINT
  8
DEFPOINTS
  6
BYBLOCK
 62
5
 10
537.4099972359
 20
235.2736141587
  0
POINT
  8
DEFPOINTS
  6
BYBLOCK
 62
5
 10
542.6407450074
 20
235.2736141587
  0
ENDBLK
  8
0
  0
BLOCK
  8
1
  2
*D6
 70
     1
 10
0.0000000000
 20
0.0000000000
  3
*D6
  0
LINE
  8
1
  6
BYBLOCK
 62
5
 10
540.8495037908
 20
218.7736142928
 11
543.6407450074
 21
218.7736142928
  0
LINE
  8
1
  6
BYBLOCK
 62
5
 10
542.6407450074
 20
218.7736142928
 11
542.6407450074
 21
235.2736141587
  0
SOLID
  8
1
  6
CONTINUOUS
 62
5
 10
543.1583830976
 20
233.3417625061
 11
542.1231069171
 21
233.3417625061
 12
542.6407450074
 22
235.2736141587
 13
542.6407450074
 23
235.2736141587
  0
SOLID
  8
1
  6
CONTINUOUS
 62
5
 10
542.1231069171
 20
220.7054659454
 11
543.1583830976
 21
220.7054659454
 12
542.6407450074
 22
218.7736142928
 13
542.6407450074
 23
218.7736142928
  0
TEXT
  8
1
  6
CONTINUOUS
 62
7
 10
541.640745
 20
224.023614
 40
3.000000
  1
16.5
 41
0.796813
 50
90.000000
 51
0.000000
 72
   5
 73
   0
 11
541.640745
 21
230.023614
  0
POINT
  8
DEFPOINTS
  6
BYBLOCK
 62
5
 10
537.4099972359
 20
235.2736141587
  0
POINT
  8
DEFPOINTS
  6
BYBLOCK
 62
5
 10
540.3495037908
 20
218.7736142928
  0
POINT
  8
DEFPOINTS
  6
BYBLOCK
 62
5
 10
542.6407450074
 20
218.7736142928
  0
ENDBLK
  8
0
  0
BLOCK
  8
1
  2
*D7
 70
     1
 10
0.0000000000
 20
0.0000000000
  3
*D7
  0
LINE
  8
1
  6
BYBLOCK
 62
5
 10
556.9099967888
 20
235.2736141587
 11
553.4788246261
 21
235.2736141587
  0
LINE
  8
1
  6
BYBLOCK
 62
5
 10
556.4099984269
 20
224.2736142932
 11
553.4788246261
 21
224.2736142932
  0
LINE
  8
1
  6
BYBLOCK
 62
5
 10
554.4788246261
 20
224.2736142932
 11
554.4788246261
 21
235.2736141587
  0
SOLID
  8
1
  6
CONTINUOUS
 62
5
 10
554.9964627163
 20
233.3417625061
 11
553.9611865359
 21
233.3417625061
 12
554.4788246261
 22
235.2736141587
 13
554.4788246261
 23
235.2736141587
  0
SOLID
  8
1
  6
CONTINUOUS
 62
5
 10
553.9611865359
 20
226.2054659457
 11
554.9964627163
 21
226.2054659457
 12
554.4788246261
 22
224.2736142932
 13
554.4788246261
 23
224.2736142932
  0
TEXT
  8
1
  6
CONTINUOUS
 62
7
 10
553.478825
 20
228.273614
 40
3.000000
  1
11
 41
0.854701
 50
90.000000
 51
0.000000
 72
   5
 73
   0
 11
553.478825
 21
231.273614
  0
POINT
  8
DEFPOINTS
  6
BYBLOCK
 62
5
 10
557.4099967888
 20
235.2736141587
  0
POINT
  8
DEFPOINTS
  6
BYBLOCK
 62
5
 10
556.9099984269
 20
224.2736142932
  0
POINT
  8
DEFPOINTS
  6
BYBLOCK
 62
5
 10
554.4788246261
 20
224.2736142932
  0
ENDBLK
  8
0
  0
BLOCK
  8
1
  2
*D8
 70
     1
 10
0.0000000000
 20
0.0000000000
  3
*D8
  0
LINE
  8
1
  6
BYBLOCK
 62
5
 10
519.4099980927
 20
235.2736141587
 11
516.1506864735
 21
235.2736141587
  0
LINE
  8
1
  6
BYBLOCK
 62
5
 10
523.6599983236
 20
239.2736143487
 11
516.1506864735
 21
239.2736143487
  0
LINE
  8
1
  6
BYBLOCK
 62
5
 10
517.1506864735
 20
239.2736143487
 11
517.1506864735
 21
235.2736141587
  0
SOLID
  8
1
  6
CONTINUOUS
 62
5
 10
516.6330483833
 20
237.2054658113
 11
517.6683245637
 21
237.2054658113
 12
517.1506864735
 22
235.2736141587
 13
517.1506864735
 23
235.2736141587
  0
SOLID
  8
1
  6
CONTINUOUS
 62
5
 10
517.6683245637
 20
237.3417626961
 11
516.6330483833
 21
237.3417626961
 12
517.1506864735
 22
239.2736143487
 13
517.1506864735
 23
239.2736143487
  0
TEXT
  8
1
  6
CONTINUOUS
 62
7
 10
516.150686
 20
236.523614
 40
3.000000
  1
4
 41
1.000000
 50
90.000000
 51
0.000000
 72
   5
 73
   0
 11
516.150686
 21
238.023614
  0
POINT
  8
DEFPOINTS
  6
BYBLOCK
 62
5
 10
519.9099980927
 20
235.2736141587
  0
POINT
  8
DEFPOINTS
  6
BYBLOCK
 62
5
 10
524.1599983236
 20
239.2736143487
  0
POINT
  8
DEFPOINTS
  6
BYBLOCK
 62
5
 10
517.1506864735
 20
239.2736143487
  0
ENDBLK
  8
0
  0
BLOCK
  8
1
  2
*D9
 70
     1
 10
0.0000000000
 20
0.0000000000
  3
*D9
  0
LINE
  8
1
  6
BYBLOCK
 62
5
 10
525.1599976382
 20
241.7736142928
 11
516.1506864735
 21
241.7736142928
  0
LINE
  8
1
  6
BYBLOCK
 62
5
 10
517.1506864735
 20
244.2736142928
 11
517.1506864735
 21
236.7736143487
  0
SOLID
  8
1
  6
CONTINUOUS
 62
5
 10
516.6330483833
 20
243.7054659454
 11
517.6683245637
 21
243.7054659454
 12
517.1506864735
 22
241.7736142928
 13
517.1506864735
 23
241.7736142928
  0
TEXT
  8
1
  6
CONTINUOUS
 62
7
 10
516.150686
 20
243.773614
 40
3.000000
  1
2.5
 41
0.815217
 50
90.000000
 51
0.000000
 72
   5
 73
   0
 11
516.150686
 21
248.273614
  0
POINT
  8
DEFPOINTS
  6
BYBLOCK
 62
5
 10
524.1599983236
 20
239.2736143487
  0
POINT
  8
DEFPOINTS
  6
BYBLOCK
 62
5
 10
525.6599976382
 20
241.7736142928
  0
POINT
  8
DEFPOINTS
  6
BYBLOCK
 62
5
 10
517.1506864735
 20
241.7736142928
  0
ENDBLK
  8
0
  0
BLOCK
  8
1
  2
BALN0
 70
     0
 10
625.2416072675
 20
195.8053296886
  3
BALN0
  0
SOLID
  8
1
  6
CONTINUOUS
 62
5
 10
624.8581112439
 20
197.7682180705
 11
625.8909341598
 21
197.6969889039
 12
625.2416072675
 22
195.8053296886
 13
625.2416072675
 23
195.8053296886
  0
LINE
  8
1
  6
BYBLOCK
 62
5
 10
625.2416072675
 20
195.8053296886
 11
626.1454397847
 21
208.9109011878
  0
CIRCLE
  8
1
  6
BYBLOCK
 62
5
 10
626.3518460595
 20
211.9037921730
 40
3.0000000000
  0
TEXT
  8
1
  6
CONTINUOUS
 62
7
 10
625.476846
 20
210.153792
 40
3.500000
  1
1
 41
1.000000
 50
0.000000
 51
0.000000
 72
   5
 73
   0
 11
627.226846
 21
210.153792
  0
ENDBLK
  8
0
  0
BLOCK
  8
1
  2
BALN1
 70
     0
 10
610.2533835751
 20
194.9726505946
  3
BALN1
  0
SOLID
  8
1
  6
CONTINUOUS
 62
5
 10
609.4593144463
 20
196.8082579106
 11
610.4835031952
 21
196.9593677260
 12
610.2533835751
 22
194.9726505946
 13
610.2533835751
 23
194.9726505946
  0
LINE
  8
1
  6
BYBLOCK
 62
5
 10
610.2533835751
 20
194.9726505946
 11
608.1932289130
 21
208.9359210823
  0
CIRCLE
  8
1
  6
BYBLOCK
 62
5
 10
607.7553462930
 20
211.9037921730
 40
3.0000000000
  0
TEXT
  8
1
  6
CONTINUOUS
 62
7
 10
606.880346
 20
210.153792
 40
3.500000
  1
2
 41
1.000000
 50
0.000000
 51
0.000000
 72
   5
 73
   0
 11
608.630346
 21
210.153792
  0
ENDBLK
  8
0
  0
BLOCK
  8
1
  2
BALN2
 70
     0
 10
581.9422943783
 20
132.7992782409
  3
BALN2
  0
SOLID
  8
1
  6
CONTINUOUS
 62
5
 10
583.5749212841
 20
133.9544965694
 11
583.9337999179
 21
132.9834132074
 12
581.9422943783
 22
132.7992782409
 13
581.9422943783
 23
132.7992782409
  0
LINE
  8
1
  6
BYBLOCK
 62
5
 10
581.9422943783
 20
132.7992782409
 11
591.8960569902
 21
136.4778426844
  0
CIRCLE
  8
1
  6
BYBLOCK
 62
5
 10
594.7100404867
 20
137.5177931070
 40
3.0000000000
  0
TEXT
  8
1
  6
CONTINUOUS
 62
7
 10
593.835040
 20
135.767793
 40
3.500000
  1
3
 41
1.000000
 50
0.000000
 51
0.000000
 72
   5
 73
   0
 11
595.585040
 21
135.767793
  0
ENDBLK
  8
0
  0
BLOCK
  8
3
  2
BALN3
 70
     0
 10
686.6390572027
 20
189.5236120874
  3
BALN3
  0
SOLID
  8
3
  6
CONTINUOUS
 62
5
 10
686.2777567714
 20
191.4907068991
 11
687.3097092567
 21
191.4078163817
 12
686.6390572027
 22
189.5236120874
 13
686.6390572027
 23
189.5236120874
  0
LINE
  8
3
  6
BYBLOCK
 62
5
 10
686.6390572027
 20
189.5236120874
 11
688.1965237765
 21
208.9134235020
  0
CIRCLE
  8
3
  6
BYBLOCK
 62
5
 10
688.4367220511
 20
211.9037921730
 40
3.0000000000
  0
TEXT
  8
3
  6
CONTINUOUS
 62
7
 10
687.561722
 20
210.153792
 40
3.500000
  1
4
 41
1.000000
 50
0.000000
 51
0.000000
 72
   5
 73
   0
 11
689.311722
 21
210.153792
  0
ENDBLK
  8
0
  0
BLOCK
  8
3
  2
BALN4
 70
     0
 10
693.1390572027
 20
192.5521835160
  3
BALN4
  0
SOLID
  8
3
  6
CONTINUOUS
 62
5
 10
693.0817878428
 20
194.5513634029
 11
694.0890504256
 21
194.3121587648
 12
693.1390572027
 22
192.5521835160
 13
693.1390572027
 23
192.5521835160
  0
LINE
  8
3
  6
BYBLOCK
 62
5
 10
693.1390572027
 20
192.5521835160
 11
697.0415138756
 21
208.9849693451
  0
CIRCLE
  8
3
  6
BYBLOCK
 62
5
 10
697.7346756889
 20
211.9037921730
 40
3.0000000000
  0
TEXT
  8
3
  6
CONTINUOUS
 62
7
 10
696.859676
 20
210.153792
 40
3.500000
  1
4
 41
1.000000
 50
0.000000
 51
0.000000
 72
   5
 73
   0
 11
698.609676
 21
210.153792
  0
ENDBLK
  8
0
  0
BLOCK
  8
3
  2
BALN5
 70
     0
 10
718.0973462023
 20
178.4263828043
  3
BALN5
  0
SOLID
  8
3
  6
CONTINUOUS
 62
5
 10
717.8073848104
 20
180.4052517720
 11
718.8356667546
 21
180.2851142970
 12
718.0973462023
 22
178.4263828043
 13
718.0973462023
 23
178.4263828043
  0
LINE
  8
3
  6
BYBLOCK
 62
5
 10
718.0973462023
 20
178.4263828043
 11
721.6604875567
 21
208.9240599131
  0
CIRCLE
  8
3
  6
BYBLOCK
 62
5
 10
722.0086192259
 20
211.9037921730
 40
3.0000000000
  0
TEXT
  8
3
  6
CONTINUOUS
 62
7
 10
721.133619
 20
210.153792
 40
3.500000
  1
7
 41
1.000000
 50
0.000000
 51
0.000000
 72
   5
 73
   0
 11
722.883619
 21
210.153792
  0
ENDBLK
  8
0
  0
BLOCK
  8
3
  2
BALN6
 70
     0
 10
706.6390572027
 20
192.1736120874
  3
BALN6
  0
SOLID
  8
3
  6
CONTINUOUS
 62
5
 10
706.5565121907
 20
194.1719079416
 11
707.5667190525
 21
193.9454595675
 12
706.6390572027
 22
192.1736120874
 13
706.6390572027
 23
192.1736120874
  0
LINE
  8
3
  6
BYBLOCK
 62
5
 10
706.6390572027
 20
192.1736120874
 11
710.4055852633
 21
208.9764374800
  0
CIRCLE
  8
3
  6
BYBLOCK
 62
5
 10
711.0617822621
 20
211.9037921730
 40
3.0000000000
  0
TEXT
  8
3
  6
CONTINUOUS
 62
7
 10
710.186782
 20
210.153792
 40
3.500000
  1
9
 41
1.000000
 50
0.000000
 51
0.000000
 72
   5
 73
   0
 11
711.936782
 21
210.153792
  0
ENDBLK
  8
0
  0
BLOCK
  8
1
  2
S1
 70
     0
 10
790.3198573324
 20
167.3136120874
  3
S1
  0
CIRCLE
  8
1
  6
CONTINUOUS
 62
5
 10
790.3198573324
 20
167.3136120874
 40
2.5000000000
  0
LINE
  8
1
  6
CONTINUOUS
 62
5
 10
792.1948573325
 20
167.3136120874
 11
788.4448573325
 21
167.3136120874
  0
LINE
  8
1
  6
CONTINUOUS
 62
5
 10
791.5698573325
 20
166.3761120874
 11
789.0698573325
 21
166.3761120874
  0
LINE
  8
1
  6
CONTINUOUS
 62
5
 10
790.9448573325
 20
165.4386120874
 11
789.6948573325
 21
165.4386120874
  0
LINE
  8
1
  6
CONTINUOUS
 62
5
 10
790.3198573324
 20
167.3136120874
 11
790.3198573325
 21
169.1886120874
  0
ENDBLK
  8
0
  0
BLOCK
  8
3
  2
BALN7
 70
     0
 10
715.8139343725
 20
166.9226386172
  3
BALN7
  0
SOLID
  8
3
  6
CONTINUOUS
 62
5
 10
715.9703115080
 20
168.9165157928
 11
716.9462995323
 21
168.5711983356
 12
715.8139343725
 22
166.9226386172
 13
715.8139343725
 23
166.9226386172
  0
LINE
  8
3
  6
BYBLOCK
 62
5
 10
715.8139343725
 20
166.9226386172
 11
730.7282076188
 21
209.0755960568
  0
CIRCLE
  8
3
  6
BYBLOCK
 62
5
 10
731.7288607695
 20
211.9037921730
 40
3.0000000000
  0
TEXT
  8
3
  6
CONTINUOUS
 62
7
 10
730.853861
 20
210.153792
 40
3.500000
  1
8
 41
1.000000
 50
0.000000
 51
0.000000
 72
   5
 73
   0
 11
732.603861
 21
210.153792
  0
ENDBLK
  8
0
  0
BLOCK
  8
3
  2
LTEX1
 70
     0
 10
639.9099963045
 20
97.5236129815
  3
LTEX1
  0
SOLID
  8
3
  6
CONTINUOUS
 62
5
 10
640.1979379836
 20
95.5444491203
 11
639.1697791828
 21
95.6656359599
 12
639.9099963045
 22
97.5236129815
 13
639.9099963045
 23
97.5236129815
  0
TEXT
  8
3
  6
CONTINUOUS
 62
7
 10
626.445930
 20
69.134198
 40
5.000000
  1
⑤⑥
 41
0.921659
 50
0.000000
 51
0.000000
 72
   5
 73
   0
 11
636.445930
 21
69.134198
  0
LINE
  8
3
  6
BYBLOCK
 62
5
 10
639.9099963045
 20
97.5236129815
 11
636.4459299735
 21
68.1341982955
  0
LINE
  8
3
  6
BYBLOCK
 62
5
 10
636.4459299735
 20
68.1341982955
 11
626.4459299735
 21
68.1341982955
  0
ENDBLK
  8
0
  0
BLOCK
  8
3
  2
BALN8
 70
     0
 10
786.8006175464
 20
143.4969367843
  3
BALN8
  0
SOLID
  8
3
  6
CONTINUOUS
 62
5
 10
785.8386915326
 20
145.2504185617
 11
786.8443060706
 21
145.4964595556
 12
786.8006175464
 22
143.4969367843
 13
786.8006175464
 23
143.4969367843
  0
LINE
  8
3
  6
BYBLOCK
 62
5
 10
786.8006175464
 20
143.4969367843
 11
770.7766689905
 21
208.9897450123
  0
CIRCLE
  8
3
  6
BYBLOCK
 62
5
 10
770.0636969398
 20
211.9037921730
 40
3.0000000000
  0
TEXT
  8
3
  6
CONTINUOUS
 62
7
 10
768.313697
 20
210.153792
 40
3.500000
  1
10
 41
0.854701
 50
0.000000
 51
0.000000
 72
   5
 73
   0
 11
771.813697
 21
210.153792
  0
ENDBLK
  8
0
  0
BLOCK
  8
1
  2
*D10
 70
     1
 10
0.0000000000
 20
0.0000000000
  3
*D10
  0
LINE
  8
1
  6
BYBLOCK
 62
5
 10
744.1293163544
 20
270.3767810315
 11
739.9372721654
 21
270.3767810315
  0
LINE
  8
1
  6
BYBLOCK
 62
5
 10
744.1293163544
 20
225.3767810314
 11
739.9372721654
 21
225.3767810314
  0
LINE
  8
1
  6
BYBLOCK
 62
5
 10
740.9372721654
 20
225.3767810314
 11
740.9372721654
 21
270.3767810315
  0
SOLID
  8
1
  6
CONTINUOUS
 62
5
 10
741.4549102556
 20
268.4449293789
 11
740.4196340752
 21
268.4449293789
 12
740.9372721654
 22
270.3767810315
 13
740.9372721654
 23
270.3767810315
  0
SOLID
  8
1
  6
CONTINUOUS
 62
5
 10
740.4196340752
 20
227.3086326840
 11
741.4549102556
 21
227.3086326840
 12
740.9372721654
 22
225.3767810314
 13
740.9372721654
 23
225.3767810314
  0
TEXT
  8
1
  6
CONTINUOUS
 62
7
 10
739.937272
 20
246.126781
 40
3.500000
  1
90
 41
0.854701
 50
90.000000
 51
0.000000
 72
   5
 73
   0
 11
739.937272
 21
249.626781
  0
POINT
  8
DEFPOINTS
  6
BYBLOCK
 62
5
 10
744.6293163544
 20
270.3767810315
  0
POINT
  8
DEFPOINTS
  6
BYBLOCK
 62
5
 10
744.6293163544
 20
225.3767810314
  0
POINT
  8
DEFPOINTS
  6
BYBLOCK
 62
5
 10
740.9372721654
 20
225.3767810314
  0
ENDBLK
  8
0
  0
BLOCK
  8
1
  2
*D11
 70
     1
 10
0.0000000000
 20
0.0000000000
  3
*D11
  0
LINE
  8
1
  6
BYBLOCK
 62
5
 10
748.8793163544
 20
222.8767810315
 11
748.8793163544
 21
275.4226075422
  0
LINE
  8
1
  6
BYBLOCK
 62
5
 10
768.8793163544
 20
222.8767810315
 11
768.8793163544
 21
275.4226075422
  0
LINE
  8
1
  6
BYBLOCK
 62
5
 10
768.8793163544
 20
274.4226075422
 11
748.8793163544
 21
274.4226075422
  0
SOLID
  8
1
  6
CONTINUOUS
 62
5
 10
750.8111680070
 20
274.9402456324
 11
750.8111680070
 21
273.9049694520
 12
748.8793163544
 22
274.4226075422
 13
748.8793163544
 23
274.4226075422
  0
SOLID
  8
1
  6
CONTINUOUS
 62
5
 10
766.9474647019
 20
273.9049694520
 11
766.9474647019
 21
274.9402456324
 12
768.8793163544
 22
274.4226075422
 13
768.8793163544
 23
274.4226075422
  0
TEXT
  8
1
  6
CONTINUOUS
 62
7
 10
757.129316
 20
275.422608
 40
3.500000
  1
40
 41
0.854701
 50
0.000000
 51
0.000000
 72
   5
 73
   0
 11
760.629316
 21
275.422608
  0
POINT
  8
DEFPOINTS
  6
BYBLOCK
 62
5
 10
748.8793163544
 20
222.3767810315
  0
POINT
  8
DEFPOINTS
  6
BYBLOCK
 62
5
 10
768.8793163544
 20
222.3767810315
  0
POINT
  8
DEFPOINTS
  6
BYBLOCK
 62
5
 10
768.8793163544
 20
274.4226075422
  0
ENDBLK
  8
0
  0
BLOCK
  8
1
  2
*D12
 70
     1
 10
0.0000000000
 20
0.0000000000
  3
*D12
  0
LINE
  8
1
  6
BYBLOCK
 62
5
 10
734.1293163544
 20
278.7542636864
 11
734.1293163544
 21
282.6920195488
  0
LINE
  8
1
  6
BYBLOCK
 62
5
 10
744.6293163544
 20
270.8767810315
 11
744.6293163544
 21
282.6920195488
  0
LINE
  8
1
  6
BYBLOCK
 62
5
 10
744.6293163544
 20
281.6920195488
 11
734.1293163544
 21
281.6920195488
  0
SOLID
  8
1
  6
CONTINUOUS
 62
5
 10
736.0611680070
 20
282.2096576390
 11
736.0611680070
 21
281.1743814586
 12
734.1293163544
 22
281.6920195488
 13
734.1293163544
 23
281.6920195488
  0
SOLID
  8
1
  6
CONTINUOUS
 62
5
 10
742.6974647019
 20
281.1743814586
 11
742.6974647019
 21
282.2096576390
 12
744.6293163544
 22
281.6920195488
 13
744.6293163544
 23
281.6920195488
  0
TEXT
  8
1
  6
CONTINUOUS
 62
7
 10
737.629316
 20
282.692020
 40
3.500000
  1
21
 41
0.854701
 50
0.000000
 51
0.000000
 72
   5
 73
   0
 11
741.129316
 21
282.692020
  0
POINT
  8
DEFPOINTS
  6
BYBLOCK
 62
5
 10
734.1293163544
 20
278.2542636864
  0
POINT
  8
DEFPOINTS
  6
BYBLOCK
 62
5
 10
744.6293163544
 20
270.3767810315
  0
POINT
  8
DEFPOINTS
  6
BYBLOCK
 62
5
 10
744.6293163544
 20
281.6920195488
  0
ENDBLK
  8
0
  0
BLOCK
  8
1
  2
*D13
 70
     1
 10
0.0000000000
 20
0.0000000000
  3
*D13
  0
LINE
  8
1
  6
BYBLOCK
 62
5
 10
773.1293163544
 20
270.8767810315
 11
773.1293163544
 21
282.6920195488
  0
LINE
  8
1
  6
BYBLOCK
 62
5
 10
773.1293163544
 20
281.6920195488
 11
744.6293163544
 21
281.6920195488
  0
SOLID
  8
1
  6
CONTINUOUS
 62
5
 10
746.5611680070
 20
282.2096576390
 11
746.5611680070
 21
281.1743814586
 12
744.6293163544
 22
281.6920195488
 13
744.6293163544
 23
281.6920195488
  0
SOLID
  8
1
  6
CONTINUOUS
 62
5
 10
771.1974647019
 20
281.1743814586
 11
771.1974647019
 21
282.2096576390
 12
773.1293163544
 22
281.6920195488
 13
773.1293163544
 23
281.6920195488
  0
TEXT
  8
1
  6
CONTINUOUS
 62
7
 10
757.129316
 20
282.692020
 40
3.500000
  1
57
 41
0.854701
 50
0.000000
 51
0.000000
 72
   5
 73
   0
 11
760.629316
 21
282.692020
  0
POINT
  8
DEFPOINTS
  6
BYBLOCK
 62
5
 10
744.6293163544
 20
270.3767810315
  0
POINT
  8
DEFPOINTS
  6
BYBLOCK
 62
5
 10
773.1293163544
 20
270.3767810315
  0
POINT
  8
DEFPOINTS
  6
BYBLOCK
 62
5
 10
773.1293163544
 20
281.6920195488
  0
ENDBLK
  8
0
  0
BLOCK
  8
1
  2
*D14
 70
     1
 10
0.0000000000
 20
0.0000000000
  3
*D14
  0
LINE
  8
1
  6
BYBLOCK
 62
5
 10
777.6293163544
 20
278.7542636864
 11
777.6293163544
 21
282.6920195488
  0
LINE
  8
1
  6
BYBLOCK
 62
5
 10
777.6293163544
 20
281.6920195488
 11
773.1293163544
 21
281.6920195488
  0
SOLID
  8
1
  6
CONTINUOUS
 62
5
 10
775.0611680070
 20
282.2096576390
 11
775.0611680070
 21
281.1743814586
 12
773.1293163544
 22
281.6920195488
 13
773.1293163544
 23
281.6920195488
  0
SOLID
  8
1
  6
CONTINUOUS
 62
5
 10
775.6974647019
 20
281.1743814586
 11
775.6974647019
 21
282.2096576390
 12
777.6293163544
 22
281.6920195488
 13
777.6293163544
 23
281.6920195488
  0
TEXT
  8
1
  6
CONTINUOUS
 62
7
 10
774.504316
 20
282.692020
 40
3.500000
  1
9
 41
1.000000
 50
0.000000
 51
0.000000
 72
   5
 73
   0
 11
776.254316
 21
282.692020
  0
POINT
  8
DEFPOINTS
  6
BYBLOCK
 62
5
 10
773.1293163544
 20
270.3767810315
  0
POINT
  8
DEFPOINTS
  6
BYBLOCK
 62
5
 10
777.6293163544
 20
278.2542636864
  0
POINT
  8
DEFPOINTS
  6
BYBLOCK
 62
5
 10
777.6293163544
 20
281.6920195488
  0
ENDBLK
  8
0
  0
BLOCK
  8
3
  2
*D15
 70
     1
 10
0.0000000000
 20
0.0000000000
  3
*D15
  0
LINE
  8
3
  6
BYBLOCK
 62
5
 10
769.1293163544
 20
223.1267810315
 11
729.7883855836
 21
223.1267810315
  0
LINE
  8
3
  6
BYBLOCK
 62
5
 10
769.1293163544
 20
272.6267810315
 11
729.7883855836
 21
272.6267810315
  0
LINE
  8
3
  6
BYBLOCK
 62
5
 10
730.7883855836
 20
272.6267810315
 11
730.7883855836
 21
223.1267810315
  0
SOLID
  8
3
  6
CONTINUOUS
 62
5
 10
730.2707474934
 20
225.0586326840
 11
731.3060236738
 21
225.0586326840
 12
730.7883855836
 22
223.1267810315
 13
730.7883855836
 23
223.1267810315
  0
SOLID
  8
3
  6
CONTINUOUS
 62
5
 10
731.3060236738
 20
270.6949293789
 11
730.2707474934
 21
270.6949293789
 12
730.7883855836
 22
272.6267810315
 13
730.7883855836
 23
272.6267810315
  0
TEXT
  8
3
  6
CONTINUOUS
 62
7
 10
729.788386
 20
246.126781
 40
3.500000
  1
99
 41
0.854701
 50
90.000000
 51
0.000000
 72
   5
 73
   0
 11
729.788386
 21
249.626781
  0
POINT
  8
DEFPOINTS
  6
BYBLOCK
 62
5
 10
769.6293163544
 20
223.1267810315
  0
POINT
  8
DEFPOINTS
  6
BYBLOCK
 62
5
 10
769.6293163544
 20
272.6267810315
  0
POINT
  8
DEFPOINTS
  6
BYBLOCK
 62
5
 10
730.7883855836
 20
272.6267810315
  0
ENDBLK
  8
0
  0
BLOCK
  8
3
  2
*D16
 70
     1
 10
0.0000000000
 20
0.0000000000
  3
*D16
  0
LINE
  8
3
  6
BYBLOCK
 62
5
 10
748.3572824462
 20
222.5882825648
 11
746.6171694185
 21
220.7932876759
  0
LINE
  8
3
  6
BYBLOCK
 62
5
 10
749.4013502627
 20
223.6652794981
 11
751.1414632904
 21
225.4602743870
  0
SOLID
  8
3
  6
CONTINUOUS
 62
5
 10
747.3842894454
 20
220.8409175141
 11
746.6409632644
 21
221.5615165416
 12
748.3572824462
 22
222.5882825648
 13
748.3572824462
 23
222.5882825648
  0
SOLID
  8
3
  6
CONTINUOUS
 62
5
 10
750.3743432635
 20
225.4126445488
 11
751.1176694444
 21
224.6920455214
 12
749.4013502627
 22
223.6652794981
 13
749.4013502627
 23
223.6652794981
  0
TEXT
  8
3
  6
CONTINUOUS
 62
7
 10
752.390436
 20
228.185327
 40
3.500000
  1
4-M3
 41
0.796813
 50
45.889434
 51
0.000000
 72
   5
 73
   0
 11
757.262753
 21
233.211313
  0
POINT
  8
DEFPOINTS
  6
BYBLOCK
 62
5
 10
748.3572824462
 20
222.5882825648
  0
POINT
  8
DEFPOINTS
  6
BYBLOCK
 62
5
 10
749.4013502627
 20
223.6652794981
  0
LINE
  8
3
  6
BYBLOCK
 62
5
 10
748.3572824462
 20
222.5882825648
 11
757.9807508393
 21
232.5152679414
  0
ENDBLK
  8
0
  0
BLOCK
  8
3
  2
LTEX2
 70
     0
 10
755.2832083454
 20
217.0017799288
  3
LTEX2
  0
SOLID
  8
3
  6
CONTINUOUS
 62
5
 10
756.7645571075
 20
218.3455082663
 11
757.2379581740
 21
217.4248084239
 12
755.2832083454
 22
217.0017799288
 13
755.2832083454
 23
217.0017799288
  0
TEXT
  8
3
  6
CONTINUOUS
 62
7
 10
759.518295
 20
220.179356
 40
2.000000
  1
製品外形
 41
0.886918
 50
0.000000
 51
0.000000
 72
   5
 73
   0
 11
767.518295
 21
220.179356
  0
LINE
  8
3
  6
BYBLOCK
 62
5
 10
755.2832083454
 20
217.0017799288
 11
759.5182945239
 21
219.1793563997
  0
LINE
  8
3
  6
BYBLOCK
 62
5
 10
759.5182945239
 20
219.1793563997
 11
767.5182945239
 21
219.1793563997
  0
ENDBLK
  8
0
  0
BLOCK
  8
1
  2
S2
 70
     0
 10
482.8730305766
 20
270.6315670415
  3
S2
  0
LINE
  8
1
  6
CONTINUOUS
 62
6
 10
485.3730305766
 20
268.6315670415
 11
480.3730305766
 21
268.6315670414
  0
TEXT
  8
1
  6
CONTINUOUS
 62
6
 10
481.777431
 20
268.253240
 40
3.300000
  1
C
 41
1.328000
 50
0.000000
 51
0.000000
 72
   5
 73
   0
 11
483.968631
 21
268.253240
  0
LINE
  8
1
  6
CONTINUOUS
 62
6
 10
482.8730305766
 20
272.6315670415
 11
480.3730305766
 21
268.6315670414
  0
LINE
  8
1
  6
CONTINUOUS
 62
6
 10
482.8730305766
 20
272.6315670415
 11
485.3730305766
 21
268.6315670415
  0
POINT
  8
1
  6
CONTINUOUS
 62
6
 10
482.8730305766
 20
270.6315670415
  0
ENDBLK
  8
0
  0
BLOCK
  8
1
  2
S3
 70
     0
 10
673.6045920572
 20
261.3632895582
  3
S3
  0
LINE
  8
1
  6
CONTINUOUS
 62
6
 10
676.1045920572
 20
259.3632895582
 11
671.1045920572
 21
259.3632895582
  0
TEXT
  8
1
  6
CONTINUOUS
 62
6
 10
672.508992
 20
258.984962
 40
3.300000
  1
C
 41
1.328000
 50
0.000000
 51
0.000000
 72
   5
 73
   0
 11
674.700192
 21
258.984962
  0
LINE
  8
1
  6
CONTINUOUS
 62
6
 10
673.6045920572
 20
263.3632895582
 11
671.1045920572
 21
259.3632895582
  0
LINE
  8
1
  6
CONTINUOUS
 62
6
 10
673.6045920572
 20
263.3632895582
 11
676.1045920572
 21
259.3632895582
  0
POINT
  8
1
  6
CONTINUOUS
 62
6
 10
673.6045920572
 20
261.3632895582
  0
ENDBLK
  8
0
  0
BLOCK
  8
1
  2
LTEX3
 70
     0
 10
639.1682433405
 20
103.4478337282
  3
LTEX3
  0
SOLID
  8
1
  6
CONTINUOUS
 62
5
 10
638.5517841246
 20
105.3504577150
 11
639.5856859925
 21
105.4037840426
 12
639.1682433405
 22
103.4478337282
 13
639.1682433405
 23
103.4478337282
  0
TEXT
  8
1
  6
CONTINUOUS
 62
7
 10
632.178178
 20
239.972661
 40
3.500000
  1
 
 41
1.000000
 50
0.000000
 51
0.000000
 72
   5
 73
   0
 11
633.928178
 21
239.972661
  0
LINE
  8
1
  6
BYBLOCK
 62
5
 10
639.1682433405
 20
103.4478337282
 11
632.1781782587
 21
238.9726611709
  0
LINE
  8
1
  6
BYBLOCK
 62
5
 10
632.1781782587
 20
238.9726611709
 11
633.9281782587
 21
238.9726611709
  0
ENDBLK
  8
0
  0
BLOCK
  8
1
  2
S4
 70
     0
 10
631.6451298926
 20
247.2951457135
  3
S4
  0
LINE
  8
1
  6
CONTINUOUS
 62
6
 10
634.1451298926
 20
245.2951457135
 11
629.1451298926
 21
245.2951457134
  0
TEXT
  8
1
  6
CONTINUOUS
 62
6
 10
630.549530
 20
244.916818
 40
3.300000
  1
C
 41
1.328000
 50
0.000000
 51
0.000000
 72
   5
 73
   0
 11
632.740730
 21
244.916818
  0
LINE
  8
1
  6
CONTINUOUS
 62
6
 10
631.6451298926
 20
249.2951457135
 11
629.1451298926
 21
245.2951457134
  0
LINE
  8
1
  6
CONTINUOUS
 62
6
 10
631.6451298926
 20
249.2951457135
 11
634.1451298926
 21
245.2951457135
  0
POINT
  8
1
  6
CONTINUOUS
 62
6
 10
631.6451298926
 20
247.2951457135
  0
ENDBLK
  8
0
  0
BLOCK
  8
1
  2
LTEX4
 70
     0
 10
633.7366295664
 20
180.6910948436
  3
LTEX4
  0
SOLID
  8
1
  6
CONTINUOUS
 62
5
 10
633.1675371119
 20
182.6084194844
 11
634.2024433641
 21
182.6360929171
 12
633.7366295664
 22
180.6910948436
 13
633.7366295664
 23
180.6910948436
  0
TEXT
  8
1
  6
CONTINUOUS
 62
7
 10
632.178178
 20
239.972661
 40
3.500000
  1
PBT品はｱｰｽ部(2箇所)
 41
0.811272
 50
0.000000
 51
0.000000
 72
   5
 73
   0
 11
665.428178
 21
239.972661
  0
TEXT
  8
1
  6
CONTINUOUS
 62
7
 10
632.178178
 20
234.972661
 40
3.500000
  1
%%u は無いです%%u
 41
0.866142
 50
0.000000
 51
0.000000
 72
   5
 73
   0
 11
651.428178
 21
234.972661
  0
LINE
  8
1
  6
BYBLOCK
 62
5
 10
633.7366295664
 20
180.6910948436
 11
632.1781782587
 21
238.9726611709
  0
LINE
  8
1
  6
BYBLOCK
 62
5
 10
632.1781782587
 20
238.9726611709
 11
665.4281782587
 21
238.9726611709
  0
ENDBLK
  8
0
  0
BLOCK
  8
3
  2
LTEX5
 70
     0
 10
525.4099984280
 20
255.7736142928
  3
LTEX5
  0
SOLID
  8
3
  6
CONTINUOUS
 62
5
 10
527.3988320977
 20
255.9846608136
 11
527.2379021703
 21
254.9619691063
 12
525.4099984280
 22
255.7736142928
 13
525.4099984280
 23
255.7736142928
  0
TEXT
  8
3
  6
CONTINUOUS
 62
7
 10
632.178178
 20
239.972661
 40
3.500000
  1
 
 41
1.000000
 50
0.000000
 51
0.000000
 72
   5
 73
   0
 11
633.928178
 21
239.972661
  0
LINE
  8
3
  6
BYBLOCK
 62
5
 10
525.4099984280
 20
255.7736142928
 11
632.1781782587
 21
238.9726611709
  0
LINE
  8
3
  6
BYBLOCK
 62
5
 10
632.1781782587
 20
238.9726611709
 11
633.9281782587
 21
238.9726611709
  0
ENDBLK
  8
0
  0
BLOCK
  8
3
  2
LTEX6
 70
     0
 10
569.4099984280
 20
255.7736142928
  3
LTEX6
  0
SOLID
  8
3
  6
CONTINUOUS
 62
5
 10
571.4099983585
 20
255.7741414216
 11
571.1423127398
 21
254.7740708345
 12
569.4099984280
 22
255.7736142928
 13
569.4099984280
 23
255.7736142928
  0
TEXT
  8
3
  6
CONTINUOUS
 62
7
 10
632.178178
 20
239.972661
 40
3.500000
  1
 
 41
1.000000
 50
0.000000
 51
0.000000
 72
   5
 73
   0
 11
633.928178
 21
239.972661
  0
LINE
  8
3
  6
BYBLOCK
 62
5
 10
569.4099984280
 20
255.7736142928
 11
632.1781782587
 21
238.9726611709
  0
LINE
  8
3
  6
BYBLOCK
 62
5
 10
632.1781782587
 20
238.9726611709
 11
633.9281782587
 21
238.9726611709
  0
ENDBLK
  8
0
  0
BLOCK
  8
1
  2
S5
 70
     0
 10
782.4938061827
 20
274.6769006342
  3
S5
  0
LINE
  8
1
  6
CONTINUOUS
 62
6
 10
784.9938061827
 20
272.6769006342
 11
779.9938061827
 21
272.6769006342
  0
TEXT
  8
1
  6
CONTINUOUS
 62
6
 10
781.398206
 20
272.298573
 40
3.300000
  1
C
 41
1.328000
 50
0.000000
 51
0.000000
 72
   5
 73
   0
 11
783.589406
 21
272.298573
  0
LINE
  8
1
  6
CONTINUOUS
 62
6
 10
782.4938061827
 20
276.6769006342
 11
779.9938061827
 21
272.6769006342
  0
LINE
  8
1
  6
CONTINUOUS
 62
6
 10
782.4938061827
 20
276.6769006342
 11
784.9938061827
 21
272.6769006342
  0
POINT
  8
1
  6
CONTINUOUS
 62
6
 10
782.4938061827
 20
274.6769006342
  0
ENDBLK
  8
0
  0
ENDSEC
  0
SECTION
  2
ENTITIES
  0
INSERT
  8
5
  6
CONTINUOUS
 62
7
  2
S0
 10
473.8730305766
 20
8.6315670415
  0
TEXT
  8
5
  6
CONTINUOUS
 62
7
 10
827.373031
 20
13.631567
 40
6.000000
  1
M0051A300C
 41
0.848239
 50
0.000000
 51
0.000000
 72
   5
 73
   0
 11
860.607031
 21
13.631567
  0
TEXT
  8
5
  6
CONTINUOUS
 62
7
 10
822.526099
 20
29.274124
 40
5.000000
  1
Panel Interface
 41
0.641296
 50
0.000000
 51
0.000000
 72
   5
 73
   0
 11
854.206099
 21
29.274124
  0
TEXT
  8
5
  6
CONTINUOUS
 62
7
 10
822.526099
 20
24.274124
 40
5.000000
  1
Type:MCON-030-300
 41
0.803922
 50
0.000000
 51
0.000000
 72
   5
 73
   0
 11
867.626099
 21
24.274124
  0
TEXT
  8
5
  6
CONTINUOUS
 62
7
 10
766.998031
 20
19.381567
 40
3.000000
  1
Yamada
 41
0.844156
 50
0.000000
 51
0.000000
 72
   5
 73
   0
 11
776.748031
 21
19.381567
  0
TEXT
  8
5
  6
CONTINUOUS
 62
7
 10
777.998031
 20
19.381567
 40
3.000000
  1
Yamada
 41
0.844156
 50
0.000000
 51
0.000000
 72
   5
 73
   0
 11
787.748031
 21
19.381567
  0
TEXT
  8
1
  6
CONTINUOUS
 62
7
 10
684.928296
 20
278.152435
 40
4.000000
  1
パネルカット図(1/2尺)
 41
0.837321
 50
0.000000
 51
0.000000
 72
   5
 73
   0
 11
726.928296
 21
278.152435
  0
TEXT
  8
1
  6
CONTINUOUS
 62
7
 10
684.928296
 20
274.152435
 40
4.000000
  1
推奨板厚 t=1.6以上
 41
0.827967
 50
0.000000
 51
0.000000
 72
   5
 73
   0
 11
720.928296
 21
274.152435
  0
LINE
  8
1
  6
CONTINUOUS
 62
7
 10
498.9099983758
 20
195.7736133093
 11
510.9099984801
 21
195.7736133093
  0
LINE
  8
1
  6
CONTINUOUS
 62
7
 10
498.9099983758
 20
199.4686244482
 11
498.9099983758
 21
195.7736133093
  0
LINE
  8
1
  6
CONTINUOUS
 62
7
 10
510.9099984801
 20
199.4686244482
 11
510.9099984801
 21
195.7736133093
  0
POLYLINE
  8
1
  6
CONTINUOUS
 62
7
 66
     1
 70
     0
  0
VERTEX
  8
1
 62
7
 10
509.3747976970
 20
79.8086320162
 42
0.0225421746
  0
VERTEX
  8
1
 62
7
 10
508.4455323341
 20
79.9371175752
 42
0.0121462168
  0
VERTEX
  8
1
 62
7
 10
507.1460664056
 20
80.0307780166
 42
0.0122764779
  0
VERTEX
  8
1
 62
7
 10
504.9099984280
 20
80.0835645543
 42
0.0122764779
  0
VERTEX
  8
1
 62
7
 10
502.6739304503
 20
80.0307780166
 42
0.0121462168
  0
VERTEX
  8
1
 62
7
 10
501.3744645218
 20
79.9371175752
 42
0.0228681651
  0
VERTEX
  8
1
 62
7
 10
500.4472956659
 20
79.8090474317
 42
0.0101065848
  0
SEQEND
  8
1
  0
LINE
  8
1
  6
CONTINUOUS
 62
7
 10
510.9099984801
 20
84.2736108655
 11
510.9099984801
 21
80.5785997266
  0
LINE
  8
1
  6
CONTINUOUS
 62
7
 10
498.9099983758
 20
84.2736108655
 11
498.9099983758
 21
80.5785997266
  0
LINE
  8
1
  6
CONTINUOUS
 62
7
 10
498.9099983758
 20
84.2736108655
 11
510.9099984801
 21
84.2736108655
  0
LINE
  8
1
  6
CONTINUOUS
 62
7
 10
509.9099983162
 20
200.8636637086
 11
583.0050098411
 21
200.8636637086
  0
LINE
  8
1
  6
CONTINUOUS
 62
7
 10
498.9050358235
 20
201.7736142928
 11
583.9149641505
 21
201.7736142928
  0
LINE
  8
1
  6
CONTINUOUS
 62
7
 10
509.9099983162
 20
79.1835604662
 11
509.9099983162
 21
79.5835635120
  0
LINE
  8
1
  6
CONTINUOUS
 62
7
 10
583.0050098411
 20
79.1835604662
 11
509.9099983162
 21
79.1835604662
  0
LINE
  8
1
  6
CONTINUOUS
 62
7
 10
498.9050358235
 20
78.2736098820
 11
583.9149641505
 21
78.2736098820
  0
LINE
  8
1
  6
CONTINUOUS
 62
7
 10
499.9099985397
 20
79.5835635120
 11
499.9099985397
 21
79.2785739953
  0
POLYLINE
  8
1
  6
CONTINUOUS
 62
7
 66
     1
 70
     1
  0
VERTEX
  8
1
 10
506.9099984280
 20
79.5736128699
 42
0.1629625566
  0
VERTEX
  8
1
 10
506.6988528100
 20
79.6630558149
 42
0.0228681651
  0
VERTEX
  8
1
 10
506.3242119904
 20
79.7150345832
 42
0.0121462168
  0
VERTEX
  8
1
 10
505.8044256190
 20
79.7524987598
 42
0.0122764779
  0
VERTEX
  8
1
 10
504.9099984280
 20
79.7736133749
 42
0.0122764779
  0
VERTEX
  8
1
 10
504.0155712369
 20
79.7524987598
 42
0.0121462168
  0
VERTEX
  8
1
 10
503.4957848655
 20
79.7150345832
 42
0.0228681651
  0
VERTEX
  8
1
 10
503.1211440459
 20
79.6630558149
 42
0.1629625566
  0
VERTEX
  8
1
 10
502.9099984280
 20
79.5736128699
 42
0.1629625566
  0
VERTEX
  8
1
 10
503.1211440459
 20
79.4841699250
 42
0.0228681651
  0
VERTEX
  8
1
 10
503.4957848655
 20
79.4321911566
 42
0.0121462168
  0
VERTEX
  8
1
 10
504.0155712369
 20
79.3947269800
 42
0.0122764779
  0
VERTEX
  8
1
 10
504.9099984280
 20
79.3736123649
 42
0.0122764779
  0
VERTEX
  8
1
 10
505.8044256190
 20
79.3947269800
 42
0.0121462168
  0
VERTEX
  8
1
 10
506.3242119904
 20
79.4321911566
 42
0.0228681651
  0
VERTEX
  8
1
 10
506.6988528100
 20
79.4841699250
 42
0.1629625566
  0
SEQEND
  8
1
  0
POLYLINE
  8
1
  6
CONTINUOUS
 62
7
 66
     1
 70
     0
  0
VERTEX
  8
1
 62
7
 10
498.9099984279
 20
80.2785996997
 42
0.0441499573
  0
VERTEX
  8
1
 62
7
 10
498.9100474441
 20
80.2686983190
 42
0.0392133150
  0
SEQEND
  8
1
  0
LINE
  8
1
  6
CONTINUOUS
 62
7
 10
498.9099983758
 20
80.2785983736
 11
498.9099983758
 21
80.5785997266
  0
POLYLINE
  8
1
  6
CONTINUOUS
 62
7
 66
     1
 70
     0
  0
VERTEX
  8
1
 62
7
 10
498.9100474441
 20
80.2686983190
 42
0.0158105905
  0
VERTEX
  8
1
 62
7
 10
498.9126927922
 20
80.2055427025
 42
0.0807888691
  0
VERTEX
  8
1
 62
7
 10
498.9870692218
 20
79.8951106662
 42
0.0804310507
  0
VERTEX
  8
1
 62
7
 10
499.1561690174
 20
79.6235255230
 42
0.1157045986
  0
VERTEX
  8
1
 62
7
 10
499.5296036229
 20
79.3552561881
 42
0.1157045986
  0
VERTEX
  8
1
 62
7
 10
499.9099984279
 20
79.2785749596
 42
0.0182734515
  0
SEQEND
  8
1
  0
LINE
  8
1
  6
CONTINUOUS
 62
7
 10
510.9099984801
 20
80.5785997266
 11
510.9099984801
 21
80.2785983736
  0
POLYLINE
  8
1
  6
CONTINUOUS
 62
7
 66
     1
 70
     0
  0
VERTEX
  8
1
 62
7
 10
510.9050355933
 20
80.1785994472
 42
0.0250460769
  0
VERTEX
  8
1
 62
7
 10
510.9099984280
 20
80.2785996997
 42
0.1159165546
  0
VERTEX
  8
1
 62
7
 10
510.9099984280
 20
80.2785996997
 42
0.1159165546
  0
SEQEND
  8
1
  0
POLYLINE
  8
1
  6
CONTINUOUS
 62
7
 66
     1
 70
     0
  0
VERTEX
  8
1
 62
7
 10
509.9099984280
 20
79.1835622818
 42
0.0714605935
  0
VERTEX
  8
1
 62
7
 10
510.1785760584
 20
79.2468464349
 42
0.1063852091
  0
VERTEX
  8
1
 62
7
 10
510.5810036561
 20
79.5075942191
 42
0.1063852091
  0
VERTEX
  8
1
 62
7
 10
510.8417514403
 20
79.9100218168
 42
0.0777603711
  0
VERTEX
  8
1
 62
7
 10
510.9050355933
 20
80.1785994472
 42
0.0123362576
  0
SEQEND
  8
1
  0
POLYLINE
  8
1
  6
CONTINUOUS
 62
7
 66
     1
 70
     0
  0
VERTEX
  8
1
 62
7
 10
497.9099984280
 20
79.2686467776
 42
0.0791249785
  0
VERTEX
  8
1
 62
7
 10
497.9600098385
 20
78.9560749423
 42
0.1174683520
  0
VERTEX
  8
1
 62
7
 10
498.2008440312
 20
78.5644534125
 42
0.1174683520
  0
VERTEX
  8
1
 62
7
 10
498.5924661690
 20
78.3236202087
 42
0.0808607469
  0
VERTEX
  8
1
 62
7
 10
498.9050355933
 20
78.2736095874
 42
0.0012380847
  0
SEQEND
  8
1
  0
POLYLINE
  8
1
  6
CONTINUOUS
 62
7
 66
     1
 70
     0
  0
VERTEX
  8
1
 62
7
 10
498.9050355933
 20
201.7736145874
 42
0.0796147256
  0
VERTEX
  8
1
 62
7
 10
498.5924661690
 20
201.7236039661
 42
0.1174683520
  0
VERTEX
  8
1
 62
7
 10
498.2008440312
 20
201.4827707623
 42
0.1174683520
  0
VERTEX
  8
1
 62
7
 10
497.9600098385
 20
201.0911492326
 42
0.0808607469
  0
VERTEX
  8
1
 62
7
 10
497.9099984280
 20
200.7785773972
 42
0.0012373217
  0
SEQEND
  8
1
  0
LINE
  8
1
  6
CONTINUOUS
 62
7
 10
498.4599982089
 20
84.2736108655
 11
498.4599982089
 21
195.7736133093
  0
LINE
  8
1
  6
CONTINUOUS
 62
7
 10
497.9099982119
 20
200.7785780782
 11
497.9099982119
 21
79.2686460966
  0
LINE
  8
1
  6
CONTINUOUS
 62
7
 10
498.4599982089
 20
84.2736108655
 11
498.9099983758
 21
84.2736108655
  0
LINE
  8
1
  6
CONTINUOUS
 62
7
 10
498.4599982089
 20
195.7736133093
 11
498.9099983758
 21
195.7736133093
  0
ARC
  8
1
  6
CONTINUOUS
 62
7
 10
582.9930275813
 20
80.1905826659
 40
1.0070934838
 50
270.6817133899
 51
359.3182866101
  0
ARC
  8
1
  6
CONTINUOUS
 62
7
 10
582.9930275813
 20
199.8566415090
 40
1.0070934838
 50
0.6817133898
 51
89.3182866101
  0
LINE
  8
1
  6
CONTINUOUS
 62
7
 10
584.0000497809
 20
199.8686237687
 11
584.0000497809
 21
151.0236120874
  0
LINE
  8
1
  6
CONTINUOUS
 62
7
 10
584.0000497809
 20
129.0236120874
 11
584.0000497809
 21
80.1786004061
  0
LINE
  8
1
  6
CONTINUOUS
 62
7
 10
511.9099986440
 20
84.2736108655
 11
511.9099986440
 21
195.7736133093
  0
LINE
  8
1
  6
CONTINUOUS
 62
7
 10
510.9099984801
 20
84.2736108655
 11
511.9099986440
 21
84.2736108655
  0
LINE
  8
1
  6
CONTINUOUS
 62
7
 10
510.9099984801
 20
195.7736133093
 11
511.9099986440
 21
195.7736133093
  0
POLYLINE
  8
1
  6
CONTINUOUS
 62
7
 66
     1
 70
     0
  0
VERTEX
  8
1
 62
7
 10
584.9099984280
 20
200.7785773972
 42
0.0796153609
  0
VERTEX
  8
1
 62
7
 10
584.8599870174
 20
201.0911492326
 42
0.1174683520
  0
VERTEX
  8
1
 62
7
 10
584.6191528248
 20
201.4827707623
 42
0.1174683520
  0
VERTEX
  8
1
 62
7
 10
584.2275306869
 20
201.7236039661
 42
0.0808607469
  0
VERTEX
  8
1
 62
7
 10
583.9149612626
 20
201.7736145874
 42
0.0012379529
  0
SEQEND
  8
1
  0
POLYLINE
  8
1
  6
CONTINUOUS
 62
7
 66
     1
 70
     0
  0
VERTEX
  8
1
 62
7
 10
583.9149612626
 20
78.2736095874
 42
0.0791243434
  0
VERTEX
  8
1
 62
7
 10
584.2275306869
 20
78.3236202087
 42
0.1174683520
  0
VERTEX
  8
1
 62
7
 10
584.6191528248
 20
78.5644534125
 42
0.1174683520
  0
VERTEX
  8
1
 62
7
 10
584.8599870174
 20
78.9560749423
 42
0.0808607469
  0
VERTEX
  8
1
 62
7
 10
584.9099984280
 20
79.2686467776
 42
0.0012374534
  0
SEQEND
  8
1
  0
LINE
  8
1
  6
CONTINUOUS
 62
7
 10
584.1599988452
 20
152.5236122737
 11
584.9099966398
 21
152.5236122737
  0
LINE
  8
1
  6
CONTINUOUS
 62
7
 10
584.1599988452
 20
127.5236119012
 11
584.1599988452
 21
129.0236120874
  0
LINE
  8
1
  6
CONTINUOUS
 62
7
 10
584.1599988452
 20
151.0236120874
 11
584.1599988452
 21
152.5236122737
  0
LINE
  8
1
  6
CONTINUOUS
 62
7
 10
584.1599988452
 20
127.5236119012
 11
584.9099966398
 21
127.5236119012
  0
LINE
  8
1
  6
CONTINUOUS
 62
7
 10
584.9099966398
 20
79.2686460966
 11
584.9099966398
 21
127.5236119012
  0
LINE
  8
1
  6
CONTINUOUS
 62
7
 10
584.9099966398
 20
152.5236122737
 11
584.9099966398
 21
200.7785780782
  0
POLYLINE
  8
1
  6
CONTINUOUS
 62
7
 66
     1
 70
     0
  0
VERTEX
  8
1
 62
7
 10
509.9099984280
 20
79.5835632918
 42
0.1629625566
  0
VERTEX
  8
1
 62
7
 10
509.3821343832
 20
79.8071706542
 42
0.0228681651
  0
VERTEX
  8
1
 62
7
 10
509.3747976970
 20
79.8086320162
 42
0.0225421746
  0
SEQEND
  8
1
  0
POLYLINE
  8
1
  6
CONTINUOUS
 62
7
 66
     1
 70
     0
  0
VERTEX
  8
1
 62
7
 10
500.4472956659
 20
79.8090474317
 42
0.0101065848
  0
VERTEX
  8
1
 62
7
 10
500.4378624727
 20
79.8071706542
 42
0.1629625566
  0
VERTEX
  8
1
 62
7
 10
499.9099984279
 20
79.5835632918
 42
0.1629625566
  0
VERTEX
  8
1
 62
7
 10
499.9099984279
 20
79.5835632918
 42
0.1629625566
  0
SEQEND
  8
1
  0
ARC
  8
1
  6
CONTINUOUS
 62
7
 10
611.9099966398
 20
198.9686224552
 40
1.0000000000
 50
95.7106074615
 51
126.3907459364
  0
ARC
  8
1
  6
CONTINUOUS
 62
7
 10
611.9099966398
 20
81.0786017197
 40
1.0000000000
 50
233.6092540636
 51
264.2893925385
  0
LINE
  8
1
  6
CONTINUOUS
 62
7
 10
622.4099968075
 20
152.5236122737
 11
629.9099966398
 21
152.5236122737
  0
LINE
  8
1
  6
CONTINUOUS
 62
7
 10
622.4099968075
 20
127.5236119012
 11
622.4099968075
 21
134.0236120879
  0
LINE
  8
1
  6
CONTINUOUS
 62
7
 10
622.4099968075
 20
146.0236120879
 11
622.4099968075
 21
152.5236122737
  0
LINE
  8
1
  6
CONTINUOUS
 62
7
 10
622.4099968075
 20
127.5236119012
 11
629.9099966398
 21
127.5236119012
  0
LINE
  8
1
  6
CONTINUOUS
 62
7
 10
629.9099966398
 20
79.2686460966
 11
629.9099966398
 21
127.5236119012
  0
LINE
  8
1
  6
CONTINUOUS
 62
7
 10
629.9099966398
 20
152.5236122737
 11
629.9099966398
 21
200.7785780782
  0
LINE
  8
1
  6
CONTINUOUS
 62
7
 10
620.8104926607
 20
200.8636637086
 11
629.9099966398
 21
201.7736142928
  0
LINE
  8
1
  6
CONTINUOUS
 62
7
 10
629.9099966398
 20
201.7736142928
 11
629.9099966398
 21
200.7785780782
  0
LINE
  8
1
  6
CONTINUOUS
 62
7
 10
629.9099966398
 20
78.2736098820
 11
620.8104926607
 21
79.1835604662
  0
LINE
  8
1
  6
CONTINUOUS
 62
7
 10
629.9099966398
 20
79.2686460966
 11
629.9099966398
 21
78.2736098820
  0
LINE
  8
1
  6
CONTINUOUS
 62
7
 10
619.9099968633
 20
80.1786004061
 11
619.9099968633
 21
134.0236120879
  0
LINE
  8
1
  6
CONTINUOUS
 62
7
 10
619.9099968633
 20
146.0236120879
 11
619.9099968633
 21
199.8686237687
  0
ARC
  8
1
  6
CONTINUOUS
 62
7
 10
620.9099966398
 20
80.1785994472
 40
1.0000000000
 50
180.0000000000
 51
264.2893925385
  0
ARC
  8
1
  6
CONTINUOUS
 62
7
 10
620.9099966398
 20
199.8686247277
 40
1.0000000000
 50
95.7106074615
 51
180.0000000000
  0
LINE
  8
1
  6
CONTINUOUS
 62
7
 10
629.9099966398
 20
127.5236119012
 11
629.9099966398
 21
152.5236122737
  0
ARC
  8
1
  6
CONTINUOUS
 62
7
 10
643.9099966398
 20
96.5236120874
 40
1.0000000000
 50
270.0000000000
 51
0.0000000000
  0
LINE
  8
1
  6
CONTINUOUS
 62
7
 10
643.9099970719
 20
104.5236109251
 11
629.9099966398
 21
104.5236109251
  0
LINE
  8
1
  6
CONTINUOUS
 62
7
 10
644.9099963045
 20
103.5236126239
 11
644.9099963045
 21
96.5236133391
  0
ARC
  8
1
  6
CONTINUOUS
 62
7
 10
643.9099966398
 20
103.5236120874
 40
1.0000000000
 50
0.0000000000
 51
90.0000000000
  0
LINE
  8
1
  6
CONTINUOUS
 62
7
 10
643.9099970719
 20
95.5236113126
 11
629.9099966398
 21
95.5236113126
  0
ARC
  8
1
  6
CONTINUOUS
 62
7
 10
643.9099966398
 20
183.5236120874
 40
1.0000000000
 50
0.0000000000
 51
90.0000000000
  0
LINE
  8
1
  6
CONTINUOUS
 62
7
 10
644.9099963045
 20
183.5236108357
 11
644.9099963045
 21
176.5236115510
  0
ARC
  8
1
  6
CONTINUOUS
 62
7
 10
643.9099966398
 20
176.5236120874
 40
1.0000000000
 50
270.0000000000
 51
0.0000000000
  0
LINE
  8
1
  6
CONTINUOUS
 62
7
 10
643.9099970719
 20
175.5236132497
 11
629.9099966398
 21
175.5236132497
  0
LINE
  8
1
  6
CONTINUOUS
 62
7
 10
643.9099970719
 20
184.5236128623
 11
629.9099966398
 21
184.5236128623
  0
LINE
  8
1
  6
CONTINUOUS
 62
7
 10
616.8104929364
 20
200.4636606628
 11
620.8104926607
 21
200.8636637086
  0
LINE
  8
1
  6
CONTINUOUS
 62
7
 10
620.8104926607
 20
79.1835604662
 11
616.8104929364
 21
79.5835635120
  0
LINE
  8
1
  6
CONTINUOUS
 62
7
 10
611.8104930482
 20
199.9636596495
 11
611.8318221978
 21
199.9657942409
  0
LINE
  8
1
  6
CONTINUOUS
 62
7
 10
611.8318221978
 20
199.9657942409
 11
612.0013638845
 21
199.9827480370
  0
LINE
  8
1
  6
CONTINUOUS
 62
7
 10
612.0013638845
 20
199.9827480370
 11
612.3346767834
 21
200.0160782093
  0
LINE
  8
1
  6
CONTINUOUS
 62
7
 10
612.3346767834
 20
200.0160782093
 11
612.8204062096
 21
200.0646522695
  0
LINE
  8
1
  6
CONTINUOUS
 62
7
 10
612.8204062096
 20
200.0646522695
 11
613.4420137367
 21
200.1268124634
  0
LINE
  8
1
  6
CONTINUOUS
 62
7
 10
613.4420137367
 20
200.1268124634
 11
614.1783322653
 21
200.2004428262
  0
LINE
  8
1
  6
CONTINUOUS
 62
7
 10
614.1783322653
 20
200.2004428262
 11
615.0042840725
 21
200.2830399627
  0
LINE
  8
1
  6
CONTINUOUS
 62
7
 10
615.0042840725
 20
200.2830399627
 11
615.8917450792
 21
200.3717875535
  0
LINE
  8
1
  6
CONTINUOUS
 62
7
 10
615.8917450792
 20
200.3717875535
 11
616.8104929364
 21
200.4636606628
  0
LINE
  8
1
  6
CONTINUOUS
 62
7
 10
616.8104929364
 20
79.5835635120
 11
615.9422516337
 21
79.6703888530
  0
LINE
  8
1
  6
CONTINUOUS
 62
7
 10
615.9422516337
 20
79.6703888530
 11
615.1003919056
 21
79.7545729632
  0
LINE
  8
1
  6
CONTINUOUS
 62
7
 10
615.1003919056
 20
79.7545729632
 11
614.3104925266
 21
79.8335640187
  0
LINE
  8
1
  6
CONTINUOUS
 62
7
 10
614.3104925266
 20
79.8335640187
 11
613.5965555421
 21
79.9049592072
  0
LINE
  8
1
  6
CONTINUOUS
 62
7
 10
613.5965555421
 20
79.9049592072
 11
612.9802695921
 21
79.9665866846
  0
LINE
  8
1
  6
CONTINUOUS
 62
7
 10
612.9802695921
 20
79.9665866846
 11
612.4803654364
 21
80.0165763551
  0
LINE
  8
1
  6
CONTINUOUS
 62
7
 10
612.4803654364
 20
80.0165763551
 11
612.1120292208
 21
80.0534120256
  0
LINE
  8
1
  6
CONTINUOUS
 62
7
 10
612.1120292208
 20
80.0534120256
 11
611.8864535800
 21
80.0759686584
  0
LINE
  8
1
  6
CONTINUOUS
 62
7
 10
611.8864535800
 20
80.0759686584
 11
611.8104930482
 21
80.0835645253
  0
LINE
  8
1
  6
CONTINUOUS
 62
7
 10
497.9099982119
 20
241.7736142928
 11
498.9050358235
 21
241.7736142928
  0
LINE
  8
1
  6
CONTINUOUS
 62
7
 10
498.9100472702
 20
231.7731237093
 11
497.9099982119
 21
241.7736142928
  0
LINE
  8
1
  6
CONTINUOUS
 62
7
 10
498.9050358235
 20
241.7736142928
 11
583.9149641505
 21
241.7736142928
  0
LINE
  8
1
  6
CONTINUOUS
 62
7
 10
584.9099966398
 20
241.7736142928
 11
584.0000497809
 21
232.6741103137
  0
LINE
  8
1
  6
CONTINUOUS
 62
7
 10
583.9149641505
 20
241.7736142928
 11
584.9099966398
 21
241.7736142928
  0
LINE
  8
1
  6
CONTINUOUS
 62
7
 10
510.9099984801
 20
231.7736145163
 11
510.9099984801
 21
228.7736140246
  0
ARC
  8
1
  6
CONTINUOUS
 62
7
 10
583.0050108658
 20
232.7736142928
 40
1.0000000000
 50
270.0000000000
 51
354.2894068625
  0
LINE
  8
1
  6
CONTINUOUS
 62
7
 10
583.0050098411
 20
231.7736145163
 11
510.9050354621
 21
231.7736145163
  0
LINE
  8
1
  6
CONTINUOUS
 62
7
 10
498.9099983758
 20
228.7736140246
 11
498.9099983758
 21
231.7736145163
  0
ARC
  8
1
  6
CONTINUOUS
 62
7
 10
504.9099984280
 20
228.7736142928
 40
6.0000000001
 50
180.0000000000
 51
257.0277601138
  0
ARC
  8
1
  6
CONTINUOUS
 62
7
 10
504.9099984280
 20
228.7736142928
 40
6.0000000001
 50
257.0277601138
 51
0.0000000000
  0
LINE
  8
1
  6
HIDDEN
 62
7
 10
576.4100017658
 20
231.2736142928
 11
576.4100017658
 21
228.2736139426
  0
LINE
  8
1
  6
CONTINUOUS
 62
7
 10
576.4100017658
 20
231.7736145163
 11
576.4100017658
 21
231.2736142928
  0
LINE
  8
1
  6
CONTINUOUS
 62
7
 10
518.4099987781
 20
231.7736145163
 11
518.4099987781
 21
231.2736142928
  0
LINE
  8
1
  6
HIDDEN
 62
7
 10
518.4099987781
 20
231.2736142928
 11
518.4099987781
 21
228.2736139426
  0
LINE
  8
1
  6
HIDDEN
 62
7
 10
575.9100007525
 20
227.7736138607
 11
518.9099984280
 21
227.7736138607
  0
ARC
  8
1
  6
HIDDEN
 62
7
 10
575.9099984280
 20
228.2736142928
 40
0.5000000000
 50
270.0000000000
 51
0.0000000000
  0
ARC
  8
1
  6
HIDDEN
 62
7
 10
518.9099984280
 20
228.2736142928
 40
0.5000000000
 50
180.0000000000
 51
270.0000000000
  0
ARC
  8
1
  6
CONTINUOUS
 62
7
 10
525.4099984280
 20
255.7736142928
 40
1.0000000000
 50
0.0000000000
 51
90.0000000000
  0
ARC
  8
1
  6
CONTINUOUS
 62
7
 10
522.4099984280
 20
255.7736142928
 40
1.0000000000
 50
90.0000000000
 51
180.0000000000
  0
LINE
  8
1
  6
CONTINUOUS
 62
7
 10
522.4099985025
 20
256.7736139575
 11
525.4099989942
 21
256.7736139575
  0
LINE
  8
1
  6
CONTINUOUS
 62
7
 10
521.4099983385
 20
255.7736147249
 11
521.4099983385
 21
241.7736142928
  0
LINE
  8
1
  6
CONTINUOUS
 62
7
 10
526.4099991581
 20
255.7736147249
 11
526.4099991581
 21
241.7736142928
  0
ARC
  8
1
  6
CONTINUOUS
 62
7
 10
569.4099984280
 20
255.7736142928
 40
1.0000000000
 50
89.9999999971
 51
180.0000000000
  0
ARC
  8
1
  6
CONTINUOUS
 62
7
 10
572.4099984280
 20
255.7736142928
 40
1.0000000000
 50
0.0000000000
 51
90.0000000000
  0
LINE
  8
1
  6
CONTINUOUS
 62
7
 10
569.4099950305
 20
256.7736139575
 11
572.4100011102
 21
256.7736139575
  0
LINE
  8
1
  6
CONTINUOUS
 62
7
 10
568.4100004545
 20
255.7736147249
 11
568.4100004545
 21
241.7736142928
  0
LINE
  8
1
  6
CONTINUOUS
 62
7
 10
573.4099956861
 20
255.7736147249
 11
573.4099956861
 21
241.7736142928
  0
LINE
  8
1
  6
HIDDEN
 62
7
 10
511.9099986440
 20
236.2736143226
 11
498.4599982089
 21
236.2736143226
  0
LINE
  8
1
  6
HIDDEN
 62
7
 10
511.9099986440
 20
231.7736145163
 11
511.9099986440
 21
236.2736143226
  0
ARC
  8
1
  6
HIDDEN
 62
7
 10
575.4099984280
 20
228.2736142928
 40
0.5000000000
 50
180.0000000000
 51
270.0000000000
  0
ARC
  8
1
  6
HIDDEN
 62
7
 10
519.4099984280
 20
228.2736142928
 40
0.5000000000
 50
270.0000000000
 51
0.0000000000
  0
LINE
  8
1
  6
HIDDEN
 62
7
 10
537.4099972359
 20
241.7736142928
 11
537.4099972359
 21
235.2736141587
  0
LINE
  8
1
  6
HIDDEN
 62
7
 10
537.4099972359
 20
235.2736141587
 11
521.4099983385
 21
235.2736141587
  0
LINE
  8
1
  6
HIDDEN
 62
7
 10
557.4099967888
 20
241.7736142928
 11
557.4099967888
 21
235.2736141587
  0
LINE
  8
1
  6
HIDDEN
 62
7
 10
574.9099987260
 20
235.2736141587
 11
573.4099956861
 21
235.2736141587
  0
LINE
  8
1
  6
HIDDEN
 62
7
 10
574.9099987260
 20
228.2736139426
 11
574.9099987260
 21
235.2736141587
  0
LINE
  8
1
  6
HIDDEN
 62
7
 10
573.4099956861
 20
235.2736141587
 11
557.4099967888
 21
235.2736141587
  0
LINE
  8
1
  6
HIDDEN
 62
7
 10
519.9099980927
 20
228.2736139426
 11
519.9099980927
 21
235.2736141587
  0
LINE
  8
1
  6
HIDDEN
 62
7
 10
521.4099983385
 20
235.2736141587
 11
519.9099980927
 21
235.2736141587
  0
LINE
  8
1
  6
HIDDEN
 62
7
 10
530.6599984578
 20
239.2736143487
 11
524.1599983236
 21
239.2736143487
  0
LINE
  8
1
  6
HIDDEN
 62
7
 10
570.6600012890
 20
239.2736143487
 11
564.1599992922
 21
239.2736143487
  0
LINE
  8
1
  6
HIDDEN
 62
7
 10
582.9100000373
 20
241.7736142928
 11
582.9100000373
 21
234.2736144604
  0
LINE
  8
1
  6
HIDDEN
 62
7
 10
582.9100000373
 20
234.2736144604
 11
584.1599988452
 21
234.2736144604
  0
LINE
  8
1
  6
HIDDEN
 62
7
 10
530.6599984578
 20
235.2736141587
 11
530.6599984578
 21
239.2736143487
  0
LINE
  8
1
  6
HIDDEN
 62
7
 10
524.1599983236
 20
239.2736143487
 11
524.1599983236
 21
235.2736141587
  0
LINE
  8
1
  6
HIDDEN
 62
7
 10
570.6600012890
 20
235.2736141587
 11
570.6600012890
 21
239.2736143487
  0
LINE
  8
1
  6
HIDDEN
 62
7
 10
564.1599992922
 20
239.2736143487
 11
564.1599992922
 21
235.2736141587
  0
LINE
  8
1
  6
HIDDEN
 62
7
 10
529.1599991432
 20
239.2736143487
 11
529.1599991432
 21
241.7736142928
  0
LINE
  8
1
  6
HIDDEN
 62
7
 10
525.6599976382
 20
241.7736142928
 11
525.6599976382
 21
239.2736143487
  0
LINE
  8
1
  6
HIDDEN
 62
7
 10
569.1599982491
 20
239.2736143487
 11
569.1599982491
 21
241.7736142928
  0
LINE
  8
1
  6
HIDDEN
 62
7
 10
565.6599986068
 20
241.7736142928
 11
565.6599986068
 21
239.2736143487
  0
LINE
  8
1
  6
HIDDEN
 62
7
 10
526.4099991581
 20
253.7736143971
 11
521.4099983385
 21
253.7736143971
  0
LINE
  8
1
  6
HIDDEN
 62
7
 10
521.4099983385
 20
249.7736146728
 11
526.4099991581
 21
249.7736146728
  0
LINE
  8
1
  6
HIDDEN
 62
7
 10
573.4099956861
 20
253.7736143971
 11
568.4100004545
 21
253.7736143971
  0
LINE
  8
1
  6
HIDDEN
 62
7
 10
568.4100004545
 20
249.7736146728
 11
573.4099956861
 21
249.7736146728
  0
LINE
  8
1
  6
CONTINUOUS
 62
7
 10
497.9099982119
 20
38.2736098820
 11
498.9100472702
 21
48.2741004655
  0
LINE
  8
1
  6
CONTINUOUS
 62
7
 10
498.9050358235
 20
38.2736098820
 11
497.9099982119
 21
38.2736098820
  0
LINE
  8
1
  6
CONTINUOUS
 62
7
 10
584.0000497809
 20
47.3731138611
 11
584.9099966398
 21
38.2736098820
  0
LINE
  8
1
  6
CONTINUOUS
 62
7
 10
584.9099966398
 20
38.2736098820
 11
583.9149641505
 21
38.2736098820
  0
LINE
  8
1
  6
CONTINUOUS
 62
7
 10
498.9050358235
 20
38.2736098820
 11
583.9149641505
 21
38.2736098820
  0
LINE
  8
1
  6
CONTINUOUS
 62
7
 10
510.9099984801
 20
51.2736101503
 11
510.9099984801
 21
48.2736096585
  0
LINE
  8
1
  6
CONTINUOUS
 62
7
 10
510.9050354621
 20
48.2736096585
 11
583.0050098411
 21
48.2736096585
  0
ARC
  8
1
  6
CONTINUOUS
 62
7
 10
583.0050108658
 20
47.2736098820
 40
1.0000000000
 50
5.7105931375
 51
90.0000000000
  0
LINE
  8
1
  6
CONTINUOUS
 62
7
 10
498.9099983758
 20
48.2736096585
 11
498.9099983758
 21
51.2736101503
  0
ARC
  8
1
  6
CONTINUOUS
 62
7
 10
504.9099984280
 20
51.2736098820
 40
6.0000000001
 50
0.0000000000
 51
180.0000000000
  0
LINE
  8
1
  6
CONTINUOUS
 62
7
 10
576.4100017658
 20
48.2736096585
 11
576.4100017658
 21
48.7736098820
  0
LINE
  8
1
  6
CONTINUOUS
 62
7
 10
518.4099987781
 20
48.2736096585
 11
518.4099987781
 21
48.7736098820
  0
ARC
  8
1
  6
CONTINUOUS
 62
7
 10
572.4099984280
 20
24.2736098820
 40
1.0000000000
 50
270.0000000000
 51
0.0000000000
  0
LINE
  8
1
  6
CONTINUOUS
 62
7
 10
572.4100011102
 20
23.2736102173
 11
569.4099950305
 21
23.2736102173
  0
ARC
  8
1
  6
CONTINUOUS
 62
7
 10
569.4099984280
 20
24.2736098820
 40
1.0000000000
 50
180.0000000000
 51
270.0000000000
  0
LINE
  8
1
  6
CONTINUOUS
 62
7
 10
568.4100004545
 20
24.2736094499
 11
568.4100004545
 21
38.2736098820
  0
LINE
  8
1
  6
CONTINUOUS
 62
7
 10
573.4099956861
 20
24.2736094499
 11
573.4099956861
 21
38.2736098820
  0
LINE
  8
1
  6
CONTINUOUS
 62
7
 10
584.7199993840
 20
40.1736099141
 11
584.9099966398
 21
38.2736098820
  0
LINE
  8
1
  6
CONTINUOUS
 62
7
 10
525.4099989942
 20
23.2736102173
 11
522.4099985025
 21
23.2736102173
  0
ARC
  8
1
  6
CONTINUOUS
 62
7
 10
522.4099984280
 20
24.2736098820
 40
1.0000000000
 50
180.0000000000
 51
270.0000000000
  0
ARC
  8
1
  6
CONTINUOUS
 62
7
 10
525.4099984280
 20
24.2736098820
 40
1.0000000000
 50
270.0000000000
 51
0.0000000000
  0
LINE
  8
1
  6
CONTINUOUS
 62
7
 10
521.4099983385
 20
24.2736094499
 11
521.4099983385
 21
38.2736098820
  0
LINE
  8
1
  6
CONTINUOUS
 62
7
 10
526.4099991581
 20
24.2736094499
 11
526.4099991581
 21
38.2736098820
  0
LINE
  8
1
  6
CONTINUOUS
 62
7
 10
510.9099984801
 20
48.2736096585
 11
511.9099986440
 21
48.2736096585
  0
LINE
  8
1
  6
CONTINUOUS
 62
7
 10
498.4599982089
 20
43.7736098522
 11
498.9099983758
 21
48.2736096585
  0
POLYLINE
  8
1
  6
CONTINUOUS
 62
7
 66
     1
 70
     0
  0
VERTEX
  8
1
 62
7
 10
500.4472956659
 20
200.2381767431
 42
0.0224498690
  0
VERTEX
  8
1
 62
7
 10
501.3744645218
 20
200.1101065997
 42
0.0121462168
  0
VERTEX
  8
1
 62
7
 10
502.6739304503
 20
200.0164461583
 42
0.0122764779
  0
VERTEX
  8
1
 62
7
 10
504.9099984280
 20
199.9636596205
 42
0.0122764779
  0
VERTEX
  8
1
 62
7
 10
507.1460664056
 20
200.0164461583
 42
0.0121462168
  0
VERTEX
  8
1
 62
7
 10
508.4455323341
 20
200.1101065997
 42
0.0228681651
  0
VERTEX
  8
1
 62
7
 10
509.3747976970
 20
200.2385921587
 42
0.0078670227
  0
SEQEND
  8
1
  0
LINE
  8
1
  6
CONTINUOUS
 62
7
 10
509.9099983162
 20
200.8636637086
 11
509.9099983162
 21
200.4636606628
  0
LINE
  8
1
  6
CONTINUOUS
 62
7
 10
499.9099985397
 20
200.4636606628
 11
499.9099985397
 21
200.7686501796
  0
POLYLINE
  8
1
  6
CONTINUOUS
 62
7
 66
     1
 70
     1
  0
VERTEX
  8
1
 10
502.9099984280
 20
200.4736113049
 42
0.1629625566
  0
VERTEX
  8
1
 10
503.1211440459
 20
200.3841683600
 42
0.0228681651
  0
VERTEX
  8
1
 10
503.4957848655
 20
200.3321895916
 42
0.0121462168
  0
VERTEX
  8
1
 10
504.0155712369
 20
200.2947254150
 42
0.0122764779
  0
VERTEX
  8
1
 10
504.9099984280
 20
200.2736107999
 42
0.0122764779
  0
VERTEX
  8
1
 10
505.8044256190
 20
200.2947254150
 42
0.0121462168
  0
VERTEX
  8
1
 10
506.3242119904
 20
200.3321895916
 42
0.0228681651
  0
VERTEX
  8
1
 10
506.6988528100
 20
200.3841683600
 42
0.1629625566
  0
VERTEX
  8
1
 10
506.9099984280
 20
200.4736113049
 42
0.1629625566
  0
VERTEX
  8
1
 10
506.6988528100
 20
200.5630542499
 42
0.0228681651
  0
VERTEX
  8
1
 10
506.3242119904
 20
200.6150330182
 42
0.0121462168
  0
VERTEX
  8
1
 10
505.8044256190
 20
200.6524971948
 42
0.0122764779
  0
VERTEX
  8
1
 10
504.9099984280
 20
200.6736118099
 42
0.0122764779
  0
VERTEX
  8
1
 10
504.0155712369
 20
200.6524971948
 42
0.0121462168
  0
VERTEX
  8
1
 10
503.4957848655
 20
200.6150330182
 42
0.0228681651
  0
VERTEX
  8
1
 10
503.1211440459
 20
200.5630542499
 42
0.1629625566
  0
SEQEND
  8
1
  0
POLYLINE
  8
1
  6
CONTINUOUS
 62
7
 66
     1
 70
     0
  0
VERTEX
  8
1
 62
7
 10
498.9100474441
 20
199.7785258558
 42
0.0482940236
  0
VERTEX
  8
1
 62
7
 10
498.9099984279
 20
199.7686244752
 42
0.0458989087
  0
SEQEND
  8
1
  0
LINE
  8
1
  6
CONTINUOUS
 62
7
 10
498.9099983758
 20
199.7686258013
 11
498.9099983758
 21
199.4686244482
  0
POLYLINE
  8
1
  6
CONTINUOUS
 62
7
 66
     1
 70
     0
  0
VERTEX
  8
1
 62
7
 10
499.9099984279
 20
200.7686492152
 42
0.0985048074
  0
VERTEX
  8
1
 62
7
 10
499.5296036229
 20
200.6919679868
 42
0.1157045986
  0
VERTEX
  8
1
 62
7
 10
499.1561690174
 20
200.4236986518
 42
0.0804310507
  0
VERTEX
  8
1
 62
7
 10
498.9870692218
 20
200.1521135086
 42
0.0807888691
  0
VERTEX
  8
1
 62
7
 10
498.9126927922
 20
199.8416814723
 42
0.1171664547
  0
VERTEX
  8
1
 62
7
 10
498.9100474441
 20
199.7785258558
 42
0.1010165726
  0
SEQEND
  8
1
  0
LINE
  8
1
  6
CONTINUOUS
 62
7
 10
510.9099984801
 20
199.4686244482
 11
510.9099984801
 21
199.7686258013
  0
POLYLINE
  8
1
  6
CONTINUOUS
 62
7
 66
     1
 70
     0
  0
VERTEX
  8
1
 62
7
 10
510.9099984280
 20
199.7686244752
 42
0.1159165546
  0
VERTEX
  8
1
 62
7
 10
510.9050355933
 20
199.8686247277
 42
0.0908633124
  0
SEQEND
  8
1
  0
POLYLINE
  8
1
  6
CONTINUOUS
 62
7
 66
     1
 70
     0
  0
VERTEX
  8
1
 62
7
 10
510.9050355933
 20
199.8686247277
 42
0.0714605935
  0
VERTEX
  8
1
 62
7
 10
510.8417514403
 20
200.1372023581
 42
0.1063852091
  0
VERTEX
  8
1
 62
7
 10
510.5810036561
 20
200.5396299558
 42
0.1063852091
  0
VERTEX
  8
1
 62
7
 10
510.1785760584
 20
200.8003777399
 42
0.0777603711
  0
VERTEX
  8
1
 62
7
 10
509.9099984280
 20
200.8636618930
 42
0.0123362576
  0
SEQEND
  8
1
  0
POLYLINE
  8
1
  6
CONTINUOUS
 62
7
 66
     1
 70
     0
  0
VERTEX
  8
1
 62
7
 10
509.3747976970
 20
200.2385921587
 42
0.0078670227
  0
VERTEX
  8
1
 62
7
 10
509.3821343832
 20
200.2400535206
 42
0.1629625566
  0
VERTEX
  8
1
 62
7
 10
509.9099984280
 20
200.4636608830
 42
0.1629625566
  0
VERTEX
  8
1
 62
7
 10
509.9099984280
 20
200.4636608830
 42
0.1629625566
  0
SEQEND
  8
1
  0
POLYLINE
  8
1
  6
CONTINUOUS
 62
7
 66
     1
 70
     0
  0
VERTEX
  8
1
 62
7
 10
499.9099984279
 20
200.4636608830
 42
0.1629625566
  0
VERTEX
  8
1
 62
7
 10
500.4378624727
 20
200.2400535206
 42
0.0228681651
  0
VERTEX
  8
1
 62
7
 10
500.4472956659
 20
200.2381767431
 42
0.0224498690
  0
SEQEND
  8
1
  0
CIRCLE
  8
1
  6
CONTINUOUS
 62
7
 10
504.9099984280
 20
51.2736098820
 40
2.0000000000
  0
LINE
  8
1
  6
HIDDEN
 62
7
 10
526.4099991581
 20
254.2736146728
 11
521.4099983385
 21
254.2736146728
  0
LINE
  8
1
  6
HIDDEN
 62
7
 10
526.4099991581
 20
249.2736146728
 11
521.4099983385
 21
249.2736146728
  0
LINE
  8
1
  6
HIDDEN
 62
7
 10
573.4099956861
 20
254.2736146728
 11
568.4099948666
 21
254.2736146728
  0
LINE
  8
1
  6
HIDDEN
 62
7
 10
573.4099956861
 20
249.2736146728
 11
568.4099948666
 21
249.2736146728
  0
CIRCLE
  8
1
  6
CONTINUOUS
 62
7
 10
639.9099963045
 20
100.0236129815
 40
2.0000000000
  0
CIRCLE
  8
1
  6
HIDDEN
 62
7
 10
639.9099963045
 20
100.0236129815
 40
2.5000000000
  0
CIRCLE
  8
1
  6
CONTINUOUS
 62
7
 10
639.9099963045
 20
180.0236111933
 40
2.0000000000
  0
CIRCLE
  8
1
  6
HIDDEN
 62
7
 10
639.9099963045
 20
180.0236111933
 40
2.5000000000
  0
CIRCLE
  8
1
  6
CONTINUOUS
 62
7
 10
633.6599966398
 20
100.0236129815
 40
2.0000000000
  0
LINE
  8
1
  6
CONTINUOUS
 62
7
 10
632.1599966397
 20
100.0236129815
 11
635.1599966397
 21
100.0236129815
  0
LINE
  8
1
  6
CONTINUOUS
 62
7
 10
632.6599966397
 20
99.2736129815
 11
634.6599966397
 21
99.2736129815
  0
LINE
  8
1
  6
CONTINUOUS
 62
7
 10
633.1599966397
 20
98.5236129815
 11
634.1599966397
 21
98.5236129815
  0
LINE
  8
1
  6
CONTINUOUS
 62
7
 10
633.6599966398
 20
100.0236129815
 11
633.6599966397
 21
101.5236129815
  0
LINE
  8
1
  6
HIDDEN
 62
7
 10
535.1599984280
 20
241.7736142928
 11
535.1599984280
 21
235.2736141587
  0
LINE
  8
1
  6
HIDDEN
 62
7
 10
535.4099984280
 20
235.2736141587
 11
535.4099984280
 21
241.7736142928
  0
LINE
  8
1
  6
HIDDEN
 62
7
 10
532.6599984280
 20
241.7736142928
 11
532.6599984280
 21
235.2736141587
  0
LINE
  8
1
  6
HIDDEN
 62
7
 10
532.4099984280
 20
235.2736141587
 11
532.4099984280
 21
241.7736142928
  0
LINE
  8
1
  6
HIDDEN
 62
7
 10
559.6599984280
 20
241.7736142928
 11
559.6599984280
 21
235.2736141587
  0
LINE
  8
1
  6
HIDDEN
 62
7
 10
559.4099984280
 20
235.2736141587
 11
559.4099984280
 21
241.7736142928
  0
LINE
  8
1
  6
HIDDEN
 62
7
 10
562.1599984280
 20
241.7736142928
 11
562.1599984280
 21
235.2736141587
  0
LINE
  8
1
  6
HIDDEN
 62
7
 10
562.4099984280
 20
235.2736141587
 11
562.4099984280
 21
241.7736142928
  0
CIRCLE
  8
1
  6
CONTINUOUS
 62
7
 10
504.9082209626
 20
228.7736142928
 40
2.0000000000
  0
LINE
  8
2
  6
CONTINUOUS
 62
3
 10
498.9099984279
 20
137.3236120874
 11
498.9099984279
 21
84.4736120874
  0
LINE
  8
2
  6
CONTINUOUS
 62
3
 10
498.9099984279
 20
195.5736120874
 11
498.9099984279
 21
142.7236120874
  0
POLYLINE
  8
2
  6
CONTINUOUS
 62
3
 66
     1
 70
     0
  0
VERTEX
  8
2
 62
3
 10
519.8597458962
 20
196.3593985250
 42
0.0167340424
  0
VERTEX
  8
2
 62
3
 10
519.5455729814
 20
196.3003151943
 42
0.1432191097
  0
VERTEX
  8
2
 62
3
 10
517.4903350447
 20
195.1932754707
 42
0.1432191097
  0
VERTEX
  8
2
 62
3
 10
516.3832953211
 20
193.1380375339
 42
0.0846102946
  0
VERTEX
  8
2
 62
3
 10
516.3242119903
 20
192.8238646191
 42
0.0678163039
  0
SEQEND
  8
2
  0
ARC
  8
2
  6
CONTINUOUS
 62
3
 10
582.1599984280
 20
194.5916315721
 40
1.7853571071
 50
11.4217536597
 51
98.0494669760
  0
LINE
  8
2
  6
CONTINUOUS
 62
3
 10
519.8597458962
 20
196.3593985250
 11
581.9099984280
 21
196.3593985250
  0
LINE
  8
2
  6
CONTINUOUS
 62
3
 10
516.3242119903
 20
87.2233595557
 11
516.3242119903
 21
192.8238646191
  0
POLYLINE
  8
2
  6
CONTINUOUS
 62
3
 66
     1
 70
     0
  0
VERTEX
  8
2
 62
3
 10
516.3242119903
 20
87.2233595557
 42
0.0141047934
  0
VERTEX
  8
2
 62
3
 10
516.3832953211
 20
86.9091866409
 42
0.1432191097
  0
VERTEX
  8
2
 62
3
 10
517.4903350447
 20
84.8539487042
 42
0.1432191097
  0
VERTEX
  8
2
 62
3
 10
519.5455729814
 20
83.7469089806
 42
0.0846102946
  0
VERTEX
  8
2
 62
3
 10
519.8597458962
 20
83.6878256498
 42
0.0670035827
  0
SEQEND
  8
2
  0
LINE
  8
2
  6
CONTINUOUS
 62
3
 10
583.9099984280
 20
194.9451849627
 11
583.9099984280
 21
153.1236120874
  0
LINE
  8
2
  6
CONTINUOUS
 62
3
 10
547.9099984279
 20
91.2736120874
 11
547.9099984279
 21
188.7736120874
  0
LINE
  8
2
  6
CONTINUOUS
 62
3
 10
545.9099984279
 20
190.7736120874
 11
524.9099984279
 21
190.7736120874
  0
LINE
  8
2
  6
CONTINUOUS
 62
3
 10
522.9099984279
 20
188.7736120874
 11
522.9099984279
 21
91.2736120874
  0
LINE
  8
2
  6
CONTINUOUS
 62
3
 10
524.9099984279
 20
89.2736120874
 11
545.9099984279
 21
89.2736120874
  0
ARC
  8
2
  6
CONTINUOUS
 62
3
 10
545.9099984279
 20
91.2736120874
 40
2.0000000000
 50
270.0000000000
 51
0.0000000000
  0
ARC
  8
2
  6
CONTINUOUS
 62
3
 10
524.9099984279
 20
91.2736120874
 40
2.0000000000
 50
180.0000000000
 51
270.0000000000
  0
ARC
  8
2
  6
CONTINUOUS
 62
3
 10
545.9099984279
 20
188.7736120874
 40
2.0000000000
 50
0.0000000000
 51
90.0000000000
  0
ARC
  8
2
  6
CONTINUOUS
 62
3
 10
524.9099984279
 20
188.7736120874
 40
2.0000000000
 50
90.0000000000
 51
180.0000000000
  0
LINE
  8
2
  6
CONTINUOUS
 62
3
 10
583.9099984280
 20
126.9236120874
 11
583.9099984280
 21
85.1020392122
  0
ARC
  8
2
  6
CONTINUOUS
 62
3
 10
582.1599984280
 20
85.4555926027
 40
1.7853571071
 50
261.9505330247
 51
348.5782463413
  0
LINE
  8
2
  6
CONTINUOUS
 62
3
 10
581.9099984280
 20
83.6878256498
 11
519.8597458962
 21
83.6878256498
  0
LINE
  8
2
  6
CONTINUOUS
 62
3
 10
512.9099984279
 20
196.2380781815
 11
512.9099984279
 21
198.7133132314
  0
ARC
  8
2
  6
CONTINUOUS
 62
3
 10
513.8818208712
 20
198.7717819558
 40
0.9735797106
 50
88.3415014311
 51
183.4429930186
  0
ARC
  8
2
  6
CONTINUOUS
 62
3
 10
513.8716593423
 20
81.2655923459
 40
0.9640846150
 50
175.9364035055
 51
272.2791020229
  0
LINE
  8
2
  6
CONTINUOUS
 62
3
 10
512.9099984279
 20
81.3339109435
 11
512.9099984279
 21
83.8091459934
  0
LINE
  8
2
  6
CONTINUOUS
 62
3
 10
583.9099984280
 20
197.7736120874
 11
583.9099984280
 21
194.9451849627
  0
LINE
  8
2
  6
CONTINUOUS
 62
3
 10
512.9099984280
 20
83.8091459934
 11
512.9099984279
 21
84.4736120874
  0
LINE
  8
2
  6
CONTINUOUS
 62
3
 10
513.3158884336
 20
195.5736120874
 11
513.3158884336
 21
84.4736120874
  0
LINE
  8
2
  6
CONTINUOUS
 62
3
 10
512.9099984279
 20
196.2380781814
 11
512.9099984279
 21
195.5736120874
  0
LINE
  8
2
  6
CONTINUOUS
 62
3
 10
583.9099984280
 20
85.1020392122
 11
583.9099984280
 21
82.2736120874
  0
LINE
  8
2
  6
CONTINUOUS
 62
3
 10
513.9099984279
 20
199.7736120874
 11
513.9099984279
 21
199.7449538205
  0
LINE
  8
2
  6
CONTINUOUS
 62
3
 10
513.9099984279
 20
199.7736120874
 11
581.9099984280
 21
199.7736120874
  0
ARC
  8
2
  6
CONTINUOUS
 62
3
 10
581.9099984280
 20
197.7736120874
 40
2.0000000000
 50
0.0000000000
 51
90.0000000000
  0
LINE
  8
2
  6
CONTINUOUS
 62
3
 10
581.9099984280
 20
80.2736120874
 11
513.9099984279
 21
80.2736120874
  0
LINE
  8
2
  6
CONTINUOUS
 62
3
 10
513.9099984279
 20
80.3022703543
 11
513.9099984279
 21
80.2736120874
  0
ARC
  8
2
  6
CONTINUOUS
 62
3
 10
581.9099984280
 20
82.2736120874
 40
2.0000000000
 50
270.0000000000
 51
0.0000000000
  0
LINE
  8
2
  6
CONTINUOUS
 62
3
 10
513.3158884336
 20
84.4736120874
 11
512.3506327521
 21
84.4736120874
  0
LINE
  8
2
  6
CONTINUOUS
 62
3
 10
512.3506327521
 20
195.5736120874
 11
513.3158884336
 21
195.5736120874
  0
LINE
  8
2
  6
CONTINUOUS
 62
3
 10
505.3099984280
 20
137.3236120874
 11
503.5631247855
 21
137.3236120874
  0
LINE
  8
2
  6
CONTINUOUS
 62
3
 10
505.3099984280
 20
137.3236120874
 11
505.3099984280
 21
142.7236120874
  0
LINE
  8
2
  6
CONTINUOUS
 62
3
 10
505.3099984280
 20
142.7236120874
 11
503.5631247855
 21
142.7236120874
  0
LINE
  8
2
  6
CONTINUOUS
 62
3
 10
503.5631247855
 20
84.4736120874
 11
512.3506327521
 21
84.4736120874
  0
LINE
  8
2
  6
CONTINUOUS
 62
3
 10
512.3506327521
 20
195.5736120874
 11
503.5631247855
 21
195.5736120874
  0
ARC
  8
2
  6
CONTINUOUS
 62
3
 10
513.9099984279
 20
81.2736120874
 40
1.0000000000
 50
180.0000000000
 51
270.0000000000
  0
ARC
  8
2
  6
CONTINUOUS
 62
3
 10
513.9099984279
 20
198.7736120874
 40
1.0000000000
 50
90.0000000000
 51
180.0000000000
  0
LINE
  8
2
  6
CONTINUOUS
 62
3
 10
503.5631247855
 20
84.4736120874
 11
498.9099984279
 21
84.4736120874
  0
LINE
  8
2
  6
CONTINUOUS
 62
3
 10
498.9099984279
 20
137.3236120874
 11
503.5631247855
 21
137.3236120874
  0
LINE
  8
2
  6
CONTINUOUS
 62
3
 10
498.9099984279
 20
142.7236120874
 11
503.5631247855
 21
142.7236120874
  0
LINE
  8
2
  6
CONTINUOUS
 62
3
 10
498.9099984279
 20
195.5736120874
 11
503.5631247855
 21
195.5736120874
  0
LINE
  8
2
  6
CONTINUOUS
 62
3
 10
609.7384237646
 20
199.7736120874
 11
619.4099966398
 21
199.7736120874
  0
LINE
  8
2
  6
CONTINUOUS
 62
3
 10
619.4099966398
 20
80.2736120874
 11
609.7384237646
 21
80.2736120874
  0
LINE
  8
2
  6
CONTINUOUS
 62
3
 10
619.4099966398
 20
199.7736120874
 11
619.4099966398
 21
146.0236120879
  0
LINE
  8
2
  6
CONTINUOUS
 62
3
 10
619.4099966398
 20
134.0236120878
 11
619.4099966398
 21
80.2736120874
  0
LINE
  8
2
  6
CONTINUOUS
 62
3
 10
608.3242102022
 20
80.8593985250
 11
605.4957830775
 21
83.6878256498
  0
ARC
  8
2
  6
CONTINUOUS
 62
3
 10
609.7384237646
 20
82.2736120874
 40
2.0000000000
 50
225.0000000000
 51
270.0000000000
  0
ARC
  8
2
  6
CONTINUOUS
 62
3
 10
609.7384237646
 20
197.7736120874
 40
2.0000000000
 50
90.0000000000
 51
135.0000000000
  0
LINE
  8
2
  6
CONTINUOUS
 62
3
 10
605.4957830775
 20
196.3593985250
 11
608.3242102022
 21
199.1878256498
  0
LINE
  8
2
  6
CONTINUOUS
 62
3
 10
604.9099966399
 20
154.1236120869
 11
604.9099966399
 21
194.9451849627
  0
LINE
  8
2
  6
CONTINUOUS
 62
3
 10
604.9099966399
 20
85.1020392122
 11
604.9099966399
 21
125.9236120869
  0
ARC
  8
2
  6
CONTINUOUS
 62
3
 10
606.9099966399
 20
85.1020392122
 40
2.0000000000
 50
180.0000000000
 51
225.0000000000
  0
ARC
  8
2
  6
CONTINUOUS
 62
3
 10
606.9099966399
 20
194.9451849627
 40
2.0000000000
 50
135.0000000000
 51
180.0000000000
  0
LINE
  8
2
  6
CONTINUOUS
 62
3
 10
619.9099968633
 20
198.2736120874
 11
619.4099966398
 21
198.2736120874
  0
LINE
  8
2
  6
CONTINUOUS
 62
3
 10
619.9099968633
 20
81.7736120874
 11
619.4099966398
 21
81.7736120874
  0
LINE
  8
2
  6
CONTINUOUS
 62
3
 10
512.9099984279
 20
221.2600446924
 11
512.9099984279
 21
221.6020414176
  0
LINE
  8
2
  6
CONTINUOUS
 62
3
 10
513.9099984279
 20
221.6020414176
 11
512.9099984279
 21
221.6020414176
  0
LINE
  8
2
  6
CONTINUOUS
 62
3
 10
516.3242119903
 20
217.3594007304
 11
512.9099984279
 21
220.7736142928
  0
LINE
  8
2
  6
CONTINUOUS
 62
3
 10
512.9099984279
 20
220.7736142928
 11
512.9099984279
 21
221.2600446924
  0
LINE
  8
2
  6
CONTINUOUS
 62
3
 10
513.9099984279
 20
221.6020414176
 11
581.9099984280
 21
221.6020414176
  0
LINE
  8
2
  6
CONTINUOUS
 62
3
 10
581.9099984280
 20
231.2736142928
 11
513.9099984279
 21
231.2736142928
  0
LINE
  8
2
  6
CONTINUOUS
 62
3
 10
583.9099984280
 20
229.2736142928
 11
583.9099984280
 21
221.6020414176
  0
LINE
  8
2
  6
CONTINUOUS
 62
3
 10
583.9099984280
 20
221.6020414176
 11
581.9099984280
 21
221.6020414176
  0
ARC
  8
2
  6
CONTINUOUS
 62
3
 10
581.9099984280
 20
229.2736142928
 40
2.0000000000
 50
0.0000000000
 51
90.0000000000
  0
LINE
  8
2
  6
CONTINUOUS
 62
3
 10
512.9099984279
 20
221.6020414176
 11
512.9099984279
 21
231.2736142928
  0
LINE
  8
2
  6
CONTINUOUS
 62
3
 10
512.9099984279
 20
231.2736142928
 11
513.9099984279
 21
231.2736142928
  0
LINE
  8
2
  6
CONTINUOUS
 62
3
 10
583.9099984280
 20
221.6020414176
 11
583.9099984280
 21
218.7736142928
  0
LINE
  8
2
  6
HIDDEN
 62
3
 10
514.4099984280
 20
232.2736142928
 11
578.9099984280
 21
232.2736142928
  0
LINE
  8
2
  6
HIDDEN
 62
3
 10
578.9099984280
 20
232.2736142928
 11
578.9099984280
 21
231.7736145163
  0
LINE
  8
2
  6
CONTINUOUS
 62
3
 10
578.9099984280
 20
231.7736145163
 11
578.9099984280
 21
231.2736142928
  0
LINE
  8
2
  6
HIDDEN
 62
3
 10
514.4099984280
 20
232.2736142928
 11
514.4099984280
 21
231.7736145163
  0
LINE
  8
2
  6
CONTINUOUS
 62
3
 10
514.4099984280
 20
231.7736145163
 11
514.4099984280
 21
231.2736142928
  0
ARC
  8
2
  6
CONTINUOUS
 62
3
 10
581.9099984280
 20
218.7736142928
 40
2.0000000000
 50
270.0000000000
 51
0.0000000000
  0
LINE
  8
2
  6
CONTINUOUS
 62
3
 10
581.9099984280
 20
216.7736142928
 11
519.8597458962
 21
216.7736142928
  0
LINE
  8
2
  6
CONTINUOUS
 62
3
 10
517.7384255527
 20
216.7736142928
 11
519.8597458962
 21
216.7736142928
  0
ARC
  8
2
  6
CONTINUOUS
 62
3
 10
517.7384255527
 20
218.7736142928
 40
2.0000000000
 50
225.0000000000
 51
270.0000000000
  0
CIRCLE
  8
2
  6
CONTINUOUS
 62
3
 10
504.9099984280
 20
228.7736142928
 40
2.0000000000
  0
ARC
  8
2
  6
CONTINUOUS
 62
3
 10
511.9016748712
 20
218.9535107248
 40
2.0000000000
 50
45.0000000000
 51
77.0277601138
  0
LINE
  8
2
  6
CONTINUOUS
 62
3
 10
512.3506327521
 20
220.9024686056
 11
503.5631247855
 21
222.9267406503
  0
ARC
  8
2
  6
HIDDEN
 62
3
 10
504.9099984280
 20
228.7736142928
 40
6.0000000000
 50
24.6243183522
 51
180.0000000000
  0
LINE
  8
2
  6
CONTINUOUS
 62
3
 10
512.9099984279
 20
231.2736142928
 11
510.3643544853
 21
231.2736142928
  0
LINE
  8
2
  6
HIDDEN
 62
3
 10
577.9099984280
 20
232.2736142928
 11
577.9099984280
 21
218.7736142928
  0
LINE
  8
2
  6
HIDDEN
 62
3
 10
515.4099984280
 20
232.2736142928
 11
515.4099984280
 21
221.1020142928
  0
LINE
  8
2
  6
HIDDEN
 62
3
 10
515.4099984280
 20
221.1020142928
 11
515.8493382562
 21
220.6626744646
  0
LINE
  8
2
  6
HIDDEN
 62
3
 10
515.8493382562
 20
220.6626744646
 11
517.7383984280
 21
218.7736142928
  0
LINE
  8
2
  6
HIDDEN
 62
3
 10
517.7383984280
 20
218.7736142928
 11
577.9099984280
 21
218.7736142928
  0
LINE
  8
2
  6
HIDDEN
 62
3
 10
500.9099984278
 20
233.2457502477
 11
500.9099984278
 21
228.7736142928
  0
LINE
  8
2
  6
HIDDEN
 62
3
 10
511.9099984278
 20
222.6616345760
 11
511.9099984278
 21
231.2736142928
  0
ARC
  8
2
  6
HIDDEN
 62
3
 10
504.9099984280
 20
228.7736142928
 40
4.0000000001
 50
180.0000000000
 51
254.3699999996
  0
LINE
  8
2
  6
HIDDEN
 62
3
 10
503.8323020500
 20
224.9215277779
 11
511.9099984278
 21
222.6616345760
  0
LINE
  8
2
  6
HIDDEN
 62
3
 10
524.9099984279
 20
216.9736142928
 11
522.9099984279
 21
216.9736142928
  0
LINE
  8
2
  6
HIDDEN
 62
3
 10
522.9099984279
 20
216.9736142928
 11
522.9099984279
 21
216.7736142928
  0
LINE
  8
2
  6
HIDDEN
 62
3
 10
545.9099984279
 20
216.9736142928
 11
524.9099984279
 21
216.9736142928
  0
LINE
  8
2
  6
HIDDEN
 62
3
 10
547.9099984279
 20
216.9736142928
 11
547.9099984279
 21
216.7736142928
  0
LINE
  8
2
  6
HIDDEN
 62
3
 10
547.9099984279
 20
216.9736142928
 11
545.9099984279
 21
216.9736142928
  0
LINE
  8
2
  6
HIDDEN
 62
3
 10
505.3099984280
 20
224.5081133782
 11
505.3099984280
 21
222.5243344740
  0
ARC
  8
2
  6
HIDDEN
 62
3
 10
557.8099984280
 20
218.7736142924
 40
2.0000000000
 50
270.0000000000
 51
359.9999999995
  0
LINE
  8
2
  6
HIDDEN
 62
3
 10
556.9099984269
 20
218.7736142928
 11
556.9099984269
 21
224.2736142928
  0
LINE
  8
2
  6
HIDDEN
 62
3
 10
556.9099984269
 20
224.2736142928
 11
577.9099984279
 21
224.2736142928
  0
LINE
  8
2
  6
HIDDEN
 62
3
 10
582.4099984280
 20
231.2101059659
 11
582.4099984280
 21
230.1396396966
  0
LINE
  8
2
  6
HIDDEN
 62
3
 10
582.4099984280
 20
230.1396396966
 11
582.4099984280
 21
223.1736142928
  0
ARC
  8
2
  6
HIDDEN
 62
3
 10
581.4099984280
 20
223.1736142928
 40
1.0000000000
 50
270.0000000000
 51
0.0000000000
  0
LINE
  8
2
  6
HIDDEN
 62
3
 10
559.8099984280
 20
222.1736142924
 11
559.8099984280
 21
218.7736142924
  0
LINE
  8
2
  6
HIDDEN
 62
3
 10
559.8099984289
 20
222.1736142924
 11
581.4099984280
 21
222.1736142855
  0
LINE
  8
2
  6
HIDDEN
 62
3
 10
569.7099984269
 20
226.2736142928
 11
569.7099984269
 21
224.2736142936
  0
LINE
  8
2
  6
HIDDEN
 62
3
 10
569.7099984153
 20
226.2736142928
 11
574.9099984280
 21
226.2736142919
  0
LINE
  8
2
  6
HIDDEN
 62
3
 10
577.9099984280
 20
227.2736142928
 11
574.9099984280
 21
227.2736142928
  0
LINE
  8
2
  6
HIDDEN
 62
3
 10
583.9099984280
 20
221.6020414176
 11
581.9099984280
 21
221.6020414176
  0
LINE
  8
2
  6
HIDDEN
 62
3
 10
512.9099984279
 20
221.6020414176
 11
513.9099984279
 21
221.6020414176
  0
LINE
  8
2
  6
HIDDEN
 62
3
 10
581.9099984280
 20
221.6020414176
 11
513.9099984279
 21
221.6020414176
  0
LINE
  8
2
  6
CONTINUOUS
 62
3
 10
512.9099984280
 20
59.2736098821
 11
516.3242119903
 21
62.6878234444
  0
LINE
  8
2
  6
CONTINUOUS
 62
3
 10
512.9099984279
 20
58.7871794825
 11
512.9099984279
 21
59.2736098820
  0
LINE
  8
2
  6
CONTINUOUS
 62
3
 10
512.9099984279
 20
58.4451827573
 11
513.9099984279
 21
58.4451827573
  0
LINE
  8
2
  6
CONTINUOUS
 62
3
 10
512.9099984279
 20
58.4451827573
 11
512.9099984279
 21
58.7871794825
  0
LINE
  8
2
  6
CONTINUOUS
 62
3
 10
581.9099984280
 20
58.4451827573
 11
513.9099984279
 21
58.4451827573
  0
LINE
  8
2
  6
CONTINUOUS
 62
3
 10
581.9099984280
 20
48.7736098820
 11
513.9099984279
 21
48.7736098820
  0
LINE
  8
2
  6
CONTINUOUS
 62
3
 10
583.9099984280
 20
58.4451827573
 11
583.9099984280
 21
50.7736098820
  0
LINE
  8
2
  6
CONTINUOUS
 62
3
 10
583.9099984280
 20
58.4451827573
 11
581.9099984280
 21
58.4451827573
  0
ARC
  8
2
  6
CONTINUOUS
 62
3
 10
581.9099984280
 20
50.7736098820
 40
2.0000000000
 50
270.0000000000
 51
0.0000000000
  0
LINE
  8
2
  6
CONTINUOUS
 62
3
 10
512.9099984279
 20
48.7736098820
 11
512.9099984279
 21
58.4451827573
  0
LINE
  8
2
  6
CONTINUOUS
 62
3
 10
513.9099984279
 20
48.7736098820
 11
512.9099984279
 21
48.7736098820
  0
LINE
  8
2
  6
CONTINUOUS
 62
3
 10
583.9099984280
 20
61.2736098820
 11
583.9099984280
 21
58.4451827573
  0
LINE
  8
2
  6
CONTINUOUS
 62
3
 10
514.4099984280
 20
48.2736096585
 11
514.4099984280
 21
48.7736098820
  0
LINE
  8
2
  6
CONTINUOUS
 62
3
 10
578.9099984280
 20
48.2736096585
 11
578.9099984280
 21
48.7736098820
  0
ARC
  8
2
  6
CONTINUOUS
 62
3
 10
581.9099984280
 20
61.2736098820
 40
2.0000000000
 50
0.0000000000
 51
90.0000000000
  0
ARC
  8
2
  6
CONTINUOUS
 62
3
 10
517.7384255527
 20
61.2736098820
 40
2.0000000000
 50
90.0000000000
 51
135.0000000000
  0
LINE
  8
2
  6
CONTINUOUS
 62
3
 10
519.8597458962
 20
63.2736098820
 11
517.7384255527
 21
63.2736098820
  0
LINE
  8
2
  6
CONTINUOUS
 62
3
 10
519.8597458962
 20
63.2736098820
 11
581.9099984280
 21
63.2736098820
  0
CIRCLE
  8
2
  6
CONTINUOUS
 62
3
 10
504.9099984280
 20
51.2736098820
 40
2.0000000000
  0
LINE
  8
2
  6
CONTINUOUS
 62
3
 10
503.5631247855
 20
57.1204835245
 11
512.3506327521
 21
59.1447555692
  0
ARC
  8
2
  6
CONTINUOUS
 62
3
 10
511.9016748712
 20
61.0937134501
 40
2.0000000000
 50
282.9722398862
 51
315.0000000000
  0
LINE
  8
2
  6
CONTINUOUS
 62
3
 10
510.9099984801
 20
48.7736098820
 11
512.9099984279
 21
48.7736098820
  0
LINE
  8
2
  6
CONTINUOUS
 62
3
 10
556.9099984280
 20
63.2736098820
 11
568.9099984280
 21
63.2736098820
  0
LINE
  8
2
  6
CONTINUOUS
 62
3
 10
568.9099984280
 20
63.2736098820
 11
581.9099984280
 21
63.2736098820
  0
LINE
  8
2
  6
CONTINUOUS
 62
3
 10
582.4099984280
 20
152.1236120874
 11
582.4099984280
 21
151.0236120874
  0
LINE
  8
2
  6
CONTINUOUS
 62
3
 10
582.4099984279
 20
129.0236120874
 11
582.4099984279
 21
127.9236120874
  0
LINE
  8
2
  6
CONTINUOUS
 62
3
 10
568.9099984280
 20
152.1236120874
 11
582.9099984280
 21
152.1236120874
  0
ARC
  8
2
  6
CONTINUOUS
 62
3
 10
582.9099984280
 20
153.1236120874
 40
1.0000000000
 50
270.0000000000
 51
0.0000000000
  0
LINE
  8
2
  6
CONTINUOUS
 62
3
 10
568.9099984280
 20
127.9236120874
 11
582.9099984280
 21
127.9236120874
  0
ARC
  8
2
  6
CONTINUOUS
 62
3
 10
582.9099984280
 20
126.9236120874
 40
1.0000000000
 50
0.0000000000
 51
90.0000000000
  0
ARC
  8
2
  6
CONTINUOUS
 62
6
 10
526.5105743439
 20
140.0236120874
 40
60.9994240841
 50
351.3115966921
 51
8.6884033079
  0
ARC
  8
2
  6
CONTINUOUS
 62
6
 10
585.6707880895
 20
130.0236120874
 40
1.0000000000
 50
270.0000000000
 51
350.4058388122
  0
ARC
  8
2
  6
CONTINUOUS
 62
6
 10
585.6707880895
 20
150.0236120874
 40
1.0000000000
 50
9.5941611878
 51
90.0000000000
  0
ARC
  8
2
  6
CONTINUOUS
 62
6
 10
526.5105743439
 20
140.0236120874
 40
60.9994240841
 50
8.6884033079
 51
9.5941611878
  0
ARC
  8
2
  6
CONTINUOUS
 62
6
 10
526.5105743439
 20
140.0236120874
 40
60.9994240841
 50
350.4058388122
 51
351.3115966921
  0
LINE
  8
2
  6
CONTINUOUS
 62
6
 10
575.0099984340
 20
147.0236120882
 11
573.0099984134
 21
147.0236120914
  0
LINE
  8
2
  6
CONTINUOUS
 62
6
 10
573.0099984134
 20
147.0236120914
 11
573.0099984136
 21
148.0236120866
  0
LINE
  8
2
  6
CONTINUOUS
 62
6
 10
573.0099984136
 20
145.0236120866
 11
573.0099984118
 21
146.0236120866
  0
LINE
  8
2
  6
CONTINUOUS
 62
6
 10
573.0099984152
 20
146.0236120891
 11
575.0099984332
 21
146.0236120874
  0
LINE
  8
2
  6
CONTINUOUS
 62
6
 10
575.0099984340
 20
147.0236120882
 11
575.0099984342
 21
148.0236120882
  0
LINE
  8
2
  6
CONTINUOUS
 62
6
 10
575.0099984341
 20
145.0236120882
 11
575.0099984349
 21
146.0236120882
  0
POINT
  8
2
  6
CONTINUOUS
 62
6
 10
574.0099984280
 20
146.5236120842
  0
LINE
  8
2
  6
CONTINUOUS
 62
6
 10
578.2599984281
 20
145.0236120842
 11
578.2599984281
 21
145.2736120633
  0
LINE
  8
2
  6
CONTINUOUS
 62
6
 10
578.2599984281
 20
145.7736120871
 11
578.2599984281
 21
147.2736120785
  0
LINE
  8
2
  6
CONTINUOUS
 62
6
 10
578.2599984281
 20
147.7736120910
 11
578.2599984281
 21
148.0236120842
  0
LINE
  8
2
  6
CONTINUOUS
 62
6
 10
578.2599984265
 20
148.0236120842
 11
580.5099984272
 21
148.0236120842
  0
LINE
  8
2
  6
CONTINUOUS
 62
6
 10
580.5099984272
 20
148.0236120842
 11
580.5099984272
 21
145.0236120842
  0
LINE
  8
2
  6
CONTINUOUS
 62
6
 10
580.5099984272
 20
145.0236120842
 11
578.2599984265
 21
145.0236120842
  0
ARC
  8
2
  6
CONTINUOUS
 62
6
 10
577.7599984291
 20
146.5236120842
 40
0.7500000000
 50
90.0000000000
 51
270.0000000000
  0
ARC
  8
2
  6
CONTINUOUS
 62
6
 10
577.7599984291
 20
146.5236120842
 40
1.2500000000
 50
90.0000000000
 51
270.0000000000
  0
LINE
  8
2
  6
CONTINUOUS
 62
6
 10
577.7599984275
 20
145.7736120842
 11
578.2599984281
 21
145.7736120871
  0
LINE
  8
2
  6
CONTINUOUS
 62
6
 10
577.7599984275
 20
145.2736120842
 11
578.2599984281
 21
145.2736120633
  0
LINE
  8
2
  6
CONTINUOUS
 62
6
 10
577.7599984275
 20
147.2736120842
 11
578.2599984281
 21
147.2736120785
  0
LINE
  8
2
  6
CONTINUOUS
 62
6
 10
577.7599984275
 20
147.7736120842
 11
578.2599984281
 21
147.7736120910
  0
LINE
  8
2
  6
CONTINUOUS
 62
6
 10
569.2599984194
 20
148.0236120874
 11
569.2599984194
 21
147.7736120955
  0
LINE
  8
2
  6
CONTINUOUS
 62
6
 10
569.2599984194
 20
147.2736120856
 11
569.2599984194
 21
145.0236120874
  0
LINE
  8
2
  6
CONTINUOUS
 62
6
 10
569.2599984194
 20
145.0236120874
 11
571.5099984184
 21
145.0236120874
  0
LINE
  8
2
  6
CONTINUOUS
 62
6
 10
571.5099984184
 20
145.0236120874
 11
571.5099984184
 21
148.0236120874
  0
LINE
  8
2
  6
CONTINUOUS
 62
6
 10
571.5099984184
 20
148.0236120874
 11
569.2599984194
 21
148.0236120874
  0
ARC
  8
2
  6
CONTINUOUS
 62
6
 10
568.7599984204
 20
148.5236120874
 40
0.7500000000
 50
89.9999999999
 51
269.9999999999
  0
ARC
  8
2
  6
CONTINUOUS
 62
6
 10
568.7599984204
 20
148.5236120874
 40
1.2500000000
 50
89.9999999999
 51
269.9999999999
  0
LINE
  8
2
  6
CONTINUOUS
 62
6
 10
568.7599984204
 20
147.2736120874
 11
569.2599984193
 21
147.2736120856
  0
LINE
  8
2
  6
CONTINUOUS
 62
6
 10
568.7599984204
 20
147.7736120874
 11
569.2599984194
 21
147.7736120955
  0
LINE
  8
2
  6
CONTINUOUS
 62
6
 10
568.7599984204
 20
149.2736120874
 11
569.2599984194
 21
149.2736120874
  0
LINE
  8
2
  6
CONTINUOUS
 62
6
 10
568.7599984204
 20
149.7736120874
 11
569.2599984194
 21
149.7736120874
  0
LINE
  8
2
  6
CONTINUOUS
 62
6
 10
569.2599984194
 20
149.7736120874
 11
569.2599984194
 21
149.2736120874
  0
LINE
  8
2
  6
CONTINUOUS
 62
6
 10
576.0099984375
 20
146.5236120874
 11
575.0099984342
 21
148.0236120882
  0
LINE
  8
2
  6
CONTINUOUS
 62
6
 10
576.0099984375
 20
146.5236120874
 11
575.0099984342
 21
145.0236120882
  0
LINE
  8
2
  6
CONTINUOUS
 62
6
 10
572.0099984184
 20
146.5236120874
 11
573.0099984218
 21
145.0236120882
  0
LINE
  8
2
  6
CONTINUOUS
 62
6
 10
572.0099984184
 20
146.5236120874
 11
573.0099984218
 21
148.0236120882
  0
ARC
  8
2
  6
CONTINUOUS
 62
6
 10
569.4099984280
 20
137.5236120874
 40
8.5000000000
 50
180.0000000000
 51
270.0000000000
  0
LINE
  8
2
  6
CONTINUOUS
 62
6
 10
560.9099984280
 20
142.5236120874
 11
560.9099984280
 21
137.5236120874
  0
ARC
  8
2
  6
CONTINUOUS
 62
6
 10
569.4099984280
 20
142.5236120874
 40
8.5000000000
 50
90.0000000000
 51
180.0000000000
  0
LINE
  8
2
  6
CONTINUOUS
 62
6
 10
585.6707880895
 20
151.0236120874
 11
569.4099984280
 21
151.0236120874
  0
LINE
  8
2
  6
CONTINUOUS
 62
6
 10
569.4099984280
 20
129.0236120874
 11
585.6707880895
 21
129.0236120874
  0
LINE
  8
2
  6
CONTINUOUS
 62
6
 10
570.9099984280
 20
142.0236120874
 11
577.1099984280
 21
142.0236120874
  0
LINE
  8
2
  6
CONTINUOUS
 62
6
 10
577.1099984280
 20
142.0236120874
 11
577.1099984280
 21
138.0236120874
  0
LINE
  8
2
  6
CONTINUOUS
 62
6
 10
577.1099984280
 20
138.0236120874
 11
570.9099984280
 21
138.0236120874
  0
LINE
  8
2
  6
CONTINUOUS
 62
6
 10
570.9099984280
 20
138.0236120874
 11
570.9099984280
 21
142.0236120874
  0
LINE
  8
2
  6
CONTINUOUS
 62
6
 10
571.8099984280
 20
142.0236120874
 11
571.8099984280
 21
138.0236120874
  0
LINE
  8
2
  6
CONTINUOUS
 62
6
 10
573.0099984280
 20
138.0236120874
 11
573.0099984280
 21
142.0236120874
  0
LINE
  8
2
  6
CONTINUOUS
 62
6
 10
573.9099984280
 20
138.0236120874
 11
573.9099984280
 21
142.0236120874
  0
INSERT
  8
2
  6
CONTINUOUS
 62
6
  2
*X0
 10
570.9099984280
 20
142.0236120874
  0
INSERT
  8
2
  6
CONTINUOUS
 62
6
  2
*X1
 10
573.0099984280
 20
142.0236120874
  0
TEXT
  8
2
  6
CONTINUOUS
 62
6
 10
584.859998
 20
135.637672
 40
3.500000
  1
CLOSE
 41
0.786164
 50
90.000000
 51
0.000000
 72
   5
 73
   0
 11
584.859998
 21
144.387672
  0
TEXT
  8
2
  6
CONTINUOUS
 62
6
 10
566.659998
 20
136.512672
 40
3.500000
  1
OPEN
 41
0.796813
 50
90.000000
 51
0.000000
 72
   5
 73
   0
 11
566.659998
 21
143.512672
  0
ARC
  8
2
  6
CONTINUOUS
 62
3
 10
569.4099984280
 20
142.5236120874
 40
9.6000000000
 50
90.0000000000
 51
180.0000000000
  0
LINE
  8
2
  6
CONTINUOUS
 62
3
 10
559.8099984280
 20
142.5236120874
 11
559.8099984280
 21
137.5236120874
  0
ARC
  8
2
  6
CONTINUOUS
 62
3
 10
569.4099984280
 20
137.5236120874
 40
9.6000000000
 50
180.0000000000
 51
270.0000000000
  0
LINE
  8
2
  6
CONTINUOUS
 62
3
 10
618.3395303705
 20
152.1236120870
 11
617.4099966398
 21
152.1236120869
  0
ARC
  8
2
  6
CONTINUOUS
 62
3
 10
618.3810624718
 20
153.1521023903
 40
1.0293285285
 50
267.6875601889
 51
358.4139343022
  0
LINE
  8
2
  6
CONTINUOUS
 62
3
 10
617.4099966398
 20
152.1236120869
 11
606.9099966399
 21
152.1236120869
  0
ARC
  8
2
  6
CONTINUOUS
 62
3
 10
606.9099966399
 20
154.1236120869
 40
2.0000000000
 50
180.0000000000
 51
270.0000000000
  0
LINE
  8
2
  6
CONTINUOUS
 62
3
 10
610.4099966399
 20
127.9236120870
 11
610.4099966399
 21
133.9378256499
  0
LINE
  8
2
  6
CONTINUOUS
 62
3
 10
610.4099966399
 20
146.1093985258
 11
610.4099966399
 21
152.1236120869
  0
LINE
  8
2
  6
CONTINUOUS
 62
3
 10
618.3395303705
 20
127.9236120869
 11
617.4099966398
 21
127.9236120869
  0
ARC
  8
2
  6
CONTINUOUS
 62
3
 10
618.3810624718
 20
126.8951217836
 40
1.0293285285
 50
1.5860656978
 51
92.3124398111
  0
LINE
  8
2
  6
CONTINUOUS
 62
3
 10
617.4099966398
 20
127.9236120869
 11
606.9099966399
 21
127.9236120869
  0
ARC
  8
2
  6
CONTINUOUS
 62
3
 10
606.9099966399
 20
125.9236120869
 40
2.0000000000
 50
90.0000000000
 51
180.0000000000
  0
LINE
  8
2
  6
CONTINUOUS
 62
6
 10
609.9099966398
 20
146.0236120879
 11
606.3537378448
 21
146.0236120879
  0
LINE
  8
2
  6
CONTINUOUS
 62
6
 10
611.4099966398
 20
147.5236120881
 11
611.4099966398
 21
151.1236120879
  0
LINE
  8
2
  6
CONTINUOUS
 62
6
 10
611.4099966398
 20
151.1236120879
 11
613.4099966398
 21
151.1236120879
  0
LINE
  8
2
  6
CONTINUOUS
 62
6
 10
613.4099966398
 20
147.5236120878
 11
613.4099966398
 21
151.1236120879
  0
LINE
  8
2
  6
CONTINUOUS
 62
6
 10
604.9099966399
 20
129.0236120879
 11
604.9099966399
 21
151.0236120870
  0
LINE
  8
2
  6
CONTINUOUS
 62
6
 10
606.3537378448
 20
129.0236120879
 11
604.9099966399
 21
129.0236120879
  0
LINE
  8
2
  6
CONTINUOUS
 62
6
 10
606.3537378448
 20
151.0236120879
 11
604.9099966399
 21
151.0236120870
  0
LINE
  8
2
  6
CONTINUOUS
 62
6
 10
606.3537378448
 20
151.0236120879
 11
606.3537378448
 21
129.0236120726
  0
LINE
  8
2
  6
CONTINUOUS
 62
6
 10
609.9099966398
 20
134.0236120879
 11
606.3537378448
 21
134.0236120879
  0
LINE
  8
2
  6
CONTINUOUS
 62
6
 10
611.4099966398
 20
132.5236120875
 11
611.4099966398
 21
128.9236120879
  0
LINE
  8
2
  6
CONTINUOUS
 62
6
 10
611.4099966398
 20
128.9236120879
 11
613.4099966398
 21
128.9236120879
  0
LINE
  8
2
  6
CONTINUOUS
 62
6
 10
613.4099966398
 20
132.5236120880
 11
613.4099966398
 21
128.9236120879
  0
LINE
  8
2
  6
CONTINUOUS
 62
6
 10
614.9099966398
 20
146.0236120879
 11
624.7099966398
 21
146.0236120879
  0
LINE
  8
2
  6
CONTINUOUS
 62
6
 10
624.7099966398
 20
146.0236120879
 11
624.7099966398
 21
134.0236120879
  0
LINE
  8
2
  6
CONTINUOUS
 62
6
 10
614.9099966398
 20
134.0236120879
 11
624.7099966398
 21
134.0236120879
  0
LINE
  8
2
  6
CONTINUOUS
 62
6
 10
606.3537378448
 20
141.0236120879
 11
623.7149679852
 21
141.0236120879
  0
LINE
  8
2
  6
CONTINUOUS
 62
6
 10
623.7149679852
 20
141.0236120879
 11
623.7149679852
 21
139.0236120879
  0
LINE
  8
2
  6
CONTINUOUS
 62
6
 10
623.7149679852
 20
139.0236120879
 11
606.3537378448
 21
139.0236120879
  0
LINE
  8
2
  6
CONTINUOUS
 62
6
 10
622.0730414466
 20
141.0236120878
 11
622.0730414466
 21
139.0236120879
  0
ARC
  8
2
  6
CONTINUOUS
 62
6
 10
609.9099966398
 20
147.5236120881
 40
1.5000000000
 50
270.0000000000
 51
0.0000000000
  0
ARC
  8
2
  6
CONTINUOUS
 62
6
 10
614.9099966398
 20
147.5236120878
 40
1.5000000000
 50
180.0000000000
 51
270.0000000000
  0
ARC
  8
2
  6
CONTINUOUS
 62
6
 10
609.9099966398
 20
132.5236120875
 40
1.5000000000
 50
0.0000000000
 51
90.0000000000
  0
ARC
  8
2
  6
CONTINUOUS
 62
6
 10
614.9099966398
 20
132.5236120880
 40
1.5000000000
 50
90.0000000000
 51
180.0000000000
  0
LINE
  8
2
  6
CONTINUOUS
 62
3
 10
575.9099984280
 20
110.2736120874
 11
572.9099984280
 21
110.2736120874
  0
LINE
  8
2
  6
CONTINUOUS
 62
3
 10
576.9099984280
 20
91.2736120874
 11
576.9099984280
 21
109.2736120874
  0
LINE
  8
2
  6
CONTINUOUS
 62
3
 10
572.9099984280
 20
90.2736120874
 11
575.9099984280
 21
90.2736120874
  0
LINE
  8
2
  6
CONTINUOUS
 62
3
 10
571.9099984280
 20
91.2736120874
 11
571.9099984280
 21
109.2736120874
  0
ARC
  8
2
  6
CONTINUOUS
 62
3
 10
572.9099984280
 20
109.2736120874
 40
1.0000000000
 50
90.0000000000
 51
180.0000000000
  0
ARC
  8
2
  6
CONTINUOUS
 62
3
 10
575.9099984280
 20
109.2736120874
 40
1.0000000000
 50
0.0000000000
 51
90.0000000000
  0
ARC
  8
2
  6
CONTINUOUS
 62
3
 10
575.9099984280
 20
91.2736120874
 40
1.0000000000
 50
270.0000000000
 51
0.0000000000
  0
ARC
  8
2
  6
CONTINUOUS
 62
3
 10
572.9099984280
 20
91.2736120874
 40
1.0000000000
 50
180.0000000000
 51
270.0000000000
  0
TEXT
  8
2
  6
CONTINUOUS
 62
3
 10
576.159998
 20
92.023612
 40
3.500000
  1
MADOKA
 41
1.224490
 50
90.000000
 51
0.000000
 72
   5
 73
   0
 11
576.159998
 21
108.523612
  0
LINE
  8
2
  6
CONTINUOUS
 62
3
 10
604.9099966399
 20
154.1236120869
 11
604.9099966399
 21
125.9236120869
  0
LINE
  8
2
  6
HIDDEN
 62
3
 10
574.9099984280
 20
227.2736142928
 11
574.9099984280
 21
224.2736142936
  0
LINE
  8
2
  6
DASHDOT
 62
3
 10
504.9099984280
 20
199.7736120874
 11
504.9099984280
 21
80.2736120874
  0
POINT
  8
2
  6
CONTINUOUS
 62
3
 10
504.9099984280
 20
140.0236120874
  0
POINT
  8
2
  6
CONTINUOUS
 62
3
 10
616.9099966398
 20
140.0236120874
  0
LINE
  8
2
  6
CONTINUOUS
 62
6
 10
569.4099984280
 20
63.2736098820
 11
587.5099984280
 21
63.2736098820
  0
LINE
  8
2
  6
CONTINUOUS
 62
6
 10
583.8464901011
 20
61.7736098820
 11
587.5099984280
 21
61.7736098820
  0
LINE
  8
2
  6
CONTINUOUS
 62
6
 10
560.9099984280
 20
63.2736098820
 11
569.4099984280
 21
63.2736098820
  0
LINE
  8
2
  6
CONTINUOUS
 62
6
 10
584.7679560867
 20
54.7736098820
 11
583.9099984280
 21
54.7736098820
  0
LINE
  8
2
  6
CONTINUOUS
 62
6
 10
583.9099984280
 20
56.7736098820
 11
584.5677828810
 21
56.7736098820
  0
LINE
  8
2
  6
CONTINUOUS
 62
6
 10
584.1774039982
 20
60.6740208443
 11
584.5677828810
 21
56.7736098820
  0
LINE
  8
2
  6
CONTINUOUS
 62
6
 10
583.2283206020
 20
45.2871001894
 11
583.2283206020
 21
45.7871001894
  0
LINE
  8
2
  6
CONTINUOUS
 62
6
 10
583.2283206020
 20
45.7871001894
 11
584.1599984280
 21
45.7736098820
  0
LINE
  8
2
  6
CONTINUOUS
 62
6
 10
584.1599984280
 20
45.7736098820
 11
583.7405613979
 21
49.9679801824
  0
LINE
  8
2
  6
CONTINUOUS
 62
6
 10
584.5677828810
 20
56.7736098820
 11
585.8989346986
 21
43.4736098820
  0
LINE
  8
2
  6
CONTINUOUS
 62
6
 10
587.5099984280
 20
63.2736098820
 11
587.5099984280
 21
61.7736098820
  0
LINE
  8
2
  6
CONTINUOUS
 62
6
 10
585.8989346986
 20
43.4736098820
 11
584.8939385155
 21
43.4736098817
  0
ARC
  8
2
  6
CONTINUOUS
 62
6
 10
585.1724326528
 20
60.7736098820
 40
1.0000000000
 50
90.0000000000
 51
185.7155059431
  0
LINE
  8
2
  6
CONTINUOUS
 62
6
 10
584.8939385155
 20
43.4736098817
 11
583.2283206020
 21
45.2871001894
  0
LINE
  8
2
  6
CONTINUOUS
 62
6
 10
585.7993456608
 20
44.4686385367
 11
587.1425050862
 21
46.1105650753
  0
LINE
  8
2
  6
CONTINUOUS
 62
6
 10
587.1425050862
 20
46.1105650753
 11
585.5748441416
 21
61.7736098820
  0
LINE
  8
2
  6
CONTINUOUS
 62
6
 10
569.4099984229
 20
216.7736142928
 11
587.5099984280
 21
216.7736142928
  0
LINE
  8
2
  6
HIDDEN
 62
6
 10
560.9099984229
 20
218.2736142931
 11
583.8464901011
 21
218.2736142931
  0
LINE
  8
2
  6
CONTINUOUS
 62
6
 10
583.8464901011
 20
218.2736142931
 11
587.5099984229
 21
218.2736142931
  0
LINE
  8
2
  6
HIDDEN
 62
6
 10
560.9099984229
 20
218.2736142931
 11
560.9099984229
 21
216.7736142928
  0
LINE
  8
2
  6
CONTINUOUS
 62
6
 10
560.9099984229
 20
216.7736142928
 11
569.4099984229
 21
216.7736142928
  0
LINE
  8
2
  6
HIDDEN
 62
6
 10
583.2599984227
 20
225.2736142931
 11
582.4099984280
 21
225.2736142931
  0
LINE
  8
2
  6
HIDDEN
 62
6
 10
583.9099984280
 20
225.2736142931
 11
583.2599984227
 21
225.2736142931
  0
LINE
  8
2
  6
CONTINUOUS
 62
6
 10
584.7679560814
 20
225.2736142931
 11
583.9099984280
 21
225.2736142931
  0
LINE
  8
2
  6
HIDDEN
 62
6
 10
582.4099984280
 20
223.2736142931
 11
583.0599984228
 21
223.2736142931
  0
LINE
  8
2
  6
HIDDEN
 62
6
 10
583.0599984228
 20
223.2736142931
 11
583.9099984280
 21
223.2736142931
  0
LINE
  8
2
  6
CONTINUOUS
 62
6
 10
583.9099984280
 20
223.2736142931
 11
584.5677828758
 21
223.2736142931
  0
LINE
  8
2
  6
HIDDEN
 62
6
 10
582.7400976790
 20
220.0746068551
 11
583.0599984228
 21
223.2736142931
  0
LINE
  8
2
  6
CONTINUOUS
 62
6
 10
584.1774039931
 20
219.3732033309
 11
584.5677828758
 21
223.2736142931
  0
LINE
  8
2
  6
CONTINUOUS
 62
6
 10
583.2283205965
 20
234.7601239857
 11
583.2283205965
 21
234.2601239857
  0
LINE
  8
2
  6
CONTINUOUS
 62
6
 10
583.2283205965
 20
234.2601239857
 11
584.1599984225
 21
234.2736142931
  0
LINE
  8
2
  6
HIDDEN
 62
6
 10
583.7405613936
 20
230.0792440024
 11
583.2599984227
 21
225.2736142931
  0
LINE
  8
2
  6
CONTINUOUS
 62
6
 10
584.1599984225
 20
234.2736142931
 11
583.7405613936
 21
230.0792440024
  0
LINE
  8
2
  6
CONTINUOUS
 62
6
 10
584.5677828758
 20
223.2736142931
 11
585.8989346931
 21
236.5736142931
  0
LINE
  8
2
  6
CONTINUOUS
 62
6
 10
587.5099984280
 20
216.7736142928
 11
587.5099984229
 21
218.2736142931
  0
LINE
  8
2
  6
CONTINUOUS
 62
6
 10
585.8989346931
 20
236.5736142931
 11
584.8939385100
 21
236.5736142934
  0
ARC
  8
2
  6
HIDDEN
 62
6
 10
580.7500232986
 20
220.2736142931
 40
2.0000000000
 50
270.0000000012
 51
354.2894068626
  0
ARC
  8
2
  6
CONTINUOUS
 62
6
 10
585.1724326477
 20
219.2736142931
 40
1.0000000000
 50
174.2844940570
 51
270.0000000012
  0
LINE
  8
2
  6
CONTINUOUS
 62
6
 10
584.8939385100
 20
236.5736142934
 11
583.2283205965
 21
234.7601239857
  0
LINE
  8
2
  6
CONTINUOUS
 62
6
 10
585.7993456554
 20
235.5785856385
 11
587.1425050807
 21
233.9366590999
  0
LINE
  8
2
  6
CONTINUOUS
 62
6
 10
587.1425050807
 20
233.9366590999
 11
585.5748441365
 21
218.2736142931
  0
DIMENSION
  8
1
  6
CONTINUOUS
 62
5
  2
*D0
 10
488.8588040547
 20
78.2736098820
 11
486.1088040547
 21
140.0236120874
  70
0
 13
498.9050358235
 23
201.7736142928
 14
498.9050358235
 24
78.2736098820
 50
90.000000
  0
DIMENSION
  8
1
  6
CONTINUOUS
 62
5
  2
*D1
 10
584.9099984280
 20
206.7403423294
 11
541.4099984280
 21
209.4903423294
  70
0
 13
497.9099984280
 23
200.7785773972
 14
584.9099984280
 24
200.7785773972
 50
0.000000
  0
DIMENSION
  8
1
  6
CONTINUOUS
 62
5
  2
*D2
 10
587.5099984280
 20
206.7403423294
 11
586.2099984280
 21
209.4903423294
  70
0
 13
584.9099984280
 23
200.7785773972
 14
587.5099984280
 24
140.0236120874
 50
0.000000
  0
DIMENSION
  8
1
  6
CONTINUOUS
 62
5
  2
*D3
 10
488.8588040547
 20
63.2736098820
 11
486.1088040547
 21
50.7736098820
  70
0
 13
497.9099982119
 23
38.2736098820
 14
517.7384255527
 24
63.2736098820
 50
90.000000
  0
INSERT
  8
1
  6
CONTINUOUS
 62
5
  2
LTEX0
 10
572.4634649713
 20
138.7012842432
  0
LINE
  8
1
  6
CONTINUOUS
 62
7
 10
658.1390571506
 20
195.7736133093
 11
670.1390572549
 21
195.7736133093
  0
LINE
  8
1
  6
CONTINUOUS
 62
7
 10
658.1390571506
 20
199.4686244482
 11
658.1390571506
 21
195.7736133093
  0
LINE
  8
1
  6
CONTINUOUS
 62
7
 10
670.1390572549
 20
199.4686244482
 11
670.1390572549
 21
195.7736133093
  0
POLYLINE
  8
1
  6
CONTINUOUS
 62
7
 66
     1
 70
     0
  0
VERTEX
  8
1
 62
7
 10
668.6038564718
 20
79.8086320162
 42
0.0225421746
  0
VERTEX
  8
1
 62
7
 10
667.6745911089
 20
79.9371175752
 42
0.0121462168
  0
VERTEX
  8
1
 62
7
 10
666.3751251804
 20
80.0307780166
 42
0.0122764779
  0
VERTEX
  8
1
 62
7
 10
664.1390572027
 20
80.0835645543
 42
0.0122764779
  0
VERTEX
  8
1
 62
7
 10
661.9029892251
 20
80.0307780166
 42
0.0121462168
  0
VERTEX
  8
1
 62
7
 10
660.6035232966
 20
79.9371175752
 42
0.0228681651
  0
VERTEX
  8
1
 62
7
 10
659.6763544407
 20
79.8090474317
 42
0.0101065848
  0
SEQEND
  8
1
  0
LINE
  8
1
  6
CONTINUOUS
 62
7
 10
670.1390572549
 20
84.2736108655
 11
670.1390572549
 21
80.5785997266
  0
LINE
  8
1
  6
CONTINUOUS
 62
7
 10
658.1390571506
 20
84.2736108655
 11
658.1390571506
 21
80.5785997266
  0
LINE
  8
1
  6
CONTINUOUS
 62
7
 10
658.1390571506
 20
84.2736108655
 11
670.1390572549
 21
84.2736108655
  0
LINE
  8
1
  6
CONTINUOUS
 62
7
 10
669.1390570910
 20
200.8636637086
 11
742.2340686158
 21
200.8636637086
  0
LINE
  8
1
  6
CONTINUOUS
 62
7
 10
658.1340945982
 20
201.7736142928
 11
743.1440229253
 21
201.7736142928
  0
LINE
  8
1
  6
CONTINUOUS
 62
7
 10
669.1390570910
 20
79.1835604662
 11
669.1390570910
 21
79.5835635120
  0
LINE
  8
1
  6
CONTINUOUS
 62
7
 10
742.2340686158
 20
79.1835604662
 11
669.1390570910
 21
79.1835604662
  0
LINE
  8
1
  6
CONTINUOUS
 62
7
 10
658.1340945982
 20
78.2736098820
 11
743.1440229253
 21
78.2736098820
  0
LINE
  8
1
  6
CONTINUOUS
 62
7
 10
659.1390573145
 20
79.5835635120
 11
659.1390573145
 21
79.2785739953
  0
POLYLINE
  8
1
  6
CONTINUOUS
 62
7
 66
     1
 70
     1
  0
VERTEX
  8
1
 10
666.1390572027
 20
79.5736128699
 42
0.1629625566
  0
VERTEX
  8
1
 10
665.9279115848
 20
79.6630558149
 42
0.0228681651
  0
VERTEX
  8
1
 10
665.5532707652
 20
79.7150345832
 42
0.0121462168
  0
VERTEX
  8
1
 10
665.0334843938
 20
79.7524987598
 42
0.0122764779
  0
VERTEX
  8
1
 10
664.1390572027
 20
79.7736133749
 42
0.0122764779
  0
VERTEX
  8
1
 10
663.2446300117
 20
79.7524987598
 42
0.0121462168
  0
VERTEX
  8
1
 10
662.7248436403
 20
79.7150345832
 42
0.0228681651
  0
VERTEX
  8
1
 10
662.3502028207
 20
79.6630558149
 42
0.1629625566
  0
VERTEX
  8
1
 10
662.1390572027
 20
79.5736128699
 42
0.1629625566
  0
VERTEX
  8
1
 10
662.3502028207
 20
79.4841699250
 42
0.0228681651
  0
VERTEX
  8
1
 10
662.7248436403
 20
79.4321911566
 42
0.0121462168
  0
VERTEX
  8
1
 10
663.2446300117
 20
79.3947269800
 42
0.0122764779
  0
VERTEX
  8
1
 10
664.1390572027
 20
79.3736123649
 42
0.0122764779
  0
VERTEX
  8
1
 10
665.0334843938
 20
79.3947269800
 42
0.0121462168
  0
VERTEX
  8
1
 10
665.5532707652
 20
79.4321911566
 42
0.0228681651
  0
VERTEX
  8
1
 10
665.9279115848
 20
79.4841699250
 42
0.1629625566
  0
SEQEND
  8
1
  0
LINE
  8
1
  6
CONTINUOUS
 62
7
 10
735.6390605406
 20
88.2736115212
 11
735.6390605406
 21
191.7736126537
  0
LINE
  8
1
  6
CONTINUOUS
 62
7
 10
732.6390544609
 20
194.7736112828
 11
680.6390571133
 21
194.7736112828
  0
ARC
  8
1
  6
CONTINUOUS
 62
7
 10
680.6390572027
 20
191.7736120874
 40
3.0000000000
 50
90.0000000000
 51
180.0000000000
  0
LINE
  8
1
  6
CONTINUOUS
 62
7
 10
679.1390568675
 20
88.2736115212
 11
679.1390568675
 21
191.7736126537
  0
ARC
  8
1
  6
CONTINUOUS
 62
7
 10
732.6390572027
 20
88.2736120874
 40
3.0000000000
 50
270.0000000000
 51
0.0000000000
  0
LINE
  8
1
  6
CONTINUOUS
 62
7
 10
732.6390544609
 20
193.2736119682
 11
680.6390571133
 21
193.2736119682
  0
ARC
  8
1
  6
CONTINUOUS
 62
7
 10
732.6390572027
 20
191.7736120874
 40
3.0000000000
 50
0.0000000000
 51
90.0000000000
  0
ARC
  8
1
  6
CONTINUOUS
 62
7
 10
680.6390572027
 20
88.2736120874
 40
1.5000000000
 50
180.0000000000
 51
270.0000000000
  0
LINE
  8
1
  6
CONTINUOUS
 62
7
 10
680.6390571133
 20
85.2736128921
 11
732.6390544609
 21
85.2736128921
  0
ARC
  8
1
  6
HIDDEN
 62
7
 10
732.6390572027
 20
191.7736120874
 40
1.5000000000
 50
0.0000000000
 51
90.0000000000
  0
ARC
  8
1
  6
CONTINUOUS
 62
7
 10
680.6390572027
 20
191.7736120874
 40
1.5000000000
 50
90.0000000000
 51
180.0000000000
  0
LINE
  8
1
  6
CONTINUOUS
 62
7
 10
677.6390575529
 20
88.2736115212
 11
677.6390575529
 21
191.7736126537
  0
LINE
  8
1
  6
CONTINUOUS
 62
7
 10
734.1390575008
 20
88.2736115212
 11
734.1390575008
 21
191.7736126537
  0
ARC
  8
1
  6
CONTINUOUS
 62
7
 10
732.6390572027
 20
88.2736120874
 40
1.5000000000
 50
270.0000000000
 51
0.0000000000
  0
ARC
  8
1
  6
CONTINUOUS
 62
7
 10
680.6390572027
 20
88.2736120874
 40
3.0000000000
 50
180.0000000000
 51
270.0000000000
  0
LINE
  8
1
  6
CONTINUOUS
 62
7
 10
680.6390571133
 20
86.7736122066
 11
732.6390544609
 21
86.7736122066
  0
POLYLINE
  8
1
  6
CONTINUOUS
 62
7
 66
     1
 70
     0
  0
VERTEX
  8
1
 62
7
 10
658.1390572027
 20
80.2785996997
 42
0.0441499573
  0
VERTEX
  8
1
 62
7
 10
658.1391062189
 20
80.2686983190
 42
0.0392133150
  0
SEQEND
  8
1
  0
LINE
  8
1
  6
CONTINUOUS
 62
7
 10
658.1390571506
 20
80.2785983736
 11
658.1390571506
 21
80.5785997266
  0
POLYLINE
  8
1
  6
CONTINUOUS
 62
7
 66
     1
 70
     0
  0
VERTEX
  8
1
 62
7
 10
658.1391062189
 20
80.2686983190
 42
0.0158105905
  0
VERTEX
  8
1
 62
7
 10
658.1417515670
 20
80.2055427025
 42
0.0807888691
  0
VERTEX
  8
1
 62
7
 10
658.2161279966
 20
79.8951106662
 42
0.0804310507
  0
VERTEX
  8
1
 62
7
 10
658.3852277922
 20
79.6235255230
 42
0.1157045986
  0
VERTEX
  8
1
 62
7
 10
658.7586623977
 20
79.3552561881
 42
0.1157045986
  0
VERTEX
  8
1
 62
7
 10
659.1390572027
 20
79.2785749596
 42
0.0182734515
  0
SEQEND
  8
1
  0
LINE
  8
1
  6
CONTINUOUS
 62
7
 10
670.1390572549
 20
80.5785997266
 11
670.1390572549
 21
80.2785983736
  0
POLYLINE
  8
1
  6
CONTINUOUS
 62
7
 66
     1
 70
     0
  0
VERTEX
  8
1
 62
7
 10
670.1340943681
 20
80.1785994472
 42
0.0250460769
  0
VERTEX
  8
1
 62
7
 10
670.1390572028
 20
80.2785996997
 42
0.1159165546
  0
VERTEX
  8
1
 62
7
 10
670.1390572028
 20
80.2785996997
 42
0.1159165546
  0
SEQEND
  8
1
  0
POLYLINE
  8
1
  6
CONTINUOUS
 62
7
 66
     1
 70
     0
  0
VERTEX
  8
1
 62
7
 10
669.1390572028
 20
79.1835622818
 42
0.0714605935
  0
VERTEX
  8
1
 62
7
 10
669.4076348332
 20
79.2468464349
 42
0.1063852091
  0
VERTEX
  8
1
 62
7
 10
669.8100624309
 20
79.5075942191
 42
0.1063852091
  0
VERTEX
  8
1
 62
7
 10
670.0708102151
 20
79.9100218168
 42
0.0777603711
  0
VERTEX
  8
1
 62
7
 10
670.1340943681
 20
80.1785994472
 42
0.0123362576
  0
SEQEND
  8
1
  0
POLYLINE
  8
1
  6
CONTINUOUS
 62
7
 66
     1
 70
     0
  0
VERTEX
  8
1
 62
7
 10
657.1390572027
 20
79.2686467776
 42
0.0791249785
  0
VERTEX
  8
1
 62
7
 10
657.1890686133
 20
78.9560749423
 42
0.1174683520
  0
VERTEX
  8
1
 62
7
 10
657.4299028059
 20
78.5644534125
 42
0.1174683520
  0
VERTEX
  8
1
 62
7
 10
657.8215249438
 20
78.3236202087
 42
0.0808607469
  0
VERTEX
  8
1
 62
7
 10
658.1340943681
 20
78.2736095874
 42
0.0012380847
  0
SEQEND
  8
1
  0
POLYLINE
  8
1
  6
CONTINUOUS
 62
7
 66
     1
 70
     0
  0
VERTEX
  8
1
 62
7
 10
658.1340943681
 20
201.7736145874
 42
0.0796147256
  0
VERTEX
  8
1
 62
7
 10
657.8215249438
 20
201.7236039661
 42
0.1174683520
  0
VERTEX
  8
1
 62
7
 10
657.4299028059
 20
201.4827707623
 42
0.1174683520
  0
VERTEX
  8
1
 62
7
 10
657.1890686133
 20
201.0911492326
 42
0.0808607469
  0
VERTEX
  8
1
 62
7
 10
657.1390572027
 20
200.7785773972
 42
0.0012373217
  0
SEQEND
  8
1
  0
LINE
  8
1
  6
CONTINUOUS
 62
7
 10
657.6890569837
 20
84.2736108655
 11
657.6890569837
 21
195.7736133093
  0
LINE
  8
1
  6
CONTINUOUS
 62
7
 10
657.1390569867
 20
200.7785780782
 11
657.1390569867
 21
79.2686460966
  0
LINE
  8
1
  6
CONTINUOUS
 62
7
 10
657.6890569837
 20
84.2736108655
 11
658.1390571506
 21
84.2736108655
  0
LINE
  8
1
  6
CONTINUOUS
 62
7
 10
657.6890569837
 20
195.7736133093
 11
658.1390571506
 21
195.7736133093
  0
ARC
  8
1
  6
CONTINUOUS
 62
7
 10
742.2220863561
 20
80.1905826659
 40
1.0070934838
 50
270.6817133899
 51
359.3182866101
  0
ARC
  8
1
  6
CONTINUOUS
 62
7
 10
742.2220863561
 20
199.8566415090
 40
1.0070934838
 50
0.6817133898
 51
89.3182866101
  0
LINE
  8
1
  6
CONTINUOUS
 62
7
 10
743.2291085557
 20
199.8686237687
 11
743.2291085557
 21
80.1786004061
  0
LINE
  8
1
  6
CONTINUOUS
 62
7
 10
671.1390574188
 20
84.2736108655
 11
671.1390574188
 21
195.7736133093
  0
ARC
  8
1
  6
CONTINUOUS
 62
7
 10
676.1390572027
 20
84.2736120874
 40
3.0000000000
 50
180.0000000000
 51
270.0000000000
  0
LINE
  8
1
  6
CONTINUOUS
 62
7
 10
676.1390573070
 20
81.2736122364
 11
735.6390605406
 21
81.2736122364
  0
ARC
  8
1
  6
CONTINUOUS
 62
7
 10
735.6390572027
 20
84.2736120874
 40
3.0000000000
 50
270.0000000000
 51
0.0000000000
  0
LINE
  8
1
  6
CONTINUOUS
 62
7
 10
738.6390591697
 20
84.2736108655
 11
738.6390591697
 21
195.7736133093
  0
ARC
  8
1
  6
CONTINUOUS
 62
7
 10
735.6390572027
 20
195.7736120874
 40
3.0000000000
 50
0.0000000000
 51
90.0000000000
  0
LINE
  8
1
  6
CONTINUOUS
 62
7
 10
735.6390605406
 20
198.7736119384
 11
676.1390573070
 21
198.7736119384
  0
ARC
  8
1
  6
CONTINUOUS
 62
7
 10
676.1390572027
 20
195.7736120874
 40
3.0000000000
 50
90.0000000000
 51
180.0000000000
  0
LINE
  8
1
  6
CONTINUOUS
 62
7
 10
673.1390568153
 20
84.2736108655
 11
673.1390568153
 21
195.7736133093
  0
LINE
  8
1
  6
CONTINUOUS
 62
7
 10
670.1390572549
 20
84.2736108655
 11
671.1390574188
 21
84.2736108655
  0
LINE
  8
1
  6
CONTINUOUS
 62
7
 10
670.1390572549
 20
195.7736133093
 11
671.1390574188
 21
195.7736133093
  0
ARC
  8
1
  6
CONTINUOUS
 62
7
 10
735.6390572027
 20
195.7736120874
 40
1.0000000000
 50
0.0000000000
 51
90.0000000000
  0
ARC
  8
1
  6
CONTINUOUS
 62
7
 10
735.6390572027
 20
84.2736120874
 40
1.0000000000
 50
270.0000000000
 51
0.0000000000
  0
LINE
  8
1
  6
CONTINUOUS
 62
7
 10
676.1390573070
 20
83.2736125643
 11
735.6390605406
 21
83.2736125643
  0
ARC
  8
1
  6
CONTINUOUS
 62
7
 10
676.1390572027
 20
84.2736120874
 40
1.0000000000
 50
180.0000000000
 51
270.0000000000
  0
LINE
  8
1
  6
CONTINUOUS
 62
7
 10
675.1390571431
 20
84.2736108655
 11
675.1390571431
 21
195.7736133093
  0
ARC
  8
1
  6
CONTINUOUS
 62
7
 10
676.1390572027
 20
195.7736120874
 40
1.0000000000
 50
90.0000000000
 51
180.0000000000
  0
LINE
  8
1
  6
CONTINUOUS
 62
7
 10
735.6390605406
 20
196.7736116106
 11
676.1390573070
 21
196.7736116106
  0
LINE
  8
1
  6
CONTINUOUS
 62
7
 10
736.6390551166
 20
84.2736108655
 11
736.6390551166
 21
195.7736133093
  0
POLYLINE
  8
1
  6
CONTINUOUS
 62
7
 66
     1
 70
     0
  0
VERTEX
  8
1
 62
7
 10
744.1390572027
 20
200.7785773972
 42
0.0796153609
  0
VERTEX
  8
1
 62
7
 10
744.0890457922
 20
201.0911492326
 42
0.1174683520
  0
VERTEX
  8
1
 62
7
 10
743.8482115996
 20
201.4827707623
 42
0.1174683520
  0
VERTEX
  8
1
 62
7
 10
743.4565894617
 20
201.7236039661
 42
0.0808607469
  0
VERTEX
  8
1
 62
7
 10
743.1440200374
 20
201.7736145874
 42
0.0012379529
  0
SEQEND
  8
1
  0
POLYLINE
  8
1
  6
CONTINUOUS
 62
7
 66
     1
 70
     0
  0
VERTEX
  8
1
 62
7
 10
743.1440200374
 20
78.2736095874
 42
0.0791243434
  0
VERTEX
  8
1
 62
7
 10
743.4565894617
 20
78.3236202087
 42
0.1174683520
  0
VERTEX
  8
1
 62
7
 10
743.8482115996
 20
78.5644534125
 42
0.1174683520
  0
VERTEX
  8
1
 62
7
 10
744.0890457922
 20
78.9560749423
 42
0.0808607469
  0
VERTEX
  8
1
 62
7
 10
744.1390572027
 20
79.2686467776
 42
0.0012374534
  0
SEQEND
  8
1
  0
LINE
  8
1
  6
CONTINUOUS
 62
7
 10
743.3890576200
 20
152.5236122737
 11
744.1390554146
 21
152.5236122737
  0
LINE
  8
1
  6
CONTINUOUS
 62
7
 10
743.3890576200
 20
127.5236119012
 11
743.3890576200
 21
152.5236122737
  0
LINE
  8
1
  6
CONTINUOUS
 62
7
 10
743.3890576200
 20
127.5236119012
 11
744.1390554146
 21
127.5236119012
  0
LINE
  8
1
  6
CONTINUOUS
 62
7
 10
744.1390554146
 20
79.2686460966
 11
744.1390554146
 21
127.5236119012
  0
LINE
  8
1
  6
CONTINUOUS
 62
7
 10
744.1390554146
 20
152.5236122737
 11
744.1390554146
 21
200.7785780782
  0
CIRCLE
  8
1
  6
HIDDEN
 62
7
 10
726.6390572027
 20
189.5236120874
 40
3.2500000000
  0
CIRCLE
  8
1
  6
HIDDEN
 62
7
 10
726.6390572027
 20
90.5236120874
 40
3.2500000000
  0
CIRCLE
  8
1
  6
HIDDEN
 62
7
 10
720.1390572027
 20
189.5236120874
 40
1.2500000000
  0
CIRCLE
  8
1
  6
HIDDEN
 62
7
 10
720.1390572027
 20
90.5236120874
 40
1.2500000000
  0
LINE
  8
1
  6
HIDDEN
 62
7
 10
716.6390555636
 20
86.7736122066
 11
716.6390555636
 21
92.5236126835
  0
LINE
  8
1
  6
HIDDEN
 62
7
 10
716.6390555636
 20
92.5236126835
 11
719.6390579180
 21
95.5236113126
  0
LINE
  8
1
  6
HIDDEN
 62
7
 10
719.6390579180
 20
95.5236113126
 11
727.6390592293
 21
95.5236113126
  0
LINE
  8
1
  6
HIDDEN
 62
7
 10
727.6390592293
 20
95.5236113126
 11
727.6390592293
 21
103.5236126239
  0
ARC
  8
1
  6
HIDDEN
 62
7
 10
728.6390572028
 20
103.5236120873
 40
1.0000000001
 50
90.0000000000
 51
180.0000000000
  0
LINE
  8
1
  6
HIDDEN
 62
7
 10
728.6390538053
 20
104.5236109251
 11
732.6390544609
 21
104.5236109251
  0
LINE
  8
1
  6
HIDDEN
 62
7
 10
732.6390544609
 20
104.5236109251
 11
732.6390544609
 21
183.5236108357
  0
ARC
  8
1
  6
HIDDEN
 62
7
 10
731.6390572027
 20
183.5236120874
 40
1.0000000000
 50
0.0000000000
 51
90.0000000000
  0
LINE
  8
1
  6
HIDDEN
 62
7
 10
731.6390598849
 20
184.5236128623
 11
719.6390579180
 21
184.5236128623
  0
LINE
  8
1
  6
HIDDEN
 62
7
 10
719.6390579180
 20
184.5236128623
 11
716.6390555636
 21
187.5236114914
  0
LINE
  8
1
  6
HIDDEN
 62
7
 10
716.6390555636
 20
187.5236114914
 11
716.6390555636
 21
193.2736119682
  0
CIRCLE
  8
1
  6
HIDDEN
 62
7
 10
693.1390572027
 20
90.5236120874
 40
1.2500000000
  0
CIRCLE
  8
1
  6
HIDDEN
 62
7
 10
693.1390572027
 20
189.5236120874
 40
1.2500000000
  0
CIRCLE
  8
1
  6
HIDDEN
 62
7
 10
686.6390572027
 20
90.5236120874
 40
3.2500000000
  0
CIRCLE
  8
1
  6
HIDDEN
 62
7
 10
686.6390572027
 20
189.5236120874
 40
3.2500000000
  0
LINE
  8
1
  6
HIDDEN
 62
7
 10
696.6390560106
 20
193.2736119682
 11
696.6390560106
 21
187.5236114914
  0
LINE
  8
1
  6
HIDDEN
 62
7
 10
696.6390560106
 20
187.5236114914
 11
693.6390573816
 21
184.5236128623
  0
LINE
  8
1
  6
HIDDEN
 62
7
 10
684.6390577690
 20
175.5236132497
 11
680.6390571133
 21
175.5236132497
  0
LINE
  8
1
  6
HIDDEN
 62
7
 10
696.6390560106
 20
92.5236126835
 11
696.6390560106
 21
86.7736122066
  0
LINE
  8
1
  6
HIDDEN
 62
7
 10
685.6390579329
 20
184.5236128623
 11
685.6390579329
 21
176.5236115510
  0
LINE
  8
1
  6
HIDDEN
 62
7
 10
693.6390573816
 20
95.5236113126
 11
696.6390560106
 21
92.5236126835
  0
ARC
  8
1
  6
HIDDEN
 62
7
 10
684.6390572027
 20
176.5236120874
 40
1.0000000000
 50
270.0000000000
 51
0.0000000000
  0
LINE
  8
1
  6
HIDDEN
 62
7
 10
693.6390573816
 20
184.5236128623
 11
685.6390579329
 21
184.5236128623
  0
ARC
  8
1
  6
HIDDEN
 62
7
 10
681.6390572027
 20
96.5236120874
 40
1.0000000000
 50
180.0000000000
 51
270.0000000000
  0
LINE
  8
1
  6
HIDDEN
 62
7
 10
681.6390572772
 20
95.5236113126
 11
693.6390573816
 21
95.5236113126
  0
LINE
  8
1
  6
HIDDEN
 62
7
 10
680.6390571133
 20
175.5236132497
 11
680.6390571133
 21
96.5236133391
  0
CIRCLE
  8
1
  6
HIDDEN
 62
7
 10
726.6390572027
 20
90.5236120874
 40
1.7500000000
  0
CIRCLE
  8
1
  6
HIDDEN
 62
7
 10
686.6390572027
 20
189.5236120874
 40
1.7500000000
  0
CIRCLE
  8
1
  6
HIDDEN
 62
7
 10
726.6390572027
 20
189.5236120874
 40
1.7500000000
  0
CIRCLE
  8
1
  6
HIDDEN
 62
7
 10
686.6390572027
 20
90.5236120874
 40
1.7500000000
  0
POLYLINE
  8
1
  6
CONTINUOUS
 62
7
 66
     1
 70
     0
  0
VERTEX
  8
1
 62
7
 10
669.1390572028
 20
79.5835632918
 42
0.1629625566
  0
VERTEX
  8
1
 62
7
 10
668.6111931580
 20
79.8071706542
 42
0.0228681651
  0
VERTEX
  8
1
 62
7
 10
668.6038564718
 20
79.8086320162
 42
0.0225421746
  0
SEQEND
  8
1
  0
POLYLINE
  8
1
  6
CONTINUOUS
 62
7
 66
     1
 70
     0
  0
VERTEX
  8
1
 62
7
 10
659.6763544407
 20
79.8090474317
 42
0.0101065848
  0
VERTEX
  8
1
 62
7
 10
659.6669212475
 20
79.8071706542
 42
0.1629625566
  0
VERTEX
  8
1
 62
7
 10
659.1390572027
 20
79.5835632918
 42
0.1629625566
  0
VERTEX
  8
1
 62
7
 10
659.1390572027
 20
79.5835632918
 42
0.1629625566
  0
SEQEND
  8
1
  0
POLYLINE
  8
1
  6
CONTINUOUS
 62
7
 66
     1
 70
     0
  0
VERTEX
  8
1
 62
7
 10
659.6763544407
 20
200.2381767431
 42
0.0224498690
  0
VERTEX
  8
1
 62
7
 10
660.6035232966
 20
200.1101065997
 42
0.0121462168
  0
VERTEX
  8
1
 62
7
 10
661.9029892251
 20
200.0164461583
 42
0.0122764779
  0
VERTEX
  8
1
 62
7
 10
664.1390572027
 20
199.9636596205
 42
0.0122764779
  0
VERTEX
  8
1
 62
7
 10
666.3751251804
 20
200.0164461583
 42
0.0121462168
  0
VERTEX
  8
1
 62
7
 10
667.6745911089
 20
200.1101065997
 42
0.0228681651
  0
VERTEX
  8
1
 62
7
 10
668.6038564718
 20
200.2385921587
 42
0.0078670227
  0
SEQEND
  8
1
  0
LINE
  8
1
  6
CONTINUOUS
 62
7
 10
669.1390570910
 20
200.8636637086
 11
669.1390570910
 21
200.4636606628
  0
LINE
  8
1
  6
CONTINUOUS
 62
7
 10
659.1390573145
 20
200.4636606628
 11
659.1390573145
 21
200.7686501796
  0
POLYLINE
  8
1
  6
CONTINUOUS
 62
7
 66
     1
 70
     1
  0
VERTEX
  8
1
 10
662.1390572027
 20
200.4736113049
 42
0.1629625566
  0
VERTEX
  8
1
 10
662.3502028207
 20
200.3841683600
 42
0.0228681651
  0
VERTEX
  8
1
 10
662.7248436403
 20
200.3321895916
 42
0.0121462168
  0
VERTEX
  8
1
 10
663.2446300117
 20
200.2947254150
 42
0.0122764779
  0
VERTEX
  8
1
 10
664.1390572027
 20
200.2736107999
 42
0.0122764779
  0
VERTEX
  8
1
 10
665.0334843938
 20
200.2947254150
 42
0.0121462168
  0
VERTEX
  8
1
 10
665.5532707652
 20
200.3321895916
 42
0.0228681651
  0
VERTEX
  8
1
 10
665.9279115848
 20
200.3841683600
 42
0.1629625566
  0
VERTEX
  8
1
 10
666.1390572027
 20
200.4736113049
 42
0.1629625566
  0
VERTEX
  8
1
 10
665.9279115848
 20
200.5630542499
 42
0.0228681651
  0
VERTEX
  8
1
 10
665.5532707652
 20
200.6150330182
 42
0.0121462168
  0
VERTEX
  8
1
 10
665.0334843938
 20
200.6524971948
 42
0.0122764779
  0
VERTEX
  8
1
 10
664.1390572027
 20
200.6736118099
 42
0.0122764779
  0
VERTEX
  8
1
 10
663.2446300117
 20
200.6524971948
 42
0.0121462168
  0
VERTEX
  8
1
 10
662.7248436403
 20
200.6150330182
 42
0.0228681651
  0
VERTEX
  8
1
 10
662.3502028207
 20
200.5630542499
 42
0.1629625566
  0
SEQEND
  8
1
  0
POLYLINE
  8
1
  6
CONTINUOUS
 62
7
 66
     1
 70
     0
  0
VERTEX
  8
1
 62
7
 10
658.1391062189
 20
199.7785258558
 42
0.0482940236
  0
VERTEX
  8
1
 62
7
 10
658.1390572027
 20
199.7686244752
 42
0.0458989087
  0
SEQEND
  8
1
  0
LINE
  8
1
  6
CONTINUOUS
 62
7
 10
658.1390571506
 20
199.7686258013
 11
658.1390571506
 21
199.4686244482
  0
POLYLINE
  8
1
  6
CONTINUOUS
 62
7
 66
     1
 70
     0
  0
VERTEX
  8
1
 62
7
 10
659.1390572027
 20
200.7686492152
 42
0.0985048074
  0
VERTEX
  8
1
 62
7
 10
658.7586623977
 20
200.6919679868
 42
0.1157045986
  0
VERTEX
  8
1
 62
7
 10
658.3852277922
 20
200.4236986518
 42
0.0804310507
  0
VERTEX
  8
1
 62
7
 10
658.2161279966
 20
200.1521135086
 42
0.0807888691
  0
VERTEX
  8
1
 62
7
 10
658.1417515670
 20
199.8416814723
 42
0.1171664547
  0
VERTEX
  8
1
 62
7
 10
658.1391062189
 20
199.7785258558
 42
0.1010165726
  0
SEQEND
  8
1
  0
LINE
  8
1
  6
CONTINUOUS
 62
7
 10
670.1390572549
 20
199.4686244482
 11
670.1390572549
 21
199.7686258013
  0
POLYLINE
  8
1
  6
CONTINUOUS
 62
7
 66
     1
 70
     0
  0
VERTEX
  8
1
 62
7
 10
670.1390572028
 20
199.7686244752
 42
0.1159165546
  0
VERTEX
  8
1
 62
7
 10
670.1340943681
 20
199.8686247277
 42
0.0908633124
  0
SEQEND
  8
1
  0
POLYLINE
  8
1
  6
CONTINUOUS
 62
7
 66
     1
 70
     0
  0
VERTEX
  8
1
 62
7
 10
670.1340943681
 20
199.8686247277
 42
0.0714605935
  0
VERTEX
  8
1
 62
7
 10
670.0708102151
 20
200.1372023581
 42
0.1063852091
  0
VERTEX
  8
1
 62
7
 10
669.8100624309
 20
200.5396299558
 42
0.1063852091
  0
VERTEX
  8
1
 62
7
 10
669.4076348332
 20
200.8003777399
 42
0.0777603711
  0
VERTEX
  8
1
 62
7
 10
669.1390572028
 20
200.8636618930
 42
0.0123362576
  0
SEQEND
  8
1
  0
POLYLINE
  8
1
  6
CONTINUOUS
 62
7
 66
     1
 70
     0
  0
VERTEX
  8
1
 62
7
 10
668.6038564718
 20
200.2385921587
 42
0.0078670227
  0
VERTEX
  8
1
 62
7
 10
668.6111931580
 20
200.2400535206
 42
0.1629625566
  0
VERTEX
  8
1
 62
7
 10
669.1390572028
 20
200.4636608830
 42
0.1629625566
  0
VERTEX
  8
1
 62
7
 10
669.1390572028
 20
200.4636608830
 42
0.1629625566
  0
SEQEND
  8
1
  0
POLYLINE
  8
1
  6
CONTINUOUS
 62
7
 66
     1
 70
     0
  0
VERTEX
  8
1
 62
7
 10
659.1390572027
 20
200.4636608830
 42
0.1629625566
  0
VERTEX
  8
1
 62
7
 10
659.6669212475
 20
200.2400535206
 42
0.0228681651
  0
VERTEX
  8
1
 62
7
 10
659.6763544407
 20
200.2381767431
 42
0.0224498690
  0
SEQEND
  8
1
  0
CIRCLE
  8
1
  6
HIDDEN
 62
7
 10
693.1390572027
 20
189.5236120874
 40
1.5000000000
  0
CIRCLE
  8
1
  6
HIDDEN
 62
7
 10
720.1390572027
 20
189.5236120874
 40
1.5000000000
  0
CIRCLE
  8
1
  6
HIDDEN
 62
7
 10
720.1390572027
 20
90.5236120874
 40
1.5000000000
  0
CIRCLE
  8
1
  6
HIDDEN
 62
7
 10
693.1390572027
 20
90.5236120874
 40
1.5000000000
  0
DIMENSION
  8
1
  6
CONTINUOUS
 62
5
  2
*D4
 10
638.6141542267
 20
97.8856716097
 11
637.5582607955
 21
101.4490392671
  70
3
 15
641.2058383824
 25
102.1615543533
  0
DIMENSION
  8
1
  6
CONTINUOUS
 62
5
  2
*D5
 10
542.6407450074
 20
235.2736141587
 11
540.1407450074
 21
238.5236142257
  70
0
 13
537.4099972359
 23
241.7736142928
 14
537.4099972359
 24
235.2736141587
 50
90.000000
  0
DIMENSION
  8
1
  6
CONTINUOUS
 62
5
  2
*D6
 10
542.6407450074
 20
218.7736142928
 11
540.1407450074
 21
227.0236142257
  70
0
 13
537.4099972359
 23
235.2736141587
 14
540.3495037908
 24
218.7736142928
 50
90.000000
  0
DIMENSION
  8
1
  6
CONTINUOUS
 62
5
  2
*D7
 10
554.4788246261
 20
224.2736142932
 11
551.9788246261
 21
229.7736142259
  70
0
 13
557.4099967888
 23
235.2736141587
 14
556.9099984269
 24
224.2736142932
 50
90.000000
  0
DIMENSION
  8
1
  6
CONTINUOUS
 62
5
  2
*D8
 10
517.1506864735
 20
239.2736143487
 11
514.6506864735
 21
237.2736142537
  70
0
 13
519.9099980927
 23
235.2736141587
 14
524.1599983236
 24
239.2736143487
 50
90.000000
  0
DIMENSION
  8
1
  6
CONTINUOUS
 62
5
  2
*D9
 10
517.1506864735
 20
241.7736142928
 11
514.6506864735
 21
240.5236143207
  70
0
 13
524.1599983236
 23
239.2736143487
 14
525.6599976382
 24
241.7736142928
 50
90.000000
  0
TEXT
  8
1
  6
CONTINUOUS
 62
7
 10
696.839201
 20
65.849955
 40
5.000000
  1
内 部 図
 41
0.854701
 50
0.000000
 51
0.000000
 72
   5
 73
   0
 11
716.839201
 21
65.849955
  0
LINE
  8
5
  6
CONTINUOUS
 62
6
 10
785.9409558390
 20
279.8560849505
 11
785.9409558390
 21
284.8560849505
  0
LINE
  8
5
  6
CONTINUOUS
 62
6
 10
785.9409558390
 20
284.8560849505
 11
790.9409558390
 21
284.8560849505
  0
LINE
  8
5
  6
CONTINUOUS
 62
6
 10
790.9409558390
 20
284.8560849505
 11
810.9409558390
 21
284.8560849505
  0
LINE
  8
5
  6
CONTINUOUS
 62
6
 10
810.9409558390
 20
284.8560849505
 11
850.9409558390
 21
284.8560849505
  0
LINE
  8
5
  6
CONTINUOUS
 62
6
 10
850.9409558390
 20
284.8560849505
 11
865.9409558390
 21
284.8560849505
  0
LINE
  8
5
  6
CONTINUOUS
 62
6
 10
865.9409558390
 20
284.8560849505
 11
870.9409558390
 21
284.8560849505
  0
LINE
  8
5
  6
CONTINUOUS
 62
6
 10
870.9409558390
 20
284.8560849505
 11
870.9409558390
 21
279.8560849505
  0
LINE
  8
5
  6
CONTINUOUS
 62
6
 10
870.9409558390
 20
279.8560849505
 11
865.9409558390
 21
279.8560849505
  0
LINE
  8
5
  6
CONTINUOUS
 62
6
 10
865.9409558390
 20
279.8560849505
 11
850.9409558390
 21
279.8560849505
  0
LINE
  8
5
  6
CONTINUOUS
 62
6
 10
850.9409558390
 20
279.8560849505
 11
810.9409558390
 21
279.8560849505
  0
LINE
  8
5
  6
CONTINUOUS
 62
6
 10
810.9409558390
 20
279.8560849505
 11
790.9409558390
 21
279.8560849505
  0
LINE
  8
5
  6
CONTINUOUS
 62
6
 10
790.9409558390
 20
279.8560849505
 11
785.9409558390
 21
279.8560849505
  0
LINE
  8
5
  6
CONTINUOUS
 62
6
 10
790.9409558390
 20
284.8560849505
 11
790.9409558390
 21
279.8560849505
  0
LINE
  8
5
  6
CONTINUOUS
 62
6
 10
810.9409558390
 20
284.8560849505
 11
810.9409558390
 21
279.8560849505
  0
LINE
  8
5
  6
CONTINUOUS
 62
6
 10
850.9409558390
 20
284.8560849505
 11
850.9409558390
 21
279.8560849505
  0
LINE
  8
5
  6
CONTINUOUS
 62
6
 10
865.9409558390
 20
284.8560849505
 11
865.9409558390
 21
279.8560849505
  0
TEXT
  8
5
  6
CONTINUOUS
 62
7
 10
786.140956
 20
281.206085
 40
2.300000
  1
項番
 41
0.921659
 50
0.000000
 51
0.000000
 72
   5
 73
   0
 11
790.740956
 21
281.206085
  0
TEXT
  8
5
  6
CONTINUOUS
 62
7
 10
795.948956
 20
280.856085
 40
3.000000
  1
品　　名
 41
0.737916
 50
0.000000
 51
0.000000
 72
   5
 73
   0
 11
805.932956
 21
280.856085
  0
TEXT
  8
5
  6
CONTINUOUS
 62
7
 10
815.787956
 20
280.856085
 40
3.000000
  1
定  格 / 型  番 / 材　質
 41
0.686277
 50
0.000000
 51
0.000000
 72
   5
 73
   0
 11
846.093956
 21
280.856085
  0
TEXT
  8
5
  6
CONTINUOUS
 62
7
 10
853.243456
 20
280.856085
 40
3.000000
  1
メーカー
 41
0.768293
 50
0.000000
 51
0.000000
 72
   5
 73
   0
 11
863.638456
 21
280.856085
  0
TEXT
  8
5
  6
CONTINUOUS
 62
7
 10
866.140956
 20
281.206085
 40
2.300000
  1
数量
 41
0.921659
 50
0.000000
 51
0.000000
 72
   5
 73
   0
 11
870.740956
 21
281.206085
  0
LINE
  8
5
  6
CONTINUOUS
 62
6
 10
785.9409558390
 20
274.8560849505
 11
785.9409558390
 21
279.8560849505
  0
LINE
  8
5
  6
CONTINUOUS
 62
6
 10
785.9409558390
 20
279.8560849505
 11
790.9409558390
 21
279.8560849505
  0
LINE
  8
5
  6
CONTINUOUS
 62
6
 10
790.9409558390
 20
279.8560849505
 11
810.9409558390
 21
279.8560849505
  0
LINE
  8
5
  6
CONTINUOUS
 62
6
 10
810.9409558390
 20
279.8560849505
 11
850.9409558390
 21
279.8560849505
  0
LINE
  8
5
  6
CONTINUOUS
 62
6
 10
850.9409558390
 20
279.8560849505
 11
865.9409558390
 21
279.8560849505
  0
LINE
  8
5
  6
CONTINUOUS
 62
6
 10
865.9409558390
 20
279.8560849505
 11
870.9409558390
 21
279.8560849505
  0
LINE
  8
5
  6
CONTINUOUS
 62
6
 10
870.9409558390
 20
279.8560849505
 11
870.9409558390
 21
274.8560849505
  0
LINE
  8
5
  6
CONTINUOUS
 62
6
 10
870.9409558390
 20
274.8560849505
 11
865.9409558390
 21
274.8560849505
  0
LINE
  8
5
  6
CONTINUOUS
 62
6
 10
865.9409558390
 20
274.8560849505
 11
850.9409558390
 21
274.8560849505
  0
LINE
  8
5
  6
CONTINUOUS
 62
6
 10
810.9409558390
 20
274.8560849505
 11
790.9409558390
 21
274.8560849505
  0
LINE
  8
5
  6
CONTINUOUS
 62
6
 10
790.9409558390
 20
274.8560849505
 11
785.9409558390
 21
274.8560849505
  0
LINE
  8
5
  6
CONTINUOUS
 62
6
 10
790.9409558390
 20
279.8560849505
 11
790.9409558390
 21
274.8560849505
  0
LINE
  8
5
  6
CONTINUOUS
 62
6
 10
810.9409558390
 20
279.8560849505
 11
810.9409558390
 21
274.8560849505
  0
LINE
  8
5
  6
CONTINUOUS
 62
6
 10
850.9409558390
 20
279.8560849505
 11
850.9409558390
 21
274.8560849505
  0
LINE
  8
5
  6
CONTINUOUS
 62
6
 10
865.9409558390
 20
279.8560849505
 11
865.9409558390
 21
274.8560849505
  0
TEXT
  8
5
  6
CONTINUOUS
 62
7
 10
787.565956
 20
275.606085
 40
3.500000
  1
1
 41
1.000000
 50
0.000000
 51
0.000000
 72
   5
 73
   0
 11
789.315956
 21
275.606085
  0
TEXT
  8
5
  6
CONTINUOUS
 62
7
 10
791.940956
 20
275.856085
 40
3.000000
  1
ベース
 41
0.841018
 50
0.000000
 51
0.000000
 72
   5
 73
   0
 11
800.367956
 21
275.856085
  0
TEXT
  8
5
  6
CONTINUOUS
 62
7
 10
867.565956
 20
275.606085
 40
3.500000
  1
1
 41
1.000000
 50
0.000000
 51
0.000000
 72
   5
 73
   0
 11
869.315956
 21
275.606085
  0
LINE
  8
5
  6
CONTINUOUS
 62
6
 10
870.9409558390
 20
269.8560849505
 11
865.9409558390
 21
269.8560849505
  0
LINE
  8
5
  6
CONTINUOUS
 62
6
 10
870.9409558390
 20
264.8560849505
 11
865.9409558390
 21
264.8560849505
  0
LINE
  8
5
  6
CONTINUOUS
 62
6
 10
870.9409558390
 20
259.8560849505
 11
865.9409558390
 21
259.8560849505
  0
LINE
  8
5
  6
CONTINUOUS
 62
6
 10
870.9409558390
 20
254.8560849505
 11
865.9409558390
 21
254.8560849505
  0
LINE
  8
5
  6
CONTINUOUS
 62
6
 10
870.9409558390
 20
249.8560849505
 11
865.9409558390
 21
249.8560849505
  0
LINE
  8
5
  6
CONTINUOUS
 62
6
 10
870.9409558390
 20
244.8560849505
 11
865.9409558390
 21
244.8560849505
  0
LINE
  8
5
  6
CONTINUOUS
 62
6
 10
870.9409558390
 20
239.8560849505
 11
865.9409558390
 21
239.8560849505
  0
LINE
  8
5
  6
CONTINUOUS
 62
6
 10
870.9409558390
 20
234.8560849505
 11
865.9409558390
 21
234.8560849505
  0
LINE
  8
5
  6
CONTINUOUS
 62
6
 10
865.9409558390
 20
269.8560849505
 11
850.9409558390
 21
269.8560849505
  0
LINE
  8
5
  6
CONTINUOUS
 62
6
 10
865.9409558390
 20
264.8560849505
 11
850.9409558390
 21
264.8560849505
  0
LINE
  8
5
  6
CONTINUOUS
 62
6
 10
865.9409558390
 20
259.8560849505
 11
850.9409558390
 21
259.8560849505
  0
LINE
  8
5
  6
CONTINUOUS
 62
6
 10
865.9409558390
 20
254.8560849505
 11
850.9409558390
 21
254.8560849505
  0
LINE
  8
5
  6
CONTINUOUS
 62
6
 10
865.9409558390
 20
249.8560849505
 11
850.9409558390
 21
249.8560849505
  0
LINE
  8
5
  6
CONTINUOUS
 62
6
 10
865.9409558390
 20
244.8560849505
 11
850.9409558390
 21
244.8560849505
  0
LINE
  8
5
  6
CONTINUOUS
 62
6
 10
865.9409558390
 20
239.8560849505
 11
850.9409558390
 21
239.8560849505
  0
LINE
  8
5
  6
CONTINUOUS
 62
6
 10
865.9409558390
 20
234.8560849505
 11
850.9409558390
 21
234.8560849505
  0
LINE
  8
5
  6
CONTINUOUS
 62
6
 10
850.9409558390
 20
269.8560849505
 11
810.9409558390
 21
269.8560849505
  0
LINE
  8
5
  6
CONTINUOUS
 62
6
 10
850.9409558390
 20
264.8560849505
 11
810.9409558390
 21
264.8560849505
  0
LINE
  8
5
  6
CONTINUOUS
 62
6
 10
850.9409558390
 20
259.8560849505
 11
810.9409558390
 21
259.8560849505
  0
LINE
  8
5
  6
CONTINUOUS
 62
6
 10
850.9409558390
 20
254.8560849505
 11
810.9409558390
 21
254.8560849505
  0
LINE
  8
5
  6
CONTINUOUS
 62
6
 10
850.9409558390
 20
249.8560849505
 11
810.9409558390
 21
249.8560849505
  0
LINE
  8
5
  6
CONTINUOUS
 62
6
 10
850.9409558390
 20
244.8560849505
 11
810.9409558390
 21
244.8560849505
  0
LINE
  8
5
  6
CONTINUOUS
 62
6
 10
850.9409558390
 20
239.8560849505
 11
810.9409558390
 21
239.8560849505
  0
LINE
  8
5
  6
CONTINUOUS
 62
6
 10
850.9409558390
 20
234.8560849505
 11
810.9409558390
 21
234.8560849505
  0
LINE
  8
5
  6
CONTINUOUS
 62
6
 10
810.9409558390
 20
269.8560849505
 11
790.9409558390
 21
269.8560849505
  0
LINE
  8
5
  6
CONTINUOUS
 62
6
 10
810.9409558390
 20
264.8560849505
 11
790.9409558390
 21
264.8560849505
  0
LINE
  8
5
  6
CONTINUOUS
 62
6
 10
810.9409558390
 20
259.8560849505
 11
790.9409558390
 21
259.8560849505
  0
LINE
  8
5
  6
CONTINUOUS
 62
6
 10
810.9409558390
 20
254.8560849505
 11
790.9409558390
 21
254.8560849505
  0
LINE
  8
5
  6
CONTINUOUS
 62
6
 10
810.9409558390
 20
249.8560849505
 11
790.9409558390
 21
249.8560849505
  0
LINE
  8
5
  6
CONTINUOUS
 62
6
 10
810.9409558390
 20
244.8560849505
 11
790.9409558390
 21
244.8560849505
  0
LINE
  8
5
  6
CONTINUOUS
 62
6
 10
810.9409558390
 20
239.8560849505
 11
790.9409558390
 21
239.8560849505
  0
LINE
  8
5
  6
CONTINUOUS
 62
6
 10
810.9409558390
 20
234.8560849505
 11
790.9409558390
 21
234.8560849505
  0
LINE
  8
5
  6
CONTINUOUS
 62
6
 10
790.9409558390
 20
269.8560849505
 11
785.9409558390
 21
269.8560849505
  0
LINE
  8
5
  6
CONTINUOUS
 62
6
 10
790.9409558390
 20
264.8560849505
 11
785.9409558390
 21
264.8560849505
  0
LINE
  8
5
  6
CONTINUOUS
 62
6
 10
790.9409558390
 20
259.8560849505
 11
785.9409558390
 21
259.8560849505
  0
LINE
  8
5
  6
CONTINUOUS
 62
6
 10
790.9409558390
 20
254.8560849505
 11
785.9409558390
 21
254.8560849505
  0
LINE
  8
5
  6
CONTINUOUS
 62
6
 10
790.9409558390
 20
249.8560849505
 11
785.9409558390
 21
249.8560849505
  0
LINE
  8
5
  6
CONTINUOUS
 62
6
 10
790.9409558390
 20
244.8560849505
 11
785.9409558390
 21
244.8560849505
  0
LINE
  8
5
  6
CONTINUOUS
 62
6
 10
790.9409558390
 20
239.8560849505
 11
785.9409558390
 21
239.8560849505
  0
LINE
  8
5
  6
CONTINUOUS
 62
6
 10
790.9409558390
 20
234.8560849505
 11
785.9409558390
 21
234.8560849505
  0
TEXT
  8
5
  6
CONTINUOUS
 62
7
 10
787.565956
 20
270.606085
 40
3.500000
  1
2
 41
1.000000
 50
0.000000
 51
0.000000
 72
   5
 73
   0
 11
789.315956
 21
270.606085
  0
TEXT
  8
5
  6
CONTINUOUS
 62
7
 10
787.565956
 20
265.606085
 40
3.500000
  1
3
 41
1.000000
 50
0.000000
 51
0.000000
 72
   5
 73
   0
 11
789.315956
 21
265.606085
  0
TEXT
  8
5
  6
CONTINUOUS
 62
7
 10
787.565956
 20
260.606085
 40
3.500000
  1
4
 41
1.000000
 50
0.000000
 51
0.000000
 72
   5
 73
   0
 11
789.315956
 21
260.606085
  0
TEXT
  8
5
  6
CONTINUOUS
 62
7
 10
787.565956
 20
255.606085
 40
3.500000
  1
5
 41
1.000000
 50
0.000000
 51
0.000000
 72
   5
 73
   0
 11
789.315956
 21
255.606085
  0
TEXT
  8
5
  6
CONTINUOUS
 62
7
 10
787.565956
 20
250.606085
 40
3.500000
  1
6
 41
1.000000
 50
0.000000
 51
0.000000
 72
   5
 73
   0
 11
789.315956
 21
250.606085
  0
TEXT
  8
5
  6
CONTINUOUS
 62
7
 10
787.565956
 20
245.606085
 40
3.500000
  1
7
 41
1.000000
 50
0.000000
 51
0.000000
 72
   5
 73
   0
 11
789.315956
 21
245.606085
  0
TEXT
  8
5
  6
CONTINUOUS
 62
7
 10
787.565956
 20
240.606085
 40
3.500000
  1
8
 41
1.000000
 50
0.000000
 51
0.000000
 72
   5
 73
   0
 11
789.315956
 21
240.606085
  0
TEXT
  8
5
  6
CONTINUOUS
 62
7
 10
787.565956
 20
235.606085
 40
3.500000
  1
9
 41
1.000000
 50
0.000000
 51
0.000000
 72
   5
 73
   0
 11
789.315956
 21
235.606085
  0
TEXT
  8
5
  6
CONTINUOUS
 62
7
 10
791.940956
 20
270.856085
 40
3.000000
  1
カバー
 41
0.833832
 50
0.000000
 51
0.000000
 72
   5
 73
   0
 11
800.295956
 21
270.856085
  0
TEXT
  8
5
  6
CONTINUOUS
 62
7
 10
791.940956
 20
265.856085
 40
3.000000
  1
ロック
 41
0.719162
 50
0.000000
 51
0.000000
 72
   5
 73
   0
 11
799.146956
 21
265.856085
  0
TEXT
  8
5
  6
CONTINUOUS
 62
7
 10
791.940956
 20
260.856085
 40
3.000000
  1
添付品ﾋﾞｽ
 41
0.822804
 50
0.000000
 51
0.000000
 72
   5
 73
   0
 11
805.146956
 21
260.856085
  0
TEXT
  8
5
  6
CONTINUOUS
 62
7
 10
791.940956
 20
255.856085
 40
3.000000
  1
添付品ﾋﾞｽ
 41
0.822804
 50
0.000000
 51
0.000000
 72
   5
 73
   0
 11
805.146956
 21
255.856085
  0
TEXT
  8
5
  6
CONTINUOUS
 62
7
 10
791.940956
 20
250.856085
 40
3.000000
  1
添付品ﾋﾞｽ
 41
0.822804
 50
0.000000
 51
0.000000
 72
   5
 73
   0
 11
805.146956
 21
250.856085
  0
TEXT
  8
5
  6
CONTINUOUS
 62
7
 10
811.940956
 20
265.856085
 40
3.000000
  1
ABS ﾛｯｸ部白色　ｽﾗｲﾄﾞ部黒色
 41
0.803861
 50
0.000000
 51
0.000000
 72
   5
 73
   0
 11
850.670956
 21
265.856085
  0
TEXT
  8
5
  6
CONTINUOUS
 62
7
 10
811.940956
 20
260.856085
 40
3.000000
  1
M3×8小ワｾﾑｽ(ﾍﾞｰｽ&内部ﾊﾟﾈﾙ固定用)
 41
0.832896
 50
0.000000
 51
0.000000
 72
   5
 73
   0
 11
863.363956
 21
260.856085
  0
TEXT
  8
5
  6
CONTINUOUS
 62
7
 10
811.940956
 20
255.856085
 40
3.000000
  1
M5×10ｱﾌﾞｾｯﾄ
 41
0.813247
 50
0.000000
 51
0.000000
 72
   5
 73
   0
 11
830.726956
 21
255.856085
  0
TEXT
  8
5
  6
CONTINUOUS
 62
7
 10
811.940956
 20
250.856085
 40
3.000000
  1
M5 内歯菊座金
 41
0.851365
 50
0.000000
 51
0.000000
 72
   5
 73
   0
 11
831.581956
 21
250.856085
  0
TEXT
  8
5
  6
CONTINUOUS
 62
7
 10
867.565956
 20
270.606085
 40
3.500000
  1
1
 41
1.000000
 50
0.000000
 51
0.000000
 72
   5
 73
   0
 11
869.315956
 21
270.606085
  0
TEXT
  8
5
  6
CONTINUOUS
 62
7
 10
867.565956
 20
265.606085
 40
3.500000
  1
1
 41
1.000000
 50
0.000000
 51
0.000000
 72
   5
 73
   0
 11
869.315956
 21
265.606085
  0
TEXT
  8
5
  6
CONTINUOUS
 62
7
 10
867.565956
 20
260.606085
 40
3.500000
  1
4
 41
1.000000
 50
0.000000
 51
0.000000
 72
   5
 73
   0
 11
869.315956
 21
260.606085
  0
TEXT
  8
5
  6
CONTINUOUS
 62
7
 10
867.565956
 20
255.606085
 40
3.500000
  1
1
 41
1.000000
 50
0.000000
 51
0.000000
 72
   5
 73
   0
 11
869.315956
 21
255.606085
  0
TEXT
  8
5
  6
CONTINUOUS
 62
7
 10
867.565956
 20
250.606085
 40
3.500000
  1
1
 41
1.000000
 50
0.000000
 51
0.000000
 72
   5
 73
   0
 11
869.315956
 21
250.606085
  0
LINE
  8
5
  6
CONTINUOUS
 62
6
 10
785.9409558390
 20
269.8560849505
 11
785.9409558390
 21
274.8560849505
  0
LINE
  8
5
  6
CONTINUOUS
 62
6
 10
785.9409558390
 20
264.8560849505
 11
785.9409558390
 21
269.8560849505
  0
LINE
  8
5
  6
CONTINUOUS
 62
6
 10
785.9409558390
 20
259.8560849505
 11
785.9409558390
 21
264.8560849505
  0
LINE
  8
5
  6
CONTINUOUS
 62
6
 10
785.9409558390
 20
254.8560849505
 11
785.9409558390
 21
259.8560849505
  0
LINE
  8
5
  6
CONTINUOUS
 62
6
 10
785.9409558390
 20
249.8560849505
 11
785.9409558390
 21
254.8560849505
  0
LINE
  8
5
  6
CONTINUOUS
 62
6
 10
785.9409558390
 20
244.8560849505
 11
785.9409558390
 21
249.8560849505
  0
LINE
  8
5
  6
CONTINUOUS
 62
6
 10
785.9409558390
 20
239.8560849505
 11
785.9409558390
 21
244.8560849505
  0
LINE
  8
5
  6
CONTINUOUS
 62
6
 10
785.9409558390
 20
234.8560849505
 11
785.9409558390
 21
239.8560849505
  0
LINE
  8
5
  6
CONTINUOUS
 62
6
 10
790.9409558390
 20
274.8560849505
 11
790.9409558390
 21
269.8560849505
  0
LINE
  8
5
  6
CONTINUOUS
 62
6
 10
790.9409558390
 20
269.8560849505
 11
790.9409558390
 21
264.8560849505
  0
LINE
  8
5
  6
CONTINUOUS
 62
6
 10
790.9409558390
 20
264.8560849505
 11
790.9409558390
 21
259.8560849505
  0
LINE
  8
5
  6
CONTINUOUS
 62
6
 10
790.9409558390
 20
259.8560849505
 11
790.9409558390
 21
254.8560849505
  0
LINE
  8
5
  6
CONTINUOUS
 62
6
 10
790.9409558390
 20
254.8560849505
 11
790.9409558390
 21
249.8560849505
  0
LINE
  8
5
  6
CONTINUOUS
 62
6
 10
790.9409558390
 20
249.8560849505
 11
790.9409558390
 21
244.8560849505
  0
LINE
  8
5
  6
CONTINUOUS
 62
6
 10
790.9409558390
 20
244.8560849505
 11
790.9409558390
 21
239.8560849505
  0
LINE
  8
5
  6
CONTINUOUS
 62
6
 10
790.9409558390
 20
239.8560849505
 11
790.9409558390
 21
234.8560849505
  0
LINE
  8
5
  6
CONTINUOUS
 62
6
 10
810.9409558390
 20
274.8560849505
 11
810.9409558390
 21
269.8560849505
  0
LINE
  8
5
  6
CONTINUOUS
 62
6
 10
810.9409558390
 20
269.8560849505
 11
810.9409558390
 21
264.8560849505
  0
LINE
  8
5
  6
CONTINUOUS
 62
6
 10
810.9409558390
 20
264.8560849505
 11
810.9409558390
 21
259.8560849505
  0
LINE
  8
5
  6
CONTINUOUS
 62
6
 10
810.9409558390
 20
259.8560849505
 11
810.9409558390
 21
254.8560849505
  0
LINE
  8
5
  6
CONTINUOUS
 62
6
 10
810.9409558390
 20
254.8560849505
 11
810.9409558390
 21
249.8560849505
  0
LINE
  8
5
  6
CONTINUOUS
 62
6
 10
810.9409558390
 20
249.8560849505
 11
810.9409558390
 21
244.8560849505
  0
LINE
  8
5
  6
CONTINUOUS
 62
6
 10
810.9409558390
 20
244.8560849505
 11
810.9409558390
 21
239.8560849505
  0
LINE
  8
5
  6
CONTINUOUS
 62
6
 10
810.9409558390
 20
239.8560849505
 11
810.9409558390
 21
234.8560849505
  0
LINE
  8
5
  6
CONTINUOUS
 62
6
 10
850.9409558390
 20
274.8560849505
 11
850.9409558390
 21
269.8560849505
  0
LINE
  8
5
  6
CONTINUOUS
 62
6
 10
850.9409558390
 20
269.8560849505
 11
850.9409558390
 21
264.8560849505
  0
LINE
  8
5
  6
CONTINUOUS
 62
6
 10
850.9409558390
 20
259.8560849505
 11
850.9409558390
 21
254.8560849505
  0
LINE
  8
5
  6
CONTINUOUS
 62
6
 10
850.9409558390
 20
254.8560849505
 11
850.9409558390
 21
249.8560849505
  0
LINE
  8
5
  6
CONTINUOUS
 62
6
 10
850.9409558390
 20
249.8560849505
 11
850.9409558390
 21
244.8560849505
  0
LINE
  8
5
  6
CONTINUOUS
 62
6
 10
850.9409558390
 20
244.8560849505
 11
850.9409558390
 21
239.8560849505
  0
LINE
  8
5
  6
CONTINUOUS
 62
6
 10
850.9409558390
 20
239.8560849505
 11
850.9409558390
 21
234.8560849505
  0
LINE
  8
5
  6
CONTINUOUS
 62
6
 10
865.9409558390
 20
274.8560849505
 11
865.9409558390
 21
269.8560849505
  0
LINE
  8
5
  6
CONTINUOUS
 62
6
 10
865.9409558390
 20
269.8560849505
 11
865.9409558390
 21
264.8560849505
  0
LINE
  8
5
  6
CONTINUOUS
 62
6
 10
865.9409558390
 20
264.8560849505
 11
865.9409558390
 21
259.8560849505
  0
LINE
  8
5
  6
CONTINUOUS
 62
6
 10
865.9409558390
 20
259.8560849505
 11
865.9409558390
 21
254.8560849505
  0
LINE
  8
5
  6
CONTINUOUS
 62
6
 10
865.9409558390
 20
254.8560849505
 11
865.9409558390
 21
249.8560849505
  0
LINE
  8
5
  6
CONTINUOUS
 62
6
 10
865.9409558390
 20
249.8560849505
 11
865.9409558390
 21
244.8560849505
  0
LINE
  8
5
  6
CONTINUOUS
 62
6
 10
865.9409558390
 20
244.8560849505
 11
865.9409558390
 21
239.8560849505
  0
LINE
  8
5
  6
CONTINUOUS
 62
6
 10
865.9409558390
 20
239.8560849505
 11
865.9409558390
 21
234.8560849505
  0
LINE
  8
5
  6
CONTINUOUS
 62
6
 10
870.9409558390
 20
274.8560849505
 11
870.9409558390
 21
269.8560849505
  0
LINE
  8
5
  6
CONTINUOUS
 62
6
 10
870.9409558390
 20
269.8560849505
 11
870.9409558390
 21
264.8560849505
  0
LINE
  8
5
  6
CONTINUOUS
 62
6
 10
870.9409558390
 20
264.8560849505
 11
870.9409558390
 21
259.8560849505
  0
LINE
  8
5
  6
CONTINUOUS
 62
6
 10
870.9409558390
 20
259.8560849505
 11
870.9409558390
 21
254.8560849505
  0
LINE
  8
5
  6
CONTINUOUS
 62
6
 10
870.9409558390
 20
254.8560849505
 11
870.9409558390
 21
249.8560849505
  0
LINE
  8
5
  6
CONTINUOUS
 62
6
 10
870.9409558390
 20
249.8560849505
 11
870.9409558390
 21
244.8560849505
  0
LINE
  8
5
  6
CONTINUOUS
 62
6
 10
870.9409558390
 20
244.8560849505
 11
870.9409558390
 21
239.8560849505
  0
LINE
  8
5
  6
CONTINUOUS
 62
6
 10
870.9409558390
 20
239.8560849505
 11
870.9409558390
 21
234.8560849505
  0
TEXT
  8
5
  6
CONTINUOUS
 62
7
 10
786.690956
 20
230.606085
 40
3.500000
  1
10
 41
0.854701
 50
0.000000
 51
0.000000
 72
   5
 73
   0
 11
790.190956
 21
230.606085
  0
LINE
  8
5
  6
CONTINUOUS
 62
6
 10
785.9409558390
 20
224.8560849505
 11
785.9409558390
 21
234.8560849505
  0
LINE
  8
5
  6
CONTINUOUS
 62
6
 10
790.9409558390
 20
234.8560849505
 11
790.9409558390
 21
224.8560849505
  0
LINE
  8
5
  6
CONTINUOUS
 62
6
 10
810.9409558390
 20
234.8560849505
 11
810.9409558390
 21
224.8560849505
  0
LINE
  8
5
  6
CONTINUOUS
 62
6
 10
850.9409558390
 20
234.8560849505
 11
850.9409558390
 21
224.8560849505
  0
LINE
  8
5
  6
CONTINUOUS
 62
6
 10
865.9409558390
 20
234.8560849505
 11
865.9409558390
 21
224.8560849505
  0
LINE
  8
5
  6
CONTINUOUS
 62
6
 10
870.9409558390
 20
234.8560849505
 11
870.9409558390
 21
224.8560849505
  0
LINE
  8
5
  6
CONTINUOUS
 62
6
 10
487.3730305766
 20
263.1315670415
 11
487.3730305766
 21
288.1315670415
  0
LINE
  8
5
  6
CONTINUOUS
 62
6
 10
499.3730305766
 20
263.1315670415
 11
499.3730305766
 21
288.1315670415
  0
LINE
  8
5
  6
CONTINUOUS
 62
6
 10
563.8730305766
 20
263.1315670415
 11
563.8730305766
 21
288.1315670415
  0
LINE
  8
5
  6
CONTINUOUS
 62
6
 10
572.8730305766
 20
288.1315670415
 11
572.8730305766
 21
263.1315670415
  0
TEXT
  8
5
  6
CONTINUOUS
 62
6
 10
490.407531
 20
264.131567
 40
3.000000
  1
Date
 41
0.787649
 50
0.000000
 51
0.000000
 72
   5
 73
   0
 11
496.338531
 21
264.131567
  0
TEXT
  8
5
  6
CONTINUOUS
 62
6
 10
480.165531
 20
264.131567
 40
3.000000
  1
Rev.
 41
0.719124
 50
0.000000
 51
0.000000
 72
   5
 73
   0
 11
485.580531
 21
264.131567
  0
TEXT
  8
5
  6
CONTINUOUS
 62
6
 10
500.873031
 20
264.131567
 40
3.000000
  1
Content
 41
0.746681
 50
0.000000
 51
0.000000
 72
   5
 73
   0
 11
510.998031
 21
264.131567
  0
TEXT
  8
5
  6
CONTINUOUS
 62
6
 10
564.845031
 20
264.131567
 40
3.000000
  1
Name
 41
0.937052
 50
0.000000
 51
0.000000
 72
   5
 73
   0
 11
571.901031
 21
264.131567
  0
LINE
  8
5
  6
CONTINUOUS
 62
6
 10
478.3730305766
 20
268.1315670415
 11
572.8730305766
 21
268.1315670415
  0
LINE
  8
5
  6
CONTINUOUS
 62
6
 10
478.3730305766
 20
273.1315670415
 11
572.8730305766
 21
273.1315670415
  0
LINE
  8
5
  6
CONTINUOUS
 62
6
 10
478.3730305766
 20
278.1315670415
 11
572.8730305766
 21
278.1315670415
  0
LINE
  8
5
  6
CONTINUOUS
 62
6
 10
478.3730305766
 20
283.1315670415
 11
572.8730305766
 21
283.1315670415
  0
LINE
  8
5
  6
CONTINUOUS
 62
6
 10
478.3730305766
 20
263.1315670415
 11
572.8730305766
 21
263.1315670415
  0
POINT
  8
5
  6
CONTINUOUS
 62
6
 10
482.8730305766
 20
270.6315670415
  0
POINT
  8
5
  6
CONTINUOUS
 62
6
 10
482.8730305766
 20
275.6315670415
  0
POINT
  8
5
  6
CONTINUOUS
 62
6
 10
482.8730305766
 20
280.6315670415
  0
POINT
  8
5
  6
CONTINUOUS
 62
6
 10
482.8730305766
 20
285.6315670415
  0
POINT
  8
5
  6
CONTINUOUS
 62
6
 10
493.3730305766
 20
285.6315670415
  0
POINT
  8
5
  6
CONTINUOUS
 62
6
 10
493.3730305766
 20
280.6315670415
  0
POINT
  8
5
  6
CONTINUOUS
 62
6
 10
493.3730305766
 20
275.6315670415
  0
POINT
  8
5
  6
CONTINUOUS
 62
6
 10
493.3730305766
 20
270.6315670415
  0
POINT
  8
5
  6
CONTINUOUS
 62
6
 10
568.3730305766
 20
270.6315670415
  0
POINT
  8
5
  6
CONTINUOUS
 62
6
 10
568.3730305766
 20
275.6315670415
  0
POINT
  8
5
  6
CONTINUOUS
 62
6
 10
568.3730305766
 20
280.6315670415
  0
POINT
  8
5
  6
CONTINUOUS
 62
6
 10
568.3730305766
 20
285.6315670415
  0
POINT
  8
5
  6
CONTINUOUS
 62
6
 10
499.3730305766
 20
285.6315670415
  0
POINT
  8
5
  6
CONTINUOUS
 62
6
 10
499.3730305766
 20
280.6315670415
  0
POINT
  8
5
  6
CONTINUOUS
 62
6
 10
499.3730305766
 20
275.6315670415
  0
POINT
  8
5
  6
CONTINUOUS
 62
6
 10
499.3730305766
 20
270.6315670415
  0
INSERT
  8
1
  6
CONTINUOUS
 62
5
  2
BALN0
 10
625.2416072675
 20
195.8053296886
  0
INSERT
  8
1
  6
CONTINUOUS
 62
5
  2
BALN1
 10
610.2533835751
 20
194.9726505946
  0
INSERT
  8
1
  6
CONTINUOUS
 62
5
  2
BALN2
 10
581.9422943783
 20
132.7992782409
  0
POINT
  8
3
  6
CONTINUOUS
 62
7
 10
706.6390572027
 20
140.0236120874
  0
LINE
  8
3
  6
CONTINUOUS
 62
5
 10
721.6490572027
 20
173.2976120874
 11
691.6290572027
 21
173.2976120874
  0
LINE
  8
3
  6
CONTINUOUS
 62
5
 10
691.6290572027
 20
106.7496120874
 11
721.6490572027
 21
106.7496120874
  0
ARC
  8
3
  6
CONTINUOUS
 62
5
 10
706.6390572027
 20
169.1476120874
 40
2.6500000000
 50
180.0000000000
 51
0.0000000000
  0
LINE
  8
3
  6
CONTINUOUS
 62
5
 10
703.9890572027
 20
169.1476120874
 11
703.9890572027
 21
171.7976120874
  0
LINE
  8
3
  6
CONTINUOUS
 62
5
 10
703.9890572027
 20
171.7976120874
 11
709.2890572027
 21
171.7976120874
  0
LINE
  8
3
  6
CONTINUOUS
 62
5
 10
709.2890572027
 20
171.7976120874
 11
709.2890572027
 21
169.1476120874
  0
LINE
  8
3
  6
CONTINUOUS
 62
5
 10
711.9390572027
 20
161.5976120874
 11
714.1390572027
 21
161.5976120874
  0
LINE
  8
3
  6
CONTINUOUS
 62
5
 10
714.1390572027
 20
161.5976120874
 11
714.1390572027
 21
152.8976120874
  0
LINE
  8
3
  6
CONTINUOUS
 62
5
 10
714.1390572027
 20
152.8976120874
 11
711.9390572027
 21
152.8976120874
  0
LINE
  8
3
  6
CONTINUOUS
 62
5
 10
711.9390572027
 20
152.8976120874
 11
711.9390572027
 21
161.5976120874
  0
LINE
  8
3
  6
CONTINUOUS
 62
5
 10
699.1390572027
 20
160.7476120874
 11
701.3390572027
 21
160.7476120874
  0
LINE
  8
3
  6
CONTINUOUS
 62
5
 10
701.3390572027
 20
160.7476120874
 11
701.3390572027
 21
153.7476120874
  0
LINE
  8
3
  6
CONTINUOUS
 62
5
 10
701.3390572027
 20
153.7476120874
 11
699.1390572027
 21
153.7476120874
  0
LINE
  8
3
  6
CONTINUOUS
 62
5
 10
699.1390572027
 20
153.7476120874
 11
699.1390572027
 21
160.7476120874
  0
ARC
  8
3
  6
CONTINUOUS
 62
5
 10
706.6390572027
 20
124.4996120874
 40
2.6500000000
 50
180.0000000000
 51
0.0000000000
  0
LINE
  8
3
  6
CONTINUOUS
 62
5
 10
703.9890572027
 20
124.4996120874
 11
703.9890572027
 21
127.1496120874
  0
LINE
  8
3
  6
CONTINUOUS
 62
5
 10
703.9890572027
 20
127.1496120874
 11
709.2890572027
 21
127.1496120874
  0
LINE
  8
3
  6
CONTINUOUS
 62
5
 10
709.2890572027
 20
127.1496120874
 11
709.2890572027
 21
124.4996120874
  0
LINE
  8
3
  6
CONTINUOUS
 62
5
 10
711.9390572027
 20
116.9496120874
 11
714.1390572027
 21
116.9496120874
  0
LINE
  8
3
  6
CONTINUOUS
 62
5
 10
714.1390572027
 20
116.9496120874
 11
714.1390572027
 21
108.2496120874
  0
LINE
  8
3
  6
CONTINUOUS
 62
5
 10
714.1390572027
 20
108.2496120874
 11
711.9390572027
 21
108.2496120874
  0
LINE
  8
3
  6
CONTINUOUS
 62
5
 10
711.9390572027
 20
108.2496120874
 11
711.9390572027
 21
116.9496120874
  0
LINE
  8
3
  6
CONTINUOUS
 62
5
 10
699.1390572027
 20
116.0996120874
 11
701.3390572027
 21
116.0996120874
  0
LINE
  8
3
  6
CONTINUOUS
 62
5
 10
701.3390572027
 20
116.0996120874
 11
701.3390572027
 21
109.0996120874
  0
LINE
  8
3
  6
CONTINUOUS
 62
5
 10
701.3390572027
 20
109.0996120874
 11
699.1390572027
 21
109.0996120874
  0
LINE
  8
3
  6
CONTINUOUS
 62
5
 10
699.1390572027
 20
109.0996120874
 11
699.1390572027
 21
116.0996120874
  0
CIRCLE
  8
3
  6
CONTINUOUS
 62
3
 10
718.8890572027
 20
139.2736120874
 40
1.7500000000
  0
LINE
  8
3
  6
CONTINUOUS
 62
3
 10
712.3890572027
 20
150.0236120874
 11
700.8890572027
 21
150.0236120874
  0
LINE
  8
3
  6
CONTINUOUS
 62
3
 10
715.8890572027
 20
146.5236120874
 11
715.8890572027
 21
133.5236120874
  0
LINE
  8
3
  6
CONTINUOUS
 62
3
 10
712.3890572027
 20
130.0236120874
 11
700.8890572027
 21
130.0236120874
  0
LINE
  8
3
  6
CONTINUOUS
 62
3
 10
697.3890572027
 20
133.5236120874
 11
697.3890572027
 21
146.5236120874
  0
ARC
  8
3
  6
CONTINUOUS
 62
3
 10
700.8890572027
 20
146.5236120874
 40
3.5000000000
 50
90.0000000000
 51
180.0000000000
  0
ARC
  8
3
  6
CONTINUOUS
 62
3
 10
700.8890572027
 20
133.5236120874
 40
3.5000000000
 50
180.0000000000
 51
270.0000000000
  0
ARC
  8
3
  6
CONTINUOUS
 62
3
 10
712.3890572027
 20
133.5236120874
 40
3.5000000000
 50
270.0000000000
 51
0.0000000000
  0
ARC
  8
3
  6
CONTINUOUS
 62
3
 10
712.3890572027
 20
146.5236120874
 40
3.5000000000
 50
0.0000000000
 51
90.0000000000
  0
LINE
  8
3
  6
CONTINUOUS
 62
3
 10
711.6390572027
 20
148.2236120874
 11
701.6390572027
 21
148.2236120874
  0
LINE
  8
3
  6
CONTINUOUS
 62
3
 10
712.6390572027
 20
147.2236120874
 11
712.6390572027
 21
144.2236120874
  0
LINE
  8
3
  6
CONTINUOUS
 62
3
 10
711.6390572027
 20
143.2236120874
 11
701.6390572027
 21
143.2236120874
  0
LINE
  8
3
  6
CONTINUOUS
 62
3
 10
700.6390572027
 20
144.2236120874
 11
700.6390572027
 21
147.2236120874
  0
ARC
  8
3
  6
CONTINUOUS
 62
3
 10
701.6390572027
 20
147.2236120874
 40
1.0000000000
 50
90.0000000000
 51
180.0000000000
  0
ARC
  8
3
  6
CONTINUOUS
 62
3
 10
701.6390572027
 20
144.2236120874
 40
1.0000000000
 50
180.0000000000
 51
270.0000000000
  0
ARC
  8
3
  6
CONTINUOUS
 62
3
 10
711.6390572027
 20
144.2236120874
 40
1.0000000000
 50
270.0000000000
 51
0.0000000000
  0
ARC
  8
3
  6
CONTINUOUS
 62
3
 10
711.6390572027
 20
147.2236120874
 40
1.0000000000
 50
0.0000000000
 51
90.0000000000
  0
LINE
  8
3
  6
CONTINUOUS
 62
3
 10
712.8890572027
 20
138.5236120874
 11
700.3890572027
 21
138.5236120874
  0
LINE
  8
3
  6
CONTINUOUS
 62
3
 10
713.8890572027
 20
137.5236120874
 11
713.8890572027
 21
133.0236120874
  0
LINE
  8
3
  6
CONTINUOUS
 62
3
 10
712.8890572027
 20
132.0236120874
 11
700.3890572027
 21
132.0236120874
  0
LINE
  8
3
  6
CONTINUOUS
 62
3
 10
699.3890572027
 20
133.0236120874
 11
699.3890572027
 21
137.5236120874
  0
ARC
  8
3
  6
CONTINUOUS
 62
3
 10
700.3890572027
 20
137.5236120874
 40
1.0000000000
 50
90.0000000000
 51
180.0000000000
  0
ARC
  8
3
  6
CONTINUOUS
 62
3
 10
700.3890572027
 20
133.0236120874
 40
1.0000000000
 50
180.0000000000
 51
270.0000000000
  0
ARC
  8
3
  6
CONTINUOUS
 62
3
 10
712.8890572027
 20
133.0236120874
 40
1.0000000000
 50
270.0000000000
 51
0.0000000000
  0
ARC
  8
3
  6
CONTINUOUS
 62
3
 10
712.8890572027
 20
137.5236120874
 40
1.0000000000
 50
0.0000000000
 51
90.0000000000
  0
TEXT
  8
3
  6
CONTINUOUS
 62
3
 10
702.789057
 20
145.873612
 40
2.200000
  1
T E S T
 41
0.774336
 50
0.000000
 51
0.000000
 72
   5
 73
   0
 11
710.489057
 21
145.873612
  0
TEXT
  8
3
  6
CONTINUOUS
 62
3
 10
710.489057
 20
145.573612
 40
2.200000
  1
T E S T
 41
0.774336
 50
180.000000
 51
0.000000
 72
   5
 73
   0
 11
702.789057
 21
145.573612
  0
TEXT
  8
3
  6
CONTINUOUS
 62
3
 10
701.014057
 20
135.648612
 40
2.500000
  1
R E S E T
 41
0.767918
 50
0.000000
 51
0.000000
 72
   5
 73
   0
 11
712.264057
 21
135.648612
  0
TEXT
  8
3
  6
CONTINUOUS
 62
3
 10
712.264057
 20
134.898612
 40
2.500000
  1
R E S E T
 41
0.767918
 50
180.000000
 51
0.000000
 72
   5
 73
   0
 11
701.014057
 21
134.898612
  0
TEXT
  8
3
  6
CONTINUOUS
 62
3
 10
718.889057
 20
149.723612
 40
1.800000
  1
REPLACE
 41
0.774336
 50
270.000000
 51
0.000000
 72
   5
 73
   0
 11
718.889057
 21
143.423612
  0
TEXT
  8
3
  6
CONTINUOUS
 62
3
 10
717.089057
 20
149.723612
 40
1.800000
  1
IF LIGHT
 41
0.770713
 50
270.000000
 51
0.000000
 72
   5
 73
   0
 11
717.089057
 21
142.523612
  0
TEXT
  8
3
  6
CONTINUOUS
 62
3
 10
718.889057
 20
136.023612
 40
1.800000
  1
GFCI
 41
0.796813
 50
270.000000
 51
0.000000
 72
   5
 73
   0
 11
718.889057
 21
132.423612
  0
TEXT
  8
3
  6
CONTINUOUS
 62
3
 10
717.089057
 20
136.023612
 40
1.800000
  1
PLASHES
 41
0.774336
 50
270.000000
 51
0.000000
 72
   5
 73
   0
 11
717.089057
 21
129.723612
  0
TEXT
  8
3
  6
CONTINUOUS
 62
3
 10
693.264057
 20
131.948612
 40
1.900000
  1
SEE  INSTRUCTIONS
 41
0.757576
 50
90.000000
 51
0.000000
 72
   5
 73
   0
 11
693.264057
 21
148.098612
  0
TEXT
  8
3
  6
CONTINUOUS
 62
3
 10
696.164057
 20
131.948612
 40
1.900000
  1
  TEST  MONTHLY
 41
0.759109
 50
90.000000
 51
0.000000
 72
   5
 73
   0
 11
696.164057
 21
146.198612
  0
POINT
  8
3
  6
CONTINUOUS
 62
7
 10
706.6390572027
 20
140.0236120874
  0
LINE
  8
3
  6
CONTINUOUS
 62
5
 10
690.1290572027
 20
108.2496120874
 11
690.1290572027
 21
171.7976120874
  0
LINE
  8
3
  6
CONTINUOUS
 62
5
 10
723.1490572027
 20
108.2496120874
 11
723.1490572027
 21
171.7976120874
  0
ARC
  8
3
  6
CONTINUOUS
 62
5
 10
691.6290572027
 20
171.7976120874
 40
1.5000000000
 50
90.0000000000
 51
180.0000000000
  0
ARC
  8
3
  6
CONTINUOUS
 62
5
 10
721.6490572027
 20
171.7976120874
 40
1.5000000000
 50
0.0000000000
 51
90.0000000000
  0
ARC
  8
3
  6
CONTINUOUS
 62
5
 10
721.6490572027
 20
108.2496120874
 40
1.5000000000
 50
270.0000000000
 51
0.0000000000
  0
ARC
  8
3
  6
CONTINUOUS
 62
5
 10
691.6290572027
 20
108.2496120874
 40
1.5000000000
 50
180.0000000000
 51
270.0000000000
  0
CIRCLE
  8
3
  6
CONTINUOUS
 62
6
 10
706.6390572027
 20
188.2736120874
 40
3.9000000000
  0
LINE
  8
3
  6
CONTINUOUS
 62
6
 10
704.9154844236
 20
189.9971848666
 11
708.3626299819
 21
186.5500393083
  0
LINE
  8
3
  6
CONTINUOUS
 62
6
 10
704.9154844236
 20
186.5500393083
 11
708.3626299819
 21
189.9971848666
  0
CIRCLE
  8
3
  6
CONTINUOUS
 62
6
 10
706.6390572027
 20
188.2736120874
 40
3.4125000000
  0
CIRCLE
  8
3
  6
CONTINUOUS
 62
6
 10
706.6390572027
 20
91.7736120874
 40
3.9000000000
  0
LINE
  8
3
  6
CONTINUOUS
 62
6
 10
704.9154844236
 20
90.0500393083
 11
708.3626299819
 21
93.4971848666
  0
CIRCLE
  8
3
  6
CONTINUOUS
 62
6
 10
706.6390572027
 20
91.7736120874
 40
3.4125000000
  0
LINE
  8
3
  6
CONTINUOUS
 62
7
 10
689.8890572027
 20
173.5236120874
 11
723.3890572027
 21
173.5236120874
  0
LINE
  8
3
  6
CONTINUOUS
 62
7
 10
723.3890572027
 20
173.5236120874
 11
723.3890572027
 21
106.5236120874
  0
LINE
  8
3
  6
CONTINUOUS
 62
7
 10
723.3890572027
 20
106.5236120874
 11
689.8890572027
 21
106.5236120874
  0
LINE
  8
3
  6
CONTINUOUS
 62
7
 10
689.8890572027
 20
106.5236120874
 11
689.8890572027
 21
173.5236120874
  0
LINE
  8
3
  6
CONTINUOUS
 62
7
 10
680.3890572027
 20
193.0236120874
 11
732.8890572027
 21
193.0236120874
  0
LINE
  8
3
  6
CONTINUOUS
 62
7
 10
733.8890572027
 20
192.0236120874
 11
733.8890572027
 21
88.0236120874
  0
LINE
  8
3
  6
CONTINUOUS
 62
7
 10
732.8890572027
 20
87.0236120874
 11
680.3890572027
 21
87.0236120874
  0
LINE
  8
3
  6
CONTINUOUS
 62
7
 10
679.3890572027
 20
88.0236120874
 11
679.3890572027
 21
192.0236120874
  0
LINE
  8
3
  6
CONTINUOUS
 62
7
 10
733.8890572027
 20
88.0236120874
 11
732.8890572027
 21
87.0236120874
  0
LINE
  8
3
  6
CONTINUOUS
 62
7
 10
733.8890572027
 20
192.0236120874
 11
732.8890572027
 21
193.0236120874
  0
LINE
  8
3
  6
CONTINUOUS
 62
7
 10
679.3890572027
 20
192.0236120874
 11
680.3890572027
 21
193.0236120874
  0
LINE
  8
3
  6
CONTINUOUS
 62
7
 10
679.3890572027
 20
88.0236120874
 11
680.3890572027
 21
87.0236120874
  0
POINT
  8
3
  6
CONTINUOUS
 62
7
 10
706.6390572027
 20
140.0236120874
  0
POINT
  8
3
  6
CONTINUOUS
 62
7
 10
693.1390572027
 20
189.5236120874
  0
POINT
  8
3
  6
CONTINUOUS
 62
7
 10
720.1390572027
 20
189.5236120874
  0
POINT
  8
3
  6
CONTINUOUS
 62
7
 10
720.1390572027
 20
90.5236120874
  0
POINT
  8
3
  6
CONTINUOUS
 62
7
 10
693.1390572027
 20
90.5236120874
  0
LINE
  8
3
  6
CONTINUOUS
 62
6
 10
704.9154844236
 20
93.4971848666
 11
708.3626299819
 21
90.0500393083
  0
CIRCLE
  8
3
  6
CONTINUOUS
 62
6
 10
693.1390572027
 20
189.5236120874
 40
3.0285714286
  0
LINE
  8
3
  6
CONTINUOUS
 62
6
 10
691.8006050812
 20
190.8620642089
 11
694.4775093243
 21
188.1851599659
  0
LINE
  8
3
  6
CONTINUOUS
 62
6
 10
691.8006050812
 20
188.1851599659
 11
694.4775093243
 21
190.8620642089
  0
CIRCLE
  8
3
  6
CONTINUOUS
 62
6
 10
693.1390572027
 20
189.5236120874
 40
2.6500000000
  0
CIRCLE
  8
3
  6
CONTINUOUS
 62
6
 10
720.1390572027
 20
189.5236120874
 40
3.0285714286
  0
LINE
  8
3
  6
CONTINUOUS
 62
6
 10
718.8006050812
 20
190.8620642089
 11
721.4775093243
 21
188.1851599659
  0
LINE
  8
3
  6
CONTINUOUS
 62
6
 10
718.8006050812
 20
188.1851599659
 11
721.4775093243
 21
190.8620642089
  0
CIRCLE
  8
3
  6
CONTINUOUS
 62
6
 10
720.1390572027
 20
189.5236120874
 40
2.6500000000
  0
CIRCLE
  8
3
  6
CONTINUOUS
 62
6
 10
720.1390572027
 20
90.5236120874
 40
3.0285714286
  0
LINE
  8
3
  6
CONTINUOUS
 62
6
 10
718.8006050812
 20
91.8620642089
 11
721.4775093243
 21
89.1851599659
  0
LINE
  8
3
  6
CONTINUOUS
 62
6
 10
718.8006050812
 20
89.1851599659
 11
721.4775093243
 21
91.8620642089
  0
CIRCLE
  8
3
  6
CONTINUOUS
 62
6
 10
720.1390572027
 20
90.5236120874
 40
2.6500000000
  0
CIRCLE
  8
3
  6
CONTINUOUS
 62
6
 10
693.1390572027
 20
90.5236120874
 40
3.0285714286
  0
LINE
  8
3
  6
CONTINUOUS
 62
6
 10
691.8006050812
 20
91.8620642089
 11
694.4775093243
 21
89.1851599659
  0
LINE
  8
3
  6
CONTINUOUS
 62
6
 10
691.8006050812
 20
89.1851599659
 11
694.4775093243
 21
91.8620642089
  0
CIRCLE
  8
3
  6
CONTINUOUS
 62
6
 10
693.1390572027
 20
90.5236120874
 40
2.6500000000
  0
LINE
  8
3
  6
HIDDEN
 62
6
 10
703.6390572027
 20
191.8396120874
 11
699.6390572027
 21
189.8396120874
  0
LINE
  8
3
  6
HIDDEN
 62
6
 10
699.6390572027
 20
189.8396120874
 11
697.1390572027
 21
182.8396120874
  0
LINE
  8
3
  6
HIDDEN
 62
6
 10
697.1390572026
 20
182.8396120874
 11
697.1390572027
 21
173.2976120874
  0
LINE
  8
3
  6
HIDDEN
 62
6
 10
709.6390572027
 20
191.8396120874
 11
713.6390572027
 21
189.8396120874
  0
LINE
  8
3
  6
HIDDEN
 62
6
 10
713.6390572027
 20
189.8396120874
 11
716.1390572027
 21
182.8396120874
  0
LINE
  8
3
  6
HIDDEN
 62
6
 10
716.1390572027
 20
182.8396120874
 11
716.1390572027
 21
173.2976120874
  0
LINE
  8
3
  6
HIDDEN
 62
6
 10
709.6390572027
 20
191.8396120874
 11
703.6390572027
 21
191.8396120874
  0
ARC
  8
3
  6
HIDDEN
 62
6
 10
708.0240572027
 20
181.6796120874
 40
2.5400000000
 50
270.0000000000
 51
90.0000000000
  0
ARC
  8
3
  6
HIDDEN
 62
6
 10
705.2540572027
 20
181.6796120874
 40
2.5400000000
 50
90.0000000000
 51
270.0000000000
  0
LINE
  8
3
  6
HIDDEN
 62
6
 10
705.2540572027
 20
184.2196120874
 11
708.0240572027
 21
184.2196120874
  0
LINE
  8
3
  6
HIDDEN
 62
6
 10
708.0240572027
 20
179.1396120874
 11
705.2540572027
 21
179.1396120874
  0
CIRCLE
  8
3
  6
HIDDEN
 62
6
 10
706.6390572027
 20
188.4106120874
 40
1.5000000000
  0
LINE
  8
3
  6
HIDDEN
 62
6
 10
703.6390572027
 20
88.2076120874
 11
699.6390572027
 21
90.2076120874
  0
LINE
  8
3
  6
HIDDEN
 62
6
 10
699.6390572027
 20
90.2076120874
 11
697.1390572027
 21
97.2076120874
  0
LINE
  8
3
  6
HIDDEN
 62
6
 10
709.6390572027
 20
88.2076120874
 11
713.6390572027
 21
90.2076120874
  0
LINE
  8
3
  6
HIDDEN
 62
6
 10
713.6390572027
 20
90.2076120874
 11
716.1390572027
 21
97.2076120874
  0
LINE
  8
3
  6
HIDDEN
 62
6
 10
709.6390572027
 20
88.2076120874
 11
703.6390572027
 21
88.2076120874
  0
ARC
  8
3
  6
HIDDEN
 62
6
 10
708.0240572027
 20
98.3676120874
 40
2.5400000000
 50
270.0000000000
 51
90.0000000000
  0
ARC
  8
3
  6
HIDDEN
 62
6
 10
705.2540572027
 20
98.3676120874
 40
2.5400000000
 50
90.0000000000
 51
270.0000000000
  0
LINE
  8
3
  6
HIDDEN
 62
6
 10
705.2540572027
 20
95.8276120874
 11
708.0240572027
 21
95.8276120874
  0
LINE
  8
3
  6
HIDDEN
 62
6
 10
708.0240572027
 20
100.9076120874
 11
705.2540572027
 21
100.9076120874
  0
CIRCLE
  8
3
  6
HIDDEN
 62
6
 10
706.6390572027
 20
91.6366120874
 40
1.5000000000
  0
LINE
  8
3
  6
HIDDEN
 62
6
 10
716.1390572027
 20
97.2076120874
 11
716.1390572027
 21
106.7496120874
  0
LINE
  8
3
  6
HIDDEN
 62
6
 10
697.1390572026
 20
97.2076120874
 11
697.1390572027
 21
106.7496120874
  0
INSERT
  8
3
  6
CONTINUOUS
 62
5
  2
BALN3
 10
686.6390572027
 20
189.5236120874
  0
INSERT
  8
3
  6
CONTINUOUS
 62
5
  2
BALN4
 10
693.1390572027
 20
192.5521835160
  0
TEXT
  8
5
  6
CONTINUOUS
 62
7
 10
791.940956
 20
245.856085
 40
3.000000
  1
パネル
 41
0.877246
 50
0.000000
 51
0.000000
 72
   5
 73
   0
 11
800.730956
 21
245.856085
  0
TEXT
  8
5
  6
CONTINUOUS
 62
7
 10
791.940956
 20
240.856085
 40
3.000000
  1
ACｱｳﾄﾚｯﾄ
 41
0.872254
 50
0.000000
 51
0.000000
 72
   5
 73
   0
 11
805.521956
 21
240.856085
  0
TEXT
  8
5
  6
CONTINUOUS
 62
7
 10
791.940956
 20
235.856085
 40
3.000000
  1
↑固定ビス
 41
0.839085
 50
0.000000
 51
0.000000
 72
   5
 73
   0
 11
806.238956
 21
235.856085
  0
TEXT
  8
5
  6
CONTINUOUS
 62
7
 10
811.940956
 20
235.606085
 40
3.500000
  1
#6-32  5/16
 41
0.709583
 50
0.000000
 51
0.000000
 72
   5
 73
   0
 11
829.822456
 21
235.606085
  0
TEXT
  8
5
  6
CONTINUOUS
 62
7
 10
811.940956
 20
240.606085
 40
3.500000
  1
GF15ILA
 41
0.807080
 50
0.000000
 51
0.000000
 72
   5
 73
   0
 11
824.708956
 21
240.606085
  0
TEXT
  8
5
  6
CONTINUOUS
 62
7
 10
811.940956
 20
245.606085
 40
3.500000
  1
M0051B300A (SPCCt=1.6)
 41
0.756829
 50
0.000000
 51
0.000000
 72
   5
 73
   0
 11
850.535456
 21
245.606085
  0
TEXT
  8
5
  6
CONTINUOUS
 62
7
 10
851.940956
 20
240.856085
 40
3.000000
  1
HUBBELL
 41
0.928982
 50
0.000000
 51
0.000000
 72
   5
 73
   0
 11
864.537956
 21
240.856085
  0
TEXT
  8
5
  6
CONTINUOUS
 62
7
 10
851.940956
 20
245.856085
 40
3.000000
  1
MADOKA
 41
1.028831
 50
0.000000
 51
0.000000
 72
   5
 73
   0
 11
863.823956
 21
245.856085
  0
TEXT
  8
5
  6
CONTINUOUS
 62
7
 10
867.565956
 20
245.606085
 40
3.500000
  1
1
 41
1.000000
 50
0.000000
 51
0.000000
 72
   5
 73
   0
 11
869.315956
 21
245.606085
  0
TEXT
  8
5
  6
CONTINUOUS
 62
7
 10
867.565956
 20
240.606085
 40
3.500000
  1
1
 41
1.000000
 50
0.000000
 51
0.000000
 72
   5
 73
   0
 11
869.315956
 21
240.606085
  0
TEXT
  8
5
  6
CONTINUOUS
 62
7
 10
867.565956
 20
235.606085
 40
3.500000
  1
2
 41
1.000000
 50
0.000000
 51
0.000000
 72
   5
 73
   0
 11
869.315956
 21
235.606085
  0
INSERT
  8
3
  6
CONTINUOUS
 62
5
  2
BALN5
 10
718.0973462023
 20
178.4263828043
  0
INSERT
  8
3
  6
CONTINUOUS
 62
5
  2
BALN6
 10
706.6390572027
 20
192.1736120874
  0
LINE
  8
1
  6
CONTINUOUS
 62
7
 10
771.8698586571
 20
96.5236133391
 11
771.8698586571
 21
103.5236126239
  0
ARC
  8
1
  6
CONTINUOUS
 62
7
 10
772.8698559152
 20
96.5236120874
 40
1.0000000000
 50
180.0000000000
 51
270.0000000000
  0
ARC
  8
1
  6
CONTINUOUS
 62
7
 10
772.8698559152
 20
103.5236120874
 40
1.0000000000
 50
90.0000000000
 51
180.0000000000
  0
LINE
  8
1
  6
CONTINUOUS
 62
7
 10
775.8698593127
 20
95.5236113126
 11
772.8698532330
 21
95.5236113126
  0
LINE
  8
1
  6
CONTINUOUS
 62
7
 10
772.8698532330
 20
104.5236109251
 11
775.8698593127
 21
104.5236109251
  0
ARC
  8
1
  6
CONTINUOUS
 62
7
 10
775.8698559152
 20
103.5236120873
 40
1.0000000001
 50
0.0000000000
 51
90.0000000000
  0
ARC
  8
1
  6
CONTINUOUS
 62
7
 10
775.8698559152
 20
96.5236120874
 40
1.0000000000
 50
270.0000000000
 51
0.0000000000
  0
LINE
  8
1
  6
CONTINUOUS
 62
7
 10
776.8698538887
 20
103.5236126239
 11
776.8698538887
 21
96.5236133391
  0
ARC
  8
1
  6
CONTINUOUS
 62
7
 10
819.8698559152
 20
176.5236120874
 40
1.0000000000
 50
180.0000000000
 51
270.0000000000
  0
ARC
  8
1
  6
CONTINUOUS
 62
7
 10
819.8698559152
 20
183.5236120874
 40
1.0000000000
 50
90.0000000000
 51
180.0000000000
  0
LINE
  8
1
  6
CONTINUOUS
 62
7
 10
818.8698551851
 20
176.5236115510
 11
818.8698551851
 21
183.5236108357
  0
LINE
  8
1
  6
CONTINUOUS
 62
7
 10
822.8698558407
 20
175.5236132497
 11
819.8698553490
 21
175.5236132497
  0
LINE
  8
1
  6
CONTINUOUS
 62
7
 10
819.8698553490
 20
184.5236128623
 11
822.8698558407
 21
184.5236128623
  0
ARC
  8
1
  6
CONTINUOUS
 62
7
 10
822.8698559152
 20
183.5236120874
 40
1.0000000000
 50
0.0000000000
 51
90.0000000000
  0
ARC
  8
1
  6
CONTINUOUS
 62
7
 10
822.8698559152
 20
176.5236120874
 40
1.0000000000
 50
270.0000000000
 51
0.0000000000
  0
LINE
  8
1
  6
CONTINUOUS
 62
7
 10
823.8698560047
 20
183.5236108357
 11
823.8698560047
 21
176.5236115510
  0
POLYLINE
  8
1
  6
CONTINUOUS
 62
7
 66
     1
 70
     0
  0
VERTEX
  8
1
 62
7
 10
846.3748187499
 20
78.2736095874
 42
0.0791243434
  0
VERTEX
  8
1
 62
7
 10
846.6873881742
 20
78.3236202087
 42
0.1174683520
  0
VERTEX
  8
1
 62
7
 10
847.0790103120
 20
78.5644534125
 42
0.1174683520
  0
VERTEX
  8
1
 62
7
 10
847.3198445047
 20
78.9560749423
 42
0.0808607469
  0
VERTEX
  8
1
 62
7
 10
847.3698559153
 20
79.2686467776
 42
0.0012374534
  0
SEQEND
  8
1
  0
LINE
  8
1
  6
CONTINUOUS
 62
7
 10
846.3748185197
 20
78.2736098820
 11
761.3648901927
 21
78.2736098820
  0
LINE
  8
1
  6
CONTINUOUS
 62
7
 10
760.3698577034
 20
79.2686460966
 11
760.3698577034
 21
127.5236119012
  0
LINE
  8
1
  6
CONTINUOUS
 62
7
 10
760.3698577034
 20
127.5236119012
 11
762.3698543059
 21
127.5236119012
  0
LINE
  8
1
  6
CONTINUOUS
 62
7
 10
762.3698543059
 20
127.5236119012
 11
762.3698543059
 21
152.5236122737
  0
LINE
  8
1
  6
CONTINUOUS
 62
7
 10
760.3698577034
 20
152.5236122737
 11
762.3698543059
 21
152.5236122737
  0
LINE
  8
1
  6
CONTINUOUS
 62
7
 10
760.3698577034
 20
152.5236122737
 11
760.3698577034
 21
200.7785780782
  0
LINE
  8
1
  6
CONTINUOUS
 62
7
 10
846.3748185197
 20
201.7736142928
 11
761.3648901927
 21
201.7736142928
  0
POLYLINE
  8
1
  6
CONTINUOUS
 62
7
 66
     1
 70
     0
  0
VERTEX
  8
1
 62
7
 10
847.3698559153
 20
200.7785773972
 42
0.0796153609
  0
VERTEX
  8
1
 62
7
 10
847.3198445047
 20
201.0911492326
 42
0.1174683520
  0
VERTEX
  8
1
 62
7
 10
847.0790103120
 20
201.4827707623
 42
0.1174683520
  0
VERTEX
  8
1
 62
7
 10
846.6873881742
 20
201.7236039661
 42
0.0808607469
  0
VERTEX
  8
1
 62
7
 10
846.3748187499
 20
201.7736145874
 42
0.0012379529
  0
SEQEND
  8
1
  0
LINE
  8
1
  6
CONTINUOUS
 62
7
 10
847.3698561313
 20
200.7785780782
 11
847.3698561313
 21
79.2686460966
  0
ARC
  8
1
  6
CONTINUOUS
 62
7
 10
767.3698559153
 20
84.2736120874
 40
4.0000000000
 50
180.0000000000
 51
270.0000000000
  0
LINE
  8
1
  6
CONTINUOUS
 62
7
 10
767.3698569881
 20
80.2736139352
 11
828.3698558109
 21
80.2736139352
  0
ARC
  8
1
  6
CONTINUOUS
 62
7
 10
828.3698559152
 20
84.2736120874
 40
4.0000000000
 50
270.0000000000
 51
0.0000000000
  0
LINE
  8
1
  6
CONTINUOUS
 62
7
 10
832.3698555353
 20
84.2736108655
 11
832.3698555353
 21
195.7736133093
  0
ARC
  8
1
  6
CONTINUOUS
 62
7
 10
828.3698559152
 20
195.7736120874
 40
4.0000000000
 50
0.0000000000
 51
90.0000000000
  0
LINE
  8
1
  6
CONTINUOUS
 62
7
 10
828.3698558109
 20
199.7736102397
 11
767.3698569881
 21
199.7736102397
  0
ARC
  8
1
  6
CONTINUOUS
 62
7
 10
767.3698559153
 20
195.7736120874
 40
4.0000000000
 50
90.0000000000
 51
180.0000000000
  0
LINE
  8
1
  6
CONTINUOUS
 62
7
 10
763.3698563325
 20
195.7736133093
 11
763.3698563325
 21
84.2736108655
  0
POLYLINE
  8
1
  6
CONTINUOUS
 62
7
 66
     1
 70
     0
  0
VERTEX
  8
1
 62
7
 10
760.3698559152
 20
79.2686467776
 42
0.0791249785
  0
VERTEX
  8
1
 62
7
 10
760.4198673258
 20
78.9560749423
 42
0.1174683520
  0
VERTEX
  8
1
 62
7
 10
760.6607015184
 20
78.5644534125
 42
0.1174683520
  0
VERTEX
  8
1
 62
7
 10
761.0523236563
 20
78.3236202087
 42
0.0808607469
  0
VERTEX
  8
1
 62
7
 10
761.3648930806
 20
78.2736095874
 42
0.0012380847
  0
SEQEND
  8
1
  0
POLYLINE
  8
1
  6
CONTINUOUS
 62
7
 66
     1
 70
     0
  0
VERTEX
  8
1
 62
7
 10
761.3648930806
 20
201.7736145874
 42
0.0796147256
  0
VERTEX
  8
1
 62
7
 10
761.0523236563
 20
201.7236039661
 42
0.1174683520
  0
VERTEX
  8
1
 62
7
 10
760.6607015184
 20
201.4827707623
 42
0.1174683520
  0
VERTEX
  8
1
 62
7
 10
760.4198673258
 20
201.0911492326
 42
0.0808607469
  0
VERTEX
  8
1
 62
7
 10
760.3698559152
 20
200.7785773972
 42
0.0012373216
  0
SEQEND
  8
1
  0
LINE
  8
1
  6
CONTINUOUS
 62
7
 10
829.3698559749
 20
84.2736108655
 11
829.3698559749
 21
195.7736133093
  0
ARC
  8
1
  6
CONTINUOUS
 62
7
 10
828.3698559152
 20
84.2736120874
 40
1.0000000000
 50
270.0000000000
 51
0.0000000000
  0
LINE
  8
1
  6
CONTINUOUS
 62
7
 10
767.3698569881
 20
83.2736125643
 11
828.3698558109
 21
83.2736125643
  0
ARC
  8
1
  6
CONTINUOUS
 62
7
 10
767.3698559153
 20
84.2736120874
 40
1.0000000000
 50
180.0000000000
 51
270.0000000000
  0
LINE
  8
1
  6
CONTINUOUS
 62
7
 10
766.3698549616
 20
195.7736133093
 11
766.3698549616
 21
84.2736108655
  0
ARC
  8
1
  6
CONTINUOUS
 62
7
 10
767.3698559153
 20
195.7736120874
 40
1.0000000000
 50
90.0000000000
 51
180.0000000000
  0
LINE
  8
1
  6
CONTINUOUS
 62
7
 10
828.3698558109
 20
196.7736116106
 11
767.3698569881
 21
196.7736116106
  0
ARC
  8
1
  6
CONTINUOUS
 62
7
 10
828.3698559152
 20
195.7736120874
 40
1.0000000000
 50
0.0000000000
 51
90.0000000000
  0
LINE
  8
1
  6
CONTINUOUS
 62
7
 10
810.8698557364
 20
184.5236128623
 11
818.8698551851
 21
184.5236128623
  0
LINE
  8
1
  6
CONTINUOUS
 62
7
 10
807.8698571073
 20
187.5236114914
 11
810.8698557364
 21
184.5236128623
  0
LINE
  8
1
  6
CONTINUOUS
 62
7
 10
807.8698571073
 20
193.2736119682
 11
807.8698571073
 21
187.5236114914
  0
LINE
  8
1
  6
CONTINUOUS
 62
7
 10
787.8698575544
 20
193.2736119682
 11
807.8698571073
 21
193.2736119682
  0
LINE
  8
1
  6
CONTINUOUS
 62
7
 10
787.8698575544
 20
187.5236114914
 11
787.8698575544
 21
193.2736119682
  0
LINE
  8
1
  6
CONTINUOUS
 62
7
 10
784.8698552000
 20
184.5236128623
 11
787.8698575544
 21
187.5236114914
  0
LINE
  8
1
  6
CONTINUOUS
 62
7
 10
772.8698532330
 20
184.5236128623
 11
784.8698552000
 21
184.5236128623
  0
ARC
  8
1
  6
CONTINUOUS
 62
7
 10
772.8698559152
 20
183.5236120874
 40
1.0000000000
 50
90.0000000000
 51
180.0000000000
  0
LINE
  8
1
  6
CONTINUOUS
 62
7
 10
771.8698586571
 20
104.5236109251
 11
771.8698586571
 21
183.5236108357
  0
LINE
  8
1
  6
CONTINUOUS
 62
7
 10
784.8698552000
 20
95.5236113126
 11
776.8698538887
 21
95.5236113126
  0
LINE
  8
1
  6
CONTINUOUS
 62
7
 10
787.8698575544
 20
92.5236126835
 11
784.8698552000
 21
95.5236113126
  0
LINE
  8
1
  6
CONTINUOUS
 62
7
 10
787.8698575544
 20
86.7736122066
 11
787.8698575544
 21
92.5236126835
  0
LINE
  8
1
  6
CONTINUOUS
 62
7
 10
807.8698571073
 20
86.7736122066
 11
787.8698575544
 21
86.7736122066
  0
LINE
  8
1
  6
CONTINUOUS
 62
7
 10
807.8698571073
 20
92.5236126835
 11
807.8698571073
 21
86.7736122066
  0
LINE
  8
1
  6
CONTINUOUS
 62
7
 10
810.8698557364
 20
95.5236113126
 11
807.8698571073
 21
92.5236126835
  0
LINE
  8
1
  6
CONTINUOUS
 62
7
 10
822.8698558407
 20
95.5236113126
 11
810.8698557364
 21
95.5236113126
  0
ARC
  8
1
  6
CONTINUOUS
 62
7
 10
822.8698559152
 20
96.5236120874
 40
1.0000000000
 50
270.0000000000
 51
0.0000000000
  0
LINE
  8
1
  6
CONTINUOUS
 62
7
 10
823.8698560047
 20
175.5236132497
 11
823.8698560047
 21
96.5236133391
  0
LINE
  8
1
  6
CONTINUOUS
 62
7
 10
822.8698558407
 20
175.5236132497
 11
823.8698560047
 21
175.5236132497
  0
LINE
  8
1
  6
CONTINUOUS
 62
7
 10
818.8698551851
 20
184.5236128623
 11
818.8698551851
 21
183.5236108357
  0
LINE
  8
1
  6
CONTINUOUS
 62
7
 10
776.8698538887
 20
95.5236113126
 11
776.8698538887
 21
96.5236133391
  0
LINE
  8
1
  6
CONTINUOUS
 62
7
 10
772.8698532330
 20
104.5236109251
 11
771.8698586571
 21
104.5236109251
  0
LINE
  8
1
  6
CONTINUOUS
 62
7
 10
761.1198554980
 20
127.5236119012
 11
761.1198554980
 21
152.5236122737
  0
CIRCLE
  8
1
  6
CONTINUOUS
 62
7
 10
784.3698573309
 20
189.5236120874
 40
1.2500000000
  0
CIRCLE
  8
1
  6
HIDDEN
 62
7
 10
784.3698573309
 20
189.5236120874
 40
1.5000000000
  0
CIRCLE
  8
1
  6
HIDDEN
 62
7
 10
777.8698573309
 20
189.5236120874
 40
3.2500000000
  0
CIRCLE
  8
1
  6
CONTINUOUS
 62
7
 10
777.8698573309
 20
189.5236120874
 40
1.7500000000
  0
CIRCLE
  8
1
  6
CONTINUOUS
 62
7
 10
811.3698573309
 20
189.5236120874
 40
1.2500000000
  0
CIRCLE
  8
1
  6
HIDDEN
 62
7
 10
811.3698573309
 20
189.5236120874
 40
1.5000000000
  0
CIRCLE
  8
1
  6
HIDDEN
 62
7
 10
817.8698573309
 20
189.5236120874
 40
3.2500000000
  0
CIRCLE
  8
1
  6
CONTINUOUS
 62
7
 10
817.8698573309
 20
189.5236120874
 40
1.7500000000
  0
CIRCLE
  8
1
  6
CONTINUOUS
 62
7
 10
784.3698573309
 20
90.5236120874
 40
1.2500000000
  0
CIRCLE
  8
1
  6
HIDDEN
 62
7
 10
784.3698573309
 20
90.5236120874
 40
1.5000000000
  0
CIRCLE
  8
1
  6
HIDDEN
 62
7
 10
777.8698573309
 20
90.5236120874
 40
3.2500000000
  0
CIRCLE
  8
1
  6
CONTINUOUS
 62
7
 10
777.8698573309
 20
90.5236120874
 40
1.7500000000
  0
CIRCLE
  8
1
  6
CONTINUOUS
 62
7
 10
811.3698573309
 20
90.5236120874
 40
1.2500000000
  0
CIRCLE
  8
1
  6
HIDDEN
 62
7
 10
811.3698573309
 20
90.5236120874
 40
1.5000000000
  0
CIRCLE
  8
1
  6
HIDDEN
 62
7
 10
817.8698573309
 20
90.5236120874
 40
3.2500000000
  0
CIRCLE
  8
1
  6
CONTINUOUS
 62
7
 10
817.8698573309
 20
90.5236120874
 40
1.7500000000
  0
LINE
  8
3
  6
CONTINUOUS
 62
7
 10
819.4598573309
 20
105.7336120874
 11
776.2798573309
 21
105.7336120874
  0
LINE
  8
3
  6
CONTINUOUS
 62
6
 10
794.8698573309
 20
191.8396120874
 11
790.8698573309
 21
189.8396120874
  0
LINE
  8
3
  6
CONTINUOUS
 62
6
 10
790.8698573309
 20
189.8396120874
 11
788.3698573309
 21
182.8396120874
  0
LINE
  8
3
  6
CONTINUOUS
 62
6
 10
788.3698573307
 20
182.8396120874
 11
788.3698573308
 21
174.3136120874
  0
LINE
  8
3
  6
CONTINUOUS
 62
6
 10
800.8698573309
 20
191.8396120874
 11
804.8698573309
 21
189.8396120874
  0
LINE
  8
3
  6
CONTINUOUS
 62
6
 10
804.8698573309
 20
189.8396120874
 11
807.3698573309
 21
182.8396120874
  0
LINE
  8
3
  6
CONTINUOUS
 62
6
 10
807.3698573309
 20
182.8396120874
 11
807.3698573308
 21
174.3136120874
  0
LINE
  8
3
  6
CONTINUOUS
 62
6
 10
800.8698573309
 20
191.8396120874
 11
794.8698573309
 21
191.8396120874
  0
ARC
  8
3
  6
CONTINUOUS
 62
6
 10
799.2548573309
 20
181.6796120874
 40
2.5400000000
 50
270.0000000000
 51
90.0000000000
  0
ARC
  8
3
  6
CONTINUOUS
 62
6
 10
796.4848573309
 20
181.6796120874
 40
2.5400000000
 50
90.0000000000
 51
270.0000000000
  0
LINE
  8
3
  6
CONTINUOUS
 62
6
 10
796.4848573309
 20
184.2196120874
 11
799.2548573309
 21
184.2196120874
  0
LINE
  8
3
  6
CONTINUOUS
 62
6
 10
799.2548573309
 20
179.1396120874
 11
796.4848573309
 21
179.1396120874
  0
CIRCLE
  8
3
  6
CONTINUOUS
 62
6
 10
797.8698573309
 20
188.4106120874
 40
1.5000000000
  0
LINE
  8
3
  6
CONTINUOUS
 62
6
 10
794.8698573309
 20
88.2076120874
 11
790.8698573309
 21
90.2076120874
  0
LINE
  8
3
  6
CONTINUOUS
 62
6
 10
790.8698573309
 20
90.2076120874
 11
788.3698573309
 21
97.2076120874
  0
LINE
  8
3
  6
CONTINUOUS
 62
6
 10
800.8698573309
 20
88.2076120874
 11
804.8698573309
 21
90.2076120874
  0
LINE
  8
3
  6
CONTINUOUS
 62
6
 10
804.8698573309
 20
90.2076120874
 11
807.3698573309
 21
97.2076120874
  0
LINE
  8
3
  6
CONTINUOUS
 62
6
 10
800.8698573309
 20
88.2076120874
 11
794.8698573309
 21
88.2076120874
  0
ARC
  8
3
  6
CONTINUOUS
 62
6
 10
799.2548573309
 20
98.3676120874
 40
2.5400000000
 50
270.0000000000
 51
90.0000000000
  0
ARC
  8
3
  6
CONTINUOUS
 62
6
 10
796.4848573309
 20
98.3676120874
 40
2.5400000000
 50
90.0000000000
 51
270.0000000000
  0
LINE
  8
3
  6
CONTINUOUS
 62
6
 10
796.4848573309
 20
95.8276120874
 11
799.2548573309
 21
95.8276120874
  0
LINE
  8
3
  6
CONTINUOUS
 62
6
 10
799.2548573309
 20
100.9076120874
 11
796.4848573309
 21
100.9076120874
  0
CIRCLE
  8
3
  6
CONTINUOUS
 62
6
 10
797.8698573309
 20
91.6366120874
 40
1.5000000000
  0
LINE
  8
3
  6
CONTINUOUS
 62
6
 10
807.3698573309
 20
97.2076120874
 11
807.3698573309
 21
105.7336120874
  0
LINE
  8
3
  6
CONTINUOUS
 62
6
 10
788.3698573307
 20
97.2076120874
 11
788.3698573308
 21
105.7336120874
  0
LINE
  8
3
  6
CONTINUOUS
 62
4
 10
775.1198573309
 20
106.7336120874
 11
820.6198573309
 21
106.7336120874
  0
LINE
  8
3
  6
CONTINUOUS
 62
4
 10
820.6198573309
 20
106.7336120874
 11
820.6198573309
 21
172.7336120874
  0
LINE
  8
3
  6
CONTINUOUS
 62
4
 10
820.6198573309
 20
172.7336120874
 11
819.6198573309
 21
172.7336120874
  0
LINE
  8
3
  6
CONTINUOUS
 62
4
 10
819.6198573309
 20
172.7336120874
 11
819.6198573309
 21
152.7336120874
  0
LINE
  8
3
  6
HIDDEN
 62
4
 10
819.6198573309
 20
152.7336120874
 11
819.6198573309
 21
106.7336120874
  0
LINE
  8
3
  6
CONTINUOUS
 62
4
 10
776.1198573309
 20
152.7336120874
 11
776.1198573309
 21
172.7336120874
  0
LINE
  8
3
  6
HIDDEN
 62
4
 10
776.1198573309
 20
106.7336120874
 11
776.1198573309
 21
152.7336120874
  0
LINE
  8
3
  6
CONTINUOUS
 62
4
 10
776.1198573309
 20
172.7336120874
 11
775.1198573309
 21
172.7336120874
  0
LINE
  8
3
  6
CONTINUOUS
 62
4
 10
775.1198573309
 20
172.7336120874
 11
775.1198573309
 21
106.7336120874
  0
LINE
  8
3
  6
HIDDEN
 62
4
 10
776.1198573309
 20
142.7336120874
 11
777.1198573309
 21
142.7336120874
  0
LINE
  8
3
  6
HIDDEN
 62
4
 10
777.1198573309
 20
142.7336120874
 11
778.1198573309
 21
142.7336120874
  0
LINE
  8
3
  6
HIDDEN
 62
4
 10
778.1198573309
 20
142.7336120874
 11
778.1198573309
 21
133.7336120874
  0
LINE
  8
3
  6
HIDDEN
 62
4
 10
778.1198573309
 20
133.7336120874
 11
777.1198573309
 21
133.7336120874
  0
LINE
  8
3
  6
HIDDEN
 62
4
 10
777.1198573309
 20
133.7336120874
 11
776.1198573309
 21
133.7336120874
  0
LINE
  8
3
  6
HIDDEN
 62
4
 10
819.6198573309
 20
142.7336120874
 11
818.6198573309
 21
142.7336120874
  0
LINE
  8
3
  6
HIDDEN
 62
4
 10
818.6198573309
 20
142.7336120874
 11
817.6198573309
 21
142.7336120874
  0
LINE
  8
3
  6
HIDDEN
 62
4
 10
817.6198573309
 20
142.7336120874
 11
817.6198573309
 21
133.7336120874
  0
LINE
  8
3
  6
HIDDEN
 62
4
 10
817.6198573309
 20
133.7336120874
 11
818.6198573309
 21
133.7336120874
  0
LINE
  8
3
  6
HIDDEN
 62
4
 10
818.6198573309
 20
133.7336120874
 11
819.6198573309
 21
133.7336120874
  0
LINE
  8
3
  6
CONTINUOUS
 62
4
 10
818.6198573309
 20
152.7336120874
 11
818.6198573309
 21
172.7336120874
  0
LINE
  8
3
  6
HIDDEN
 62
4
 10
818.6198573309
 20
106.7336120874
 11
818.6198573309
 21
152.7336120874
  0
LINE
  8
3
  6
CONTINUOUS
 62
4
 10
818.6198573309
 20
172.7336120874
 11
819.6198573309
 21
172.7336120874
  0
LINE
  8
3
  6
CONTINUOUS
 62
4
 10
777.1198573309
 20
152.7336120874
 11
777.1198573309
 21
172.7336120874
  0
LINE
  8
3
  6
HIDDEN
 62
4
 10
777.1198573309
 20
106.7336120874
 11
777.1198573309
 21
152.7336120874
  0
LINE
  8
3
  6
CONTINUOUS
 62
4
 10
777.1198573309
 20
172.7336120874
 11
776.1198573309
 21
172.7336120874
  0
LINE
  8
3
  6
CONTINUOUS
 62
4
 10
820.6198573309
 20
152.7336120874
 11
775.1198573309
 21
152.7336120874
  0
LINE
  8
3
  6
HIDDEN
 62
4
 10
790.3698573309
 20
152.7336120874
 11
790.3698573309
 21
147.7336120874
  0
LINE
  8
3
  6
HIDDEN
 62
4
 10
790.3698573309
 20
147.7336120874
 11
805.3698573309
 21
147.7336120874
  0
LINE
  8
3
  6
HIDDEN
 62
4
 10
805.3698573309
 20
147.7336120874
 11
805.3698573309
 21
152.7336120874
  0
LINE
  8
1
  6
CONTINUOUS
 62
7
 10
778.3698573309
 20
174.3136120874
 11
817.3698573309
 21
174.3136120874
  0
LINE
  8
1
  6
CONTINUOUS
 62
5
 10
782.4598573309
 20
163.1136120874
 11
782.7598573309
 21
163.1136120874
  0
LINE
  8
1
  6
CONTINUOUS
 62
5
 10
782.7598573309
 20
163.1136120874
 11
782.7598573309
 21
154.1136120874
  0
LINE
  8
1
  6
CONTINUOUS
 62
5
 10
782.4598573309
 20
154.1136120874
 11
782.7598573309
 21
154.1136120874
  0
LINE
  8
1
  6
CONTINUOUS
 62
5
 10
779.9598573309
 20
156.6136120874
 11
779.9598573309
 21
160.6136120874
  0
ARC
  8
1
  6
CONTINUOUS
 62
5
 10
782.4598573309
 20
160.6136120874
 40
2.5000000000
 50
90.0000000000
 51
180.0000000000
  0
ARC
  8
1
  6
CONTINUOUS
 62
5
 10
782.4598573309
 20
156.6136120874
 40
2.5000000000
 50
180.0000000000
 51
270.0000000000
  0
LINE
  8
1
  6
CONTINUOUS
 62
5
 10
778.3698573309
 20
164.1136120874
 11
782.7598573309
 21
164.1136120874
  0
LINE
  8
1
  6
CONTINUOUS
 62
5
 10
782.7598573309
 20
164.1136120874
 11
782.7598573309
 21
153.1136120874
  0
LINE
  8
1
  6
CONTINUOUS
 62
5
 10
782.7598573309
 20
153.1136120874
 11
778.3698573309
 21
153.1136120874
  0
LINE
  8
1
  6
CONTINUOUS
 62
5
 10
813.2798573309
 20
163.1136120874
 11
812.9798573309
 21
163.1136120874
  0
LINE
  8
1
  6
CONTINUOUS
 62
5
 10
812.9798573309
 20
163.1136120874
 11
812.9798573309
 21
154.1136120874
  0
LINE
  8
1
  6
CONTINUOUS
 62
5
 10
813.2798573309
 20
154.1136120874
 11
812.9798573309
 21
154.1136120874
  0
LINE
  8
1
  6
CONTINUOUS
 62
5
 10
815.7798573309
 20
156.6136120874
 11
815.7798573309
 21
160.6136120874
  0
ARC
  8
1
  6
CONTINUOUS
 62
5
 10
813.2798573309
 20
160.6136120874
 40
2.5000000000
 50
0.0000000000
 51
90.0000000000
  0
ARC
  8
1
  6
CONTINUOUS
 62
5
 10
813.2798573309
 20
156.6136120874
 40
2.5000000000
 50
270.0000000000
 51
0.0000000000
  0
LINE
  8
1
  6
CONTINUOUS
 62
5
 10
817.3698573309
 20
164.1136120874
 11
812.9798573309
 21
164.1136120874
  0
LINE
  8
1
  6
CONTINUOUS
 62
5
 10
812.9798573309
 20
164.1136120874
 11
812.9798573309
 21
153.1136120874
  0
LINE
  8
1
  6
CONTINUOUS
 62
5
 10
812.9798573309
 20
153.1136120874
 11
817.3698573309
 21
153.1136120874
  0
CIRCLE
  8
1
  6
CONTINUOUS
 62
5
 10
785.2598573309
 20
162.1136120874
 40
1.5000000000
  0
CIRCLE
  8
1
  6
CONTINUOUS
 62
5
 10
785.2598573309
 20
155.1136120874
 40
1.5000000000
  0
CIRCLE
  8
1
  6
CONTINUOUS
 62
5
 10
810.4798573309
 20
162.1136120874
 40
1.5000000000
  0
CIRCLE
  8
1
  6
CONTINUOUS
 62
5
 10
810.4798573309
 20
155.1136120874
 40
1.5000000000
  0
TEXT
  8
1
  6
CONTINUOUS
 62
5
 10
786.759857
 20
162.988612
 40
3.500000
  1
WHITE
 41
0.786164
 50
270.000000
 51
0.000000
 72
   5
 73
   0
 11
786.759857
 21
154.238612
  0
TEXT
  8
1
  6
CONTINUOUS
 62
5
 10
808.979857
 20
154.238612
 40
3.500000
  1
H O T
 41
0.786164
 50
90.000000
 51
0.000000
 72
   5
 73
   0
 11
808.979857
 21
162.988612
  0
TEXT
  8
1
  6
CONTINUOUS
 62
5
 10
791.869857
 20
155.613612
 40
6.000000
  1
LINE
 41
0.796813
 50
0.000000
 51
0.000000
 72
   5
 73
   0
 11
803.869857
 21
155.613612
  0
LINE
  8
1
  6
CONTINUOUS
 62
5
 10
784.1698573319
 20
171.1136120874
 11
784.1698573319
 21
170.8136120874
  0
LINE
  8
1
  6
CONTINUOUS
 62
5
 10
786.6698573319
 20
173.6136120874
 11
790.6698573319
 21
173.6136120874
  0
ARC
  8
1
  6
CONTINUOUS
 62
5
 10
786.6698573319
 20
171.1136120874
 40
2.5000000000
 50
90.0000000000
 51
180.0000000000
  0
LINE
  8
1
  6
CONTINUOUS
 62
5
 10
793.1698573319
 20
171.1136120874
 11
793.1698573319
 21
170.8136120874
  0
LINE
  8
1
  6
CONTINUOUS
 62
5
 10
793.1698573319
 20
170.8136120874
 11
784.1698573319
 21
170.8136120874
  0
ARC
  8
1
  6
CONTINUOUS
 62
5
 10
790.6698573319
 20
171.1136120874
 40
2.5000000000
 50
0.0000000000
 51
90.0000000000
  0
LINE
  8
1
  6
CONTINUOUS
 62
5
 10
783.1698573307
 20
174.3136120874
 11
783.1698573307
 21
169.8136120874
  0
LINE
  8
1
  6
CONTINUOUS
 62
5
 10
783.1698573307
 20
169.8136120874
 11
786.4698573319
 21
169.8136120874
  0
LINE
  8
1
  6
CONTINUOUS
 62
5
 10
786.4698573319
 20
169.8136120874
 11
786.4698573319
 21
170.8136120874
  0
LINE
  8
1
  6
CONTINUOUS
 62
5
 10
786.4698573319
 20
170.8136120874
 11
794.1698573330
 21
170.8136120874
  0
LINE
  8
1
  6
CONTINUOUS
 62
5
 10
794.1698573330
 20
170.8136120874
 11
794.1698573330
 21
174.3136120874
  0
LINE
  8
1
  6
CONTINUOUS
 62
5
 10
786.4698573319
 20
170.8136120874
 11
783.1698573341
 21
170.8136120874
  0
INSERT
  8
1
  6
CONTINUOUS
 62
7
  2
S1
 10
790.3198573324
 20
167.3136120874
  0
LINE
  8
1
  6
CONTINUOUS
 62
7
 10
819.4598573309
 20
153.1136120874
 11
817.3698573309
 21
153.1136120874
  0
LINE
  8
1
  6
CONTINUOUS
 62
7
 10
817.3698573309
 20
153.1136120874
 11
817.3698573309
 21
174.3136120874
  0
LINE
  8
1
  6
CONTINUOUS
 62
7
 10
776.2798573309
 20
153.1136120874
 11
778.3698573309
 21
153.1136120874
  0
LINE
  8
1
  6
CONTINUOUS
 62
7
 10
778.3698573309
 20
153.1136120874
 11
778.3698573309
 21
174.3136120874
  0
LINE
  8
1
  6
CONTINUOUS
 62
7
 10
819.4598573309
 20
153.1136120874
 11
819.4598573309
 21
105.7336120874
  0
LINE
  8
1
  6
CONTINUOUS
 62
7
 10
776.2798573309
 20
105.7336120874
 11
776.2798573309
 21
153.1136120874
  0
INSERT
  8
3
  6
CONTINUOUS
 62
5
  2
BALN7
 10
715.8139343725
 20
166.9226386172
  0
INSERT
  8
3
  6
CONTINUOUS
 62
5
  2
LTEX1
 10
639.9099963045
 20
97.5236129815
  0
TEXT
  8
1
  6
CONTINUOUS
 62
7
 10
789.578866
 20
65.849955
 40
5.000000
  1
裏 面 図
 41
0.854701
 50
0.000000
 51
0.000000
 72
   5
 73
   0
 11
809.578866
 21
65.849955
  0
INSERT
  8
3
  6
CONTINUOUS
 62
5
  2
BALN8
 10
786.8006175464
 20
143.4969367843
  0
TEXT
  8
5
  6
CONTINUOUS
 62
7
 10
791.940956
 20
230.956085
 40
2.800000
  1
GF15ILA用ｶﾊﾞｰ
 41
0.805018
 50
0.000000
 51
0.000000
 72
   5
 73
   0
 11
810.807356
 21
230.956085
  0
TEXT
  8
5
  6
CONTINUOUS
 62
7
 10
811.940956
 20
229.896826
 40
3.500000
  1
MCON-C800
 41
0.924573
 50
0.000000
 51
0.000000
 72
   5
 73
   0
 11
830.903956
 21
229.896826
  0
TEXT
  8
5
  6
CONTINUOUS
 62
7
 10
811.940956
 20
226.396826
 40
3.500000
  1
M0051A800A (PC t=1.0)
 41
0.723957
 50
0.000000
 51
0.000000
 72
   5
 73
   0
 11
847.161456
 21
226.396826
  0
TEXT
  8
5
  6
CONTINUOUS
 62
7
 10
851.940956
 20
230.856085
 40
3.000000
  1
MADOKA
 41
1.028831
 50
0.000000
 51
0.000000
 72
   5
 73
   0
 11
863.823956
 21
230.856085
  0
TEXT
  8
5
  6
CONTINUOUS
 62
7
 10
867.565956
 20
230.606085
 40
3.500000
  1
1
 41
1.000000
 50
0.000000
 51
0.000000
 72
   5
 73
   0
 11
869.315956
 21
230.606085
  0
LINE
  8
5
  6
CONTINUOUS
 62
6
 10
810.9409558389
 20
224.8560849505
 11
790.9409558389
 21
224.8560849505
  0
LINE
  8
5
  6
CONTINUOUS
 62
6
 10
790.9409558389
 20
224.8560849505
 11
785.9409558389
 21
224.8560849505
  0
LINE
  8
5
  6
CONTINUOUS
 62
6
 10
870.9409558389
 20
224.8560849505
 11
865.9409558389
 21
224.8560849505
  0
LINE
  8
5
  6
CONTINUOUS
 62
6
 10
865.9409558389
 20
224.8560849505
 11
850.9409558389
 21
224.8560849505
  0
LINE
  8
5
  6
CONTINUOUS
 62
6
 10
850.9409558389
 20
224.8560849505
 11
810.9409558389
 21
224.8560849505
  0
LINE
  8
4
  6
CONTINUOUS
 62
6
 10
744.6293163544
 20
270.3767810315
 11
773.1293163544
 21
270.3767810315
  0
LINE
  8
4
  6
CONTINUOUS
 62
6
 10
773.1293163544
 20
270.3767810315
 11
773.1293163544
 21
225.3767810314
  0
LINE
  8
4
  6
CONTINUOUS
 62
6
 10
773.1293163544
 20
225.3767810314
 11
744.6293163544
 21
225.3767810314
  0
LINE
  8
4
  6
CONTINUOUS
 62
6
 10
744.6293163544
 20
225.3767810314
 11
744.6293163544
 21
270.3767810315
  0
CIRCLE
  8
4
  6
CONTINUOUS
 62
6
 10
768.8793163544
 20
272.6267810315
 40
0.7500000000
  0
CIRCLE
  8
4
  6
CONTINUOUS
 62
6
 10
748.8793163544
 20
272.6267810315
 40
0.7500000000
  0
CIRCLE
  8
4
  6
CONTINUOUS
 62
6
 10
748.8793163544
 20
223.1267810315
 40
0.7500000000
  0
CIRCLE
  8
4
  6
CONTINUOUS
 62
6
 10
768.8793163544
 20
223.1267810315
 40
0.7500000000
  0
DIMENSION
  8
1
  6
CONTINUOUS
 62
5
  2
*D10
 10
740.9372721654
 20
225.3767810314
 11
738.1872721654
 21
247.8767810315
  70
0
 13
744.6293163544
 23
270.3767810315
 14
744.6293163544
 24
225.3767810314
 50
90.000000
  0
LINE
  8
1
  6
HIDDEN
 62
1
 10
777.6293154604
 20
217.5042735751
 11
777.6293154604
 21
278.2542640268
  0
POLYLINE
  8
1
  6
HIDDEN
 62
1
 66
     1
 70
     0
  0
VERTEX
  8
1
 62
1
 10
777.6293163544
 20
278.2542636864
 42
0.0796153609
  0
VERTEX
  8
1
 62
1
 10
777.6043106492
 20
278.4105496040
 42
0.1174683520
  0
VERTEX
  8
1
 62
1
 10
777.4838935529
 20
278.6063603689
 42
0.1174683520
  0
VERTEX
  8
1
 62
1
 10
777.2880824839
 20
278.7267769708
 42
0.0808607469
  0
VERTEX
  8
1
 62
1
 10
777.1317977718
 20
278.7517822815
 42
0.0012379529
  0
SEQEND
  8
1
  0
LINE
  8
1
  6
HIDDEN
 62
1
 10
734.6268350522
 20
278.7517821341
 11
777.1317992157
 21
278.7517821341
  0
LINE
  8
1
  6
HIDDEN
 62
1
 10
734.1293162464
 20
278.2542640268
 11
734.1293162464
 21
217.4992980361
  0
POLYLINE
  8
1
  6
HIDDEN
 62
1
 66
     1
 70
     0
  0
VERTEX
  8
1
 62
1
 10
734.6268349371
 20
278.7517822815
 42
0.0796147256
  0
VERTEX
  8
1
 62
1
 10
734.4705502250
 20
278.7267769708
 42
0.1174683520
  0
VERTEX
  8
1
 62
1
 10
734.2747391560
 20
278.6063603689
 42
0.1174683520
  0
VERTEX
  8
1
 62
1
 10
734.1543220597
 20
278.4105496040
 42
0.0808607469
  0
VERTEX
  8
1
 62
1
 10
734.1293163544
 20
278.2542636864
 42
0.0012373217
  0
SEQEND
  8
1
  0
POLYLINE
  8
1
  6
HIDDEN
 62
1
 66
     1
 70
     0
  0
VERTEX
  8
1
 62
1
 10
734.1293163544
 20
217.4992983766
 42
0.0791249785
  0
VERTEX
  8
1
 62
1
 10
734.1543220597
 20
217.3430124589
 42
0.1174683520
  0
VERTEX
  8
1
 62
1
 10
734.2747391560
 20
217.1472016940
 42
0.1174683520
  0
VERTEX
  8
1
 62
1
 10
734.4705502250
 20
217.0267850921
 42
0.0808607469
  0
VERTEX
  8
1
 62
1
 10
734.6268349371
 20
217.0017797815
 42
0.0012380847
  0
SEQEND
  8
1
  0
LINE
  8
1
  6
HIDDEN
 62
1
 10
734.6268350522
 20
217.0017799288
 11
777.1317992157
 21
217.0017799288
  0
POLYLINE
  8
1
  6
HIDDEN
 62
1
 66
     1
 70
     0
  0
VERTEX
  8
1
 62
1
 10
777.1317977718
 20
217.0017797815
 42
0.0791243434
  0
VERTEX
  8
1
 62
1
 10
777.2880824839
 20
217.0267850921
 42
0.1174683520
  0
VERTEX
  8
1
 62
1
 10
777.4838935529
 20
217.1472016940
 42
0.1174683520
  0
VERTEX
  8
1
 62
1
 10
777.6043106492
 20
217.3430124589
 42
0.0808607469
  0
VERTEX
  8
1
 62
1
 10
777.6293163544
 20
217.4992983766
 42
0.0012374534
  0
SEQEND
  8
1
  0
DIMENSION
  8
1
  6
CONTINUOUS
 62
5
  2
*D11
 10
768.8793163544
 20
274.4226075422
 11
758.8793163544
 21
277.1726075422
  70
0
 13
748.8793163544
 23
222.3767810315
 14
768.8793163544
 24
222.3767810315
 50
0.000000
  0
DIMENSION
  8
1
  6
CONTINUOUS
 62
5
  2
*D12
 10
744.6293163544
 20
281.6920195488
 11
739.3793163544
 21
284.4420195488
  70
0
 13
734.1293163544
 23
278.2542636864
 14
744.6293163544
 24
270.3767810315
 50
0.000000
  0
DIMENSION
  8
1
  6
CONTINUOUS
 62
5
  2
*D13
 10
773.1293163544
 20
281.6920195488
 11
758.8793163544
 21
284.4420195488
  70
0
 13
744.6293163544
 23
270.3767810315
 14
773.1293163544
 24
270.3767810315
 50
0.000000
  0
DIMENSION
  8
1
  6
CONTINUOUS
 62
5
  2
*D14
 10
777.6293163544
 20
281.6920195488
 11
775.3793163544
 21
284.4420195488
  70
0
 13
773.1293163544
 23
270.3767810315
 14
777.6293163544
 24
278.2542636864
 50
0.000000
  0
DIMENSION
  8
3
  6
CONTINUOUS
 62
5
  2
*D15
 10
730.7883855836
 20
272.6267810315
 11
728.0383855836
 21
247.8767810315
  70
0
 13
769.6293163544
 23
223.1267810315
 14
769.6293163544
 24
272.6267810315
 50
90.000000
  0
DIMENSION
  8
3
  6
CONTINUOUS
 62
5
  2
*D16
 10
748.3572824462
 20
222.5882825648
 11
746.9048219767
 21
225.0409053618
  70
3
 15
749.4013502627
 25
223.6652794981
  0
INSERT
  8
3
  6
CONTINUOUS
 62
5
  2
LTEX2
 10
755.2832083454
 20
217.0017799288
  0
POINT
  8
5
  6
CONTINUOUS
 62
6
 10
482.8730305766
 20
270.6315670415
  0
POINT
  8
5
  6
CONTINUOUS
 62
6
 10
493.3730305766
 20
270.6315670415
  0
POINT
  8
5
  6
CONTINUOUS
 62
6
 10
553.8730305766
 20
270.6315670415
  0
POINT
  8
5
  6
CONTINUOUS
 62
6
 10
499.3730305766
 20
270.6315670415
  0
POINT
  8
5
  6
CONTINUOUS
 62
6
 10
482.8730305766
 20
270.6315670415
  0
POINT
  8
1
  6
CONTINUOUS
 62
6
 10
482.8730305766
 20
270.6315670415
  0
POINT
  8
5
  6
CONTINUOUS
 62
6
 10
482.8730305766
 20
270.6315670415
  0
INSERT
  8
1
  6
CONTINUOUS
 62
7
  2
S2
 10
482.8730305766
 20
270.6315670415
  0
TEXT
  8
1
  6
CONTINUOUS
 62
7
 10
488.373031
 20
269.381567
 40
2.500000
  1
'22/3/24
 41
0.770713
 50
0.000000
 51
0.000000
 72
   5
 73
   0
 11
498.373031
 21
269.381567
  0
TEXT
  8
1
  6
CONTINUOUS
 62
7
 10
500.270884
 20
269.243681
 40
2.500000
  1
PB追加に伴う変更
 41
0.854701
 50
0.000000
 51
0.000000
 72
   5
 73
   0
 11
520.270884
 21
269.243681
  0
TEXT
  8
1
  6
CONTINUOUS
 62
7
 10
564.623031
 20
269.381567
 40
2.500000
  1
Yamada
 41
0.779221
 50
0.000000
 51
0.000000
 72
   5
 73
   0
 11
572.123031
 21
269.381567
  0
TEXT
  8
1
  6
CONTINUOUS
 62
7
 10
671.587215
 20
253.311935
 40
3.500000
  1
①ﾍﾞｰｽ,②ｶﾊﾞｰ材質
 41
0.806452
 50
0.000000
 51
0.000000
 72
   5
 73
   0
 11
701.337215
 21
253.311935
  0
TEXT
  8
1
  6
CONTINUOUS
 62
7
 10
671.587215
 20
249.811935
 40
3.500000
  1
無印:ｱﾙﾐﾀﾞｲｷｬｽﾄ
 41
0.786164
 50
0.000000
 51
0.000000
 72
   5
 73
   0
 11
697.837215
 21
249.811935
  0
TEXT
  8
1
  6
CONTINUOUS
 62
7
 10
671.587215
 20
246.311935
 40
3.500000
  1
PB:PBT(UL:V-0)
 41
0.760043
 50
0.000000
 51
0.000000
 72
   5
 73
   0
 11
696.087215
 21
246.311935
  0
POINT
  8
5
  6
CONTINUOUS
 62
6
 10
673.6045920573
 20
261.3632895582
  0
POINT
  8
5
  6
CONTINUOUS
 62
6
 10
673.6045920573
 20
261.3632895582
  0
POINT
  8
1
  6
CONTINUOUS
 62
6
 10
673.6045920573
 20
261.3632895582
  0
POINT
  8
5
  6
CONTINUOUS
 62
6
 10
673.6045920572
 20
261.3632895582
  0
INSERT
  8
1
  6
CONTINUOUS
 62
7
  2
S3
 10
673.6045920572
 20
261.3632895582
  0
INSERT
  8
1
  6
CONTINUOUS
 62
5
  2
LTEX3
 10
639.1682433405
 20
103.4478337282
  0
POINT
  8
5
  6
CONTINUOUS
 62
6
 10
631.6451298926
 20
247.2951457135
  0
POINT
  8
5
  6
CONTINUOUS
 62
6
 10
631.6451298926
 20
247.2951457135
  0
POINT
  8
1
  6
CONTINUOUS
 62
6
 10
631.6451298926
 20
247.2951457135
  0
POINT
  8
5
  6
CONTINUOUS
 62
6
 10
631.6451298926
 20
247.2951457135
  0
INSERT
  8
1
  6
CONTINUOUS
 62
7
  2
S4
 10
631.6451298926
 20
247.2951457135
  0
INSERT
  8
1
  6
CONTINUOUS
 62
5
  2
LTEX4
 10
633.7366295664
 20
180.6910948436
  0
INSERT
  8
3
  6
CONTINUOUS
 62
5
  2
LTEX5
 10
525.4099984280
 20
255.7736142928
  0
INSERT
  8
3
  6
CONTINUOUS
 62
5
  2
LTEX6
 10
569.4099984280
 20
255.7736142928
  0
TEXT
  8
3
  6
CONTINUOUS
 62
7
 10
623.013325
 20
276.405912
 40
6.000000
  1
型番仕様
 41
0.886918
 50
0.000000
 51
0.000000
 72
   5
 73
   0
 11
647.013325
 21
276.405912
  0
TEXT
  8
3
  6
CONTINUOUS
 62
7
 10
623.013325
 20
270.405912
 40
6.000000
  1
MCON-030-300 %%uPB%%u
 41
0.759109
 50
0.000000
 51
0.000000
 72
   5
 73
   0
 11
668.013325
 21
270.405912
  0
LINE
  8
3
  6
CONTINUOUS
 62
7
 10
665.4011126854
 20
270.3908635589
 11
665.4011126854
 21
255.2203801998
  0
LINE
  8
3
  6
CONTINUOUS
 62
7
 10
665.4011126854
 20
255.2203801998
 11
671.2359139773
 21
255.2203801998
  0
TEXT
  8
5
  6
CONTINUOUS
 62
7
 10
811.820889
 20
276.094548
 40
3.000000
  1
ｱﾙﾐﾀﾞｲｷｬｽﾄ銀色塗装
 41
0.833541
 50
0.000000
 51
0.000000
 72
   5
 73
   0
 11
839.852889
 21
276.094548
  0
TEXT
  8
5
  6
CONTINUOUS
 62
7
 10
811.820889
 20
273.094548
 40
3.000000
  1
又は
 41
0.921659
 50
0.000000
 51
0.000000
 72
   5
 73
   0
 11
817.820889
 21
273.094548
  0
TEXT
  8
5
  6
CONTINUOUS
 62
7
 10
811.820889
 20
270.094548
 40
3.000000
  1
PBT 黒色(UL  V-0)
 41
0.751838
 50
0.000000
 51
0.000000
 72
   5
 73
   0
 11
836.360889
 21
270.094548
  0
POINT
  8
5
  6
CONTINUOUS
 62
6
 10
782.4938061827
 20
274.6769006342
  0
POINT
  8
5
  6
CONTINUOUS
 62
6
 10
782.4938061827
 20
274.6769006342
  0
POINT
  8
1
  6
CONTINUOUS
 62
6
 10
782.4938061827
 20
274.6769006342
  0
POINT
  8
5
  6
CONTINUOUS
 62
6
 10
782.4938061827
 20
274.6769006342
  0
INSERT
  8
1
  6
CONTINUOUS
 62
7
  2
S5
 10
782.4938061827
 20
274.6769006342
  0
ENDSEC
  0
EOF
