  0
SECTION
  2
HEADER
  9
$ACADVER
  1
AC1009
  9
$DWGCODEPAGE
  3
dos932
  9
$INSBASE
 10
202.2490435001
 20
-18.2327615310
  9
$EXTMIN
 10
-394.6832210869
 20
-365.8004372917
  9
$EXTMAX
 10
869.4004913931
 20
329.3349142297
  9
$LIMMIN
 10
-394.6832210869
 20
-365.8004372917
  9
$LIMMAX
 10
869.4004913931
 20
329.3349142297
  9
$VIEWCTR
 10
0.0000000000
 20
0.0000000000
  9
$VIEWSIZE
 40
0.0000000000
  9
$SNAPMODE
 70
     0
  9
$SNAPUNIT
 10
20.0
 20
20.0
  9
$SNAPBASE
 10
0.000000
 20
0.000000
  9
$SNAPANG
 50
0.0
  9
$SNAPSTYLE
 70
     0
  9
$SNAPISOPAIR
 70
     0
  9
$GRIDMODE
 70
     0
  9
$GRIDUNIT
 10
10.000000
 20
10.000000
  9
$ORTHOMODE
 70
     0
  9
$REGENMODE
 70
     0
  9
$FILLMODE
 70
     1
  9
$QTEXTMODE
 70
     0
  9
$DRAGMODE
 70
     1
  9
$LTSCALE
 40
1.0
  9
$OSMODE
 70
     0
  9
$ATTMODE
 70
     1
  9
$TEXTSIZE
 40
4.000000
  9
$TRACEWID
 40
0.05
  9
$TEXTSTYLE
  7
STANDARD
  9
$CLAYER
  8
1
  9
$CELTYPE
  6
CONTINUOUS
  9
$CECOLOR
  62
7
  9
$DIMSCALE
 40
1.0000000000
  9
$DIMASZ
 40
2.0000000000
  9
$DIMEXO
 40
0.5000000000
  9
$DIMDLI
 40
7.000000
  9
$DIMRND
 40
0.0
  9
$DIMDLE
 40
0.0
  9
$DIMEXE
 40
1.0000000000
  9
$DIMTP
 40
0.0
  9
$DIMTM
 40
0.0
  9
$DIMTXT
 40
3.500000
  9
$DIMCEN
 40
0.09
  9
$DIMTSZ
 40
0.0
  9
$DIMTOL
 70
     0
  9
$DIMLIM
 70
     0
  9
$DIMTIH
 70
     0
  9
$DIMTOH
 70
     0
  9
$DIMSE1
 70
     0
  9
$DIMSE2
 70
     0
  9
$DIMTAD
 70
     1
  9
$DIMZIN
 70
     0
  9
$DIMBLK
  1

  9
$DIMASO
 70
     1
  9
$DIMSHO
 70
     0
  9
$DIMPOST
  1

  9
$DIMAPOST
  1

  9
$DIMALT
 70
     0
  9
$DIMALTD
 70
     3
  9
$DIMCLRD
 70
     5
  9
$DIMCLRE
 70
     5
  9
$DIMCLRT
 70
     7
  9
$DIMALTF
 40
25.4
  9
$DIMLFAC
 40
1.0
  9
$DIMTOFL
 70
     0
  9
$DIMTVP
 40
0.0
  9
$DIMTIX
 70
     0
  9
$DIMSOXD
 70
     0
  9
$DIMSAH
 70
     0
  9
$LUNITS
 70
     2
  9
$LUPREC
 70
     4
  9
$AXISMODE
 70
     0
  9
$AXISUNIT
 10
0.0
 20
0.0
  9
$SKETCHINC
 40
0.1
  9
$FILLETRAD
 40
0.0
  9
$AUNITS
 70
     0
  9
$AUPREC
 70
     0
  9
$MENU
  1
ACAD
  9
$ELEVATION
 40
0.0
  9
$THICKNESS
 40
0.0
  9
$VIEWDIR
 10
0.0
 20
0.0
 30
1.0
  9
$LIMCHECK
 70
     0
  9
$BLIPMODE
 70
     1
  9
$CHAMFERA
 40
0.0
  9
$CHAMFERB
 40
0.0
  9
$FASTZOOM
 70
     1
  9
$SKPOLY
 70
     0
  9
$TDCREATE
 40
2460019.0000000051
  9
$TDUPDATE
 40
2460019.0000000051
  9
$TDINDWG
 40
0.0000000000
  9
$TDUSRTIMER
 40
0.0000000000
  9
$USRTIMER
 70
     1
  9
$ANGBASE
 50
0.0
  9
$ANGDIR
 70
     0
  9
$PDMODE
 70
     65
  9
$PDSIZE
 40
0.2
  9
$PLINEWID
 40
0.0
  9
$COORDS
 70
     2
  9
$USERI1
 70
     0
  9
$USERI2
 70
     0
  9
$USERI3
 70
     0
  9
$USERI4
 70
     0
  9
$USERI5
 70
     0
  9
$USERR1
 40
0.0
  9
$USERR2
 40
0.0
  9
$USERR3
 40
0.0
  9
$USERR4
 40
0.0
  9
$USERR5
 40
0.0
  0
ENDSEC
  0
SECTION
  2
TABLES
  0
TABLE
  2
LTYPE
 70
     9
  0
LTYPE
  2
CONTINUOUS
 70
    64
  3
Solid line
 72
    65
 73
     0
 40
0.0
  0
LTYPE
  2
DASHED
 70
    64
  3
__ __ __ __ __ __ __ __ __ __ __ __ __ __ __
 72
    65
 73
     2
 40
3.0
 49
2.0
 49
-1.0
  0
LTYPE
  2
HIDDEN
 70
    64
  3
_ _ _ _ _ _ _ _ _ _ _ _ _ _ _ _ _ _ _ _ _ _ _
 72
    65
 73
     2
 40
1.5
 49
1.0
 49
-0.5
  0
LTYPE
  2
CENTER
 70
    64
  3
____ _ ____ _ ____ _ ____ _ ____ _ ____ _ ____
 72
    65
 73
     4
 40
24.0
 49
20.0
 49
-1.0
 49
2.0
 49
-1.0
  0
LTYPE
  2
PHANTOM
 70
    64
  3
_____ _ _ _____ _ _ _____ _ _ _____ _ _ ____
 72
    65
 73
     6
 40
27.0
 49
20.0
 49
-1.0
 49
2.0
 49
-1.0
 49
2.0
 49
-1.0
  0
LTYPE
  2
DOT
 70
    64
  3
...............................................
 72
    65
 73
     2
 40
1.5
 49
0.5
 49
-1.0
  0
LTYPE
  2
DASHDOT
 70
    64
  3
__ . __ . __ . __ . __ . __ . __ . __ . __ . __
 72
    65
 73
     4
 40
8.5
 49
6.0
 49
-1.0
 49
0.5
 49
-1.0
  0
LTYPE
  2
DIVIDE
 70
    64
  3
__ . . __ . . __ . . __ . . __ . . __ . . __
 72
    65
 73
     6
 40
10.0
 49
6.0
 49
-1.0
 49
0.5
 49
-1.0
 49
0.5
 49
-1.0
  0
LTYPE
  2
BORDER
 70
    64
  3
__ __ . __ __ . __ __ . __ __ . __ __ . __ __
 72
    65
 73
     6
 40
15.5
 49
6.0
 49
-1.0
 49
6.0
 49
-1.0
 49
0.5
 49
-1.0
  0
ENDTAB
  0
TABLE
  2
LAYER
 70
  8
  0
LAYER
  2
0
 70
    64
 62
     7
  6
CONTINUOUS
  0
LAYER
  2
1
 70
    64
 62
     7
  6
CONTINUOUS
  0
LAYER
  2
2
 70
    64
 62
     7
  6
CONTINUOUS
  0
LAYER
  2
3
 70
    64
 62
     7
  6
CONTINUOUS
  0
LAYER
  2
4
 70
    64
 62
     7
  6
CONTINUOUS
  0
LAYER
  2
5
 70
    64
 62
     7
  6
CONTINUOUS
  0
LAYER
  2
7
 70
    64
 62
     7
  6
CONTINUOUS
  0
LAYER
  2
DEFPOINTS
 70
     0
 62
    -7
  6
CONTINUOUS
  0
ENDTAB
  0
TABLE
  2
STYLE
 70
     1
  0
STYLE
  2
STANDARD
 70
    64
 40
0.0
 41
1.0
 71
     0
 42
4.000000
  3
TXT
  4
EXTFONT
 50
0.0
  0
ENDTAB
  0
TABLE
  2
VIEW
 70
     0
  0
ENDTAB
  0
ENDSEC
  0
SECTION
  2
BLOCKS
  0
BLOCK
  8
0
  2
CI
 70
   0
 10
0.0
 20
0.0
  0
CIRCLE
  8
0
  62
0
 10
0.0
 20
0.0
 40
0.1666666666
  0
ENDBLK
  8
0
  0
BLOCK
  8
5
  2
S0
 70
     0
 10
0.0000000000
 20
0.0000000000
  3
S0
  0
POINT
  8
5
  6
CONTINUOUS
 62
6
 10
-6.5000000000
 20
-6.5000000000
  0
LINE
  8
5
  6
CONTINUOUS
 62
6
 10
4.5000000000
 20
4.5000000000
 11
402.5000000000
 21
4.5000000000
  0
LINE
  8
5
  6
CONTINUOUS
 62
6
 10
4.5000000000
 20
4.5000000000
 11
4.5000000000
 21
279.5000000000
  0
LINE
  8
5
  6
CONTINUOUS
 62
6
 10
44.5000000000
 20
284.0000000000
 11
44.5000000000
 21
279.5000000000
  0
LINE
  8
5
  6
CONTINUOUS
 62
6
 10
44.5000000000
 20
4.5000000000
 11
44.5000000000
 21
0.0000000000
  0
LINE
  8
5
  6
CONTINUOUS
 62
6
 10
84.5000000000
 20
284.0000000000
 11
84.5000000000
 21
279.5000000000
  0
LINE
  8
5
  6
CONTINUOUS
 62
6
 10
124.5000000000
 20
284.0000000000
 11
124.5000000000
 21
279.5000000000
  0
LINE
  8
5
  6
CONTINUOUS
 62
6
 10
164.5000000000
 20
284.0000000000
 11
164.5000000000
 21
279.5000000000
  0
LINE
  8
5
  6
CONTINUOUS
 62
6
 10
204.5000000000
 20
284.0000000000
 11
204.5000000000
 21
279.5000000000
  0
LINE
  8
5
  6
CONTINUOUS
 62
6
 10
244.5000000000
 20
284.0000000000
 11
244.5000000000
 21
279.5000000000
  0
LINE
  8
5
  6
CONTINUOUS
 62
6
 10
84.5000000000
 20
4.5000000000
 11
84.5000000000
 21
0.0000000000
  0
LINE
  8
5
  6
CONTINUOUS
 62
6
 10
124.5000000000
 20
4.5000000000
 11
124.5000000000
 21
0.0000000000
  0
LINE
  8
5
  6
CONTINUOUS
 62
6
 10
164.5000000000
 20
4.5000000000
 11
164.5000000000
 21
0.0000000000
  0
LINE
  8
5
  6
CONTINUOUS
 62
6
 10
204.5000000000
 20
4.5000000000
 11
204.5000000000
 21
0.0000000000
  0
LINE
  8
5
  6
CONTINUOUS
 62
6
 10
244.5000000000
 20
4.5000000000
 11
244.5000000000
 21
0.0000000000
  0
LINE
  8
5
  6
CONTINUOUS
 62
6
 10
0.0000000000
 20
239.5000000000
 11
4.5000000000
 21
239.5000000000
  0
LINE
  8
5
  6
CONTINUOUS
 62
6
 10
402.5000000000
 20
239.5000000000
 11
407.0000000000
 21
239.5000000000
  0
LINE
  8
5
  6
CONTINUOUS
 62
6
 10
0.0000000000
 20
199.5000000000
 11
4.5000000000
 21
199.5000000000
  0
LINE
  8
5
  6
CONTINUOUS
 62
6
 10
0.0000000000
 20
159.5000000000
 11
4.5000000000
 21
159.5000000000
  0
LINE
  8
5
  6
CONTINUOUS
 62
6
 10
0.0000000000
 20
119.5000000000
 11
4.5000000000
 21
119.5000000000
  0
LINE
  8
5
  6
CONTINUOUS
 62
6
 10
402.5000000000
 20
199.5000000000
 11
407.0000000000
 21
199.5000000000
  0
LINE
  8
5
  6
CONTINUOUS
 62
6
 10
402.5000000000
 20
159.5000000000
 11
407.0000000000
 21
159.5000000000
  0
LINE
  8
5
  6
CONTINUOUS
 62
6
 10
402.5000000000
 20
119.5000000000
 11
407.0000000000
 21
119.5000000000
  0
TEXT
  8
5
  6
CONTINUOUS
 62
6
 10
23.500000
 20
0.500000
 40
4.000000
  1
1
 41
1.000000
 50
0.000000
 51
0.000000
 72
   5
 73
   0
 11
25.500000
 21
0.500000
  0
TEXT
  8
5
  6
CONTINUOUS
 62
6
 10
143.500000
 20
279.500000
 40
4.000000
  1
4
 41
1.000000
 50
0.000000
 51
0.000000
 72
   5
 73
   0
 11
145.500000
 21
279.500000
  0
TEXT
  8
5
  6
CONTINUOUS
 62
6
 10
183.500000
 20
279.500000
 40
4.000000
  1
5
 41
1.000000
 50
0.000000
 51
0.000000
 72
   5
 73
   0
 11
185.500000
 21
279.500000
  0
TEXT
  8
5
  6
CONTINUOUS
 62
6
 10
223.500000
 20
279.500000
 40
4.000000
  1
6
 41
1.000000
 50
0.000000
 51
0.000000
 72
   5
 73
   0
 11
225.500000
 21
279.500000
  0
TEXT
  8
5
  6
CONTINUOUS
 62
6
 10
263.500000
 20
279.500000
 40
4.000000
  1
7
 41
1.000000
 50
0.000000
 51
0.000000
 72
   5
 73
   0
 11
265.500000
 21
279.500000
  0
TEXT
  8
5
  6
CONTINUOUS
 62
6
 10
63.500000
 20
0.500000
 40
4.000000
  1
2
 41
1.000000
 50
0.000000
 51
0.000000
 72
   5
 73
   0
 11
65.500000
 21
0.500000
  0
TEXT
  8
5
  6
CONTINUOUS
 62
6
 10
103.500000
 20
0.500000
 40
4.000000
  1
3
 41
1.000000
 50
0.000000
 51
0.000000
 72
   5
 73
   0
 11
105.500000
 21
0.500000
  0
TEXT
  8
5
  6
CONTINUOUS
 62
6
 10
143.500000
 20
0.500000
 40
4.000000
  1
4
 41
1.000000
 50
0.000000
 51
0.000000
 72
   5
 73
   0
 11
145.500000
 21
0.500000
  0
TEXT
  8
5
  6
CONTINUOUS
 62
6
 10
183.500000
 20
0.500000
 40
4.000000
  1
5
 41
1.000000
 50
0.000000
 51
0.000000
 72
   5
 73
   0
 11
185.500000
 21
0.500000
  0
TEXT
  8
5
  6
CONTINUOUS
 62
6
 10
223.500000
 20
0.500000
 40
4.000000
  1
6
 41
1.000000
 50
0.000000
 51
0.000000
 72
   5
 73
   0
 11
225.500000
 21
0.500000
  0
TEXT
  8
5
  6
CONTINUOUS
 62
6
 10
263.500000
 20
0.500000
 40
4.000000
  1
7
 41
1.000000
 50
0.000000
 51
0.000000
 72
   5
 73
   0
 11
265.500000
 21
0.500000
  0
TEXT
  8
5
  6
CONTINUOUS
 62
6
 10
1.626773
 20
257.454143
 40
4.000000
  1
A
 41
1.266000
 50
0.000000
 51
0.000000
 72
   5
 73
   0
 11
4.158773
 21
257.454143
  0
TEXT
  8
5
  6
CONTINUOUS
 62
6
 10
402.786513
 20
257.492354
 40
4.000000
  1
A
 41
1.266000
 50
0.000000
 51
0.000000
 72
   5
 73
   0
 11
405.318513
 21
257.492354
  0
TEXT
  8
5
  6
CONTINUOUS
 62
6
 10
1.610773
 20
217.454143
 40
4.000000
  1
B
 41
1.274000
 50
0.000000
 51
0.000000
 72
   5
 73
   0
 11
4.158773
 21
217.454143
  0
TEXT
  8
5
  6
CONTINUOUS
 62
6
 10
1.502773
 20
177.454143
 40
4.000000
  1
C
 41
1.328000
 50
0.000000
 51
0.000000
 72
   5
 73
   0
 11
4.158773
 21
177.454143
  0
TEXT
  8
5
  6
CONTINUOUS
 62
6
 10
1.566773
 20
137.454143
 40
4.000000
  1
D
 41
1.296000
 50
0.000000
 51
0.000000
 72
   5
 73
   0
 11
4.158773
 21
137.454143
  0
TEXT
  8
5
  6
CONTINUOUS
 62
6
 10
1.894773
 20
97.454143
 40
4.000000
  1
E
 41
1.132000
 50
0.000000
 51
0.000000
 72
   5
 73
   0
 11
4.158773
 21
97.454143
  0
TEXT
  8
5
  6
CONTINUOUS
 62
6
 10
402.786513
 20
217.492354
 40
4.000000
  1
B
 41
1.274000
 50
0.000000
 51
0.000000
 72
   5
 73
   0
 11
405.334513
 21
217.492354
  0
TEXT
  8
5
  6
CONTINUOUS
 62
6
 10
402.786513
 20
177.492354
 40
4.000000
  1
C
 41
1.328000
 50
0.000000
 51
0.000000
 72
   5
 73
   0
 11
405.442513
 21
177.492354
  0
TEXT
  8
5
  6
CONTINUOUS
 62
6
 10
402.786513
 20
137.492354
 40
4.000000
  1
D
 41
1.296000
 50
0.000000
 51
0.000000
 72
   5
 73
   0
 11
405.378513
 21
137.492354
  0
TEXT
  8
5
  6
CONTINUOUS
 62
6
 10
402.786513
 20
97.492354
 40
4.000000
  1
E
 41
1.132000
 50
0.000000
 51
0.000000
 72
   5
 73
   0
 11
405.050513
 21
97.492354
  0
LINE
  8
5
  6
CONTINUOUS
 62
6
 10
347.5000000000
 20
29.5000000000
 11
347.5000000000
 21
4.5000000000
  0
LINE
  8
5
  6
CONTINUOUS
 62
6
 10
347.5000000000
 20
14.5000000000
 11
402.5000000000
 21
14.5000000000
  0
LINE
  8
5
  6
CONTINUOUS
 62
6
 10
347.5000000000
 20
7.5000000000
 11
281.5000000000
 21
7.5000000000
  0
LINE
  8
5
  6
CONTINUOUS
 62
6
 10
303.5000000000
 20
4.5000000000
 11
303.5000000000
 21
21.0000000000
  0
LINE
  8
5
  6
CONTINUOUS
 62
6
 10
336.5000000000
 20
17.0000000000
 11
336.5000000000
 21
4.5000000000
  0
LINE
  8
5
  6
CONTINUOUS
 62
6
 10
325.5000000000
 20
4.5000000000
 11
325.4999999999
 21
21.0000000000
  0
LINE
  8
5
  6
CONTINUOUS
 62
6
 10
314.5000000000
 20
17.0000000000
 11
314.5000000000
 21
4.5000000000
  0
TEXT
  8
5
  6
CONTINUOUS
 62
6
 10
294.250000
 20
4.750000
 40
2.500000
  1
Design
 41
0.779221
 50
0.000000
 51
0.000000
 72
   5
 73
   0
 11
301.750000
 21
4.750000
  0
TEXT
  8
5
  6
CONTINUOUS
 62
6
 10
305.875000
 20
4.750000
 40
2.500000
  1
Draft
 41
0.786164
 50
0.000000
 51
0.000000
 72
   5
 73
   0
 11
312.125000
 21
4.750000
  0
TEXT
  8
5
  6
CONTINUOUS
 62
6
 10
316.875000
 20
4.750000
 40
2.500000
  1
Check
 41
0.786164
 50
0.000000
 51
0.000000
 72
   5
 73
   0
 11
323.125000
 21
4.750000
  0
LINE
  8
5
  6
CONTINUOUS
 62
6
 10
281.5000000000
 20
29.5000000000
 11
402.5000000000
 21
29.5000000000
  0
LINE
  8
5
  6
CONTINUOUS
 62
6
 10
281.5000000000
 20
17.0000000000
 11
347.5000000000
 21
17.0000000000
  0
LINE
  8
5
  6
CONTINUOUS
 62
6
 10
392.5000000000
 20
14.5000000000
 11
392.5000000000
 21
4.5000000000
  0
TEXT
  8
5
  6
CONTINUOUS
 62
6
 10
395.520000
 20
5.000000
 40
2.000000
  1
SIZE
 41
0.788845
 50
0.000000
 51
0.000000
 72
   5
 73
   0
 11
399.480000
 21
5.000000
  0
LINE
  8
5
  6
CONTINUOUS
 62
6
 10
392.5000000000
 20
7.5000000000
 11
402.5000000000
 21
7.5000000000
  0
TEXT
  8
5
  6
CONTINUOUS
 62
6
 10
394.005000
 20
8.500000
 40
5.000000
  1
Ａ３
 41
0.644240
 50
0.000000
 51
0.000000
 72
   5
 73
   0
 11
400.995000
 21
8.500000
  0
TEXT
  8
5
  6
CONTINUOUS
 62
6
 10
338.875000
 20
4.750000
 40
2.500000
  1
Scale
 41
0.786164
 50
0.000000
 51
0.000000
 72
   5
 73
   0
 11
345.125000
 21
4.750000
  0
TEXT
  8
5
  6
CONTINUOUS
 62
6
 10
338.250000
 20
9.750000
 40
5.000000
  1
1/1
 41
0.815217
 50
0.000000
 51
0.000000
 72
   5
 73
   0
 11
345.750000
 21
9.750000
  0
TEXT
  8
5
  6
CONTINUOUS
 62
6
 10
326.625000
 20
4.750000
 40
2.500000
  1
Confirm
 41
0.774336
 50
0.000000
 51
0.000000
 72
   5
 73
   0
 11
335.375000
 21
4.750000
  0
TEXT
  8
5
  6
CONTINUOUS
 62
6
 10
284.500000
 20
4.750000
 40
2.500000
  1
Date
 41
0.796813
 50
0.000000
 51
0.000000
 72
   5
 73
   0
 11
289.500000
 21
4.750000
  0
TEXT
  8
5
  6
CONTINUOUS
 62
6
 10
283.250000
 20
12.462500
 40
3.000000
  1
2021/
 41
0.786164
 50
0.000000
 51
0.000000
 72
   5
 73
   0
 11
290.750000
 21
12.462500
  0
TEXT
  8
5
  6
CONTINUOUS
 62
6
 10
283.250000
 20
9.037500
 40
3.000000
  1
04/20
 41
0.786164
 50
0.000000
 51
0.000000
 72
   5
 73
   0
 11
290.750000
 21
9.037500
  0
LINE
  8
5
  6
CONTINUOUS
 62
6
 10
292.5000000000
 20
17.0000000000
 11
292.5000000000
 21
4.5000000000
  0
LINE
  8
5
  6
CONTINUOUS
 62
6
 10
281.5000000000
 20
4.5000000000
 11
281.5000000000
 21
29.5000000000
  0
TEXT
  8
5
  6
CONTINUOUS
 62
6
 10
281.755293
 20
18.213190
 40
2.000000
  1
Material
 41
0.638921
 50
0.000000
 51
0.000000
 72
   5
 73
   0
 11
288.387293
 21
18.213190
  0
LINE
  8
5
  6
CONTINUOUS
 62
6
 10
288.5000000000
 20
21.0000000000
 11
288.5000000000
 21
17.0000000000
  0
TEXT
  8
5
  6
CONTINUOUS
 62
6
 10
303.605000
 20
18.000000
 40
2.000000
  1
Process
 41
0.751106
 50
0.000000
 51
0.000000
 72
   5
 73
   0
 11
310.395000
 21
18.000000
  0
LINE
  8
5
  6
CONTINUOUS
 62
6
 10
310.5000000000
 20
21.0000000000
 11
310.5000000000
 21
17.0000000000
  0
TEXT
  8
5
  6
CONTINUOUS
 62
6
 10
325.773000
 20
18.000000
 40
2.000000
  1
Amount
 41
0.838182
 50
0.000000
 51
0.000000
 72
   5
 73
   0
 11
332.227000
 21
18.000000
  0
LINE
  8
5
  6
CONTINUOUS
 62
6
 10
332.4999999999
 20
21.0000000000
 11
332.4999999999
 21
17.0000000000
  0
LINE
  8
5
  6
CONTINUOUS
 62
6
 10
347.5000000000
 20
21.0000000000
 11
281.5000000000
 21
21.0000000000
  0
POINT
  8
5
  6
CONTINUOUS
 62
6
 10
289.5000000000
 20
19.0000000000
  0
POINT
  8
5
  6
CONTINUOUS
 62
6
 10
311.5000000000
 20
19.0000000000
  0
POINT
  8
5
  6
CONTINUOUS
 62
6
 10
339.9999999999
 20
19.0000000000
  0
POINT
  8
5
  6
CONTINUOUS
 62
6
 10
298.0000000000
 20
12.2500000000
  0
POINT
  8
5
  6
CONTINUOUS
 62
6
 10
309.0000000000
 20
12.2500000000
  0
POINT
  8
5
  6
CONTINUOUS
 62
6
 10
320.0000000000
 20
12.2500000000
  0
POINT
  8
5
  6
CONTINUOUS
 62
6
 10
331.0000000000
 20
12.2500000000
  0
POINT
  8
5
  6
CONTINUOUS
 62
6
 10
0.0000000000
 20
0.0000000000
  0
TEXT
  8
5
  6
CONTINUOUS
 62
7
 10
301.099806
 20
20.780083
 40
4.000000
  1
MADOKA SYSTEM co,.ltd
 41
0.778201
 50
0.000000
 51
0.000000
 72
   5
 73
   0
 11
344.367806
 21
20.780083
  0
LINE
  8
5
  6
CONTINUOUS
 62
6
 10
284.5000000000
 20
284.0000000000
 11
284.5000000000
 21
279.5000000000
  0
LINE
  8
5
  6
CONTINUOUS
 62
6
 10
284.5000000000
 20
4.5000000000
 11
284.5000000000
 21
0.0000000000
  0
TEXT
  8
5
  6
CONTINUOUS
 62
6
 10
303.500000
 20
279.500000
 40
4.000000
  1
8
 41
1.000000
 50
0.000000
 51
0.000000
 72
   5
 73
   0
 11
305.500000
 21
279.500000
  0
TEXT
  8
5
  6
CONTINUOUS
 62
6
 10
303.500000
 20
0.500000
 40
4.000000
  1
8
 41
1.000000
 50
0.000000
 51
0.000000
 72
   5
 73
   0
 11
305.500000
 21
0.500000
  0
LINE
  8
5
  6
CONTINUOUS
 62
6
 10
324.5000000000
 20
284.0000000000
 11
324.5000000000
 21
279.5000000000
  0
LINE
  8
5
  6
CONTINUOUS
 62
6
 10
324.5000000000
 20
4.5000000000
 11
324.5000000000
 21
0.0000000000
  0
TEXT
  8
5
  6
CONTINUOUS
 62
6
 10
343.500000
 20
279.500000
 40
4.000000
  1
9
 41
1.000000
 50
0.000000
 51
0.000000
 72
   5
 73
   0
 11
345.500000
 21
279.500000
  0
TEXT
  8
5
  6
CONTINUOUS
 62
6
 10
343.500000
 20
0.500000
 40
4.000000
  1
9
 41
1.000000
 50
0.000000
 51
0.000000
 72
   5
 73
   0
 11
345.500000
 21
0.500000
  0
LINE
  8
5
  6
CONTINUOUS
 62
6
 10
364.5000000000
 20
284.0000000000
 11
364.5000000000
 21
279.5000000000
  0
LINE
  8
5
  6
CONTINUOUS
 62
6
 10
364.5000000000
 20
4.5000000000
 11
364.5000000000
 21
0.0000000000
  0
TEXT
  8
5
  6
CONTINUOUS
 62
6
 10
382.500000
 20
279.500000
 40
4.000000
  1
10
 41
0.854701
 50
0.000000
 51
0.000000
 72
   5
 73
   0
 11
386.500000
 21
279.500000
  0
TEXT
  8
5
  6
CONTINUOUS
 62
6
 10
382.500000
 20
0.500000
 40
4.000000
  1
10
 41
0.854701
 50
0.000000
 51
0.000000
 72
   5
 73
   0
 11
386.500000
 21
0.500000
  0
LINE
  8
5
  6
CONTINUOUS
 62
6
 10
0.0000000000
 20
79.5000000000
 11
4.5000000000
 21
79.5000000000
  0
LINE
  8
5
  6
CONTINUOUS
 62
6
 10
402.5000000000
 20
79.5000000000
 11
407.0000000000
 21
79.5000000000
  0
LINE
  8
5
  6
CONTINUOUS
 62
6
 10
0.0000000000
 20
39.5000000000
 11
4.5000000000
 21
39.5000000000
  0
LINE
  8
5
  6
CONTINUOUS
 62
6
 10
402.5000000000
 20
39.5000000000
 11
407.0000000000
 21
39.5000000000
  0
TEXT
  8
5
  6
CONTINUOUS
 62
6
 10
1.954773
 20
57.454143
 40
4.000000
  1
F
 41
1.102000
 50
0.000000
 51
0.000000
 72
   5
 73
   0
 11
4.158773
 21
57.454143
  0
TEXT
  8
5
  6
CONTINUOUS
 62
6
 10
402.786513
 20
57.492354
 40
4.000000
  1
F
 41
1.102000
 50
0.000000
 51
0.000000
 72
   5
 73
   0
 11
404.990513
 21
57.492354
  0
TEXT
  8
5
  6
CONTINUOUS
 62
6
 10
1.438773
 20
17.454143
 40
4.000000
  1
G
 41
1.360000
 50
0.000000
 51
0.000000
 72
   5
 73
   0
 11
4.158773
 21
17.454143
  0
TEXT
  8
5
  6
CONTINUOUS
 62
6
 10
402.786513
 20
17.492354
 40
4.000000
  1
G
 41
1.360000
 50
0.000000
 51
0.000000
 72
   5
 73
   0
 11
405.506513
 21
17.492354
  0
LINE
  8
5
  6
CONTINUOUS
 62
6
 10
4.5000000000
 20
279.5000000000
 11
402.5000000000
 21
279.5000000000
  0
LINE
  8
5
  6
CONTINUOUS
 62
6
 10
402.5000000000
 20
279.5000000000
 11
402.5000000000
 21
4.5000000000
  0
POINT
  8
5
  6
CONTINUOUS
 62
6
 10
353.5000000000
 20
20.5000000000
  0
POINT
  8
5
  6
CONTINUOUS
 62
6
 10
353.5000000000
 20
8.0000000000
  0
LINE
  8
5
  6
CONTINUOUS
 62
6
 10
347.5000000000
 20
26.5000000000
 11
402.5000000000
 21
26.5000000000
  0
LINE
  8
5
  6
CONTINUOUS
 62
6
 10
347.5000000000
 20
11.5000000000
 11
392.5000000000
 21
11.5000000000
  0
TEXT
  8
5
  6
CONTINUOUS
 62
7
 10
362.928500
 20
26.250000
 40
3.500000
  1
Document Name
 41
0.807728
 50
0.000000
 51
0.000000
 72
   5
 73
   0
 11
387.071500
 21
26.250000
  0
TEXT
  8
5
  6
CONTINUOUS
 62
7
 10
359.678500
 20
11.250000
 40
3.500000
  1
Document No.
 41
0.749428
 50
0.000000
 51
0.000000
 72
   5
 73
   0
 11
380.321500
 21
11.250000
  0
ENDBLK
  8
0
  0
BLOCK
  8
1
  2
*D0
 70
     1
 10
0.0000000000
 20
0.0000000000
  3
*D0
  0
LINE
  8
1
  6
BYBLOCK
 62
5
 10
127.9661466639
 20
94.3244525436
 11
127.9661466639
 21
99.7193009011
  0
LINE
  8
1
  6
BYBLOCK
 62
5
 10
111.4661466639
 20
94.3244525436
 11
111.4661466639
 21
99.7193009011
  0
LINE
  8
1
  6
BYBLOCK
 62
5
 10
111.4661466639
 20
98.7193009011
 11
127.9661466639
 21
98.7193009011
  0
SOLID
  8
1
  6
CONTINUOUS
 62
5
 10
126.0342950114
 20
98.2016628109
 11
126.0342950114
 21
99.2369389913
 12
127.9661466639
 22
98.7193009011
 13
127.9661466639
 23
98.7193009011
  0
SOLID
  8
1
  6
CONTINUOUS
 62
5
 10
113.3979983165
 20
99.2369389913
 11
113.3979983165
 21
98.2016628109
 12
111.4661466639
 22
98.7193009011
 13
111.4661466639
 23
98.7193009011
  0
TEXT
  8
1
  6
CONTINUOUS
 62
7
 10
116.216147
 20
99.719301
 40
3.500000
  1
16.5
 41
0.796813
 50
0.000000
 51
0.000000
 72
   5
 73
   0
 11
123.216147
 21
99.719301
  0
POINT
  8
DEFPOINTS
  6
BYBLOCK
 62
5
 10
127.9661466639
 20
93.8244525436
  0
POINT
  8
DEFPOINTS
  6
BYBLOCK
 62
5
 10
111.4661466639
 20
93.8244525436
  0
POINT
  8
DEFPOINTS
  6
BYBLOCK
 62
5
 10
111.4661466639
 20
98.7193009011
  0
ENDBLK
  8
0
  0
BLOCK
  8
1
  2
*D1
 70
     1
 10
0.0000000000
 20
0.0000000000
  3
*D1
  0
LINE
  8
1
  6
BYBLOCK
 62
5
 10
27.2645106558
 20
27.5484212565
 11
19.9779016700
 21
27.5484212565
  0
LINE
  8
1
  6
BYBLOCK
 62
5
 10
28.2645106558
 20
36.5484212565
 11
19.9779016700
 21
36.5484212565
  0
LINE
  8
1
  6
BYBLOCK
 62
5
 10
20.9779016700
 20
36.5484212565
 11
20.9779016700
 21
27.5484212565
  0
SOLID
  8
1
  6
CONTINUOUS
 62
5
 10
20.4602635798
 20
29.4802729091
 11
21.4955397602
 21
29.4802729091
 12
20.9779016700
 22
27.5484212565
 13
20.9779016700
 23
27.5484212565
  0
SOLID
  8
1
  6
CONTINUOUS
 62
5
 10
21.4955397602
 20
34.6165696039
 11
20.4602635798
 21
34.6165696039
 12
20.9779016700
 22
36.5484212565
 13
20.9779016700
 23
36.5484212565
  0
TEXT
  8
1
  6
CONTINUOUS
 62
7
 10
19.977902
 20
31.173421
 40
3.500000
  1
9
 41
1.000000
 50
90.000000
 51
0.000000
 72
   5
 73
   0
 11
19.977902
 21
32.923421
  0
POINT
  8
DEFPOINTS
  6
BYBLOCK
 62
5
 10
27.7645106558
 20
27.5484212565
  0
POINT
  8
DEFPOINTS
  6
BYBLOCK
 62
5
 10
28.7645106558
 20
36.5484212565
  0
POINT
  8
DEFPOINTS
  6
BYBLOCK
 62
5
 10
20.9779016700
 20
36.5484212565
  0
ENDBLK
  8
0
  0
BLOCK
  8
1
  2
*D2
 70
     1
 10
0.0000000000
 20
0.0000000000
  3
*D2
  0
LINE
  8
1
  6
BYBLOCK
 62
5
 10
29.2645106558
 20
37.0484212565
 11
19.7383253733
 21
37.0484212565
  0
LINE
  8
1
  6
BYBLOCK
 62
5
 10
35.7645106558
 20
51.5484212565
 11
19.7383253733
 21
51.5484212565
  0
LINE
  8
1
  6
BYBLOCK
 62
5
 10
20.7383253733
 20
51.5484212565
 11
20.7383253733
 21
37.0484212565
  0
SOLID
  8
1
  6
CONTINUOUS
 62
5
 10
20.2206872831
 20
38.9802729091
 11
21.2559634635
 21
38.9802729091
 12
20.7383253733
 22
37.0484212565
 13
20.7383253733
 23
37.0484212565
  0
SOLID
  8
1
  6
CONTINUOUS
 62
5
 10
21.2559634635
 20
49.6165696039
 11
20.2206872831
 21
49.6165696039
 12
20.7383253733
 22
51.5484212565
 13
20.7383253733
 23
51.5484212565
  0
TEXT
  8
1
  6
CONTINUOUS
 62
7
 10
19.738325
 20
40.798421
 40
3.500000
  1
14.5
 41
0.796813
 50
90.000000
 51
0.000000
 72
   5
 73
   0
 11
19.738325
 21
47.798421
  0
POINT
  8
DEFPOINTS
  6
BYBLOCK
 62
5
 10
29.7645106558
 20
37.0484212565
  0
POINT
  8
DEFPOINTS
  6
BYBLOCK
 62
5
 10
36.2645106558
 20
51.5484212565
  0
POINT
  8
DEFPOINTS
  6
BYBLOCK
 62
5
 10
20.7383253733
 20
51.5484212565
  0
ENDBLK
  8
0
  0
BLOCK
  8
1
  2
*D3
 70
     1
 10
0.0000000000
 20
0.0000000000
  3
*D3
  0
LINE
  8
1
  6
BYBLOCK
 62
5
 10
27.2645106558
 20
27.5484212565
 11
12.2316014101
 21
27.5484212565
  0
LINE
  8
1
  6
BYBLOCK
 62
5
 10
35.7645106558
 20
51.5484212565
 11
12.2316014101
 21
51.5484212565
  0
LINE
  8
1
  6
BYBLOCK
 62
5
 10
13.2316014101
 20
51.5484212565
 11
13.2316014101
 21
27.5484212565
  0
SOLID
  8
1
  6
CONTINUOUS
 62
5
 10
12.7139633199
 20
29.4802729091
 11
13.7492395003
 21
29.4802729091
 12
13.2316014101
 22
27.5484212565
 13
13.2316014101
 23
27.5484212565
  0
SOLID
  8
1
  6
CONTINUOUS
 62
5
 10
13.7492395003
 20
49.6165696039
 11
12.7139633199
 21
49.6165696039
 12
13.2316014101
 22
51.5484212565
 13
13.2316014101
 23
51.5484212565
  0
TEXT
  8
1
  6
CONTINUOUS
 62
7
 10
12.231601
 20
37.798421
 40
3.500000
  1
24
 41
0.854701
 50
90.000000
 51
0.000000
 72
   5
 73
   0
 11
12.231601
 21
41.298421
  0
POINT
  8
DEFPOINTS
  6
BYBLOCK
 62
5
 10
27.7645106558
 20
27.5484212565
  0
POINT
  8
DEFPOINTS
  6
BYBLOCK
 62
5
 10
36.2645106558
 20
51.5484212565
  0
POINT
  8
DEFPOINTS
  6
BYBLOCK
 62
5
 10
13.2316014101
 20
51.5484212565
  0
ENDBLK
  8
0
  0
BLOCK
  8
1
  2
*D4
 70
     1
 10
0.0000000000
 20
0.0000000000
  3
*D4
  0
LINE
  8
1
  6
BYBLOCK
 62
5
 10
27.2645106558
 20
220.1025214537
 11
16.2916228022
 21
220.1025214537
  0
LINE
  8
1
  6
BYBLOCK
 62
5
 10
27.2645106558
 20
64.6025214537
 11
16.2916228022
 21
64.6025214537
  0
LINE
  8
1
  6
BYBLOCK
 62
5
 10
17.2916228022
 20
64.6025214537
 11
17.2916228022
 21
220.1025214537
  0
SOLID
  8
1
  6
CONTINUOUS
 62
5
 10
17.8092608924
 20
218.1706698011
 11
16.7739847120
 21
218.1706698011
 12
17.2916228022
 22
220.1025214537
 13
17.2916228022
 23
220.1025214537
  0
SOLID
  8
1
  6
CONTINUOUS
 62
5
 10
16.7739847120
 20
66.5343731063
 11
17.8092608924
 21
66.5343731063
 12
17.2916228022
 22
64.6025214537
 13
17.2916228022
 23
64.6025214537
  0
TEXT
  8
1
  6
CONTINUOUS
 62
7
 10
16.291623
 20
136.102521
 40
5.000000
  1
155.5
 41
0.786164
 50
90.000000
 51
0.000000
 72
   5
 73
   0
 11
16.291623
 21
148.602521
  0
POINT
  8
DEFPOINTS
  6
BYBLOCK
 62
5
 10
27.7645106558
 20
220.1025214537
  0
POINT
  8
DEFPOINTS
  6
BYBLOCK
 62
5
 10
27.7645106558
 20
64.6025214537
  0
POINT
  8
DEFPOINTS
  6
BYBLOCK
 62
5
 10
17.2916228022
 20
64.6025214537
  0
ENDBLK
  8
0
  0
BLOCK
  8
1
  2
*D5
 70
     1
 10
0.0000000000
 20
0.0000000000
  3
*D5
  0
LINE
  8
1
  6
BYBLOCK
 62
5
 10
27.7645106558
 20
220.6025214537
 11
27.7645106558
 21
225.0648547044
  0
LINE
  8
1
  6
BYBLOCK
 62
5
 10
96.7645106558
 20
220.6025214537
 11
96.7645106558
 21
225.0648547044
  0
LINE
  8
1
  6
BYBLOCK
 62
5
 10
96.7645106558
 20
224.0648547044
 11
27.7645106558
 21
224.0648547044
  0
SOLID
  8
1
  6
CONTINUOUS
 62
5
 10
29.6963623084
 20
224.5824927946
 11
29.6963623084
 21
223.5472166142
 12
27.7645106558
 22
224.0648547044
 13
27.7645106558
 23
224.0648547044
  0
SOLID
  8
1
  6
CONTINUOUS
 62
5
 10
94.8326590033
 20
223.5472166142
 11
94.8326590033
 21
224.5824927946
 12
96.7645106558
 22
224.0648547044
 13
96.7645106558
 23
224.0648547044
  0
TEXT
  8
1
  6
CONTINUOUS
 62
7
 10
59.764511
 20
225.064855
 40
5.000000
  1
69
 41
0.854701
 50
0.000000
 51
0.000000
 72
   5
 73
   0
 11
64.764511
 21
225.064855
  0
POINT
  8
DEFPOINTS
  6
BYBLOCK
 62
5
 10
27.7645106558
 20
220.1025214537
  0
POINT
  8
DEFPOINTS
  6
BYBLOCK
 62
5
 10
96.7645106558
 20
220.1025214537
  0
POINT
  8
DEFPOINTS
  6
BYBLOCK
 62
5
 10
96.7645106558
 20
224.0648547044
  0
ENDBLK
  8
0
  0
BLOCK
  8
1
  2
BALN0
 70
     0
 10
65.1092980532
 20
67.0636039311
  3
BALN0
  0
SOLID
  8
1
  6
CONTINUOUS
 62
5
 10
67.0995994495
 20
66.8668798809
 11
66.7345875985
 21
65.8980852079
 12
65.1092980532
 22
67.0636039311
 13
65.1092980532
 23
67.0636039311
  0
LINE
  8
1
  6
BYBLOCK
 62
5
 10
65.1092980532
 20
67.0636039311
 11
88.4832927053
 21
58.2570061116
  0
CIRCLE
  8
1
  6
BYBLOCK
 62
5
 10
91.2906440902
 20
57.1992829901
 40
3.0000000000
  0
TEXT
  8
1
  6
CONTINUOUS
 62
7
 10
90.415644
 20
55.449283
 40
3.500000
  1
3
 41
1.000000
 50
0.000000
 51
0.000000
 72
   5
 73
   0
 11
92.165644
 21
55.449283
  0
ENDBLK
  8
0
  0
BLOCK
  8
1
  2
*D6
 70
     1
 10
0.0000000000
 20
0.0000000000
  3
*D6
  0
LINE
  8
1
  6
BYBLOCK
 62
5
 10
142.4822443727
 20
88.0542751045
 11
141.4983420815
 21
85.7560287554
  0
LINE
  8
1
  6
BYBLOCK
 62
5
 10
144.4500489552
 20
92.6507678028
 11
145.4339512464
 21
94.9490141519
  0
SOLID
  8
1
  6
CONTINUOUS
 62
5
 10
142.1978070062
 20
86.0746045803
 11
141.2460791254
 21
86.4820488227
 12
142.4822443727
 22
88.0542751045
 13
142.4822443727
 23
88.0542751045
  0
SOLID
  8
1
  6
CONTINUOUS
 62
5
 10
144.7344863217
 20
94.6304383270
 11
145.6862142025
 21
94.2229940847
 12
144.4500489552
 22
92.6507678028
 13
144.4500489552
 23
92.6507678028
  0
TEXT
  8
1
  6
CONTINUOUS
 62
7
 10
145.999175
 20
98.810194
 40
3.500000
  1
2-M5
 41
0.796813
 50
66.823748
 51
0.000000
 72
   5
 73
   0
 11
148.754102
 21
105.245284
  0
POINT
  8
DEFPOINTS
  6
BYBLOCK
 62
5
 10
142.4822443727
 20
88.0542751045
  0
POINT
  8
DEFPOINTS
  6
BYBLOCK
 62
5
 10
144.4500489552
 20
92.6507678028
  0
LINE
  8
1
  6
BYBLOCK
 62
5
 10
142.4822443727
 20
88.0542751045
 11
149.6734002150
 21
104.8517231924
  0
ENDBLK
  8
0
  0
BLOCK
  8
5
  2
S1
 70
     0
 10
-1.2509564999
 20
-313.9655230621
  3
S1
  0
POINT
  8
5
  6
CONTINUOUS
 62
6
 10
-7.7509564999
 20
-320.4655230621
  0
LINE
  8
5
  6
CONTINUOUS
 62
6
 10
3.2490435001
 20
-309.4655230621
 11
401.2490435001
 21
-309.4655230621
  0
LINE
  8
5
  6
CONTINUOUS
 62
6
 10
3.2490435001
 20
-309.4655230621
 11
3.2490435001
 21
-34.4655230621
  0
LINE
  8
5
  6
CONTINUOUS
 62
6
 10
43.2490435001
 20
-29.9655230621
 11
43.2490435001
 21
-34.4655230621
  0
LINE
  8
5
  6
CONTINUOUS
 62
6
 10
43.2490435001
 20
-309.4655230621
 11
43.2490435001
 21
-313.9655230621
  0
LINE
  8
5
  6
CONTINUOUS
 62
6
 10
83.2490435001
 20
-29.9655230621
 11
83.2490435001
 21
-34.4655230621
  0
LINE
  8
5
  6
CONTINUOUS
 62
6
 10
123.2490435001
 20
-29.9655230621
 11
123.2490435001
 21
-34.4655230621
  0
LINE
  8
5
  6
CONTINUOUS
 62
6
 10
163.2490435001
 20
-29.9655230621
 11
163.2490435001
 21
-34.4655230621
  0
LINE
  8
5
  6
CONTINUOUS
 62
6
 10
203.2490435001
 20
-29.9655230621
 11
203.2490435001
 21
-34.4655230621
  0
LINE
  8
5
  6
CONTINUOUS
 62
6
 10
243.2490435001
 20
-29.9655230621
 11
243.2490435001
 21
-34.4655230621
  0
LINE
  8
5
  6
CONTINUOUS
 62
6
 10
83.2490435001
 20
-309.4655230621
 11
83.2490435001
 21
-313.9655230621
  0
LINE
  8
5
  6
CONTINUOUS
 62
6
 10
123.2490435001
 20
-309.4655230621
 11
123.2490435001
 21
-313.9655230621
  0
LINE
  8
5
  6
CONTINUOUS
 62
6
 10
163.2490435001
 20
-309.4655230621
 11
163.2490435001
 21
-313.9655230621
  0
LINE
  8
5
  6
CONTINUOUS
 62
6
 10
203.2490435001
 20
-309.4655230621
 11
203.2490435001
 21
-313.9655230621
  0
LINE
  8
5
  6
CONTINUOUS
 62
6
 10
243.2490435001
 20
-309.4655230621
 11
243.2490435001
 21
-313.9655230621
  0
LINE
  8
5
  6
CONTINUOUS
 62
6
 10
-1.2509564999
 20
-74.4655230621
 11
3.2490435001
 21
-74.4655230621
  0
LINE
  8
5
  6
CONTINUOUS
 62
6
 10
401.2490435001
 20
-74.4655230621
 11
405.7490435001
 21
-74.4655230621
  0
LINE
  8
5
  6
CONTINUOUS
 62
6
 10
-1.2509564999
 20
-114.4655230621
 11
3.2490435001
 21
-114.4655230621
  0
LINE
  8
5
  6
CONTINUOUS
 62
6
 10
-1.2509564999
 20
-154.4655230621
 11
3.2490435001
 21
-154.4655230621
  0
LINE
  8
5
  6
CONTINUOUS
 62
6
 10
-1.2509564999
 20
-194.4655230621
 11
3.2490435001
 21
-194.4655230621
  0
LINE
  8
5
  6
CONTINUOUS
 62
6
 10
401.2490435001
 20
-114.4655230621
 11
405.7490435001
 21
-114.4655230621
  0
LINE
  8
5
  6
CONTINUOUS
 62
6
 10
401.2490435001
 20
-154.4655230621
 11
405.7490435001
 21
-154.4655230621
  0
LINE
  8
5
  6
CONTINUOUS
 62
6
 10
401.2490435001
 20
-194.4655230621
 11
405.7490435001
 21
-194.4655230621
  0
TEXT
  8
5
  6
CONTINUOUS
 62
6
 10
22.249044
 20
-313.465523
 40
4.000000
  1
1
 41
1.000000
 50
0.000000
 51
0.000000
 72
   5
 73
   0
 11
24.249044
 21
-313.465523
  0
TEXT
  8
5
  6
CONTINUOUS
 62
6
 10
142.249044
 20
-34.465523
 40
4.000000
  1
4
 41
1.000000
 50
0.000000
 51
0.000000
 72
   5
 73
   0
 11
144.249044
 21
-34.465523
  0
TEXT
  8
5
  6
CONTINUOUS
 62
6
 10
182.249044
 20
-34.465523
 40
4.000000
  1
5
 41
1.000000
 50
0.000000
 51
0.000000
 72
   5
 73
   0
 11
184.249044
 21
-34.465523
  0
TEXT
  8
5
  6
CONTINUOUS
 62
6
 10
222.249044
 20
-34.465523
 40
4.000000
  1
6
 41
1.000000
 50
0.000000
 51
0.000000
 72
   5
 73
   0
 11
224.249044
 21
-34.465523
  0
TEXT
  8
5
  6
CONTINUOUS
 62
6
 10
262.249044
 20
-34.465523
 40
4.000000
  1
7
 41
1.000000
 50
0.000000
 51
0.000000
 72
   5
 73
   0
 11
264.249044
 21
-34.465523
  0
TEXT
  8
5
  6
CONTINUOUS
 62
6
 10
62.249044
 20
-313.465523
 40
4.000000
  1
2
 41
1.000000
 50
0.000000
 51
0.000000
 72
   5
 73
   0
 11
64.249044
 21
-313.465523
  0
TEXT
  8
5
  6
CONTINUOUS
 62
6
 10
102.249044
 20
-313.465523
 40
4.000000
  1
3
 41
1.000000
 50
0.000000
 51
0.000000
 72
   5
 73
   0
 11
104.249044
 21
-313.465523
  0
TEXT
  8
5
  6
CONTINUOUS
 62
6
 10
142.249044
 20
-313.465523
 40
4.000000
  1
4
 41
1.000000
 50
0.000000
 51
0.000000
 72
   5
 73
   0
 11
144.249044
 21
-313.465523
  0
TEXT
  8
5
  6
CONTINUOUS
 62
6
 10
182.249044
 20
-313.465523
 40
4.000000
  1
5
 41
1.000000
 50
0.000000
 51
0.000000
 72
   5
 73
   0
 11
184.249044
 21
-313.465523
  0
TEXT
  8
5
  6
CONTINUOUS
 62
6
 10
222.249044
 20
-313.465523
 40
4.000000
  1
6
 41
1.000000
 50
0.000000
 51
0.000000
 72
   5
 73
   0
 11
224.249044
 21
-313.465523
  0
TEXT
  8
5
  6
CONTINUOUS
 62
6
 10
262.249044
 20
-313.465523
 40
4.000000
  1
7
 41
1.000000
 50
0.000000
 51
0.000000
 72
   5
 73
   0
 11
264.249044
 21
-313.465523
  0
TEXT
  8
5
  6
CONTINUOUS
 62
6
 10
0.375816
 20
-56.511380
 40
4.000000
  1
A
 41
1.266000
 50
0.000000
 51
0.000000
 72
   5
 73
   0
 11
2.907816
 21
-56.511380
  0
TEXT
  8
5
  6
CONTINUOUS
 62
6
 10
401.535557
 20
-56.473169
 40
4.000000
  1
A
 41
1.266000
 50
0.000000
 51
0.000000
 72
   5
 73
   0
 11
404.067557
 21
-56.473169
  0
TEXT
  8
5
  6
CONTINUOUS
 62
6
 10
0.359816
 20
-96.511380
 40
4.000000
  1
B
 41
1.274000
 50
0.000000
 51
0.000000
 72
   5
 73
   0
 11
2.907816
 21
-96.511380
  0
TEXT
  8
5
  6
CONTINUOUS
 62
6
 10
0.251816
 20
-136.511380
 40
4.000000
  1
C
 41
1.328000
 50
0.000000
 51
0.000000
 72
   5
 73
   0
 11
2.907816
 21
-136.511380
  0
TEXT
  8
5
  6
CONTINUOUS
 62
6
 10
0.315816
 20
-176.511380
 40
4.000000
  1
D
 41
1.296000
 50
0.000000
 51
0.000000
 72
   5
 73
   0
 11
2.907816
 21
-176.511380
  0
TEXT
  8
5
  6
CONTINUOUS
 62
6
 10
0.643816
 20
-216.511380
 40
4.000000
  1
E
 41
1.132000
 50
0.000000
 51
0.000000
 72
   5
 73
   0
 11
2.907816
 21
-216.511380
  0
TEXT
  8
5
  6
CONTINUOUS
 62
6
 10
401.535557
 20
-96.473169
 40
4.000000
  1
B
 41
1.274000
 50
0.000000
 51
0.000000
 72
   5
 73
   0
 11
404.083557
 21
-96.473169
  0
TEXT
  8
5
  6
CONTINUOUS
 62
6
 10
401.535557
 20
-136.473169
 40
4.000000
  1
C
 41
1.328000
 50
0.000000
 51
0.000000
 72
   5
 73
   0
 11
404.191557
 21
-136.473169
  0
TEXT
  8
5
  6
CONTINUOUS
 62
6
 10
401.535557
 20
-176.473169
 40
4.000000
  1
D
 41
1.296000
 50
0.000000
 51
0.000000
 72
   5
 73
   0
 11
404.127557
 21
-176.473169
  0
TEXT
  8
5
  6
CONTINUOUS
 62
6
 10
401.535557
 20
-216.473169
 40
4.000000
  1
E
 41
1.132000
 50
0.000000
 51
0.000000
 72
   5
 73
   0
 11
403.799557
 21
-216.473169
  0
LINE
  8
5
  6
CONTINUOUS
 62
6
 10
346.2490435001
 20
-284.4655230621
 11
346.2490435001
 21
-309.4655230621
  0
LINE
  8
5
  6
CONTINUOUS
 62
6
 10
346.2490435001
 20
-299.4655230621
 11
401.2490435001
 21
-299.4655230621
  0
LINE
  8
5
  6
CONTINUOUS
 62
6
 10
346.2490435001
 20
-306.4655230621
 11
280.2490435001
 21
-306.4655230621
  0
LINE
  8
5
  6
CONTINUOUS
 62
6
 10
302.2490435001
 20
-309.4655230621
 11
302.2490435001
 21
-292.9655230621
  0
LINE
  8
5
  6
CONTINUOUS
 62
6
 10
335.2490435001
 20
-296.9655230621
 11
335.2490435001
 21
-309.4655230621
  0
LINE
  8
5
  6
CONTINUOUS
 62
6
 10
324.2490435001
 20
-309.4655230621
 11
324.2490434999
 21
-292.9655230621
  0
LINE
  8
5
  6
CONTINUOUS
 62
6
 10
313.2490435001
 20
-296.9655230621
 11
313.2490435001
 21
-309.4655230621
  0
TEXT
  8
5
  6
CONTINUOUS
 62
6
 10
293.272794
 20
-309.215523
 40
2.500000
  1
Design
 41
0.722338
 50
0.000000
 51
0.000000
 72
   5
 73
   0
 11
300.225294
 21
-309.215523
  0
TEXT
  8
5
  6
CONTINUOUS
 62
6
 10
305.087794
 20
-309.215523
 40
2.500000
  1
Draft
 41
0.669497
 50
0.000000
 51
0.000000
 72
   5
 73
   0
 11
310.410294
 21
-309.215523
  0
TEXT
  8
5
  6
CONTINUOUS
 62
6
 10
315.467794
 20
-309.215523
 40
2.500000
  1
Check
 41
0.825472
 50
0.000000
 51
0.000000
 72
   5
 73
   0
 11
322.030294
 21
-309.215523
  0
LINE
  8
5
  6
CONTINUOUS
 62
6
 10
280.2490435001
 20
-284.4655230621
 11
401.2490435001
 21
-284.4655230621
  0
LINE
  8
5
  6
CONTINUOUS
 62
6
 10
280.2490435001
 20
-296.9655230621
 11
346.2490435001
 21
-296.9655230621
  0
LINE
  8
5
  6
CONTINUOUS
 62
6
 10
391.2490435001
 20
-299.4655230621
 11
391.2490435001
 21
-309.4655230621
  0
TEXT
  8
5
  6
CONTINUOUS
 62
6
 10
394.269044
 20
-308.965523
 40
2.000000
  1
SIZE
 41
0.788845
 50
0.000000
 51
0.000000
 72
   5
 73
   0
 11
398.229044
 21
-308.965523
  0
LINE
  8
5
  6
CONTINUOUS
 62
6
 10
391.2490435001
 20
-306.4655230621
 11
401.2490435001
 21
-306.4655230621
  0
TEXT
  8
5
  6
CONTINUOUS
 62
6
 10
392.754044
 20
-305.465523
 40
5.000000
  1
Ａ３
 41
0.644240
 50
0.000000
 51
0.000000
 72
   5
 73
   0
 11
399.744044
 21
-305.465523
  0
TEXT
  8
5
  6
CONTINUOUS
 62
6
 10
337.887794
 20
-309.215523
 40
2.500000
  1
Scale
 41
0.719811
 50
0.000000
 51
0.000000
 72
   5
 73
   0
 11
343.610294
 21
-309.215523
  0
TEXT
  8
5
  6
CONTINUOUS
 62
6
 10
336.999044
 20
-304.215523
 40
5.000000
  1
1/1
 41
0.815217
 50
0.000000
 51
0.000000
 72
   5
 73
   0
 11
344.499044
 21
-304.215523
  0
TEXT
  8
5
  6
CONTINUOUS
 62
6
 10
325.661544
 20
-309.215523
 40
2.500000
  1
Confirm
 41
0.723451
 50
0.000000
 51
0.000000
 72
   5
 73
   0
 11
333.836544
 21
-309.215523
  0
TEXT
  8
5
  6
CONTINUOUS
 62
6
 10
283.277794
 20
-309.215523
 40
2.500000
  1
Date
 41
0.787649
 50
0.000000
 51
0.000000
 72
   5
 73
   0
 11
288.220294
 21
-309.215523
  0
TEXT
  8
5
  6
CONTINUOUS
 62
6
 10
281.999044
 20
-301.503023
 40
3.000000
  1
2021/
 41
0.786164
 50
0.000000
 51
0.000000
 72
   5
 73
   0
 11
289.499044
 21
-301.503023
  0
TEXT
  8
5
  6
CONTINUOUS
 62
6
 10
281.999044
 20
-304.928023
 40
3.000000
  1
04/20
 41
0.786164
 50
0.000000
 51
0.000000
 72
   5
 73
   0
 11
289.499044
 21
-304.928023
  0
LINE
  8
5
  6
CONTINUOUS
 62
6
 10
291.2490435001
 20
-296.9655230621
 11
291.2490435001
 21
-309.4655230621
  0
LINE
  8
5
  6
CONTINUOUS
 62
6
 10
280.2490435001
 20
-309.4655230621
 11
280.2490435001
 21
-284.4655230621
  0
TEXT
  8
5
  6
CONTINUOUS
 62
6
 10
280.504337
 20
-295.752333
 40
2.000000
  1
Material
 41
0.638921
 50
0.000000
 51
0.000000
 72
   5
 73
   0
 11
287.136337
 21
-295.752333
  0
LINE
  8
5
  6
CONTINUOUS
 62
6
 10
287.2490435001
 20
-292.9655230621
 11
287.2490435001
 21
-296.9655230621
  0
TEXT
  8
5
  6
CONTINUOUS
 62
6
 10
302.354044
 20
-295.965523
 40
2.000000
  1
Process
 41
0.751106
 50
0.000000
 51
0.000000
 72
   5
 73
   0
 11
309.144044
 21
-295.965523
  0
LINE
  8
5
  6
CONTINUOUS
 62
6
 10
309.2490435001
 20
-292.9655230621
 11
309.2490435001
 21
-296.9655230621
  0
TEXT
  8
5
  6
CONTINUOUS
 62
6
 10
324.522043
 20
-295.965523
 40
2.000000
  1
Amount
 41
0.838182
 50
0.000000
 51
0.000000
 72
   5
 73
   0
 11
330.976043
 21
-295.965523
  0
LINE
  8
5
  6
CONTINUOUS
 62
6
 10
331.2490435000
 20
-292.9655230621
 11
331.2490435000
 21
-296.9655230621
  0
LINE
  8
5
  6
CONTINUOUS
 62
6
 10
346.2490435001
 20
-292.9655230621
 11
280.2490435001
 21
-292.9655230621
  0
POINT
  8
5
  6
CONTINUOUS
 62
6
 10
288.2490435001
 20
-294.9655230621
  0
POINT
  8
5
  6
CONTINUOUS
 62
6
 10
310.2490435001
 20
-294.9655230621
  0
POINT
  8
5
  6
CONTINUOUS
 62
6
 10
338.7490435000
 20
-294.9655230621
  0
POINT
  8
5
  6
CONTINUOUS
 62
6
 10
296.7490435001
 20
-301.7155230621
  0
POINT
  8
5
  6
CONTINUOUS
 62
6
 10
307.7490435001
 20
-301.7155230621
  0
POINT
  8
5
  6
CONTINUOUS
 62
6
 10
318.7490435001
 20
-301.7155230621
  0
POINT
  8
5
  6
CONTINUOUS
 62
6
 10
329.7490435001
 20
-301.7155230621
  0
POINT
  8
5
  6
CONTINUOUS
 62
6
 10
-1.2509564999
 20
-313.9655230621
  0
TEXT
  8
5
  6
CONTINUOUS
 62
7
 10
299.848849
 20
-293.185440
 40
4.000000
  1
MADOKA SYSTEM co,.ltd
 41
0.778201
 50
0.000000
 51
0.000000
 72
   5
 73
   0
 11
343.116849
 21
-293.185440
  0
LINE
  8
5
  6
CONTINUOUS
 62
6
 10
283.2490435001
 20
-29.9655230621
 11
283.2490435001
 21
-34.4655230621
  0
LINE
  8
5
  6
CONTINUOUS
 62
6
 10
283.2490435001
 20
-309.4655230621
 11
283.2490435001
 21
-313.9655230621
  0
TEXT
  8
5
  6
CONTINUOUS
 62
6
 10
302.249044
 20
-34.465523
 40
4.000000
  1
8
 41
1.000000
 50
0.000000
 51
0.000000
 72
   5
 73
   0
 11
304.249044
 21
-34.465523
  0
TEXT
  8
5
  6
CONTINUOUS
 62
6
 10
302.249044
 20
-313.465523
 40
4.000000
  1
8
 41
1.000000
 50
0.000000
 51
0.000000
 72
   5
 73
   0
 11
304.249044
 21
-313.465523
  0
LINE
  8
5
  6
CONTINUOUS
 62
6
 10
323.2490435001
 20
-29.9655230621
 11
323.2490435001
 21
-34.4655230621
  0
LINE
  8
5
  6
CONTINUOUS
 62
6
 10
323.2490435001
 20
-309.4655230621
 11
323.2490435001
 21
-313.9655230621
  0
TEXT
  8
5
  6
CONTINUOUS
 62
6
 10
342.249044
 20
-34.465523
 40
4.000000
  1
9
 41
1.000000
 50
0.000000
 51
0.000000
 72
   5
 73
   0
 11
344.249044
 21
-34.465523
  0
TEXT
  8
5
  6
CONTINUOUS
 62
6
 10
342.249044
 20
-313.465523
 40
4.000000
  1
9
 41
1.000000
 50
0.000000
 51
0.000000
 72
   5
 73
   0
 11
344.249044
 21
-313.465523
  0
LINE
  8
5
  6
CONTINUOUS
 62
6
 10
363.2490435001
 20
-29.9655230621
 11
363.2490435001
 21
-34.4655230621
  0
LINE
  8
5
  6
CONTINUOUS
 62
6
 10
363.2490435001
 20
-309.4655230621
 11
363.2490435001
 21
-313.9655230621
  0
TEXT
  8
5
  6
CONTINUOUS
 62
6
 10
381.249044
 20
-34.465523
 40
4.000000
  1
10
 41
0.854701
 50
0.000000
 51
0.000000
 72
   5
 73
   0
 11
385.249044
 21
-34.465523
  0
TEXT
  8
5
  6
CONTINUOUS
 62
6
 10
381.249044
 20
-313.465523
 40
4.000000
  1
10
 41
0.854701
 50
0.000000
 51
0.000000
 72
   5
 73
   0
 11
385.249044
 21
-313.465523
  0
LINE
  8
5
  6
CONTINUOUS
 62
6
 10
-1.2509564999
 20
-234.4655230621
 11
3.2490435001
 21
-234.4655230621
  0
LINE
  8
5
  6
CONTINUOUS
 62
6
 10
401.2490435001
 20
-234.4655230621
 11
405.7490435001
 21
-234.4655230621
  0
LINE
  8
5
  6
CONTINUOUS
 62
6
 10
-1.2509564999
 20
-274.4655230621
 11
3.2490435001
 21
-274.4655230621
  0
LINE
  8
5
  6
CONTINUOUS
 62
6
 10
401.2490435001
 20
-274.4655230621
 11
405.7490435001
 21
-274.4655230621
  0
TEXT
  8
5
  6
CONTINUOUS
 62
6
 10
0.703816
 20
-256.511380
 40
4.000000
  1
F
 41
1.102000
 50
0.000000
 51
0.000000
 72
   5
 73
   0
 11
2.907816
 21
-256.511380
  0
TEXT
  8
5
  6
CONTINUOUS
 62
6
 10
401.535557
 20
-256.473169
 40
4.000000
  1
F
 41
1.102000
 50
0.000000
 51
0.000000
 72
   5
 73
   0
 11
403.739557
 21
-256.473169
  0
TEXT
  8
5
  6
CONTINUOUS
 62
6
 10
0.187816
 20
-296.511380
 40
4.000000
  1
G
 41
1.360000
 50
0.000000
 51
0.000000
 72
   5
 73
   0
 11
2.907816
 21
-296.511380
  0
TEXT
  8
5
  6
CONTINUOUS
 62
6
 10
401.535557
 20
-296.473169
 40
4.000000
  1
G
 41
1.360000
 50
0.000000
 51
0.000000
 72
   5
 73
   0
 11
404.255557
 21
-296.473169
  0
LINE
  8
5
  6
CONTINUOUS
 62
6
 10
3.2490435001
 20
-34.4655230621
 11
401.2490435001
 21
-34.4655230621
  0
LINE
  8
5
  6
CONTINUOUS
 62
6
 10
401.2490435001
 20
-34.4655230621
 11
401.2490435001
 21
-309.4655230621
  0
POINT
  8
5
  6
CONTINUOUS
 62
6
 10
352.2490435001
 20
-293.4655230621
  0
POINT
  8
5
  6
CONTINUOUS
 62
6
 10
352.2490435001
 20
-305.9655230621
  0
LINE
  8
5
  6
CONTINUOUS
 62
6
 10
346.2490435001
 20
-287.4655230621
 11
401.2490435001
 21
-287.4655230621
  0
LINE
  8
5
  6
CONTINUOUS
 62
6
 10
346.2490435001
 20
-302.4655230621
 11
391.2490435001
 21
-302.4655230621
  0
TEXT
  8
5
  6
CONTINUOUS
 62
7
 10
361.677544
 20
-287.715523
 40
3.500000
  1
Document Name
 41
0.807728
 50
0.000000
 51
0.000000
 72
   5
 73
   0
 11
385.820544
 21
-287.715523
  0
TEXT
  8
5
  6
CONTINUOUS
 62
7
 10
358.427544
 20
-302.715523
 40
3.500000
  1
Document No.
 41
0.749428
 50
0.000000
 51
0.000000
 72
   5
 73
   0
 11
379.070544
 21
-302.715523
  0
ENDBLK
  8
0
  0
BLOCK
  8
3
  2
BALN1
 70
     0
 10
232.9657145103
 20
-215.7735407057
  3
BALN1
  0
SOLID
  8
3
  6
CONTINUOUS
 62
5
 10
234.2307575855
 20
-214.2244551632
 11
234.8358167215
 21
-215.0645148108
 12
232.9657145103
 22
-215.7735407057
 13
232.9657145103
 23
-215.7735407057
  0
LINE
  8
3
  6
BYBLOCK
 62
5
 10
232.9657145103
 20
-215.7735407057
 11
240.5314085825
 21
-210.3242939386
  0
CIRCLE
  8
3
  6
BYBLOCK
 62
5
 10
242.9657145103
 20
-208.5709672007
 40
3.0000000000
  0
TEXT
  8
3
  6
CONTINUOUS
 62
7
 10
240.340715
 20
-210.320967
 40
3.500000
  1
101
 41
0.815217
 50
0.000000
 51
0.000000
 72
   5
 73
   0
 11
245.590715
 21
-210.320967
  0
ENDBLK
  8
0
  0
BLOCK
  8
3
  2
BALN2
 70
     0
 10
274.9157145103
 20
-215.7735407057
  3
BALN2
  0
SOLID
  8
3
  6
CONTINUOUS
 62
5
 10
276.1807575855
 20
-214.2244551632
 11
276.7858167215
 21
-215.0645148108
 12
274.9157145103
 22
-215.7735407057
 13
274.9157145103
 23
-215.7735407057
  0
LINE
  8
3
  6
BYBLOCK
 62
5
 10
274.9157145103
 20
-215.7735407057
 11
282.4814085825
 21
-210.3242939386
  0
CIRCLE
  8
3
  6
BYBLOCK
 62
5
 10
284.9157145103
 20
-208.5709672007
 40
3.0000000000
  0
TEXT
  8
3
  6
CONTINUOUS
 62
7
 10
282.290715
 20
-210.320967
 40
3.500000
  1
102
 41
0.815217
 50
0.000000
 51
0.000000
 72
   5
 73
   0
 11
287.540715
 21
-210.320967
  0
ENDBLK
  8
0
  0
BLOCK
  8
3
  2
BALN3
 70
     0
 10
263.9407145103
 20
-222.9761142107
  3
BALN3
  0
SOLID
  8
3
  6
CONTINUOUS
 62
5
 10
265.9399424057
 20
-222.9205460344
 11
265.6998807438
 21
-223.9276047061
 12
263.9407145103
 22
-222.9761142107
 13
263.9407145103
 23
-222.9761142107
  0
LINE
  8
3
  6
BYBLOCK
 62
5
 10
263.9407145103
 20
-222.9761142107
 11
281.9974825716
 21
-227.2804689333
  0
CIRCLE
  8
3
  6
BYBLOCK
 62
5
 10
284.9157145103
 20
-227.9761142107
 40
3.0000000000
  0
TEXT
  8
3
  6
CONTINUOUS
 62
7
 10
282.290715
 20
-229.726114
 40
3.500000
  1
103
 41
0.815217
 50
0.000000
 51
0.000000
 72
   5
 73
   0
 11
287.540715
 21
-229.726114
  0
ENDBLK
  8
0
  0
BLOCK
  8
3
  2
BALN4
 70
     0
 10
231.4907145103
 20
-252.1955929806
  3
BALN4
  0
SOLID
  8
3
  6
CONTINUOUS
 62
5
 10
233.1359075171
 20
-251.0583419219
 11
233.4841189777
 21
-252.0333011767
 12
231.4907145103
 22
-252.1955929806
 13
231.4907145103
 23
-252.1955929806
  0
LINE
  8
3
  6
BYBLOCK
 62
5
 10
231.4907145103
 20
-252.1955929806
 11
240.1404995390
 21
-249.1062800031
  0
CIRCLE
  8
3
  6
BYBLOCK
 62
5
 10
242.9657145103
 20
-248.0972406749
 40
3.0000000000
  0
TEXT
  8
3
  6
CONTINUOUS
 62
7
 10
240.340715
 20
-249.847241
 40
3.500000
  1
111
 41
0.815217
 50
0.000000
 51
0.000000
 72
   5
 73
   0
 11
245.590715
 21
-249.847241
  0
ENDBLK
  8
0
  0
BLOCK
  8
3
  2
BALN5
 70
     0
 10
224.3820176819
 20
-255.6375952318
  3
BALN5
  0
SOLID
  8
3
  6
CONTINUOUS
 62
5
 10
226.3810748930
 20
-255.6989977306
 11
226.0825507609
 21
-256.6902999611
 12
224.3820176819
 22
-255.6375952318
 13
224.3820176819
 23
-255.6375952318
  0
LINE
  8
3
  6
BYBLOCK
 62
5
 10
224.3820176819
 20
-255.6375952318
 11
240.0931412319
 21
-260.3688965211
  0
CIRCLE
  8
3
  6
BYBLOCK
 62
5
 10
242.9657145103
 20
-261.2339530279
 40
3.0000000000
  0
TEXT
  8
3
  6
CONTINUOUS
 62
7
 10
240.340715
 20
-262.983953
 40
3.500000
  1
112
 41
0.815217
 50
0.000000
 51
0.000000
 72
   5
 73
   0
 11
245.590715
 21
-262.983953
  0
ENDBLK
  8
0
  0
BLOCK
  8
3
  2
BALN6
 70
     0
 10
273.4407145103
 20
-252.1955929806
  3
BALN6
  0
SOLID
  8
3
  6
CONTINUOUS
 62
5
 10
275.0859075171
 20
-251.0583419219
 11
275.4341189777
 21
-252.0333011767
 12
273.4407145103
 22
-252.1955929806
 13
273.4407145103
 23
-252.1955929806
  0
LINE
  8
3
  6
BYBLOCK
 62
5
 10
273.4407145103
 20
-252.1955929806
 11
282.0904995390
 21
-249.1062800032
  0
CIRCLE
  8
3
  6
BYBLOCK
 62
5
 10
284.9157145103
 20
-248.0972406749
 40
3.0000000000
  0
TEXT
  8
3
  6
CONTINUOUS
 62
7
 10
282.290715
 20
-249.847241
 40
3.500000
  1
113
 41
0.815217
 50
0.000000
 51
0.000000
 72
   5
 73
   0
 11
287.540715
 21
-249.847241
  0
ENDBLK
  8
0
  0
BLOCK
  8
3
  2
BALN7
 70
     0
 10
266.3320176819
 20
-255.6375952318
  3
BALN7
  0
SOLID
  8
3
  6
CONTINUOUS
 62
5
 10
268.3310748930
 20
-255.6989977306
 11
268.0325507609
 21
-256.6902999611
 12
266.3320176819
 22
-255.6375952318
 13
266.3320176819
 23
-255.6375952318
  0
LINE
  8
3
  6
BYBLOCK
 62
5
 10
266.3320176819
 20
-255.6375952318
 11
282.0431412319
 21
-260.3688965211
  0
CIRCLE
  8
3
  6
BYBLOCK
 62
5
 10
284.9157145103
 20
-261.2339530279
 40
3.0000000000
  0
TEXT
  8
3
  6
CONTINUOUS
 62
7
 10
282.290715
 20
-262.983953
 40
3.500000
  1
114
 41
0.815217
 50
0.000000
 51
0.000000
 72
   5
 73
   0
 11
287.540715
 21
-262.983953
  0
ENDBLK
  8
0
  0
BLOCK
  8
1
  2
LTEX0
 70
     0
 10
143.4661466639
 20
87.8525214537
  3
LTEX0
  0
SOLID
  8
1
  6
CONTINUOUS
 62
5
 10
143.3932367761
 20
85.8538508584
 11
142.4036695513
 21
86.1580768883
 12
143.4661466639
 22
87.8525214537
 13
143.4661466639
 23
87.8525214537
  0
TEXT
  8
1
  6
CONTINUOUS
 62
7
 10
135.592421
 20
63.241364
 40
5.000000
  1
 ⑥⑦
 41
0.880282
 50
0.000000
 51
0.000000
 72
   5
 73
   0
 11
148.092421
 21
63.241364
  0
LINE
  8
1
  6
BYBLOCK
 62
5
 10
143.4661466639
 20
87.8525214537
 11
135.5924212135
 21
62.2413643591
  0
LINE
  8
1
  6
BYBLOCK
 62
5
 10
135.5924212135
 20
62.2413643591
 11
148.0924212135
 21
62.2413643591
  0
ENDBLK
  8
0
  0
BLOCK
  8
4
  2
*D7
 70
     1
 10
0.0000000000
 20
0.0000000000
  3
*D7
  0
LINE
  8
4
  6
BYBLOCK
 62
5
 10
319.0572849682
 20
172.8091792572
 11
319.0572849682
 21
184.5026280811
  0
LINE
  8
4
  6
BYBLOCK
 62
5
 10
325.5572849682
 20
175.8091792572
 11
325.5572849682
 21
184.5026280811
  0
LINE
  8
4
  6
BYBLOCK
 62
5
 10
325.5572849682
 20
183.5026280811
 11
319.0572849682
 21
183.5026280811
  0
SOLID
  8
4
  6
CONTINUOUS
 62
5
 10
320.9891366208
 20
184.0202661713
 11
320.9891366208
 21
182.9849899909
 12
319.0572849682
 22
183.5026280811
 13
319.0572849682
 23
183.5026280811
  0
SOLID
  8
4
  6
CONTINUOUS
 62
5
 10
323.6254333156
 20
182.9849899909
 11
323.6254333156
 21
184.0202661713
 12
325.5572849682
 22
183.5026280811
 13
325.5572849682
 23
183.5026280811
  0
TEXT
  8
4
  6
CONTINUOUS
 62
7
 10
319.682285
 20
184.502628
 40
3.500000
  1
6.5
 41
0.815217
 50
0.000000
 51
0.000000
 72
   5
 73
   0
 11
324.932285
 21
184.502628
  0
POINT
  8
DEFPOINTS
  6
BYBLOCK
 62
5
 10
319.0572849682
 20
172.3091792572
  0
POINT
  8
DEFPOINTS
  6
BYBLOCK
 62
5
 10
325.5572849682
 20
175.3091792572
  0
POINT
  8
DEFPOINTS
  6
BYBLOCK
 62
5
 10
325.5572849682
 20
183.5026280811
  0
ENDBLK
  8
0
  0
BLOCK
  8
4
  2
*D8
 70
     1
 10
0.0000000000
 20
0.0000000000
  3
*D8
  0
LINE
  8
4
  6
BYBLOCK
 62
5
 10
345.5572849682
 20
175.0591792572
 11
345.5572849682
 21
184.5026280811
  0
LINE
  8
4
  6
BYBLOCK
 62
5
 10
345.5572849682
 20
183.5026280811
 11
325.5572849682
 21
183.5026280811
  0
SOLID
  8
4
  6
CONTINUOUS
 62
5
 10
327.4891366208
 20
184.0202661713
 11
327.4891366208
 21
182.9849899909
 12
325.5572849682
 22
183.5026280811
 13
325.5572849682
 23
183.5026280811
  0
SOLID
  8
4
  6
CONTINUOUS
 62
5
 10
343.6254333156
 20
182.9849899909
 11
343.6254333156
 21
184.0202661713
 12
345.5572849682
 22
183.5026280811
 13
345.5572849682
 23
183.5026280811
  0
TEXT
  8
4
  6
CONTINUOUS
 62
7
 10
333.807285
 20
184.502628
 40
3.500000
  1
20
 41
0.854701
 50
0.000000
 51
0.000000
 72
   5
 73
   0
 11
337.307285
 21
184.502628
  0
POINT
  8
DEFPOINTS
  6
BYBLOCK
 62
5
 10
325.5572849682
 20
175.3091792572
  0
POINT
  8
DEFPOINTS
  6
BYBLOCK
 62
5
 10
345.5572849682
 20
174.5591792572
  0
POINT
  8
DEFPOINTS
  6
BYBLOCK
 62
5
 10
345.5572849682
 20
183.5026280811
  0
ENDBLK
  8
0
  0
BLOCK
  8
4
  2
*D9
 70
     1
 10
0.0000000000
 20
0.0000000000
  3
*D9
  0
LINE
  8
4
  6
BYBLOCK
 62
5
 10
365.5572849682
 20
175.8091792572
 11
365.5572849682
 21
184.5026280811
  0
LINE
  8
4
  6
BYBLOCK
 62
5
 10
365.5572849682
 20
183.5026280811
 11
345.5572849682
 21
183.5026280811
  0
SOLID
  8
4
  6
CONTINUOUS
 62
5
 10
347.4891366208
 20
184.0202661713
 11
347.4891366208
 21
182.9849899909
 12
345.5572849682
 22
183.5026280811
 13
345.5572849682
 23
183.5026280811
  0
SOLID
  8
4
  6
CONTINUOUS
 62
5
 10
363.6254333156
 20
182.9849899909
 11
363.6254333156
 21
184.0202661713
 12
365.5572849682
 22
183.5026280811
 13
365.5572849682
 23
183.5026280811
  0
TEXT
  8
4
  6
CONTINUOUS
 62
7
 10
353.807285
 20
184.502628
 40
3.500000
  1
20
 41
0.854701
 50
0.000000
 51
0.000000
 72
   5
 73
   0
 11
357.307285
 21
184.502628
  0
POINT
  8
DEFPOINTS
  6
BYBLOCK
 62
5
 10
345.5572849682
 20
174.5591792572
  0
POINT
  8
DEFPOINTS
  6
BYBLOCK
 62
5
 10
365.5572849682
 20
175.3091792572
  0
POINT
  8
DEFPOINTS
  6
BYBLOCK
 62
5
 10
365.5572849682
 20
183.5026280811
  0
ENDBLK
  8
0
  0
BLOCK
  8
4
  2
*D10
 70
     1
 10
0.0000000000
 20
0.0000000000
  3
*D10
  0
LINE
  8
4
  6
BYBLOCK
 62
5
 10
372.0572849682
 20
172.8091792572
 11
372.0572849682
 21
184.5026280811
  0
LINE
  8
4
  6
BYBLOCK
 62
5
 10
372.0572849682
 20
183.5026280811
 11
365.5572849682
 21
183.5026280811
  0
SOLID
  8
4
  6
CONTINUOUS
 62
5
 10
367.4891366208
 20
184.0202661713
 11
367.4891366208
 21
182.9849899909
 12
365.5572849682
 22
183.5026280811
 13
365.5572849682
 23
183.5026280811
  0
SOLID
  8
4
  6
CONTINUOUS
 62
5
 10
370.1254333156
 20
182.9849899909
 11
370.1254333156
 21
184.0202661713
 12
372.0572849682
 22
183.5026280811
 13
372.0572849682
 23
183.5026280811
  0
TEXT
  8
4
  6
CONTINUOUS
 62
7
 10
366.182285
 20
184.502628
 40
3.500000
  1
6.5
 41
0.815217
 50
0.000000
 51
0.000000
 72
   5
 73
   0
 11
371.432285
 21
184.502628
  0
POINT
  8
DEFPOINTS
  6
BYBLOCK
 62
5
 10
365.5572849682
 20
175.3091792572
  0
POINT
  8
DEFPOINTS
  6
BYBLOCK
 62
5
 10
372.0572849682
 20
172.3091792572
  0
POINT
  8
DEFPOINTS
  6
BYBLOCK
 62
5
 10
372.0572849682
 20
183.5026280811
  0
ENDBLK
  8
0
  0
BLOCK
  8
4
  2
*D11
 70
     1
 10
0.0000000000
 20
0.0000000000
  3
*D11
  0
LINE
  8
4
  6
BYBLOCK
 62
5
 10
319.0572849682
 20
184.5026280811
 11
319.0572849682
 21
191.5026280811
  0
LINE
  8
4
  6
BYBLOCK
 62
5
 10
372.0572849682
 20
172.8091792572
 11
372.0572849682
 21
191.5026280811
  0
LINE
  8
4
  6
BYBLOCK
 62
5
 10
372.0572849682
 20
190.5026280811
 11
319.0572849682
 21
190.5026280811
  0
SOLID
  8
4
  6
CONTINUOUS
 62
5
 10
320.9891366208
 20
191.0202661713
 11
320.9891366208
 21
189.9849899909
 12
319.0572849682
 22
190.5026280811
 13
319.0572849682
 23
190.5026280811
  0
SOLID
  8
4
  6
CONTINUOUS
 62
5
 10
370.1254333156
 20
189.9849899909
 11
370.1254333156
 21
191.0202661713
 12
372.0572849682
 22
190.5026280811
 13
372.0572849682
 23
190.5026280811
  0
TEXT
  8
4
  6
CONTINUOUS
 62
7
 10
343.807285
 20
191.502628
 40
3.500000
  1
53
 41
0.854701
 50
0.000000
 51
0.000000
 72
   5
 73
   0
 11
347.307285
 21
191.502628
  0
POINT
  8
DEFPOINTS
  6
BYBLOCK
 62
5
 10
319.0572849682
 20
172.3091792572
  0
POINT
  8
DEFPOINTS
  6
BYBLOCK
 62
5
 10
372.0572849682
 20
172.3091792572
  0
POINT
  8
DEFPOINTS
  6
BYBLOCK
 62
5
 10
372.0572849682
 20
190.5026280811
  0
ENDBLK
  8
0
  0
BLOCK
  8
4
  2
*D12
 70
     1
 10
0.0000000000
 20
0.0000000000
  3
*D12
  0
LINE
  8
4
  6
BYBLOCK
 62
5
 10
324.7064153436
 20
178.0445014346
 11
323.2882993026
 21
180.1033717302
  0
LINE
  8
4
  6
BYBLOCK
 62
5
 10
326.4081545928
 20
175.5738570798
 11
327.8262706338
 21
173.5149867841
  0
SOLID
  8
4
  6
CONTINUOUS
 62
5
 10
323.1842795416
 20
179.3418458761
 11
324.0368792918
 21
179.9291025795
 12
324.7064153436
 22
178.0445014346
 13
324.7064153436
 23
178.0445014346
  0
SOLID
  8
4
  6
CONTINUOUS
 62
5
 10
327.9302903948
 20
174.2765126382
 11
327.0776906446
 21
173.6892559349
 12
326.4081545928
 22
175.5738570798
 13
326.4081545928
 23
175.5738570798
  0
TEXT
  8
4
  6
CONTINUOUS
 62
7
 10
332.437449
 20
168.583219
 40
3.500000
  1
4-M3
 41
0.796813
 50
304.558432
 51
0.000000
 72
   5
 73
   0
 11
336.408174
 21
162.818382
  0
POINT
  8
DEFPOINTS
  6
BYBLOCK
 62
5
 10
324.7064153436
 20
178.0445014346
  0
POINT
  8
DEFPOINTS
  6
BYBLOCK
 62
5
 10
326.4081545928
 20
175.5738570798
  0
LINE
  8
4
  6
BYBLOCK
 62
5
 10
324.7064153436
 20
178.0445014346
 11
335.5846262337
 21
162.2511357126
  0
ENDBLK
  8
0
  0
BLOCK
  8
4
  2
*D13
 70
     1
 10
0.0000000000
 20
0.0000000000
  3
*D13
  0
LINE
  8
4
  6
BYBLOCK
 62
5
 10
344.1560871308
 20
178.5696180151
 11
342.5992006447
 21
180.5256610794
  0
LINE
  8
4
  6
BYBLOCK
 62
5
 10
346.9584828056
 20
175.0487404993
 11
348.5153692917
 21
173.0926974349
  0
SOLID
  8
4
  6
CONTINUOUS
 62
5
 10
342.5480086799
 20
179.7587705267
 11
343.3580265968
 21
180.4034935245
 12
344.1560871308
 22
178.5696180151
 13
344.1560871308
 23
178.5696180151
  0
SOLID
  8
4
  6
CONTINUOUS
 62
5
 10
348.5665612565
 20
173.8595879876
 11
347.7565433396
 21
173.2148649898
 12
346.9584828056
 22
175.0487404993
 13
346.9584828056
 23
175.0487404993
  0
TEXT
  8
4
  6
CONTINUOUS
 62
7
 10
353.582932
 20
168.331675
 40
3.500000
  1
2-φ4.5
 41
0.804598
 50
308.517570
 51
0.000000
 72
   5
 73
   0
 11
361.211676
 21
158.747064
  0
POINT
  8
DEFPOINTS
  6
BYBLOCK
 62
5
 10
344.1560871308
 20
178.5696180151
  0
POINT
  8
DEFPOINTS
  6
BYBLOCK
 62
5
 10
346.9584828056
 20
175.0487404993
  0
LINE
  8
4
  6
BYBLOCK
 62
5
 10
344.1560871308
 20
178.5696180151
 11
360.4292590547
 21
158.1243091490
  0
ENDBLK
  8
0
  0
BLOCK
  8
1
  2
*D14
 70
     1
 10
0.0000000000
 20
0.0000000000
  3
*D14
  0
LINE
  8
1
  6
BYBLOCK
 62
5
 10
366.5572849682
 20
59.8091792572
 11
305.8614186851
 21
59.8091792572
  0
LINE
  8
1
  6
BYBLOCK
 62
5
 10
318.5572849682
 20
64.3091792572
 11
305.8614186851
 21
64.3091792572
  0
LINE
  8
1
  6
BYBLOCK
 62
5
 10
306.8614186851
 20
66.8091792572
 11
306.8614186851
 21
57.3091792572
  0
SOLID
  8
1
  6
CONTINUOUS
 62
5
 10
307.3790567753
 20
57.8773276046
 11
306.3437805949
 21
57.8773276046
 12
306.8614186851
 22
59.8091792572
 13
306.8614186851
 23
59.8091792572
  0
SOLID
  8
1
  6
CONTINUOUS
 62
5
 10
306.3437805949
 20
66.2410309098
 11
307.3790567753
 21
66.2410309098
 12
306.8614186851
 22
64.3091792572
 13
306.8614186851
 23
64.3091792572
  0
TEXT
  8
1
  6
CONTINUOUS
 62
7
 10
305.861419
 20
59.809179
 40
3.000000
  1
4.5
 41
0.815217
 50
90.000000
 51
0.000000
 72
   5
 73
   0
 11
305.861419
 21
64.309179
  0
POINT
  8
DEFPOINTS
  6
BYBLOCK
 62
5
 10
367.0572849682
 20
59.8091792572
  0
POINT
  8
DEFPOINTS
  6
BYBLOCK
 62
5
 10
319.0572849682
 20
64.3091792572
  0
POINT
  8
DEFPOINTS
  6
BYBLOCK
 62
5
 10
306.8614186851
 20
64.3091792572
  0
ENDBLK
  8
0
  0
BLOCK
  8
1
  2
*D15
 70
     1
 10
0.0000000000
 20
0.0000000000
  3
*D15
  0
LINE
  8
1
  6
BYBLOCK
 62
5
 10
318.5572849682
 20
172.3091792572
 11
305.8614186851
 21
172.3091792572
  0
LINE
  8
1
  6
BYBLOCK
 62
5
 10
306.8614186851
 20
172.3091792572
 11
306.8614186851
 21
64.3091792572
  0
SOLID
  8
1
  6
CONTINUOUS
 62
5
 10
306.3437805949
 20
66.2410309098
 11
307.3790567753
 21
66.2410309098
 12
306.8614186851
 22
64.3091792572
 13
306.8614186851
 23
64.3091792572
  0
SOLID
  8
1
  6
CONTINUOUS
 62
5
 10
307.3790567753
 20
170.3773276046
 11
306.3437805949
 21
170.3773276046
 12
306.8614186851
 22
172.3091792572
 13
306.8614186851
 23
172.3091792572
  0
TEXT
  8
1
  6
CONTINUOUS
 62
7
 10
305.861419
 20
115.684179
 40
3.500000
  1
108
 41
0.815217
 50
90.000000
 51
0.000000
 72
   5
 73
   0
 11
305.861419
 21
120.934179
  0
POINT
  8
DEFPOINTS
  6
BYBLOCK
 62
5
 10
319.0572849682
 20
64.3091792572
  0
POINT
  8
DEFPOINTS
  6
BYBLOCK
 62
5
 10
319.0572849682
 20
172.3091792572
  0
POINT
  8
DEFPOINTS
  6
BYBLOCK
 62
5
 10
306.8614186851
 20
172.3091792572
  0
ENDBLK
  8
0
  0
BLOCK
  8
1
  2
*D16
 70
     1
 10
0.0000000000
 20
0.0000000000
  3
*D16
  0
LINE
  8
1
  6
BYBLOCK
 62
5
 10
366.5572849682
 20
176.8091792572
 11
305.8614186851
 21
176.8091792572
  0
LINE
  8
1
  6
BYBLOCK
 62
5
 10
306.8614186851
 20
179.3091792572
 11
306.8614186851
 21
169.8091792572
  0
SOLID
  8
1
  6
CONTINUOUS
 62
5
 10
307.3790567753
 20
170.3773276046
 11
306.3437805949
 21
170.3773276046
 12
306.8614186851
 22
172.3091792572
 13
306.8614186851
 23
172.3091792572
  0
SOLID
  8
1
  6
CONTINUOUS
 62
5
 10
306.3437805949
 20
178.7410309098
 11
307.3790567753
 21
178.7410309098
 12
306.8614186851
 22
176.8091792572
 13
306.8614186851
 23
176.8091792572
  0
TEXT
  8
1
  6
CONTINUOUS
 62
7
 10
304.861419
 20
172.309180
 40
3.000000
  1
4.5
 41
0.815217
 50
90.000000
 51
0.000000
 72
   5
 73
   0
 11
304.861419
 21
176.809180
  0
POINT
  8
DEFPOINTS
  6
BYBLOCK
 62
5
 10
319.0572849682
 20
172.3091792572
  0
POINT
  8
DEFPOINTS
  6
BYBLOCK
 62
5
 10
367.0572849682
 20
176.8091792572
  0
POINT
  8
DEFPOINTS
  6
BYBLOCK
 62
5
 10
306.8614186851
 20
176.8091792572
  0
ENDBLK
  8
0
  0
BLOCK
  8
1
  2
*D17
 70
     1
 10
0.0000000000
 20
0.0000000000
  3
*D17
  0
LINE
  8
1
  6
BYBLOCK
 62
5
 10
305.8614186851
 20
59.8091792572
 11
298.8614186851
 21
59.8091792572
  0
LINE
  8
1
  6
BYBLOCK
 62
5
 10
366.5572849682
 20
176.8091792572
 11
298.8614186851
 21
176.8091792572
  0
LINE
  8
1
  6
BYBLOCK
 62
5
 10
299.8614186851
 20
176.8091792572
 11
299.8614186851
 21
59.8091792572
  0
SOLID
  8
1
  6
CONTINUOUS
 62
5
 10
299.3437805949
 20
61.7410309098
 11
300.3790567753
 21
61.7410309098
 12
299.8614186851
 22
59.8091792572
 13
299.8614186851
 23
59.8091792572
  0
SOLID
  8
1
  6
CONTINUOUS
 62
5
 10
300.3790567753
 20
174.8773276046
 11
299.3437805949
 21
174.8773276046
 12
299.8614186851
 22
176.8091792572
 13
299.8614186851
 23
176.8091792572
  0
TEXT
  8
1
  6
CONTINUOUS
 62
7
 10
298.861419
 20
115.684179
 40
3.500000
  1
117
 41
0.815217
 50
90.000000
 51
0.000000
 72
   5
 73
   0
 11
298.861419
 21
120.934179
  0
POINT
  8
DEFPOINTS
  6
BYBLOCK
 62
5
 10
367.0572849682
 20
59.8091792572
  0
POINT
  8
DEFPOINTS
  6
BYBLOCK
 62
5
 10
367.0572849682
 20
176.8091792572
  0
POINT
  8
DEFPOINTS
  6
BYBLOCK
 62
5
 10
299.8614186851
 20
176.8091792572
  0
ENDBLK
  8
0
  0
BLOCK
  8
1
  2
*D18
 70
     1
 10
0.0000000000
 20
0.0000000000
  3
*D18
  0
LINE
  8
1
  6
BYBLOCK
 62
5
 10
380.5572849682
 20
44.0591792572
 11
388.7005190311
 21
44.0591792572
  0
LINE
  8
1
  6
BYBLOCK
 62
5
 10
372.5572849682
 20
64.3091792572
 11
388.7005190311
 21
64.3091792572
  0
LINE
  8
1
  6
BYBLOCK
 62
5
 10
387.7005190311
 20
64.3091792572
 11
387.7005190311
 21
44.0591792572
  0
SOLID
  8
1
  6
CONTINUOUS
 62
5
 10
387.1828809409
 20
45.9910309098
 11
388.2181571213
 21
45.9910309098
 12
387.7005190311
 22
44.0591792572
 13
387.7005190311
 23
44.0591792572
  0
SOLID
  8
1
  6
CONTINUOUS
 62
5
 10
388.2181571213
 20
62.3773276046
 11
387.1828809409
 21
62.3773276046
 12
387.7005190311
 22
64.3091792572
 13
387.7005190311
 23
64.3091792572
  0
TEXT
  8
1
  6
CONTINUOUS
 62
7
 10
386.700519
 20
49.809179
 40
3.500000
  1
20.25
 41
0.786164
 50
90.000000
 51
0.000000
 72
   5
 73
   0
 11
386.700519
 21
58.559179
  0
POINT
  8
DEFPOINTS
  6
BYBLOCK
 62
5
 10
380.0572849682
 20
44.0591792572
  0
POINT
  8
DEFPOINTS
  6
BYBLOCK
 62
5
 10
372.0572849682
 20
64.3091792572
  0
POINT
  8
DEFPOINTS
  6
BYBLOCK
 62
5
 10
387.7005190311
 20
64.3091792572
  0
ENDBLK
  8
0
  0
BLOCK
  8
1
  2
*D19
 70
     1
 10
0.0000000000
 20
0.0000000000
  3
*D19
  0
LINE
  8
1
  6
BYBLOCK
 62
5
 10
372.5572849682
 20
172.3091792572
 11
388.7005190311
 21
172.3091792572
  0
LINE
  8
1
  6
BYBLOCK
 62
5
 10
387.7005190311
 20
172.3091792572
 11
387.7005190311
 21
64.3091792572
  0
SOLID
  8
1
  6
CONTINUOUS
 62
5
 10
387.1828809409
 20
66.2410309098
 11
388.2181571213
 21
66.2410309098
 12
387.7005190311
 22
64.3091792572
 13
387.7005190311
 23
64.3091792572
  0
SOLID
  8
1
  6
CONTINUOUS
 62
5
 10
388.2181571213
 20
170.3773276046
 11
387.1828809409
 21
170.3773276046
 12
387.7005190311
 22
172.3091792572
 13
387.7005190311
 23
172.3091792572
  0
TEXT
  8
1
  6
CONTINUOUS
 62
7
 10
386.700519
 20
115.684179
 40
3.500000
  1
108
 41
0.815217
 50
90.000000
 51
0.000000
 72
   5
 73
   0
 11
386.700519
 21
120.934179
  0
POINT
  8
DEFPOINTS
  6
BYBLOCK
 62
5
 10
372.0572849682
 20
64.3091792572
  0
POINT
  8
DEFPOINTS
  6
BYBLOCK
 62
5
 10
372.0572849682
 20
172.3091792572
  0
POINT
  8
DEFPOINTS
  6
BYBLOCK
 62
5
 10
387.7005190311
 20
172.3091792572
  0
ENDBLK
  8
0
  0
BLOCK
  8
1
  2
*D20
 70
     1
 10
0.0000000000
 20
0.0000000000
  3
*D20
  0
LINE
  8
1
  6
BYBLOCK
 62
5
 10
380.5572849682
 20
199.5591792572
 11
388.7005190311
 21
199.5591792572
  0
LINE
  8
1
  6
BYBLOCK
 62
5
 10
387.7005190311
 20
199.5591792572
 11
387.7005190311
 21
172.3091792572
  0
SOLID
  8
1
  6
CONTINUOUS
 62
5
 10
387.1828809409
 20
174.2410309098
 11
388.2181571213
 21
174.2410309098
 12
387.7005190311
 22
172.3091792572
 13
387.7005190311
 23
172.3091792572
  0
SOLID
  8
1
  6
CONTINUOUS
 62
5
 10
388.2181571213
 20
197.6273276046
 11
387.1828809409
 21
197.6273276046
 12
387.7005190311
 22
199.5591792572
 13
387.7005190311
 23
199.5591792572
  0
TEXT
  8
1
  6
CONTINUOUS
 62
7
 10
386.700519
 20
181.559179
 40
3.500000
  1
27.25
 41
0.786164
 50
90.000000
 51
0.000000
 72
   5
 73
   0
 11
386.700519
 21
190.309179
  0
POINT
  8
DEFPOINTS
  6
BYBLOCK
 62
5
 10
372.0572849682
 20
172.3091792572
  0
POINT
  8
DEFPOINTS
  6
BYBLOCK
 62
5
 10
380.0572849682
 20
199.5591792572
  0
POINT
  8
DEFPOINTS
  6
BYBLOCK
 62
5
 10
387.7005190311
 20
199.5591792572
  0
ENDBLK
  8
0
  0
BLOCK
  8
1
  2
LTEX1
 70
     0
 10
323.9116262976
 20
44.0591792572
  3
LTEX1
  0
SOLID
  8
1
  6
CONTINUOUS
 62
5
 10
324.7338699055
 20
45.8823400974
 11
325.5352905702
 21
45.2269610561
 12
323.9116262976
 22
44.0591792572
 13
323.9116262976
 23
44.0591792572
  0
TEXT
  8
1
  6
CONTINUOUS
 62
7
 10
328.407128
 20
50.556438
 40
2.500000
  1
製品外形
 41
0.886918
 50
0.000000
 51
0.000000
 72
   5
 73
   0
 11
338.407128
 21
50.556438
  0
LINE
  8
1
  6
BYBLOCK
 62
5
 10
323.9116262976
 20
44.0591792572
 11
328.4071280277
 21
49.5564377255
  0
LINE
  8
1
  6
BYBLOCK
 62
5
 10
328.4071280277
 20
49.5564377255
 11
338.4071280277
 21
49.5564377255
  0
ENDBLK
  8
0
  0
BLOCK
  8
1
  2
BALN8
 70
     0
 10
131.0889601190
 20
214.9344220794
  3
BALN8
  0
SOLID
  8
1
  6
CONTINUOUS
 62
5
 10
130.7284137875
 20
216.9016552488
 11
131.7603344214
 21
216.8183691451
 12
131.0889601190
 22
214.9344220794
 13
131.0889601190
 23
214.9344220794
  0
LINE
  8
1
  6
BYBLOCK
 62
5
 10
131.0889601190
 20
214.9344220794
 11
132.0718297280
 21
227.1122450808
  0
CIRCLE
  8
1
  6
BYBLOCK
 62
5
 10
132.3131743238
 20
230.1025214537
 40
3.0000000000
  0
TEXT
  8
1
  6
CONTINUOUS
 62
7
 10
131.438174
 20
228.352521
 40
3.500000
  1
1
 41
1.000000
 50
0.000000
 51
0.000000
 72
   5
 73
   0
 11
133.188174
 21
228.352521
  0
ENDBLK
  8
0
  0
BLOCK
  8
1
  2
BALN9
 70
     0
 10
112.1348058892
 20
202.0171741535
  3
BALN9
  0
SOLID
  8
1
  6
CONTINUOUS
 62
5
 10
111.2041040570
 20
203.7874267060
 11
112.2139207354
 21
204.0156087511
 12
112.1348058892
 22
202.0171741535
 13
112.1348058892
 23
202.0171741535
  0
LINE
  8
1
  6
BYBLOCK
 62
5
 10
112.1348058892
 20
202.0171741535
 11
106.4497540127
 21
227.1762974252
  0
CIRCLE
  8
1
  6
BYBLOCK
 62
5
 10
105.7885332211
 20
230.1025214537
 40
3.0000000000
  0
TEXT
  8
1
  6
CONTINUOUS
 62
7
 10
104.913533
 20
228.352521
 40
3.500000
  1
2
 41
1.000000
 50
0.000000
 51
0.000000
 72
   5
 73
   0
 11
106.663533
 21
228.352521
  0
ENDBLK
  8
0
  0
BLOCK
  8
1
  2
BALN10
 70
     0
 10
173.9105182328
 20
197.3525214537
  3
BALN10
  0
SOLID
  8
1
  6
CONTINUOUS
 62
5
 10
173.6481267778
 20
199.3352344244
 11
174.6746370524
 21
199.2007969822
 12
173.9105182328
 22
197.3525214537
 13
173.9105182328
 23
197.3525214537
  0
LINE
  8
1
  6
BYBLOCK
 62
5
 10
173.9105182328
 20
197.3525214537
 11
177.8100689110
 21
227.1279230981
  0
CIRCLE
  8
1
  6
BYBLOCK
 62
5
 10
178.1996387033
 20
230.1025214537
 40
3.0000000000
  0
TEXT
  8
1
  6
CONTINUOUS
 62
7
 10
177.324639
 20
228.352521
 40
3.500000
  1
4
 41
1.000000
 50
0.000000
 51
0.000000
 72
   5
 73
   0
 11
179.074639
 21
228.352521
  0
ENDBLK
  8
0
  0
BLOCK
  8
1
  2
BALN11
 70
     0
 10
193.9105182328
 20
201.2525214536
  3
BALN11
  0
SOLID
  8
1
  6
CONTINUOUS
 62
5
 10
193.8067066555
 20
203.2498254256
 11
194.8192667557
 21
203.0341432210
 12
193.9105182328
 22
201.2525214536
 13
193.9105182328
 23
201.2525214536
  0
LINE
  8
1
  6
BYBLOCK
 62
5
 10
193.9105182328
 20
201.2525214536
 11
199.4307658854
 21
227.1683475995
  0
CIRCLE
  8
1
  6
BYBLOCK
 62
5
 10
200.0557649204
 20
230.1025214537
 40
3.0000000000
  0
TEXT
  8
1
  6
CONTINUOUS
 62
7
 10
199.180765
 20
228.352521
 40
3.500000
  1
5
 41
1.000000
 50
0.000000
 51
0.000000
 72
   5
 73
   0
 11
200.930765
 21
228.352521
  0
ENDBLK
  8
0
  0
BLOCK
  8
1
  2
BALN12
 70
     0
 10
210.8775143248
 20
187.5497784381
  3
BALN12
  0
SOLID
  8
1
  6
CONTINUOUS
 62
5
 10
210.7311364663
 20
189.5444146261
 11
211.7480654748
 21
189.3503729775
 12
210.8775143248
 22
187.5497784381
 13
210.8775143248
 23
187.5497784381
  0
LINE
  8
1
  6
BYBLOCK
 62
5
 10
210.8775143248
 20
187.5497784381
 11
218.4347733084
 21
227.1556874753
  0
CIRCLE
  8
1
  6
BYBLOCK
 62
5
 10
218.9970628278
 20
230.1025214537
 40
3.0000000000
  0
TEXT
  8
1
  6
CONTINUOUS
 62
7
 10
218.122063
 20
228.352521
 40
3.500000
  1
8
 41
1.000000
 50
0.000000
 51
0.000000
 72
   5
 73
   0
 11
219.872063
 21
228.352521
  0
ENDBLK
  8
0
  0
BLOCK
  8
1
  2
BALN13
 70
     0
 10
196.0488132409
 20
-56.8156214360
  3
BALN13
  0
SOLID
  8
1
  6
CONTINUOUS
 62
5
 10
197.6675994457
 20
-55.6410869652
 11
198.0379904529
 21
-56.6078378491
 12
196.0488132409
 22
-56.8156214360
 13
196.0488132409
 23
-56.8156214360
  0
LINE
  8
1
  6
BYBLOCK
 62
5
 10
196.0488132409
 20
-56.8156214360
 11
204.3949349458
 21
-53.6179740622
  0
CIRCLE
  8
1
  6
BYBLOCK
 62
5
 10
207.1963638848
 20
-52.5446633431
 40
3.0000000000
  0
TEXT
  8
1
  6
CONTINUOUS
 62
7
 10
205.446364
 20
-54.294663
 40
3.500000
  1
91
 41
0.854701
 50
0.000000
 51
0.000000
 72
   5
 73
   0
 11
208.946364
 21
-54.294663
  0
ENDBLK
  8
0
  0
BLOCK
  8
1
  2
BALN14
 70
     0
 10
200.0400895974
 20
-64.6543248739
  3
BALN14
  0
SOLID
  8
1
  6
CONTINUOUS
 62
5
 10
202.0399463386
 20
-64.6782625960
 11
201.7600474781
 21
-65.6749839200
 12
200.0400895974
 22
-64.6543248739
 13
200.0400895974
 23
-64.6543248739
  0
LINE
  8
1
  6
BYBLOCK
 62
5
 10
200.0400895974
 20
-64.6543248739
 11
220.8857632591
 21
-70.5081981310
  0
CIRCLE
  8
1
  6
BYBLOCK
 62
5
 10
223.7740398644
 20
-71.3192827452
 40
3.0000000000
  0
TEXT
  8
1
  6
CONTINUOUS
 62
7
 10
222.024040
 20
-73.069283
 40
3.500000
  1
92
 41
0.854701
 50
0.000000
 51
0.000000
 72
   5
 73
   0
 11
225.524040
 21
-73.069283
  0
ENDBLK
  8
0
  0
BLOCK
  8
1
  2
S2
 70
     0
 10
193.9105182328
 20
128.7525214536
  3
S2
  0
LINE
  8
1
  6
CONTINUOUS
 62
1
 10
195.5980182329
 20
128.7525214536
 11
192.2230182329
 21
128.7525214536
  0
LINE
  8
1
  6
CONTINUOUS
 62
1
 10
195.0355182329
 20
127.9087714536
 11
192.7855182329
 21
127.9087714536
  0
LINE
  8
1
  6
CONTINUOUS
 62
1
 10
194.4730182329
 20
127.0650214536
 11
193.3480182329
 21
127.0650214536
  0
LINE
  8
1
  6
CONTINUOUS
 62
1
 10
193.9105182328
 20
128.7525214536
 11
193.9105182329
 21
130.4400214536
  0
ENDBLK
  8
0
  0
BLOCK
  8
1
  2
S3
 70
     0
 10
52.8199585694
 20
-234.8419493141
  3
S3
  0
LINE
  8
1
  6
CONTINUOUS
 62
1
 10
54.5074585695
 20
-234.8419493141
 11
51.1324585695
 21
-234.8419493141
  0
LINE
  8
1
  6
CONTINUOUS
 62
1
 10
53.9449585695
 20
-235.6856993141
 11
51.6949585695
 21
-235.6856993141
  0
LINE
  8
1
  6
CONTINUOUS
 62
1
 10
53.3824585695
 20
-236.5294493141
 11
52.2574585695
 21
-236.5294493141
  0
LINE
  8
1
  6
CONTINUOUS
 62
1
 10
52.8199585694
 20
-234.8419493141
 11
52.8199585695
 21
-233.1544493141
  0
ENDBLK
  8
0
  0
BLOCK
  8
1
  2
S4
 70
     0
 10
178.7016374758
 20
-56.4158727524
  3
S4
  0
LINE
  8
1
  6
CONTINUOUS
 62
1
 10
180.3891374759
 20
-56.4158727524
 11
177.0141374759
 21
-56.4158727524
  0
LINE
  8
1
  6
CONTINUOUS
 62
1
 10
179.8266374759
 20
-57.2596227524
 11
177.5766374759
 21
-57.2596227524
  0
LINE
  8
1
  6
CONTINUOUS
 62
1
 10
179.2641374759
 20
-58.1033727524
 11
178.1391374759
 21
-58.1033727524
  0
LINE
  8
1
  6
CONTINUOUS
 62
1
 10
178.7016374758
 20
-56.4158727524
 11
178.7016374759
 21
-54.7283727524
  0
ENDBLK
  8
0
  0
BLOCK
  8
1
  2
BALN15
 70
     0
 10
71.4522201424
 20
-174.7444432884
  3
BALN15
  0
SOLID
  8
1
  6
CONTINUOUS
 62
5
 10
72.9587627786
 20
-173.4290234751
 11
73.4146342439
 21
-174.3585276315
 12
71.4522201424
 22
-174.7444432884
 13
71.4522201424
 23
-174.7444432884
  0
LINE
  8
1
  6
BYBLOCK
 62
5
 10
71.4522201424
 20
-174.7444432884
 11
99.4117406920
 21
-161.0318121908
  0
CIRCLE
  8
1
  6
BYBLOCK
 62
5
 10
102.1052369032
 20
-159.7107981254
 40
3.0000000000
  0
TEXT
  8
1
  6
CONTINUOUS
 62
7
 10
100.355237
 20
-161.460798
 40
3.500000
  1
90
 41
0.854701
 50
0.000000
 51
0.000000
 72
   5
 73
   0
 11
103.855237
 21
-161.460798
  0
ENDBLK
  8
0
  0
BLOCK
  8
1
  2
S5
 70
     0
 10
183.4561860563
 20
245.2817122723
  3
S5
  0
LINE
  8
1
  6
CONTINUOUS
 62
6
 10
185.9561860563
 20
243.2817122723
 11
180.9561860563
 21
243.2817122723
  0
TEXT
  8
1
  6
CONTINUOUS
 62
6
 10
182.405136
 20
242.903385
 40
3.300000
  1
B
 41
1.274000
 50
0.000000
 51
0.000000
 72
   5
 73
   0
 11
184.507236
 21
242.903385
  0
LINE
  8
1
  6
CONTINUOUS
 62
6
 10
183.4561860563
 20
247.2817122723
 11
180.9561860563
 21
243.2817122723
  0
LINE
  8
1
  6
CONTINUOUS
 62
6
 10
183.4561860563
 20
247.2817122723
 11
185.9561860563
 21
243.2817122723
  0
POINT
  8
1
  6
CONTINUOUS
 62
6
 10
183.4561860563
 20
245.2817122723
  0
ENDBLK
  8
0
  0
BLOCK
  8
1
  2
S6
 70
     0
 10
8.0421952432
 20
-102.3066272377
  3
S6
  0
LINE
  8
1
  6
CONTINUOUS
 62
6
 10
10.5421952432
 20
-104.3066272376
 11
5.5421952432
 21
-104.3066272377
  0
TEXT
  8
1
  6
CONTINUOUS
 62
6
 10
6.991145
 20
-104.684955
 40
3.300000
  1
B
 41
1.274000
 50
0.000000
 51
0.000000
 72
   5
 73
   0
 11
9.093245
 21
-104.684955
  0
LINE
  8
1
  6
CONTINUOUS
 62
6
 10
8.0421952432
 20
-100.3066272377
 11
5.5421952432
 21
-104.3066272377
  0
LINE
  8
1
  6
CONTINUOUS
 62
6
 10
8.0421952432
 20
-100.3066272377
 11
10.5421952432
 21
-104.3066272377
  0
POINT
  8
1
  6
CONTINUOUS
 62
6
 10
8.0421952432
 20
-102.3066272377
  0
ENDBLK
  8
0
  0
BLOCK
  8
1
  2
S7
 70
     0
 10
137.2868002249
 20
38.5097255163
  3
S7
  0
LINE
  8
1
  6
CONTINUOUS
 62
6
 10
139.7868002249
 20
36.5097255163
 11
134.7868002249
 21
36.5097255163
  0
TEXT
  8
1
  6
CONTINUOUS
 62
6
 10
136.235750
 20
36.131398
 40
3.300000
  1
B
 41
1.274000
 50
0.000000
 51
0.000000
 72
   5
 73
   0
 11
138.337850
 21
36.131398
  0
LINE
  8
1
  6
CONTINUOUS
 62
6
 10
137.2868002249
 20
40.5097255163
 11
134.7868002249
 21
36.5097255163
  0
LINE
  8
1
  6
CONTINUOUS
 62
6
 10
137.2868002249
 20
40.5097255163
 11
139.7868002249
 21
36.5097255163
  0
POINT
  8
1
  6
CONTINUOUS
 62
6
 10
137.2868002249
 20
38.5097255163
  0
ENDBLK
  8
0
  0
BLOCK
  8
3
  2
LTEX2
 70
     0
 10
134.5962334454
 20
86.7605564293
  3
LTEX2
  0
SOLID
  8
3
  6
CONTINUOUS
 62
5
 10
135.0708243304
 20
84.8176813710
 11
134.0358036791
 21
84.8406818299
 12
134.5962334454
 22
86.7605564293
 13
134.5962334454
 23
86.7605564293
  0
TEXT
  8
3
  6
CONTINUOUS
 62
7
 10
133.340636
 20
31.258654
 40
3.500000
  1
 PBT品はｱｰｽ部(2箇所) 
 41
0.804598
 50
0.000000
 51
0.000000
 72
   5
 73
   0
 11
170.090636
 21
31.258654
  0
TEXT
  8
3
  6
CONTINUOUS
 62
7
 10
133.340636
 20
26.258654
 40
3.500000
  1
%%uは無いです%%u
 41
0.880282
 50
0.000000
 51
0.000000
 72
   5
 73
   0
 11
150.840636
 21
26.258654
  0
LINE
  8
3
  6
BYBLOCK
 62
5
 10
134.5962334454
 20
86.7605564293
 11
133.3406356149
 21
30.2586540591
  0
LINE
  8
3
  6
BYBLOCK
 62
5
 10
133.3406356149
 20
30.2586540591
 11
170.0906356149
 21
30.2586540591
  0
ENDBLK
  8
0
  0
BLOCK
  8
3
  2
LTEX3
 70
     0
 10
88.2645106558
 20
17.3439335173
  3
LTEX3
  0
SOLID
  8
3
  6
CONTINUOUS
 62
5
 10
89.9790701192
 20
18.3736353414
 11
90.2642136195
 21
17.3784017236
 12
88.2645106558
 22
17.3439335173
 13
88.2645106558
 23
17.3439335173
  0
TEXT
  8
3
  6
CONTINUOUS
 62
7
 10
133.340636
 20
31.258654
 40
3.500000
  1
 
 41
1.000000
 50
0.000000
 51
0.000000
 72
   5
 73
   0
 11
135.090636
 21
31.258654
  0
LINE
  8
3
  6
BYBLOCK
 62
5
 10
88.2645106558
 20
17.3439335173
 11
133.3406356149
 21
30.2586540591
  0
LINE
  8
3
  6
BYBLOCK
 62
5
 10
133.3406356149
 20
30.2586540591
 11
135.0906356149
 21
30.2586540591
  0
ENDBLK
  8
0
  0
BLOCK
  8
3
  2
LTEX4
 70
     0
 10
39.2645106558
 20
18.7789024664
  3
LTEX4
  0
SOLID
  8
3
  6
CONTINUOUS
 62
5
 10
41.1194376375
 20
19.5267299150
 11
41.2448382684
 21
18.4990765437
 12
39.2645106558
 22
18.7789024664
 13
39.2645106558
 23
18.7789024664
  0
TEXT
  8
3
  6
CONTINUOUS
 62
7
 10
133.340636
 20
31.258654
 40
3.500000
  1
 
 41
1.000000
 50
0.000000
 51
0.000000
 72
   5
 73
   0
 11
135.090636
 21
31.258654
  0
LINE
  8
3
  6
BYBLOCK
 62
5
 10
39.2645106558
 20
18.7789024664
 11
133.3406356149
 21
30.2586540591
  0
LINE
  8
3
  6
BYBLOCK
 62
5
 10
133.3406356149
 20
30.2586540591
 11
135.0906356149
 21
30.2586540591
  0
ENDBLK
  8
0
  0
BLOCK
  8
1
  2
S8
 70
     0
 10
183.4105174579
 20
91.3525214537
  3
S8
  0
CIRCLE
  8
1
  6
HIDDEN
 62
5
 10
183.4105174579
 20
91.3525214537
 40
4.5000000000
  0
LINE
  8
1
  6
HIDDEN
 62
5
 10
186.7855174581
 20
91.3525214537
 11
180.0355174581
 21
91.3525214537
  0
LINE
  8
1
  6
HIDDEN
 62
5
 10
185.6605174581
 20
89.6650214537
 11
181.1605174581
 21
89.6650214537
  0
LINE
  8
1
  6
HIDDEN
 62
5
 10
184.5355174581
 20
87.9775214537
 11
182.2855174581
 21
87.9775214537
  0
LINE
  8
1
  6
HIDDEN
 62
5
 10
183.4105174579
 20
91.3525214537
 11
183.4105174581
 21
94.7275214537
  0
ENDBLK
  8
0
  0
BLOCK
  8
1
  2
S9
 70
     0
 10
233.9316052311
 20
82.0992534633
  3
S9
  0
LINE
  8
1
  6
CONTINUOUS
 62
6
 10
236.4316052311
 20
80.0992534633
 11
231.4316052311
 21
80.0992534633
  0
TEXT
  8
1
  6
CONTINUOUS
 62
6
 10
232.880555
 20
79.720926
 40
3.300000
  1
B
 41
1.274000
 50
0.000000
 51
0.000000
 72
   5
 73
   0
 11
234.982655
 21
79.720926
  0
LINE
  8
1
  6
CONTINUOUS
 62
6
 10
233.9316052311
 20
84.0992534633
 11
231.4316052311
 21
80.0992534633
  0
LINE
  8
1
  6
CONTINUOUS
 62
6
 10
233.9316052311
 20
84.0992534633
 11
236.4316052311
 21
80.0992534633
  0
POINT
  8
1
  6
CONTINUOUS
 62
6
 10
233.9316052311
 20
82.0992534633
  0
ENDBLK
  8
0
  0
BLOCK
  8
1
  2
LTEX5
 70
     0
 10
197.9105182328
 20
91.3525214537
  3
LTEX5
  0
SOLID
  8
1
  6
CONTINUOUS
 62
5
 10
199.9029220982
 20
91.1783754318
 11
199.5489175839
 21
90.2055046420
 12
197.9105182328
 22
91.3525214537
 13
197.9105182328
 23
91.3525214537
  0
TEXT
  8
1
  6
CONTINUOUS
 62
7
 10
234.064335
 20
79.197009
 40
3.500000
  1
  M4ｱｰｽﾎﾞｽ
 41
0.765697
 50
0.000000
 51
0.000000
 72
   5
 73
   0
 11
251.564335
 21
79.197009
  0
LINE
  8
1
  6
BYBLOCK
 62
5
 10
197.9105182328
 20
91.3525214537
 11
234.0643346497
 21
78.1970085563
  0
LINE
  8
1
  6
BYBLOCK
 62
5
 10
234.0643346497
 20
78.1970085563
 11
251.5643346497
 21
78.1970085563
  0
ENDBLK
  8
0
  0
BLOCK
  8
1
  2
S10
 70
     0
 10
42.3199577945
 20
-272.2419493140
  3
S10
  0
CIRCLE
  8
1
  6
HIDDEN
 62
5
 10
42.3199577945
 20
-272.2419493140
 40
4.5000000000
  0
LINE
  8
1
  6
HIDDEN
 62
5
 10
45.6949577947
 20
-272.2419493140
 11
38.9449577947
 21
-272.2419493140
  0
LINE
  8
1
  6
HIDDEN
 62
5
 10
44.5699577947
 20
-273.9294493140
 11
40.0699577947
 21
-273.9294493140
  0
LINE
  8
1
  6
HIDDEN
 62
5
 10
43.4449577947
 20
-275.6169493140
 11
41.1949577947
 21
-275.6169493140
  0
LINE
  8
1
  6
HIDDEN
 62
5
 10
42.3199577945
 20
-272.2419493140
 11
42.3199577947
 21
-268.8669493140
  0
ENDBLK
  8
0
  0
BLOCK
  8
1
  2
S11
 70
     0
 10
92.8410455678
 20
-281.4952173043
  3
S11
  0
LINE
  8
1
  6
CONTINUOUS
 62
6
 10
95.3410455678
 20
-283.4952173043
 11
90.3410455678
 21
-283.4952173043
  0
TEXT
  8
1
  6
CONTINUOUS
 62
6
 10
91.789996
 20
-283.873545
 40
3.300000
  1
B
 41
1.274000
 50
0.000000
 51
0.000000
 72
   5
 73
   0
 11
93.892096
 21
-283.873545
  0
LINE
  8
1
  6
CONTINUOUS
 62
6
 10
92.8410455678
 20
-279.4952173043
 11
90.3410455678
 21
-283.4952173043
  0
LINE
  8
1
  6
CONTINUOUS
 62
6
 10
92.8410455678
 20
-279.4952173043
 11
95.3410455678
 21
-283.4952173043
  0
POINT
  8
1
  6
CONTINUOUS
 62
6
 10
92.8410455678
 20
-281.4952173043
  0
ENDBLK
  8
0
  0
BLOCK
  8
1
  2
LTEX6
 70
     0
 10
56.8199585694
 20
-272.2419493140
  3
LTEX6
  0
SOLID
  8
1
  6
CONTINUOUS
 62
5
 10
58.8123624349
 20
-272.4160953359
 11
58.4583579205
 21
-273.3889661257
 12
56.8199585694
 22
-272.2419493140
 13
56.8199585694
 23
-272.2419493140
  0
TEXT
  8
1
  6
CONTINUOUS
 62
7
 10
92.973775
 20
-284.397462
 40
3.500000
  1
  M4ｱｰｽﾎﾞｽ
 41
0.765697
 50
0.000000
 51
0.000000
 72
   5
 73
   0
 11
110.473775
 21
-284.397462
  0
LINE
  8
1
  6
BYBLOCK
 62
5
 10
56.8199585694
 20
-272.2419493140
 11
92.9737749864
 21
-285.3974622113
  0
LINE
  8
1
  6
BYBLOCK
 62
5
 10
92.9737749864
 20
-285.3974622113
 11
110.4737749864
 21
-285.3974622113
  0
ENDBLK
  8
0
  0
BLOCK
  8
1
  2
S12
 70
     0
 10
309.3313851285
 20
266.8545250502
  3
S12
  0
LINE
  8
1
  6
CONTINUOUS
 62
6
 10
311.8313851285
 20
264.8545250502
 11
306.8313851285
 21
264.8545250502
  0
TEXT
  8
1
  6
CONTINUOUS
 62
6
 10
308.280335
 20
264.476198
 40
3.300000
  1
B
 41
1.274000
 50
0.000000
 51
0.000000
 72
   5
 73
   0
 11
310.382435
 21
264.476198
  0
LINE
  8
1
  6
CONTINUOUS
 62
6
 10
309.3313851285
 20
268.8545250502
 11
306.8313851285
 21
264.8545250502
  0
LINE
  8
1
  6
CONTINUOUS
 62
6
 10
309.3313851285
 20
268.8545250502
 11
311.8313851285
 21
264.8545250502
  0
POINT
  8
1
  6
CONTINUOUS
 62
6
 10
309.3313851285
 20
266.8545250502
  0
ENDBLK
  8
0
  0
BLOCK
  8
1
  2
S13
 70
     0
 10
300.1750246168
 20
-44.5140157843
  3
S13
  0
LINE
  8
1
  6
CONTINUOUS
 62
6
 10
302.6750246168
 20
-46.5140157843
 11
297.6750246168
 21
-46.5140157844
  0
TEXT
  8
1
  6
CONTINUOUS
 62
6
 10
299.123975
 20
-46.892343
 40
3.300000
  1
B
 41
1.274000
 50
0.000000
 51
0.000000
 72
   5
 73
   0
 11
301.226075
 21
-46.892343
  0
LINE
  8
1
  6
CONTINUOUS
 62
6
 10
300.1750246168
 20
-42.5140157843
 11
297.6750246168
 21
-46.5140157844
  0
LINE
  8
1
  6
CONTINUOUS
 62
6
 10
300.1750246168
 20
-42.5140157843
 11
302.6750246168
 21
-46.5140157843
  0
POINT
  8
1
  6
CONTINUOUS
 62
6
 10
300.1750246168
 20
-44.5140157843
  0
ENDBLK
  8
0
  0
ENDSEC
  0
SECTION
  2
ENTITIES
  0
LINE
  8
1
  6
CONTINUOUS
 62
7
 10
95.7645106558
 20
65.6025214537
 11
95.7645106558
 21
209.4775214537
  0
LINE
  8
1
  6
CONTINUOUS
 62
7
 10
28.7645106558
 20
209.4775214537
 11
28.7645106558
 21
65.6025214537
  0
LINE
  8
1
  6
CONTINUOUS
 62
7
 10
96.7645106558
 20
64.6025214537
 11
96.7645106558
 21
220.1025214537
  0
LINE
  8
1
  6
CONTINUOUS
 62
7
 10
27.7645106558
 20
220.1025214537
 11
27.7645106558
 21
64.6025214537
  0
LINE
  8
1
  6
DASHDOT
 62
1
 10
101.7645106558
 20
213.1025214537
 11
22.7645106558
 21
213.1025214537
  0
LINE
  8
1
  6
CONTINUOUS
 62
7
 10
96.7645106558
 20
64.6025214537
 11
76.7270138153
 21
64.6025214537
  0
LINE
  8
1
  6
CONTINUOUS
 62
7
 10
47.8020074964
 20
64.6025214537
 11
27.7645106558
 21
64.6025214537
  0
LINE
  8
1
  6
CONTINUOUS
 62
7
 10
28.7645106558
 20
65.6025214537
 11
45.5659395189
 21
65.6025214537
  0
LINE
  8
1
  6
CONTINUOUS
 62
7
 10
78.9630817928
 20
65.6025214537
 11
95.7645106558
 21
65.6025214537
  0
LINE
  8
1
  6
CONTINUOUS
 62
7
 10
124.4661466639
 20
207.1025214537
 11
124.4661466639
 21
65.6025214537
  0
CIRCLE
  8
1
  6
CONTINUOUS
 62
7
 10
121.4661466639
 20
213.1025214537
 40
2.0000000000
  0
ARC
  8
1
  6
CONTINUOUS
 62
7
 10
121.4661466639
 20
213.1025214537
 40
6.0000000000
 50
90.0000000000
 51
270.0000000000
  0
LINE
  8
1
  6
CONTINUOUS
 62
7
 10
124.4661466639
 20
207.1025214537
 11
121.4661466639
 21
207.1025214537
  0
LINE
  8
1
  6
CONTINUOUS
 62
7
 10
124.4661466639
 20
219.1025214537
 11
121.4661466639
 21
219.1025214537
  0
LINE
  8
1
  6
CONTINUOUS
 62
7
 10
133.4661466639
 20
220.1025214537
 11
133.4661466639
 21
64.6025214537
  0
LINE
  8
1
  6
CONTINUOUS
 62
7
 10
28.7645106558
 20
207.1025214537
 11
28.7645106558
 21
219.1025214537
  0
LINE
  8
1
  6
CONTINUOUS
 62
7
 10
28.7645106558
 20
219.1025214537
 11
33.7645106558
 21
219.1025214537
  0
LINE
  8
1
  6
CONTINUOUS
 62
7
 10
33.7645106558
 20
219.1025214537
 11
33.7645106558
 21
207.1025214537
  0
LINE
  8
1
  6
CONTINUOUS
 62
7
 10
33.7645106558
 20
207.1025214537
 11
28.7645106558
 21
207.1025214537
  0
LINE
  8
1
  6
CONTINUOUS
 62
7
 10
95.7645106558
 20
219.1025214537
 11
90.7645106558
 21
219.1025214537
  0
LINE
  8
1
  6
CONTINUOUS
 62
7
 10
90.7645106558
 20
219.1025214537
 11
90.7645106558
 21
207.1025214537
  0
LINE
  8
1
  6
CONTINUOUS
 62
7
 10
90.7645106558
 20
207.1025214537
 11
95.7645106558
 21
207.1025214537
  0
LINE
  8
1
  6
CONTINUOUS
 62
7
 10
95.7645106558
 20
207.1025214537
 11
95.7645106558
 21
219.1025214537
  0
LINE
  8
1
  6
CONTINUOUS
 62
7
 10
90.7645106558
 20
207.1025214537
 11
90.7645106558
 21
206.1025214537
  0
LINE
  8
1
  6
CONTINUOUS
 62
7
 10
33.7645106558
 20
206.1025214537
 11
33.7645106558
 21
207.1025214537
  0
LINE
  8
1
  6
CONTINUOUS
 62
7
 10
96.7645106558
 20
220.1025214537
 11
27.7645106558
 21
220.1025214537
  0
LINE
  8
1
  6
CONTINUOUS
 62
7
 10
96.7645106558
 20
27.5484212565
 11
27.7645106558
 21
27.5484212565
  0
LINE
  8
1
  6
CONTINUOUS
 62
7
 10
28.7645106558
 20
36.5484212565
 11
95.7645106558
 21
36.5484212565
  0
LINE
  8
1
  6
CONTINUOUS
 62
7
 10
133.4661466639
 20
64.6025214537
 11
124.4661466639
 21
65.6025214537
  0
LINE
  8
1
  6
CONTINUOUS
 62
7
 10
133.4661466639
 20
220.1025214537
 11
124.4661466639
 21
219.1025214537
  0
LINE
  8
1
  6
CONTINUOUS
 62
7
 10
28.7645106558
 20
36.5484212565
 11
27.7645106558
 21
27.5484212565
  0
LINE
  8
1
  6
CONTINUOUS
 62
7
 10
95.7645106558
 20
36.5484212565
 11
96.7645106558
 21
27.5484212565
  0
LINE
  8
1
  6
HIDDEN
 62
7
 10
124.4661466639
 20
206.1025214537
 11
127.9661466639
 21
206.1025214537
  0
LINE
  8
1
  6
HIDDEN
 62
7
 10
127.9661466639
 20
206.1025214537
 11
127.9661466639
 21
219.4914103426
  0
LINE
  8
1
  6
HIDDEN
 62
7
 10
34.7645106558
 20
33.5484212565
 11
34.7645106558
 21
36.5484212565
  0
LINE
  8
1
  6
HIDDEN
 62
7
 10
89.7645106558
 20
33.5484212565
 11
34.7645106558
 21
33.5484212565
  0
LINE
  8
1
  6
HIDDEN
 62
7
 10
89.7645106558
 20
33.5484212565
 11
89.7645106558
 21
36.5484212565
  0
LINE
  8
1
  6
HIDDEN
 62
7
 10
85.5145106558
 20
33.5484212565
 11
85.5145106558
 21
29.5484212565
  0
LINE
  8
1
  6
HIDDEN
 62
7
 10
85.5145106558
 20
29.5484212565
 11
84.0145106559
 21
29.5484212565
  0
LINE
  8
1
  6
HIDDEN
 62
7
 10
80.5145106559
 20
29.5484212565
 11
79.0145106558
 21
29.5484212565
  0
LINE
  8
1
  6
HIDDEN
 62
7
 10
79.0145106558
 20
29.5484212565
 11
79.0145106558
 21
33.5484212565
  0
LINE
  8
1
  6
HIDDEN
 62
7
 10
80.5145106559
 20
29.5484212565
 11
80.5145106556
 21
27.5484212565
  0
LINE
  8
1
  6
HIDDEN
 62
7
 10
84.0145106559
 20
29.5484212565
 11
84.0145106558
 21
27.5484212565
  0
LINE
  8
1
  6
HIDDEN
 62
7
 10
39.0145106558
 20
33.5484212565
 11
39.0145106558
 21
29.5484212565
  0
LINE
  8
1
  6
HIDDEN
 62
7
 10
39.0145106558
 20
29.5484212565
 11
40.5145106558
 21
29.5484212565
  0
LINE
  8
1
  6
HIDDEN
 62
7
 10
44.0145106558
 20
29.5484212565
 11
45.5145106558
 21
29.5484212565
  0
LINE
  8
1
  6
HIDDEN
 62
7
 10
45.5145106558
 20
29.5484212565
 11
45.5145106558
 21
33.5484212565
  0
LINE
  8
1
  6
HIDDEN
 62
7
 10
44.0145106558
 20
29.5484212565
 11
44.0145106561
 21
27.5484212565
  0
LINE
  8
1
  6
HIDDEN
 62
7
 10
40.5145106558
 20
29.5484212565
 11
40.5145106559
 21
27.5484212565
  0
LINE
  8
1
  6
HIDDEN
 62
7
 10
60.2645106558
 20
33.5484212565
 11
60.2645106558
 21
27.5484212565
  0
LINE
  8
1
  6
HIDDEN
 62
7
 10
64.2645106558
 20
33.5484212565
 11
64.2645106558
 21
27.5484212565
  0
LINE
  8
1
  6
HIDDEN
 62
7
 10
63.9145106558
 20
33.5484212565
 11
63.9145106558
 21
27.5484212565
  0
LINE
  8
1
  6
HIDDEN
 62
7
 10
60.6145106558
 20
33.5484212565
 11
60.6145106558
 21
27.5484212565
  0
LINE
  8
1
  6
HIDDEN
 62
7
 10
124.4661466639
 20
201.1025214537
 11
127.9661466639
 21
201.1025214537
  0
LINE
  8
1
  6
HIDDEN
 62
7
 10
127.9661466639
 20
200.4775214537
 11
127.9661466639
 21
76.6025214537
  0
LINE
  8
1
  6
HIDDEN
 62
7
 10
127.9661466639
 20
76.6025214537
 11
124.4661466639
 21
76.6025214537
  0
LINE
  8
1
  6
HIDDEN
 62
7
 10
127.9661466639
 20
85.3525214537
 11
133.4661466639
 21
85.3525214537
  0
LINE
  8
1
  6
HIDDEN
 62
7
 10
127.9661466639
 20
192.3525214537
 11
133.4661466639
 21
192.3525214537
  0
LINE
  8
1
  6
HIDDEN
 62
7
 10
127.9661466639
 20
83.6025214537
 11
131.9661466639
 21
83.6025214537
  0
LINE
  8
1
  6
HIDDEN
 62
7
 10
131.9661466639
 20
83.6025214537
 11
131.9661466639
 21
82.1025214537
  0
LINE
  8
1
  6
HIDDEN
 62
7
 10
131.9661466639
 20
78.6025214537
 11
131.9661466639
 21
77.1025214537
  0
LINE
  8
1
  6
HIDDEN
 62
7
 10
131.9661466639
 20
77.1025214537
 11
127.9661466639
 21
77.1025214537
  0
LINE
  8
1
  6
HIDDEN
 62
7
 10
131.9661466639
 20
78.6025214537
 11
133.4661466639
 21
78.6025214535
  0
LINE
  8
1
  6
HIDDEN
 62
7
 10
131.9661466639
 20
82.1025214537
 11
133.4661466639
 21
82.1025214648
  0
LINE
  8
1
  6
HIDDEN
 62
7
 10
127.9661466639
 20
194.1025214537
 11
131.9661466639
 21
194.1025214537
  0
LINE
  8
1
  6
HIDDEN
 62
7
 10
131.9661466639
 20
194.1025214537
 11
131.9661466639
 21
195.6025214537
  0
LINE
  8
1
  6
HIDDEN
 62
7
 10
131.9661466639
 20
199.1025214537
 11
131.9661466639
 21
200.6025214537
  0
LINE
  8
1
  6
HIDDEN
 62
7
 10
131.9661466639
 20
200.6025214537
 11
127.9661466639
 21
200.6025214537
  0
LINE
  8
1
  6
HIDDEN
 62
7
 10
131.9661466639
 20
199.1025214537
 11
133.4661466639
 21
199.1025214539
  0
LINE
  8
1
  6
HIDDEN
 62
7
 10
131.9661466639
 20
195.6025214537
 11
133.4661466639
 21
195.6025214425
  0
ARC
  8
2
  6
HIDDEN
 62
5
 10
121.4661466639
 20
213.1025214537
 40
6.0000000000
 50
294.6243183522
 51
164.1092389898
  0
LINE
  8
2
  6
HIDDEN
 62
5
 10
123.9661466639
 20
207.6481653964
 11
123.9661466639
 21
207.1025214537
  0
LINE
  8
2
  6
CONTINUOUS
 62
5
 10
123.9661466639
 20
207.1025214537
 11
123.9661466639
 21
65.6025214537
  0
LINE
  8
2
  6
CONTINUOUS
 62
5
 10
115.8202125868
 20
65.6025214537
 11
123.9661466639
 21
65.6025214537
  0
LINE
  8
2
  6
CONTINUOUS
 62
5
 10
109.4661466639
 20
61.6025214537
 11
109.4661466639
 21
192.4775214537
  0
LINE
  8
2
  6
CONTINUOUS
 62
5
 10
123.9661466639
 20
206.1025214537
 11
113.2892089437
 21
206.1025214537
  0
CIRCLE
  8
2
  6
CONTINUOUS
 62
5
 10
121.4661466639
 20
213.1025214537
 40
2.0000000000
  0
LINE
  8
2
  6
CONTINUOUS
 62
5
 10
29.7645106558
 20
206.1025214537
 11
33.9645106558
 21
206.1025214537
  0
LINE
  8
2
  6
CONTINUOUS
 62
5
 10
33.9645106558
 20
206.1025214537
 11
33.9645106558
 21
219.1025214537
  0
LINE
  8
2
  6
CONTINUOUS
 62
5
 10
33.9645106558
 20
219.1025214537
 11
90.5645106558
 21
219.1025214537
  0
LINE
  8
2
  6
CONTINUOUS
 62
5
 10
90.5645106558
 20
219.1025214537
 11
90.5645106558
 21
206.1025214537
  0
LINE
  8
2
  6
CONTINUOUS
 62
5
 10
90.5645106558
 20
206.1025214537
 11
94.7645106558
 21
206.1025214537
  0
LINE
  8
2
  6
CONTINUOUS
 62
5
 10
94.7645106558
 20
206.1025214537
 11
94.7645106558
 21
65.6025214537
  0
LINE
  8
2
  6
CONTINUOUS
 62
5
 10
78.9630817928
 20
65.6025214537
 11
94.7645106558
 21
65.6025214537
  0
LINE
  8
2
  6
CONTINUOUS
 62
5
 10
45.5659395189
 20
65.6025214537
 11
29.7645106558
 21
65.6025214537
  0
LINE
  8
2
  6
CONTINUOUS
 62
5
 10
29.7645106558
 20
65.6025214537
 11
29.7645106558
 21
206.1025214537
  0
LINE
  8
2
  6
CONTINUOUS
 62
5
 10
49.3906030156
 20
62.0590341874
 11
48.1384182961
 21
64.1460087200
  0
LINE
  8
2
  6
CONTINUOUS
 62
5
 10
72.5659395189
 20
60.6025214537
 11
51.9630817928
 21
60.6025214537
  0
ARC
  8
2
  6
CONTINUOUS
 62
5
 10
45.5659395189
 20
62.6025214537
 40
3.0000000000
 50
30.9637565321
 51
90.0000000000
  0
ARC
  8
2
  6
CONTINUOUS
 62
5
 10
51.9630817928
 20
63.6025214537
 40
3.0000000000
 50
210.9637565321
 51
270.0000000000
  0
LINE
  8
2
  6
CONTINUOUS
 62
5
 10
75.1384182961
 20
62.0590341874
 11
76.3906030156
 21
64.1460087200
  0
ARC
  8
2
  6
CONTINUOUS
 62
5
 10
78.9630817928
 20
62.6025214537
 40
3.0000000000
 50
90.0000000000
 51
149.0362434679
  0
ARC
  8
2
  6
CONTINUOUS
 62
5
 10
72.5659395189
 20
63.6025214537
 40
3.0000000000
 50
270.0000000000
 51
329.0362434679
  0
LINE
  8
2
  6
HIDDEN
 62
5
 10
109.4661466639
 20
70.7525214537
 11
111.4661466639
 21
70.7525214537
  0
LINE
  8
2
  6
HIDDEN
 62
5
 10
111.4661466639
 20
71.1025214537
 11
109.4661466639
 21
71.1025214537
  0
LINE
  8
2
  6
HIDDEN
 62
5
 10
111.4661466639
 20
71.3525214537
 11
123.9661466639
 21
71.3525214537
  0
LINE
  8
2
  6
HIDDEN
 62
5
 10
109.4661466639
 20
67.4525214537
 11
111.4661466639
 21
67.4525214537
  0
LINE
  8
2
  6
HIDDEN
 62
5
 10
111.4661466639
 20
67.1025214537
 11
109.4661466639
 21
67.1025214537
  0
LINE
  8
2
  6
HIDDEN
 62
5
 10
111.4661466639
 20
66.8525214537
 11
123.9661466639
 21
66.8525214537
  0
LINE
  8
2
  6
HIDDEN
 62
5
 10
111.4661466639
 20
71.3525214537
 11
111.4661466639
 21
66.8525214537
  0
LINE
  8
1
  6
HIDDEN
 62
7
 10
124.4661466639
 20
71.1025214537
 11
133.4661466639
 21
71.1025214537
  0
LINE
  8
1
  6
HIDDEN
 62
7
 10
124.4661466639
 20
70.7525214537
 11
133.4661466639
 21
70.7525214537
  0
LINE
  8
1
  6
HIDDEN
 62
7
 10
124.4661466639
 20
67.4525214537
 11
133.4661466639
 21
67.4525214537
  0
LINE
  8
1
  6
HIDDEN
 62
7
 10
124.4661466639
 20
67.1025214537
 11
133.4661466639
 21
67.1025214537
  0
LINE
  8
2
  6
CONTINUOUS
 62
5
 10
113.9632592050
 20
64.3453028064
 11
112.7175903934
 21
61.2311307773
  0
LINE
  8
2
  6
CONTINUOUS
 62
5
 10
111.7891137025
 20
60.6025214537
 11
110.4661466639
 21
60.6025214537
  0
LINE
  8
2
  6
CONTINUOUS
 62
5
 10
36.2645106558
 20
51.5484212565
 11
88.2645106558
 21
51.5484212565
  0
LINE
  8
2
  6
CONTINUOUS
 62
5
 10
94.7645106558
 20
43.5484212565
 11
94.7645106558
 21
37.0484212565
  0
LINE
  8
2
  6
CONTINUOUS
 62
5
 10
94.7645106558
 20
37.0484212565
 11
29.7645106558
 21
37.0484212565
  0
LINE
  8
2
  6
CONTINUOUS
 62
5
 10
29.7645106558
 20
37.0484212565
 11
29.7645106558
 21
43.5484212565
  0
LINE
  8
2
  6
CONTINUOUS
 62
5
 10
94.7645106558
 20
43.5484212565
 11
88.2645106558
 21
51.5484212565
  0
LINE
  8
2
  6
CONTINUOUS
 62
5
 10
36.2645106558
 20
51.5484212565
 11
29.7645106558
 21
43.5484212565
  0
LINE
  8
2
  6
CONTINUOUS
 62
5
 10
33.8539337328
 20
206.1025214537
 11
36.2645106558
 21
192.4775214537
  0
LINE
  8
2
  6
CONTINUOUS
 62
5
 10
36.2645106558
 20
192.4775214537
 11
88.2645106558
 21
192.4775214537
  0
LINE
  8
2
  6
CONTINUOUS
 62
5
 10
88.2645106558
 20
192.4775214537
 11
90.6750875789
 21
206.1025214537
  0
LINE
  8
2
  6
CONTINUOUS
 62
5
 10
88.2645106558
 20
192.4775214537
 11
88.2645106558
 21
65.6025214537
  0
LINE
  8
2
  6
CONTINUOUS
 62
5
 10
36.2645106558
 20
65.6025214537
 11
36.2645106558
 21
192.4775214537
  0
LINE
  8
2
  6
CONTINUOUS
 62
5
 10
45.5659395189
 20
51.5484212565
 11
45.5659395189
 21
46.5484212565
  0
LINE
  8
2
  6
CONTINUOUS
 62
5
 10
45.5659395189
 20
46.5484212565
 11
51.9630817928
 21
48.5484212565
  0
LINE
  8
2
  6
CONTINUOUS
 62
5
 10
51.9630817928
 20
48.5484212565
 11
72.5659395189
 21
48.5484212565
  0
LINE
  8
2
  6
CONTINUOUS
 62
5
 10
72.5659395189
 20
48.5484212565
 11
78.9630817928
 21
46.5484212565
  0
LINE
  8
2
  6
CONTINUOUS
 62
5
 10
78.9630817928
 20
46.5484212565
 11
78.9630817928
 21
51.5484212565
  0
LINE
  8
2
  6
CONTINUOUS
 62
5
 10
51.9630817928
 20
51.5484212565
 11
51.9630817928
 21
48.5484212565
  0
LINE
  8
2
  6
CONTINUOUS
 62
5
 10
72.5659395189
 20
51.5484212565
 11
72.5659395189
 21
48.5484212565
  0
LINE
  8
2
  6
CONTINUOUS
 62
5
 10
45.5659395189
 20
46.5484212565
 11
78.9630817928
 21
46.5484212565
  0
ARC
  8
2
  6
CONTINUOUS
 62
5
 10
110.4661466639
 20
61.6025214537
 40
1.0000000000
 50
180.0000000000
 51
270.0000000000
  0
ARC
  8
2
  6
CONTINUOUS
 62
5
 10
111.7891137025
 20
61.6025214537
 40
1.0000000000
 50
270.0000000000
 51
338.1985905136
  0
ARC
  8
2
  6
CONTINUOUS
 62
5
 10
115.8202125868
 20
63.6025214537
 40
2.0000000000
 50
90.0000000000
 51
158.1985905136
  0
LINE
  8
1
  6
CONTINUOUS
 62
7
 10
96.7645106558
 20
27.5484212565
 11
27.7645106558
 21
27.5484212565
  0
LINE
  8
2
  6
CONTINUOUS
 62
5
 10
124.9661466639
 20
204.3525214537
 11
123.9661466639
 21
204.3525214537
  0
LINE
  8
2
  6
CONTINUOUS
 62
5
 10
124.9661466639
 20
204.3525214537
 11
124.9661466639
 21
203.8525214537
  0
LINE
  8
2
  6
CONTINUOUS
 62
5
 10
124.9661466639
 20
203.8525214537
 11
123.9661466639
 21
203.8525214537
  0
LINE
  8
2
  6
HIDDEN
 62
5
 10
123.9661466639
 20
203.8525214537
 11
114.7351177630
 21
203.8525214537
  0
LINE
  8
2
  6
CONTINUOUS
 62
5
 10
123.9661466639
 20
73.3525214537
 11
124.9661466639
 21
73.3525214537
  0
LINE
  8
2
  6
CONTINUOUS
 62
5
 10
124.9661466639
 20
73.3525214537
 11
124.9661466639
 21
73.8525214537
  0
LINE
  8
2
  6
CONTINUOUS
 62
5
 10
124.9661466639
 20
73.8525214537
 11
123.9661466639
 21
73.8525214537
  0
LINE
  8
2
  6
HIDDEN
 62
5
 10
123.9661466639
 20
73.8525214537
 11
111.4661466639
 21
73.8525214537
  0
LINE
  8
1
  6
CONTINUOUS
 62
7
 10
219.9105182328
 20
201.1025214537
 11
167.9105182328
 21
201.1025214537
  0
LINE
  8
1
  6
CONTINUOUS
 62
7
 10
221.4105182328
 20
78.1025214537
 11
221.4105182328
 21
199.6025214537
  0
LINE
  8
1
  6
CONTINUOUS
 62
7
 10
167.9105182328
 20
76.6025214537
 11
219.9105182328
 21
76.6025214537
  0
LINE
  8
1
  6
CONTINUOUS
 62
7
 10
166.4105182328
 20
78.1025214537
 11
166.4105182328
 21
199.6025214537
  0
LINE
  8
1
  6
CONTINUOUS
 62
7
 10
223.4105182328
 20
75.6025214537
 11
223.4105182328
 21
202.1025214537
  0
LINE
  8
1
  6
CONTINUOUS
 62
7
 10
222.4105182328
 20
203.1025214537
 11
165.4105182328
 21
203.1025214537
  0
LINE
  8
1
  6
CONTINUOUS
 62
7
 10
164.4105182328
 20
75.6025214537
 11
164.4105182328
 21
202.1025214537
  0
LINE
  8
1
  6
CONTINUOUS
 62
7
 10
165.4105182328
 20
74.6025214537
 11
222.4105182328
 21
74.6025214537
  0
ARC
  8
1
  6
CONTINUOUS
 62
7
 10
167.9105182328
 20
199.6025214537
 40
1.5000000000
 50
90.0000000000
 51
180.0000000000
  0
ARC
  8
1
  6
CONTINUOUS
 62
7
 10
219.9105182328
 20
199.6025214537
 40
1.5000000000
 50
0.0000000000
 51
90.0000000000
  0
ARC
  8
1
  6
CONTINUOUS
 62
7
 10
219.9105182328
 20
78.1025214537
 40
1.5000000000
 50
270.0000000000
 51
0.0000000000
  0
ARC
  8
1
  6
CONTINUOUS
 62
7
 10
167.9105182328
 20
78.1025214537
 40
1.5000000000
 50
180.0000000000
 51
270.0000000000
  0
CIRCLE
  8
1
  6
HIDDEN
 62
3
 10
173.9105182328
 20
197.3525214537
 40
1.7500000000
  0
CIRCLE
  8
1
  6
HIDDEN
 62
3
 10
173.9105182328
 20
197.3525214537
 40
3.2500000000
  0
CIRCLE
  8
1
  6
HIDDEN
 62
3
 10
213.9105182328
 20
197.3525214537
 40
1.7500000000
  0
CIRCLE
  8
1
  6
HIDDEN
 62
3
 10
213.9105182328
 20
197.3525214537
 40
3.2500000000
  0
LINE
  8
1
  6
HIDDEN
 62
3
 10
216.9105182328
 20
192.3525214537
 11
219.9105182328
 21
192.3525214537
  0
LINE
  8
1
  6
HIDDEN
 62
3
 10
168.9105182328
 20
192.3525214537
 11
216.9105182328
 21
192.3525214537
  0
CIRCLE
  8
1
  6
HIDDEN
 62
3
 10
173.9105182328
 20
80.3525214537
 40
1.7500000000
  0
CIRCLE
  8
1
  6
HIDDEN
 62
3
 10
173.9105182328
 20
80.3525214537
 40
3.2500000000
  0
CIRCLE
  8
1
  6
HIDDEN
 62
3
 10
213.9105182328
 20
80.3525214537
 40
1.7500000000
  0
CIRCLE
  8
1
  6
HIDDEN
 62
3
 10
213.9105182328
 20
80.3525214537
 40
3.2500000000
  0
CIRCLE
  8
1
  6
HIDDEN
 62
3
 10
193.9105182328
 20
197.3525214537
 40
2.0000000000
  0
LINE
  8
1
  6
CONTINUOUS
 62
7
 10
225.4105182328
 20
75.6025214537
 11
225.4105182328
 21
202.1025214537
  0
LINE
  8
1
  6
CONTINUOUS
 62
7
 10
222.4105182328
 20
205.1025214537
 11
165.4105182328
 21
205.1025214537
  0
LINE
  8
1
  6
CONTINUOUS
 62
7
 10
162.4105182328
 20
75.6025214537
 11
162.4105182328
 21
202.1025214537
  0
LINE
  8
1
  6
CONTINUOUS
 62
7
 10
165.4105182328
 20
72.6025214537
 11
222.4105182328
 21
72.6025214537
  0
LINE
  8
1
  6
CONTINUOUS
 62
7
 10
227.4105182328
 20
65.6025214537
 11
227.4105182328
 21
209.4775214537
  0
LINE
  8
1
  6
CONTINUOUS
 62
7
 10
160.4105182328
 20
209.4775214537
 11
160.4105182328
 21
65.6025214537
  0
LINE
  8
1
  6
CONTINUOUS
 62
7
 10
228.4105182328
 20
64.6025214537
 11
228.4105182328
 21
220.1025214537
  0
LINE
  8
1
  6
CONTINUOUS
 62
7
 10
159.4105182328
 20
220.1025214537
 11
159.4105182328
 21
64.6025214537
  0
ARC
  8
1
  6
CONTINUOUS
 62
7
 10
165.4105182328
 20
202.1025214537
 40
1.0000000000
 50
90.0000000000
 51
180.0000000000
  0
ARC
  8
1
  6
CONTINUOUS
 62
7
 10
222.4105182328
 20
202.1025214537
 40
1.0000000000
 50
0.0000000000
 51
90.0000000000
  0
ARC
  8
1
  6
CONTINUOUS
 62
7
 10
222.4105182328
 20
75.6025214537
 40
1.0000000000
 50
270.0000000000
 51
0.0000000000
  0
ARC
  8
1
  6
CONTINUOUS
 62
7
 10
165.4105182328
 20
75.6025214537
 40
1.0000000000
 50
180.0000000000
 51
270.0000000000
  0
LINE
  8
1
  6
HIDDEN
 62
3
 10
219.9105182328
 20
182.3525214537
 11
219.9105182328
 21
192.3525214537
  0
ARC
  8
1
  6
CONTINUOUS
 62
7
 10
165.4105182328
 20
202.1025214537
 40
3.0000000000
 50
90.0000000000
 51
180.0000000000
  0
ARC
  8
1
  6
CONTINUOUS
 62
7
 10
222.4105182328
 20
202.1025214537
 40
3.0000000000
 50
0.0000000000
 51
90.0000000000
  0
ARC
  8
1
  6
CONTINUOUS
 62
7
 10
222.4105182328
 20
75.6025214537
 40
3.0000000000
 50
270.0000000000
 51
0.0000000000
  0
ARC
  8
1
  6
CONTINUOUS
 62
7
 10
165.4105182328
 20
75.6025214537
 40
3.0000000000
 50
180.0000000000
 51
270.0000000000
  0
LINE
  8
1
  6
DASHDOT
 62
1
 10
230.4105182328
 20
213.1025214537
 11
157.4105182328
 21
213.1025214537
  0
LINE
  8
1
  6
CONTINUOUS
 62
7
 10
228.4105182328
 20
64.6025214537
 11
159.4105182328
 21
64.6025214537
  0
LINE
  8
1
  6
CONTINUOUS
 62
7
 10
160.4105182328
 20
65.6025214537
 11
227.4105182328
 21
65.6025214537
  0
LINE
  8
1
  6
CONTINUOUS
 62
7
 10
160.4105182328
 20
207.1025214537
 11
160.4105182328
 21
219.1025214537
  0
LINE
  8
1
  6
CONTINUOUS
 62
7
 10
160.4105182328
 20
219.1025214537
 11
165.4105182328
 21
219.1025214537
  0
LINE
  8
1
  6
CONTINUOUS
 62
7
 10
165.4105182328
 20
219.1025214537
 11
165.4105182328
 21
207.1025214537
  0
LINE
  8
1
  6
CONTINUOUS
 62
7
 10
165.4105182328
 20
207.1025214537
 11
160.4105182328
 21
207.1025214537
  0
LINE
  8
1
  6
CONTINUOUS
 62
7
 10
227.4105182328
 20
219.1025214537
 11
222.4105182328
 21
219.1025214537
  0
LINE
  8
1
  6
CONTINUOUS
 62
7
 10
222.4105182328
 20
219.1025214537
 11
222.4105182328
 21
207.1025214537
  0
LINE
  8
1
  6
CONTINUOUS
 62
7
 10
222.4105182328
 20
207.1025214537
 11
227.4105182328
 21
207.1025214537
  0
LINE
  8
1
  6
CONTINUOUS
 62
7
 10
227.4105182328
 20
207.1025214537
 11
227.4105182328
 21
219.1025214537
  0
LINE
  8
1
  6
CONTINUOUS
 62
7
 10
222.4105182328
 20
207.1025214537
 11
222.4105182328
 21
206.1025214537
  0
LINE
  8
1
  6
CONTINUOUS
 62
7
 10
222.4105182328
 20
206.1025214537
 11
165.4105182328
 21
206.1025214537
  0
LINE
  8
1
  6
CONTINUOUS
 62
7
 10
165.4105182328
 20
206.1025214537
 11
165.4105182328
 21
207.1025214537
  0
LINE
  8
1
  6
CONTINUOUS
 62
7
 10
228.4105182328
 20
220.1025214537
 11
159.4105182328
 21
220.1025214537
  0
CIRCLE
  8
1
  6
HIDDEN
 62
3
 10
193.9105182328
 20
197.3525214537
 40
1.6500000000
  0
CIRCLE
  8
1
  6
HIDDEN
 62
3
 10
193.9105182328
 20
80.3525214537
 40
2.0000000000
  0
CIRCLE
  8
1
  6
HIDDEN
 62
3
 10
193.9105182328
 20
80.3525214537
 40
1.6500000000
  0
CIRCLE
  8
1
  6
HIDDEN
 62
7
 10
193.9105182328
 20
69.1025214537
 40
2.0000000000
  0
CIRCLE
  8
1
  6
CONTINUOUS
 62
7
 10
193.9105182328
 20
69.1025214537
 40
1.6500000000
  0
INSERT
  8
5
  6
CONTINUOUS
 62
7
  2
S0
 10
0.0000000000
 20
0.0000000000
  0
TEXT
  8
5
  6
CONTINUOUS
 62
7
 10
349.684277
 20
5.000000
 40
6.000000
  1
M0051A072B
 41
0.765697
 50
0.000000
 51
0.000000
 72
   5
 73
   0
 11
379.684277
 21
5.000000
  0
TEXT
  8
5
  6
CONTINUOUS
 62
7
 10
293.500000
 20
10.750000
 40
3.000000
  1
Yamada
 41
0.779221
 50
0.000000
 51
0.000000
 72
   5
 73
   0
 11
302.500000
 21
10.750000
  0
TEXT
  8
5
  6
CONTINUOUS
 62
7
 10
304.500000
 20
10.750000
 40
3.000000
  1
Yamada
 41
0.779221
 50
0.000000
 51
0.000000
 72
   5
 73
   0
 11
313.500000
 21
10.750000
  0
TEXT
  8
1
  6
CONTINUOUS
 62
7
 10
178.408984
 20
56.344007
 40
4.000000
  1
内 部 図
 41
0.854701
 50
0.000000
 51
0.000000
 72
   5
 73
   0
 11
194.408984
 21
56.344007
  0
DIMENSION
  8
1
  6
CONTINUOUS
 62
5
  2
*D0
 10
111.4661466639
 20
98.7193009011
 11
119.7161466639
 21
101.4693009011
  70
0
 13
127.9661466639
 23
93.8244525436
 14
111.4661466639
 24
93.8244525436
 50
0.000000
  0
CIRCLE
  8
1
  6
CONTINUOUS
 62
5
 10
137.4661466639
 20
187.3525214537
 40
2.0000000000
  0
LINE
  8
1
  6
CONTINUOUS
 62
5
 10
135.9661466638
 20
187.3525214537
 11
138.9661466638
 21
187.3525214537
  0
LINE
  8
1
  6
CONTINUOUS
 62
5
 10
136.4661466638
 20
186.6025214537
 11
138.4661466638
 21
186.6025214537
  0
LINE
  8
1
  6
CONTINUOUS
 62
5
 10
136.9661466638
 20
185.8525214537
 11
137.9661466638
 21
185.8525214537
  0
LINE
  8
1
  6
CONTINUOUS
 62
5
 10
137.4661466639
 20
187.3525214537
 11
137.4661466638
 21
188.8525214537
  0
LINE
  8
1
  6
HIDDEN
 62
3
 10
219.9105182328
 20
182.3525214537
 11
216.9105182328
 21
182.3525214537
  0
LINE
  8
1
  6
HIDDEN
 62
3
 10
216.9105182328
 20
182.3525214537
 11
216.9105182328
 21
192.3525214537
  0
LINE
  8
1
  6
CONTINUOUS
 62
7
 10
133.4661466639
 20
192.3525214537
 11
148.4661466639
 21
192.3525214537
  0
LINE
  8
1
  6
CONTINUOUS
 62
7
 10
148.4661466639
 20
192.3525214537
 11
148.4661466639
 21
182.3525214537
  0
LINE
  8
1
  6
CONTINUOUS
 62
7
 10
148.4661466639
 20
182.3525214537
 11
133.4661466639
 21
182.3525214537
  0
CIRCLE
  8
1
  6
CONTINUOUS
 62
7
 10
143.4661466639
 20
187.3525214537
 40
2.0000000000
  0
CIRCLE
  8
1
  6
HIDDEN
 62
7
 10
143.4661466639
 20
187.3525214537
 40
2.5000000000
  0
CIRCLE
  8
1
  6
HIDDEN
 62
5
 10
137.4661466639
 20
90.3525214537
 40
2.0000000000
  0
LINE
  8
1
  6
HIDDEN
 62
5
 10
135.9661466638
 20
90.3525214537
 11
138.9661466638
 21
90.3525214537
  0
LINE
  8
1
  6
HIDDEN
 62
5
 10
136.4661466638
 20
89.6025214537
 11
138.4661466638
 21
89.6025214537
  0
LINE
  8
1
  6
HIDDEN
 62
5
 10
136.9661466638
 20
88.8525214537
 11
137.9661466638
 21
88.8525214537
  0
LINE
  8
1
  6
HIDDEN
 62
5
 10
137.4661466639
 20
90.3525214537
 11
137.4661466638
 21
91.8525214537
  0
LINE
  8
1
  6
CONTINUOUS
 62
7
 10
133.4661466639
 20
95.3525214537
 11
148.4661466639
 21
95.3525214537
  0
LINE
  8
1
  6
CONTINUOUS
 62
7
 10
148.4661466639
 20
95.3525214537
 11
148.4661466639
 21
85.3525214537
  0
LINE
  8
1
  6
CONTINUOUS
 62
7
 10
148.4661466639
 20
85.3525214537
 11
133.4661466639
 21
85.3525214537
  0
CIRCLE
  8
1
  6
CONTINUOUS
 62
7
 10
143.4661466639
 20
90.3525214537
 40
2.0000000000
  0
CIRCLE
  8
1
  6
HIDDEN
 62
7
 10
143.4661466639
 20
90.3525214537
 40
2.5000000000
  0
DIMENSION
  8
1
  6
CONTINUOUS
 62
5
  2
*D1
 10
20.9779016700
 20
36.5484212565
 11
18.2279016700
 21
32.0484212565
  70
0
 13
27.7645106558
 23
27.5484212565
 14
28.7645106558
 24
36.5484212565
 50
90.000000
  0
DIMENSION
  8
1
  6
CONTINUOUS
 62
5
  2
*D2
 10
20.7383253733
 20
51.5484212565
 11
17.9883253733
 21
44.2984212565
  70
0
 13
29.7645106558
 23
37.0484212565
 14
36.2645106558
 24
51.5484212565
 50
90.000000
  0
DIMENSION
  8
1
  6
CONTINUOUS
 62
5
  2
*D3
 10
13.2316014101
 20
51.5484212565
 11
10.4816014101
 21
39.5484212565
  70
0
 13
27.7645106558
 23
27.5484212565
 14
36.2645106558
 24
51.5484212565
 50
90.000000
  0
LINE
  8
1
  6
CONTINUOUS
 62
7
 10
36.2645106558
 20
27.5484212565
 11
36.2645106558
 21
12.5484212565
  0
LINE
  8
1
  6
CONTINUOUS
 62
7
 10
36.2645106558
 20
12.5484212565
 11
39.2645106558
 21
12.5484212565
  0
LINE
  8
1
  6
CONTINUOUS
 62
7
 10
39.2645106558
 20
12.5484212565
 11
39.2645106558
 21
27.5484212565
  0
LINE
  8
1
  6
CONTINUOUS
 62
7
 10
88.2645106558
 20
27.5484212565
 11
88.2645106558
 21
12.5484212565
  0
LINE
  8
1
  6
CONTINUOUS
 62
7
 10
88.2645106558
 20
12.5484212565
 11
85.2645106558
 21
12.5484212565
  0
LINE
  8
1
  6
CONTINUOUS
 62
7
 10
85.2645106558
 20
12.5484212565
 11
85.2645106558
 21
27.5484212565
  0
LINE
  8
1
  6
HIDDEN
 62
3
 10
167.9105182328
 20
85.3525214537
 11
170.9105182328
 21
85.3525214537
  0
LINE
  8
1
  6
HIDDEN
 62
3
 10
218.9105182328
 20
85.3525214537
 11
170.9105182328
 21
85.3525214537
  0
LINE
  8
1
  6
HIDDEN
 62
3
 10
167.9105182328
 20
95.3525214537
 11
170.9105182328
 21
95.3525214537
  0
LINE
  8
3
  6
HIDDEN
 62
3
 10
170.9105182328
 20
95.3525214537
 11
170.9105182328
 21
85.3525214537
  0
LINE
  8
1
  6
HIDDEN
 62
3
 10
167.9105182328
 20
95.3525214537
 11
167.9105182328
 21
85.3525214537
  0
LINE
  8
1
  6
HIDDEN
 62
3
 10
219.9105182328
 20
86.3525214537
 11
219.9105182328
 21
182.3525214537
  0
LINE
  8
1
  6
HIDDEN
 62
3
 10
167.9105182328
 20
191.3525214537
 11
167.9105182328
 21
95.3525214537
  0
LINE
  8
2
  6
CONTINUOUS
 62
5
 10
115.6954338248
 20
214.7453462552
 11
109.4661466639
 21
192.4775214537
  0
LINE
  8
2
  6
HIDDEN
 62
5
 10
114.7351177630
 20
203.8525214537
 11
111.4661466639
 21
192.2022453229
  0
LINE
  8
2
  6
HIDDEN
 62
5
 10
111.4661466639
 20
192.2022453229
 11
111.4661466639
 21
73.8525214537
  0
DIMENSION
  8
1
  6
CONTINUOUS
 62
5
  2
*D4
 10
17.2916228022
 20
64.6025214537
 11
13.7916228022
 21
142.3525214537
  70
0
 13
27.7645106558
 23
220.1025214537
 14
27.7645106558
 24
64.6025214537
 50
90.000000
  0
DIMENSION
  8
1
  6
CONTINUOUS
 62
5
  2
*D5
 10
96.7645106558
 20
224.0648547044
 11
62.2645106558
 21
227.5648547044
  70
0
 13
27.7645106558
 23
220.1025214537
 14
96.7645106558
 24
220.1025214537
 50
0.000000
  0
LINE
  8
2
  6
CONTINUOUS
 62
5
 10
31.5145106558
 20
37.0484212565
 11
31.5145106558
 21
36.0484212565
  0
LINE
  8
2
  6
CONTINUOUS
 62
5
 10
31.5145106558
 20
36.0484212565
 11
32.0145106558
 21
36.0484212565
  0
LINE
  8
2
  6
CONTINUOUS
 62
5
 10
32.0145106558
 20
36.0484212565
 11
32.0145106558
 21
37.0484212565
  0
LINE
  8
2
  6
CONTINUOUS
 62
5
 10
93.0145106558
 20
37.0484212565
 11
93.0145106558
 21
36.0484212565
  0
LINE
  8
2
  6
CONTINUOUS
 62
5
 10
93.0145106558
 20
36.0484212565
 11
92.5145106558
 21
36.0484212565
  0
LINE
  8
2
  6
CONTINUOUS
 62
5
 10
92.5145106558
 20
36.0484212565
 11
92.5145106558
 21
37.0484212565
  0
ARC
  8
1
  6
HIDDEN
 62
3
 10
168.9105182328
 20
191.3525214537
 40
1.0000000000
 50
90.0000000000
 51
180.0000000000
  0
ARC
  8
1
  6
HIDDEN
 62
3
 10
218.9105182328
 20
86.3525214537
 40
1.0000000000
 50
270.0000000000
 51
0.0000000000
  0
CIRCLE
  8
1
  6
CONTINUOUS
 62
7
 10
62.2645106558
 20
69.1025214537
 40
4.0000000000
  0
LINE
  8
1
  6
CONTINUOUS
 62
7
 10
60.4967437029
 20
70.8702884066
 11
64.0322776088
 21
67.3347545007
  0
LINE
  8
1
  6
CONTINUOUS
 62
7
 10
60.4967437029
 20
67.3347545007
 11
64.0322776088
 21
70.8702884066
  0
CIRCLE
  8
1
  6
CONTINUOUS
 62
7
 10
62.2645106558
 20
69.1025214537
 40
3.5000000000
  0
POINT
  8
1
  6
CONTINUOUS
 62
7
 10
62.2645106558
 20
51.5484212565
  0
LINE
  8
1
  6
CONTINUOUS
 62
7
 10
58.7645106558
 20
51.5484212586
 11
65.7645106558
 21
51.5484212543
  0
LINE
  8
1
  6
CONTINUOUS
 62
7
 10
61.4478439892
 20
54.2317545903
 11
63.0811773225
 21
54.2317545893
  0
ARC
  8
1
  6
CONTINUOUS
 62
7
 10
61.4478439892
 20
51.5484212570
 40
2.6833333333
 50
90.0000000000
 51
179.9999999648
  0
ARC
  8
1
  6
CONTINUOUS
 62
7
 10
63.0811773225
 20
51.5484212560
 40
2.6833333333
 50
359.9999999648
 51
90.0000000000
  0
POINT
  8
1
  6
CONTINUOUS
 62
7
 10
62.2645106558
 20
51.5484212565
  0
POINT
  8
1
  6
CONTINUOUS
 62
7
 10
62.2645106558
 20
51.5484212565
  0
POINT
  8
1
  6
CONTINUOUS
 62
7
 10
109.4661466639
 20
69.1025214537
  0
LINE
  8
1
  6
CONTINUOUS
 62
7
 10
109.4690741866
 20
65.5995939289
 11
109.4690741909
 21
72.5995939289
  0
LINE
  8
1
  6
CONTINUOUS
 62
7
 10
106.7857408549
 20
68.2829272622
 11
106.7857408559
 21
69.9162605955
  0
ARC
  8
1
  6
CONTINUOUS
 62
7
 10
109.4690741882
 20
68.2829272622
 40
2.6833333333
 50
180.0000000000
 51
269.9999999648
  0
ARC
  8
1
  6
CONTINUOUS
 62
7
 10
109.4690741892
 20
69.9162605955
 40
2.6833333333
 50
89.9999999648
 51
180.0000000000
  0
POINT
  8
1
  6
CONTINUOUS
 62
7
 10
109.4661466639
 20
69.1025214537
  0
POINT
  8
1
  6
CONTINUOUS
 62
7
 10
109.4661466639
 20
69.1025214537
  0
LINE
  8
7
  6
CONTINUOUS
 62
7
 10
221.1605182328
 20
77.8525214539
 11
221.1605182328
 21
199.8525214535
  0
LINE
  8
7
  6
CONTINUOUS
 62
7
 10
220.1605182328
 20
200.8525214535
 11
167.6605182328
 21
200.8525214539
  0
LINE
  8
7
  6
CONTINUOUS
 62
7
 10
166.6605182328
 20
77.8525214535
 11
166.6605182328
 21
199.8525214539
  0
LINE
  8
7
  6
CONTINUOUS
 62
7
 10
220.1605182328
 20
76.8525214539
 11
167.6605182328
 21
76.8525214535
  0
LINE
  8
7
  6
CONTINUOUS
 62
7
 10
167.6605182328
 20
200.8525214539
 11
166.6605182328
 21
199.8525214539
  0
LINE
  8
7
  6
CONTINUOUS
 62
7
 10
221.1605182328
 20
199.8525214535
 11
220.1605182328
 21
200.8525214535
  0
LINE
  8
7
  6
CONTINUOUS
 62
7
 10
221.1605182328
 20
77.8525214539
 11
220.1605182328
 21
76.8525214539
  0
LINE
  8
7
  6
CONTINUOUS
 62
7
 10
167.6605182328
 20
76.8525214535
 11
166.6605182328
 21
77.8525214535
  0
CIRCLE
  8
3
  6
CONTINUOUS
 62
6
 10
193.9105182328
 20
197.3525214536
 40
3.9000000000
  0
LINE
  8
3
  6
CONTINUOUS
 62
6
 10
192.1869454536
 20
199.0760942328
 11
195.6340910119
 21
195.6289486745
  0
LINE
  8
3
  6
CONTINUOUS
 62
6
 10
192.1869454536
 20
195.6289486745
 11
195.6340910119
 21
199.0760942328
  0
CIRCLE
  8
3
  6
CONTINUOUS
 62
6
 10
193.9105182328
 20
197.3525214536
 40
3.4125000000
  0
CIRCLE
  8
3
  6
CONTINUOUS
 62
6
 10
193.9105182328
 20
80.3525214537
 40
3.9000000000
  0
LINE
  8
3
  6
CONTINUOUS
 62
6
 10
192.1869454536
 20
82.0760942328
 11
195.6340910119
 21
78.6289486745
  0
LINE
  8
3
  6
CONTINUOUS
 62
6
 10
192.1869454536
 20
78.6289486745
 11
195.6340910119
 21
82.0760942328
  0
CIRCLE
  8
3
  6
CONTINUOUS
 62
6
 10
193.9105182328
 20
80.3525214537
 40
3.4125000000
  0
LINE
  8
5
  6
CONTINUOUS
 62
6
 10
312.9235759729
 20
271.9463679840
 11
312.9235759729
 21
276.9463679840
  0
LINE
  8
5
  6
CONTINUOUS
 62
6
 10
312.9235759729
 20
276.9463679840
 11
317.9235759729
 21
276.9463679840
  0
LINE
  8
5
  6
CONTINUOUS
 62
6
 10
317.9235759729
 20
276.9463679840
 11
337.9235759729
 21
276.9463679840
  0
LINE
  8
5
  6
CONTINUOUS
 62
6
 10
337.9235759729
 20
276.9463679840
 11
377.9235759729
 21
276.9463679840
  0
LINE
  8
5
  6
CONTINUOUS
 62
6
 10
377.9235759729
 20
276.9463679840
 11
392.9235759729
 21
276.9463679840
  0
LINE
  8
5
  6
CONTINUOUS
 62
6
 10
392.9235759729
 20
276.9463679840
 11
397.9235759729
 21
276.9463679840
  0
LINE
  8
5
  6
CONTINUOUS
 62
6
 10
397.9235759729
 20
276.9463679840
 11
397.9235759729
 21
271.9463679840
  0
LINE
  8
5
  6
CONTINUOUS
 62
6
 10
397.9235759729
 20
271.9463679840
 11
392.9235759729
 21
271.9463679840
  0
LINE
  8
5
  6
CONTINUOUS
 62
6
 10
392.9235759729
 20
271.9463679840
 11
377.9235759729
 21
271.9463679840
  0
LINE
  8
5
  6
CONTINUOUS
 62
6
 10
377.9235759729
 20
271.9463679840
 11
337.9235759729
 21
271.9463679840
  0
LINE
  8
5
  6
CONTINUOUS
 62
6
 10
337.9235759729
 20
271.9463679840
 11
317.9235759729
 21
271.9463679840
  0
LINE
  8
5
  6
CONTINUOUS
 62
6
 10
317.9235759729
 20
271.9463679840
 11
312.9235759729
 21
271.9463679840
  0
LINE
  8
5
  6
CONTINUOUS
 62
6
 10
317.9235759729
 20
276.9463679840
 11
317.9235759729
 21
271.9463679840
  0
LINE
  8
5
  6
CONTINUOUS
 62
6
 10
337.9235759729
 20
276.9463679840
 11
337.9235759729
 21
271.9463679840
  0
LINE
  8
5
  6
CONTINUOUS
 62
6
 10
377.9235759729
 20
276.9463679840
 11
377.9235759729
 21
271.9463679840
  0
LINE
  8
5
  6
CONTINUOUS
 62
6
 10
392.9235759729
 20
276.9463679840
 11
392.9235759729
 21
271.9463679840
  0
TEXT
  8
5
  6
CONTINUOUS
 62
7
 10
313.123576
 20
273.296368
 40
2.300000
  1
項番
 41
0.921659
 50
0.000000
 51
0.000000
 72
   5
 73
   0
 11
317.723576
 21
273.296368
  0
TEXT
  8
5
  6
CONTINUOUS
 62
7
 10
322.931576
 20
272.946368
 40
3.000000
  1
品　　名
 41
0.737916
 50
0.000000
 51
0.000000
 72
   5
 73
   0
 11
332.915576
 21
272.946368
  0
TEXT
  8
5
  6
CONTINUOUS
 62
7
 10
342.770576
 20
272.946368
 40
3.000000
  1
定  格 / 型  番 / 材　質
 41
0.686277
 50
0.000000
 51
0.000000
 72
   5
 73
   0
 11
373.076576
 21
272.946368
  0
TEXT
  8
5
  6
CONTINUOUS
 62
7
 10
380.226076
 20
272.946368
 40
3.000000
  1
メーカー
 41
0.768293
 50
0.000000
 51
0.000000
 72
   5
 73
   0
 11
390.621076
 21
272.946368
  0
TEXT
  8
5
  6
CONTINUOUS
 62
7
 10
393.123576
 20
273.296368
 40
2.300000
  1
数量
 41
0.921659
 50
0.000000
 51
0.000000
 72
   5
 73
   0
 11
397.723576
 21
273.296368
  0
LINE
  8
5
  6
CONTINUOUS
 62
6
 10
312.9235759729
 20
266.9463679840
 11
312.9235759729
 21
271.9463679840
  0
LINE
  8
5
  6
CONTINUOUS
 62
6
 10
312.9235759729
 20
271.9463679840
 11
317.9235759729
 21
271.9463679840
  0
LINE
  8
5
  6
CONTINUOUS
 62
6
 10
317.9235759729
 20
271.9463679840
 11
337.9235759729
 21
271.9463679840
  0
LINE
  8
5
  6
CONTINUOUS
 62
6
 10
337.9235759729
 20
271.9463679840
 11
377.9235759729
 21
271.9463679840
  0
LINE
  8
5
  6
CONTINUOUS
 62
6
 10
377.9235759729
 20
271.9463679840
 11
392.9235759729
 21
271.9463679840
  0
LINE
  8
5
  6
CONTINUOUS
 62
6
 10
392.9235759729
 20
271.9463679840
 11
397.9235759729
 21
271.9463679840
  0
LINE
  8
5
  6
CONTINUOUS
 62
6
 10
397.9235759729
 20
271.9463679840
 11
397.9235759729
 21
266.9463679840
  0
LINE
  8
5
  6
CONTINUOUS
 62
6
 10
397.9235759729
 20
266.9463679840
 11
392.9235759729
 21
266.9463679840
  0
LINE
  8
5
  6
CONTINUOUS
 62
6
 10
392.9235759729
 20
266.9463679840
 11
377.9235759729
 21
266.9463679840
  0
LINE
  8
5
  6
CONTINUOUS
 62
6
 10
337.9235759729
 20
266.9463679840
 11
317.9235759729
 21
266.9463679840
  0
LINE
  8
5
  6
CONTINUOUS
 62
6
 10
317.9235759729
 20
266.9463679840
 11
312.9235759729
 21
266.9463679840
  0
LINE
  8
5
  6
CONTINUOUS
 62
6
 10
317.9235759729
 20
271.9463679840
 11
317.9235759729
 21
266.9463679840
  0
LINE
  8
5
  6
CONTINUOUS
 62
6
 10
337.9235759729
 20
271.9463679840
 11
337.9235759729
 21
266.9463679840
  0
LINE
  8
5
  6
CONTINUOUS
 62
6
 10
377.9235759729
 20
271.9463679840
 11
377.9235759729
 21
266.9463679840
  0
LINE
  8
5
  6
CONTINUOUS
 62
6
 10
392.9235759729
 20
271.9463679840
 11
392.9235759729
 21
266.9463679840
  0
TEXT
  8
5
  6
CONTINUOUS
 62
7
 10
314.548576
 20
267.696368
 40
3.500000
  1
1
 41
1.000000
 50
0.000000
 51
0.000000
 72
   5
 73
   0
 11
316.298576
 21
267.696368
  0
TEXT
  8
5
  6
CONTINUOUS
 62
7
 10
318.923576
 20
267.946368
 40
3.000000
  1
ベース
 41
0.841018
 50
0.000000
 51
0.000000
 72
   5
 73
   0
 11
327.350576
 21
267.946368
  0
TEXT
  8
5
  6
CONTINUOUS
 62
7
 10
394.548576
 20
267.696368
 40
3.500000
  1
1
 41
1.000000
 50
0.000000
 51
0.000000
 72
   5
 73
   0
 11
396.298576
 21
267.696368
  0
LINE
  8
5
  6
CONTINUOUS
 62
6
 10
397.9235759729
 20
261.9463679840
 11
392.9235759729
 21
261.9463679840
  0
LINE
  8
5
  6
CONTINUOUS
 62
6
 10
397.9235759729
 20
256.9463679840
 11
392.9235759729
 21
256.9463679840
  0
LINE
  8
5
  6
CONTINUOUS
 62
6
 10
397.9235759729
 20
251.9463679840
 11
392.9235759729
 21
251.9463679840
  0
LINE
  8
5
  6
CONTINUOUS
 62
6
 10
397.9235759729
 20
246.9463679840
 11
392.9235759729
 21
246.9463679840
  0
LINE
  8
5
  6
CONTINUOUS
 62
6
 10
397.9235759729
 20
241.9463679840
 11
392.9235759729
 21
241.9463679840
  0
LINE
  8
5
  6
CONTINUOUS
 62
6
 10
397.9235759729
 20
236.9463679840
 11
392.9235759729
 21
236.9463679840
  0
LINE
  8
5
  6
CONTINUOUS
 62
6
 10
397.9235759729
 20
231.9463679840
 11
392.9235759729
 21
231.9463679840
  0
LINE
  8
5
  6
CONTINUOUS
 62
6
 10
392.9235759729
 20
261.9463679840
 11
377.9235759729
 21
261.9463679840
  0
LINE
  8
5
  6
CONTINUOUS
 62
6
 10
392.9235759729
 20
256.9463679840
 11
377.9235759729
 21
256.9463679840
  0
LINE
  8
5
  6
CONTINUOUS
 62
6
 10
392.9235759729
 20
251.9463679840
 11
377.9235759729
 21
251.9463679840
  0
LINE
  8
5
  6
CONTINUOUS
 62
6
 10
392.9235759729
 20
246.9463679840
 11
377.9235759729
 21
246.9463679840
  0
LINE
  8
5
  6
CONTINUOUS
 62
6
 10
392.9235759729
 20
241.9463679840
 11
377.9235759729
 21
241.9463679840
  0
LINE
  8
5
  6
CONTINUOUS
 62
6
 10
392.9235759729
 20
236.9463679840
 11
377.9235759729
 21
236.9463679840
  0
LINE
  8
5
  6
CONTINUOUS
 62
6
 10
392.9235759729
 20
231.9463679840
 11
377.9235759729
 21
231.9463679840
  0
LINE
  8
5
  6
CONTINUOUS
 62
6
 10
377.9235759729
 20
261.9463679840
 11
337.9235759729
 21
261.9463679840
  0
LINE
  8
5
  6
CONTINUOUS
 62
6
 10
377.9235759729
 20
256.9463679840
 11
337.9235759729
 21
256.9463679840
  0
LINE
  8
5
  6
CONTINUOUS
 62
6
 10
377.9235759729
 20
251.9463679840
 11
337.9235759729
 21
251.9463679840
  0
LINE
  8
5
  6
CONTINUOUS
 62
6
 10
377.9235759729
 20
246.9463679840
 11
337.9235759729
 21
246.9463679840
  0
LINE
  8
5
  6
CONTINUOUS
 62
6
 10
377.9235759729
 20
241.9463679840
 11
337.9235759729
 21
241.9463679840
  0
LINE
  8
5
  6
CONTINUOUS
 62
6
 10
377.9235759729
 20
236.9463679840
 11
337.9235759729
 21
236.9463679840
  0
LINE
  8
5
  6
CONTINUOUS
 62
6
 10
377.9235759729
 20
231.9463679840
 11
337.9235759729
 21
231.9463679840
  0
LINE
  8
5
  6
CONTINUOUS
 62
6
 10
337.9235759729
 20
261.9463679840
 11
317.9235759729
 21
261.9463679840
  0
LINE
  8
5
  6
CONTINUOUS
 62
6
 10
337.9235759729
 20
256.9463679840
 11
317.9235759729
 21
256.9463679840
  0
LINE
  8
5
  6
CONTINUOUS
 62
6
 10
337.9235759729
 20
251.9463679840
 11
317.9235759729
 21
251.9463679840
  0
LINE
  8
5
  6
CONTINUOUS
 62
6
 10
337.9235759729
 20
246.9463679840
 11
317.9235759729
 21
246.9463679840
  0
LINE
  8
5
  6
CONTINUOUS
 62
6
 10
337.9235759729
 20
241.9463679840
 11
317.9235759729
 21
241.9463679840
  0
LINE
  8
5
  6
CONTINUOUS
 62
6
 10
337.9235759729
 20
236.9463679840
 11
317.9235759729
 21
236.9463679840
  0
LINE
  8
5
  6
CONTINUOUS
 62
6
 10
337.9235759729
 20
231.9463679840
 11
317.9235759729
 21
231.9463679840
  0
LINE
  8
5
  6
CONTINUOUS
 62
6
 10
317.9235759729
 20
261.9463679840
 11
312.9235759729
 21
261.9463679840
  0
LINE
  8
5
  6
CONTINUOUS
 62
6
 10
317.9235759729
 20
256.9463679840
 11
312.9235759729
 21
256.9463679840
  0
LINE
  8
5
  6
CONTINUOUS
 62
6
 10
317.9235759729
 20
251.9463679840
 11
312.9235759729
 21
251.9463679840
  0
LINE
  8
5
  6
CONTINUOUS
 62
6
 10
317.9235759729
 20
246.9463679840
 11
312.9235759729
 21
246.9463679840
  0
LINE
  8
5
  6
CONTINUOUS
 62
6
 10
317.9235759729
 20
241.9463679840
 11
312.9235759729
 21
241.9463679840
  0
LINE
  8
5
  6
CONTINUOUS
 62
6
 10
317.9235759729
 20
236.9463679840
 11
312.9235759729
 21
236.9463679840
  0
LINE
  8
5
  6
CONTINUOUS
 62
6
 10
317.9235759729
 20
231.9463679840
 11
312.9235759729
 21
231.9463679840
  0
TEXT
  8
5
  6
CONTINUOUS
 62
7
 10
314.548576
 20
262.696368
 40
3.500000
  1
2
 41
1.000000
 50
0.000000
 51
0.000000
 72
   5
 73
   0
 11
316.298576
 21
262.696368
  0
TEXT
  8
5
  6
CONTINUOUS
 62
7
 10
314.548576
 20
257.696368
 40
3.500000
  1
3
 41
1.000000
 50
0.000000
 51
0.000000
 72
   5
 73
   0
 11
316.298576
 21
257.696368
  0
TEXT
  8
5
  6
CONTINUOUS
 62
7
 10
314.548576
 20
252.696368
 40
3.500000
  1
4
 41
1.000000
 50
0.000000
 51
0.000000
 72
   5
 73
   0
 11
316.298576
 21
252.696368
  0
TEXT
  8
5
  6
CONTINUOUS
 62
7
 10
314.548576
 20
247.696368
 40
3.500000
  1
5
 41
1.000000
 50
0.000000
 51
0.000000
 72
   5
 73
   0
 11
316.298576
 21
247.696368
  0
TEXT
  8
5
  6
CONTINUOUS
 62
7
 10
314.548576
 20
242.696368
 40
3.500000
  1
6
 41
1.000000
 50
0.000000
 51
0.000000
 72
   5
 73
   0
 11
316.298576
 21
242.696368
  0
TEXT
  8
5
  6
CONTINUOUS
 62
7
 10
314.548576
 20
237.696368
 40
3.500000
  1
7
 41
1.000000
 50
0.000000
 51
0.000000
 72
   5
 73
   0
 11
316.298576
 21
237.696368
  0
TEXT
  8
5
  6
CONTINUOUS
 62
7
 10
314.548576
 20
232.696368
 40
3.500000
  1
8
 41
1.000000
 50
0.000000
 51
0.000000
 72
   5
 73
   0
 11
316.298576
 21
232.696368
  0
TEXT
  8
5
  6
CONTINUOUS
 62
7
 10
318.923576
 20
262.946368
 40
3.000000
  1
カバー
 41
0.833832
 50
0.000000
 51
0.000000
 72
   5
 73
   0
 11
327.278576
 21
262.946368
  0
TEXT
  8
5
  6
CONTINUOUS
 62
7
 10
318.923576
 20
257.946368
 40
3.000000
  1
ロック
 41
0.719162
 50
0.000000
 51
0.000000
 72
   5
 73
   0
 11
326.129576
 21
257.946368
  0
TEXT
  8
5
  6
CONTINUOUS
 62
7
 10
318.923576
 20
252.946368
 40
3.000000
  1
添付品ﾋﾞｽ
 41
0.822804
 50
0.000000
 51
0.000000
 72
   5
 73
   0
 11
332.129576
 21
252.946368
  0
TEXT
  8
5
  6
CONTINUOUS
 62
7
 10
318.923576
 20
242.946368
 40
3.000000
  1
添付品ﾋﾞｽ
 41
0.822804
 50
0.000000
 51
0.000000
 72
   5
 73
   0
 11
332.129576
 21
242.946368
  0
TEXT
  8
5
  6
CONTINUOUS
 62
7
 10
318.923576
 20
237.946368
 40
3.000000
  1
添付品ﾋﾞｽ
 41
0.822804
 50
0.000000
 51
0.000000
 72
   5
 73
   0
 11
332.129576
 21
237.946368
  0
TEXT
  8
5
  6
CONTINUOUS
 62
7
 10
338.923576
 20
257.946368
 40
3.000000
  1
M4×20 脱落防止ビス
 41
0.819085
 50
0.000000
 51
0.000000
 72
   5
 73
   0
 11
366.862576
 21
257.946368
  0
TEXT
  8
5
  6
CONTINUOUS
 62
7
 10
338.923576
 20
252.946368
 40
3.000000
  1
M3×8小ワｾﾑｽ(ﾍﾞｰｽ固定用)
 41
0.831095
 50
0.000000
 51
0.000000
 72
   5
 73
   0
 11
376.048576
 21
252.946368
  0
TEXT
  8
5
  6
CONTINUOUS
 62
7
 10
338.923576
 20
242.946368
 40
3.000000
  1
M5×10ｱﾌﾞｾｯﾄ
 41
0.813247
 50
0.000000
 51
0.000000
 72
   5
 73
   0
 11
357.709576
 21
242.946368
  0
TEXT
  8
5
  6
CONTINUOUS
 62
7
 10
338.923576
 20
237.946368
 40
3.000000
  1
M5 内歯菊座金
 41
0.851365
 50
0.000000
 51
0.000000
 72
   5
 73
   0
 11
358.564576
 21
237.946368
  0
TEXT
  8
5
  6
CONTINUOUS
 62
7
 10
394.548576
 20
262.696368
 40
3.500000
  1
1
 41
1.000000
 50
0.000000
 51
0.000000
 72
   5
 73
   0
 11
396.298576
 21
262.696368
  0
TEXT
  8
5
  6
CONTINUOUS
 62
7
 10
394.548576
 20
257.696368
 40
3.500000
  1
1
 41
1.000000
 50
0.000000
 51
0.000000
 72
   5
 73
   0
 11
396.298576
 21
257.696368
  0
TEXT
  8
5
  6
CONTINUOUS
 62
7
 10
394.548576
 20
252.696368
 40
3.500000
  1
4
 41
1.000000
 50
0.000000
 51
0.000000
 72
   5
 73
   0
 11
396.298576
 21
252.696368
  0
TEXT
  8
5
  6
CONTINUOUS
 62
7
 10
394.548576
 20
242.696368
 40
3.500000
  1
1
 41
1.000000
 50
0.000000
 51
0.000000
 72
   5
 73
   0
 11
396.298576
 21
242.696368
  0
TEXT
  8
5
  6
CONTINUOUS
 62
7
 10
394.548576
 20
237.696368
 40
3.500000
  1
1
 41
1.000000
 50
0.000000
 51
0.000000
 72
   5
 73
   0
 11
396.298576
 21
237.696368
  0
LINE
  8
5
  6
CONTINUOUS
 62
6
 10
312.9235759729
 20
261.9463679840
 11
312.9235759729
 21
266.9463679840
  0
LINE
  8
5
  6
CONTINUOUS
 62
6
 10
312.9235759729
 20
256.9463679840
 11
312.9235759729
 21
261.9463679840
  0
LINE
  8
5
  6
CONTINUOUS
 62
6
 10
312.9235759729
 20
251.9463679840
 11
312.9235759729
 21
256.9463679840
  0
LINE
  8
5
  6
CONTINUOUS
 62
6
 10
312.9235759729
 20
246.9463679840
 11
312.9235759729
 21
251.9463679840
  0
LINE
  8
5
  6
CONTINUOUS
 62
6
 10
312.9235759729
 20
241.9463679840
 11
312.9235759729
 21
246.9463679840
  0
LINE
  8
5
  6
CONTINUOUS
 62
6
 10
312.9235759729
 20
236.9463679840
 11
312.9235759729
 21
241.9463679840
  0
LINE
  8
5
  6
CONTINUOUS
 62
6
 10
312.9235759729
 20
231.9463679840
 11
312.9235759729
 21
236.9463679840
  0
LINE
  8
5
  6
CONTINUOUS
 62
6
 10
317.9235759729
 20
266.9463679840
 11
317.9235759729
 21
261.9463679840
  0
LINE
  8
5
  6
CONTINUOUS
 62
6
 10
317.9235759729
 20
261.9463679840
 11
317.9235759729
 21
256.9463679840
  0
LINE
  8
5
  6
CONTINUOUS
 62
6
 10
317.9235759729
 20
256.9463679840
 11
317.9235759729
 21
251.9463679840
  0
LINE
  8
5
  6
CONTINUOUS
 62
6
 10
317.9235759729
 20
251.9463679840
 11
317.9235759729
 21
246.9463679840
  0
LINE
  8
5
  6
CONTINUOUS
 62
6
 10
317.9235759729
 20
246.9463679840
 11
317.9235759729
 21
241.9463679840
  0
LINE
  8
5
  6
CONTINUOUS
 62
6
 10
317.9235759729
 20
241.9463679840
 11
317.9235759729
 21
236.9463679840
  0
LINE
  8
5
  6
CONTINUOUS
 62
6
 10
317.9235759729
 20
236.9463679840
 11
317.9235759729
 21
231.9463679840
  0
LINE
  8
5
  6
CONTINUOUS
 62
6
 10
337.9235759729
 20
266.9463679840
 11
337.9235759729
 21
261.9463679840
  0
LINE
  8
5
  6
CONTINUOUS
 62
6
 10
337.9235759729
 20
261.9463679840
 11
337.9235759729
 21
256.9463679840
  0
LINE
  8
5
  6
CONTINUOUS
 62
6
 10
337.9235759729
 20
256.9463679840
 11
337.9235759729
 21
251.9463679840
  0
LINE
  8
5
  6
CONTINUOUS
 62
6
 10
337.9235759729
 20
251.9463679840
 11
337.9235759729
 21
246.9463679840
  0
LINE
  8
5
  6
CONTINUOUS
 62
6
 10
337.9235759729
 20
246.9463679840
 11
337.9235759729
 21
241.9463679840
  0
LINE
  8
5
  6
CONTINUOUS
 62
6
 10
337.9235759729
 20
241.9463679840
 11
337.9235759729
 21
236.9463679840
  0
LINE
  8
5
  6
CONTINUOUS
 62
6
 10
337.9235759729
 20
236.9463679840
 11
337.9235759729
 21
231.9463679840
  0
LINE
  8
5
  6
CONTINUOUS
 62
6
 10
377.9235759729
 20
266.9463679840
 11
377.9235759729
 21
261.9463679840
  0
LINE
  8
5
  6
CONTINUOUS
 62
6
 10
377.9235759729
 20
261.9463679840
 11
377.9235759729
 21
256.9463679840
  0
LINE
  8
5
  6
CONTINUOUS
 62
6
 10
377.9235759729
 20
251.9463679840
 11
377.9235759729
 21
246.9463679840
  0
LINE
  8
5
  6
CONTINUOUS
 62
6
 10
377.9235759729
 20
246.9463679840
 11
377.9235759729
 21
241.9463679840
  0
LINE
  8
5
  6
CONTINUOUS
 62
6
 10
377.9235759729
 20
241.9463679840
 11
377.9235759729
 21
236.9463679840
  0
LINE
  8
5
  6
CONTINUOUS
 62
6
 10
377.9235759729
 20
236.9463679840
 11
377.9235759729
 21
231.9463679840
  0
LINE
  8
5
  6
CONTINUOUS
 62
6
 10
392.9235759729
 20
266.9463679840
 11
392.9235759729
 21
261.9463679840
  0
LINE
  8
5
  6
CONTINUOUS
 62
6
 10
392.9235759729
 20
261.9463679840
 11
392.9235759729
 21
256.9463679840
  0
LINE
  8
5
  6
CONTINUOUS
 62
6
 10
392.9235759729
 20
256.9463679840
 11
392.9235759729
 21
251.9463679840
  0
LINE
  8
5
  6
CONTINUOUS
 62
6
 10
392.9235759729
 20
251.9463679840
 11
392.9235759729
 21
246.9463679840
  0
LINE
  8
5
  6
CONTINUOUS
 62
6
 10
392.9235759729
 20
246.9463679840
 11
392.9235759729
 21
241.9463679840
  0
LINE
  8
5
  6
CONTINUOUS
 62
6
 10
392.9235759729
 20
241.9463679840
 11
392.9235759729
 21
236.9463679840
  0
LINE
  8
5
  6
CONTINUOUS
 62
6
 10
392.9235759729
 20
236.9463679840
 11
392.9235759729
 21
231.9463679840
  0
LINE
  8
5
  6
CONTINUOUS
 62
6
 10
397.9235759729
 20
266.9463679840
 11
397.9235759729
 21
261.9463679840
  0
LINE
  8
5
  6
CONTINUOUS
 62
6
 10
397.9235759729
 20
261.9463679840
 11
397.9235759729
 21
256.9463679840
  0
LINE
  8
5
  6
CONTINUOUS
 62
6
 10
397.9235759729
 20
256.9463679840
 11
397.9235759729
 21
251.9463679840
  0
LINE
  8
5
  6
CONTINUOUS
 62
6
 10
397.9235759729
 20
251.9463679840
 11
397.9235759729
 21
246.9463679840
  0
LINE
  8
5
  6
CONTINUOUS
 62
6
 10
397.9235759729
 20
246.9463679840
 11
397.9235759729
 21
241.9463679840
  0
LINE
  8
5
  6
CONTINUOUS
 62
6
 10
397.9235759729
 20
241.9463679840
 11
397.9235759729
 21
236.9463679840
  0
LINE
  8
5
  6
CONTINUOUS
 62
6
 10
397.9235759729
 20
236.9463679840
 11
397.9235759729
 21
231.9463679840
  0
INSERT
  8
1
  6
CONTINUOUS
 62
5
  2
BALN0
 10
65.1092980532
 20
67.0636039311
  0
TEXT
  8
5
  6
CONTINUOUS
 62
7
 10
338.923576
 20
247.946368
 40
3.000000
  1
M4×8小ワｾﾑｽ(ﾊﾟﾈﾙ固定用)
 41
0.833177
 50
0.000000
 51
0.000000
 72
   5
 73
   0
 11
376.141576
 21
247.946368
  0
TEXT
  8
5
  6
CONTINUOUS
 62
7
 10
318.923576
 20
247.946368
 40
3.000000
  1
添付品ﾋﾞｽ
 41
0.822804
 50
0.000000
 51
0.000000
 72
   5
 73
   0
 11
332.129576
 21
247.946368
  0
TEXT
  8
5
  6
CONTINUOUS
 62
7
 10
394.548576
 20
247.696368
 40
3.500000
  1
2
 41
1.000000
 50
0.000000
 51
0.000000
 72
   5
 73
   0
 11
396.298576
 21
247.696368
  0
LINE
  8
5
  6
CONTINUOUS
 62
6
 10
377.9235759729
 20
256.9463679840
 11
377.9235759729
 21
251.9463679840
  0
LINE
  8
3
  6
CONTINUOUS
 62
7
 10
221.1605182328
 20
77.8525214539
 11
221.1605182328
 21
199.8525214535
  0
LINE
  8
3
  6
CONTINUOUS
 62
7
 10
221.1605182328
 20
199.8525214535
 11
220.1605182328
 21
200.8525214535
  0
LINE
  8
3
  6
CONTINUOUS
 62
7
 10
220.1605182328
 20
200.8525214535
 11
167.6605182328
 21
200.8525214539
  0
LINE
  8
3
  6
CONTINUOUS
 62
7
 10
167.6605182328
 20
200.8525214539
 11
166.6605182328
 21
199.8525214539
  0
LINE
  8
3
  6
CONTINUOUS
 62
7
 10
166.6605182328
 20
77.8525214535
 11
166.6605182328
 21
199.8525214539
  0
LINE
  8
3
  6
CONTINUOUS
 62
7
 10
167.6605182328
 20
76.8525214535
 11
166.6605182328
 21
77.8525214535
  0
LINE
  8
3
  6
CONTINUOUS
 62
7
 10
220.1605182328
 20
76.8525214539
 11
167.6605182328
 21
76.8525214535
  0
LINE
  8
3
  6
CONTINUOUS
 62
7
 10
221.1605182328
 20
77.8525214539
 11
220.1605182328
 21
76.8525214539
  0
DIMENSION
  8
1
  6
CONTINUOUS
 62
5
  2
*D6
 10
142.4822443727
 20
88.0542751045
 11
140.9380756799
 21
91.4348139740
  70
3
 15
144.4500489552
 25
92.6507678028
  0
TEXT
  8
5
  6
CONTINUOUS
 62
7
 10
318.923576
 20
232.946368
 40
3.000000
  1
パネル
 41
0.877246
 50
0.000000
 51
0.000000
 72
   5
 73
   0
 11
327.713576
 21
232.946368
  0
TEXT
  8
5
  6
CONTINUOUS
 62
7
 10
338.923576
 20
232.696368
 40
3.500000
  1
別紙　2/2 参照
 41
0.773804
 50
0.000000
 51
0.000000
 72
   5
 73
   0
 11
361.565076
 21
232.696368
  0
TEXT
  8
5
  6
CONTINUOUS
 62
7
 10
394.548576
 20
232.696368
 40
3.500000
  1
1
 41
1.000000
 50
0.000000
 51
0.000000
 72
   5
 73
   0
 11
396.298576
 21
232.696368
  0
TEXT
  8
5
  6
CONTINUOUS
 62
7
 10
378.923576
 20
267.946368
 40
3.000000
  1
MADOKA
 41
1.028831
 50
0.000000
 51
0.000000
 72
   5
 73
   0
 11
390.806576
 21
267.946368
  0
TEXT
  8
5
  6
CONTINUOUS
 62
7
 10
378.923576
 20
262.946368
 40
3.000000
  1
MADOKA
 41
1.028831
 50
0.000000
 51
0.000000
 72
   5
 73
   0
 11
390.806576
 21
262.946368
  0
TEXT
  8
5
  6
CONTINUOUS
 62
7
 10
378.923576
 20
232.946368
 40
3.000000
  1
MADOKA
 41
1.028831
 50
0.000000
 51
0.000000
 72
   5
 73
   0
 11
390.806576
 21
232.946368
  0
TEXT
  8
5
  6
CONTINUOUS
 62
7
 10
378.923576
 20
237.946368
 40
3.000000
  1
--
 41
0.854701
 50
0.000000
 51
0.000000
 72
   5
 73
   0
 11
381.923576
 21
237.946368
  0
TEXT
  8
5
  6
CONTINUOUS
 62
7
 10
378.923576
 20
242.946368
 40
3.000000
  1
--
 41
0.854701
 50
0.000000
 51
0.000000
 72
   5
 73
   0
 11
381.923576
 21
242.946368
  0
TEXT
  8
5
  6
CONTINUOUS
 62
7
 10
378.923576
 20
247.946368
 40
3.000000
  1
--
 41
0.854701
 50
0.000000
 51
0.000000
 72
   5
 73
   0
 11
381.923576
 21
247.946368
  0
TEXT
  8
5
  6
CONTINUOUS
 62
7
 10
378.923576
 20
252.946368
 40
3.000000
  1
--
 41
0.854701
 50
0.000000
 51
0.000000
 72
   5
 73
   0
 11
381.923576
 21
252.946368
  0
TEXT
  8
5
  6
CONTINUOUS
 62
7
 10
378.923576
 20
257.946368
 40
3.000000
  1
--
 41
0.854701
 50
0.000000
 51
0.000000
 72
   5
 73
   0
 11
381.923576
 21
257.946368
  0
INSERT
  8
5
  6
CONTINUOUS
 62
7
  2
S1
 10
-1.2509564999
 20
-313.9655230621
  0
TEXT
  8
5
  6
CONTINUOUS
 62
7
 10
347.402112
 20
-291.222966
 40
4.200000
  1
Panel Interface
 41
0.641296
 50
0.000000
 51
0.000000
 72
   5
 73
   0
 11
374.013312
 21
-291.222966
  0
TEXT
  8
5
  6
CONTINUOUS
 62
7
 10
347.402112
 20
-295.422966
 40
4.200000
  1
Type:MCON-001-072******
 41
0.788714
 50
0.000000
 51
0.000000
 72
   5
 73
   0
 11
397.886112
 21
-295.422966
  0
TEXT
  8
5
  6
CONTINUOUS
 62
7
 10
347.402112
 20
-299.622966
 40
4.200000
  1
                      仕様図　2/2
 41
0.558184
 50
0.000000
 51
0.000000
 72
   5
 73
   0
 11
397.243512
 21
-299.622966
  0
TEXT
  8
5
  6
CONTINUOUS
 62
7
 10
291.874044
 20
-303.215523
 40
3.000000
  1
Yamada
 41
0.844156
 50
0.000000
 51
0.000000
 72
   5
 73
   0
 11
301.624044
 21
-303.215523
  0
TEXT
  8
5
  6
CONTINUOUS
 62
7
 10
302.874044
 20
-303.215523
 40
3.000000
  1
Yamada
 41
0.844156
 50
0.000000
 51
0.000000
 72
   5
 73
   0
 11
312.624044
 21
-303.215523
  0
LINE
  8
5
  6
CONTINUOUS
 62
6
 10
12.2490435001
 20
-69.4655230621
 11
12.2490435001
 21
-34.4655230621
  0
LINE
  8
5
  6
CONTINUOUS
 62
6
 10
24.2490435001
 20
-69.4655230621
 11
24.2490435001
 21
-34.4655230621
  0
LINE
  8
5
  6
CONTINUOUS
 62
6
 10
88.7490435001
 20
-69.4655230621
 11
88.7490435001
 21
-34.4655230621
  0
LINE
  8
5
  6
CONTINUOUS
 62
6
 10
97.7490435001
 20
-34.4655230621
 11
97.7490435001
 21
-69.4655230621
  0
TEXT
  8
5
  6
CONTINUOUS
 62
6
 10
5.041544
 20
-68.465523
 40
3.000000
  1
Rev.
 41
0.719124
 50
0.000000
 51
0.000000
 72
   5
 73
   0
 11
10.456544
 21
-68.465523
  0
LINE
  8
5
  6
CONTINUOUS
 62
6
 10
3.2490435001
 20
-64.4655230621
 11
97.7490435001
 21
-64.4655230621
  0
LINE
  8
5
  6
CONTINUOUS
 62
6
 10
3.2490435001
 20
-59.4655230621
 11
97.7490435001
 21
-59.4655230621
  0
LINE
  8
5
  6
CONTINUOUS
 62
6
 10
3.2490435001
 20
-54.4655230621
 11
97.7490435001
 21
-54.4655230621
  0
LINE
  8
5
  6
CONTINUOUS
 62
6
 10
3.2490435001
 20
-49.4655230621
 11
97.7490435001
 21
-49.4655230621
  0
LINE
  8
5
  6
CONTINUOUS
 62
6
 10
3.2490435001
 20
-69.4655230621
 11
97.7490435001
 21
-69.4655230621
  0
POINT
  8
5
  6
CONTINUOUS
 62
6
 10
7.7490435001
 20
-61.9655230621
  0
POINT
  8
5
  6
CONTINUOUS
 62
6
 10
7.7490435001
 20
-56.9655230621
  0
POINT
  8
5
  6
CONTINUOUS
 62
6
 10
7.7490435001
 20
-51.9655230621
  0
POINT
  8
5
  6
CONTINUOUS
 62
6
 10
7.7490435001
 20
-46.9655230621
  0
POINT
  8
5
  6
CONTINUOUS
 62
6
 10
18.2490435001
 20
-46.9655230621
  0
POINT
  8
5
  6
CONTINUOUS
 62
6
 10
18.2490435001
 20
-51.9655230621
  0
POINT
  8
5
  6
CONTINUOUS
 62
6
 10
18.2490435001
 20
-56.9655230621
  0
POINT
  8
5
  6
CONTINUOUS
 62
6
 10
18.2490435001
 20
-61.9655230621
  0
POINT
  8
5
  6
CONTINUOUS
 62
6
 10
93.2490435001
 20
-61.9655230621
  0
POINT
  8
5
  6
CONTINUOUS
 62
6
 10
93.2490435001
 20
-56.9655230621
  0
POINT
  8
5
  6
CONTINUOUS
 62
6
 10
93.2490435001
 20
-51.9655230621
  0
POINT
  8
5
  6
CONTINUOUS
 62
6
 10
93.2490435001
 20
-46.9655230621
  0
POINT
  8
5
  6
CONTINUOUS
 62
6
 10
24.2490435001
 20
-46.9655230621
  0
POINT
  8
5
  6
CONTINUOUS
 62
6
 10
24.2490435001
 20
-51.9655230621
  0
POINT
  8
5
  6
CONTINUOUS
 62
6
 10
24.2490435001
 20
-56.9655230621
  0
POINT
  8
5
  6
CONTINUOUS
 62
6
 10
24.2490435001
 20
-61.9655230621
  0
LINE
  8
5
  6
CONTINUOUS
 62
6
 10
309.6567742348
 20
-199.5694551973
 11
309.6567742348
 21
-194.5694551973
  0
LINE
  8
5
  6
CONTINUOUS
 62
6
 10
309.6567742348
 20
-194.5694551973
 11
314.6567742348
 21
-194.5694551973
  0
LINE
  8
5
  6
CONTINUOUS
 62
6
 10
314.6567742348
 20
-194.5694551973
 11
334.6567742348
 21
-194.5694551973
  0
LINE
  8
5
  6
CONTINUOUS
 62
6
 10
334.6567742348
 20
-194.5694551973
 11
374.6567742348
 21
-194.5694551973
  0
LINE
  8
5
  6
CONTINUOUS
 62
6
 10
374.6567742348
 20
-194.5694551973
 11
389.6567742348
 21
-194.5694551973
  0
LINE
  8
5
  6
CONTINUOUS
 62
6
 10
389.6567742348
 20
-194.5694551973
 11
394.6567742348
 21
-194.5694551973
  0
LINE
  8
5
  6
CONTINUOUS
 62
6
 10
394.6567742348
 20
-194.5694551973
 11
394.6567742348
 21
-199.5694551973
  0
LINE
  8
5
  6
CONTINUOUS
 62
6
 10
394.6567742348
 20
-199.5694551973
 11
389.6567742348
 21
-199.5694551973
  0
LINE
  8
5
  6
CONTINUOUS
 62
6
 10
389.6567742348
 20
-199.5694551973
 11
374.6567742348
 21
-199.5694551973
  0
LINE
  8
5
  6
CONTINUOUS
 62
6
 10
374.6567742348
 20
-199.5694551973
 11
334.6567742348
 21
-199.5694551973
  0
LINE
  8
5
  6
CONTINUOUS
 62
6
 10
334.6567742348
 20
-199.5694551973
 11
314.6567742348
 21
-199.5694551973
  0
LINE
  8
5
  6
CONTINUOUS
 62
6
 10
314.6567742348
 20
-199.5694551973
 11
309.6567742348
 21
-199.5694551973
  0
LINE
  8
5
  6
CONTINUOUS
 62
6
 10
314.6567742348
 20
-194.5694551973
 11
314.6567742348
 21
-199.5694551973
  0
LINE
  8
5
  6
CONTINUOUS
 62
6
 10
334.6567742348
 20
-194.5694551973
 11
334.6567742348
 21
-199.5694551973
  0
LINE
  8
5
  6
CONTINUOUS
 62
6
 10
374.6567742348
 20
-194.5694551973
 11
374.6567742348
 21
-199.5694551973
  0
LINE
  8
5
  6
CONTINUOUS
 62
6
 10
389.6567742348
 20
-194.5694551973
 11
389.6567742348
 21
-199.5694551973
  0
TEXT
  8
5
  6
CONTINUOUS
 62
7
 10
309.856774
 20
-198.219455
 40
2.300000
  1
項番
 41
0.921659
 50
0.000000
 51
0.000000
 72
   5
 73
   0
 11
314.456774
 21
-198.219455
  0
TEXT
  8
5
  6
CONTINUOUS
 62
7
 10
319.664774
 20
-198.569455
 40
3.000000
  1
品　　名
 41
0.737916
 50
0.000000
 51
0.000000
 72
   5
 73
   0
 11
329.648774
 21
-198.569455
  0
TEXT
  8
5
  6
CONTINUOUS
 62
7
 10
339.503774
 20
-198.569455
 40
3.000000
  1
定  格 / 型  番 / 材　質
 41
0.686277
 50
0.000000
 51
0.000000
 72
   5
 73
   0
 11
369.809774
 21
-198.569455
  0
TEXT
  8
5
  6
CONTINUOUS
 62
7
 10
376.959274
 20
-198.569455
 40
3.000000
  1
メーカー
 41
0.768293
 50
0.000000
 51
0.000000
 72
   5
 73
   0
 11
387.354274
 21
-198.569455
  0
TEXT
  8
5
  6
CONTINUOUS
 62
7
 10
389.856774
 20
-198.219455
 40
2.300000
  1
数量
 41
0.921659
 50
0.000000
 51
0.000000
 72
   5
 73
   0
 11
394.456774
 21
-198.219455
  0
LINE
  8
5
  6
CONTINUOUS
 62
6
 10
309.6567742348
 20
-204.5694551973
 11
309.6567742348
 21
-199.5694551973
  0
LINE
  8
5
  6
CONTINUOUS
 62
6
 10
309.6567742348
 20
-199.5694551973
 11
314.6567742348
 21
-199.5694551973
  0
LINE
  8
5
  6
CONTINUOUS
 62
6
 10
314.6567742348
 20
-199.5694551973
 11
334.6567742348
 21
-199.5694551973
  0
LINE
  8
5
  6
CONTINUOUS
 62
6
 10
334.6567742348
 20
-199.5694551973
 11
374.6567742348
 21
-199.5694551973
  0
LINE
  8
5
  6
CONTINUOUS
 62
6
 10
374.6567742348
 20
-199.5694551973
 11
389.6567742348
 21
-199.5694551973
  0
LINE
  8
5
  6
CONTINUOUS
 62
6
 10
389.6567742348
 20
-199.5694551973
 11
394.6567742348
 21
-199.5694551973
  0
LINE
  8
5
  6
CONTINUOUS
 62
6
 10
394.6567742348
 20
-199.5694551973
 11
394.6567742348
 21
-204.5694551973
  0
LINE
  8
5
  6
CONTINUOUS
 62
6
 10
394.6567742348
 20
-204.5694551973
 11
389.6567742348
 21
-204.5694551973
  0
LINE
  8
5
  6
CONTINUOUS
 62
6
 10
389.6567742348
 20
-204.5694551973
 11
374.6567742348
 21
-204.5694551973
  0
LINE
  8
5
  6
CONTINUOUS
 62
6
 10
374.6567742348
 20
-204.5694551973
 11
334.6567742348
 21
-204.5694551973
  0
LINE
  8
5
  6
CONTINUOUS
 62
6
 10
334.6567742348
 20
-204.5694551973
 11
314.6567742348
 21
-204.5694551973
  0
LINE
  8
5
  6
CONTINUOUS
 62
6
 10
314.6567742348
 20
-204.5694551973
 11
309.6567742348
 21
-204.5694551973
  0
LINE
  8
5
  6
CONTINUOUS
 62
6
 10
314.6567742348
 20
-199.5694551973
 11
314.6567742348
 21
-204.5694551973
  0
LINE
  8
5
  6
CONTINUOUS
 62
6
 10
334.6567742348
 20
-199.5694551973
 11
334.6567742348
 21
-204.5694551973
  0
LINE
  8
5
  6
CONTINUOUS
 62
6
 10
374.6567742348
 20
-199.5694551973
 11
374.6567742348
 21
-204.5694551973
  0
LINE
  8
5
  6
CONTINUOUS
 62
6
 10
389.6567742348
 20
-199.5694551973
 11
389.6567742348
 21
-204.5694551973
  0
TEXT
  8
5
  6
CONTINUOUS
 62
7
 10
309.906774
 20
-203.569455
 40
3.000000
  1
101
 41
0.815217
 50
0.000000
 51
0.000000
 72
   5
 73
   0
 11
314.406774
 21
-203.569455
  0
TEXT
  8
5
  6
CONTINUOUS
 62
7
 10
315.656774
 20
-203.569455
 40
3.000000
  1
ﾌﾞﾗﾝｸﾍﾞｾﾞﾙ
 41
0.745942
 50
0.000000
 51
0.000000
 72
   5
 73
   0
 11
330.269774
 21
-203.569455
  0
TEXT
  8
5
  6
CONTINUOUS
 62
7
 10
335.656774
 20
-204.069455
 40
4.000000
  1
NW-073-FBK-IV
 41
0.761124
 50
0.000000
 51
0.000000
 72
   5
 73
   0
 11
361.656774
 21
-204.069455
  0
TEXT
  8
5
  6
CONTINUOUS
 62
7
 10
391.281774
 20
-203.819455
 40
3.500000
  1
1
 41
1.000000
 50
0.000000
 51
0.000000
 72
   5
 73
   0
 11
393.031774
 21
-203.819455
  0
LINE
  8
5
  6
CONTINUOUS
 62
6
 10
394.6567742348
 20
-209.5694551973
 11
389.6567742348
 21
-209.5694551973
  0
LINE
  8
5
  6
CONTINUOUS
 62
6
 10
389.6567742348
 20
-209.5694551973
 11
374.6567742348
 21
-209.5694551973
  0
LINE
  8
5
  6
CONTINUOUS
 62
6
 10
374.6567742348
 20
-209.5694551973
 11
334.6567742348
 21
-209.5694551973
  0
LINE
  8
5
  6
CONTINUOUS
 62
6
 10
334.6567742348
 20
-209.5694551973
 11
314.6567742348
 21
-209.5694551973
  0
LINE
  8
5
  6
CONTINUOUS
 62
6
 10
314.6567742348
 20
-209.5694551973
 11
309.6567742348
 21
-209.5694551973
  0
TEXT
  8
5
  6
CONTINUOUS
 62
7
 10
310.656774
 20
-208.569455
 40
3.000000
  1
--
 41
0.854701
 50
0.000000
 51
0.000000
 72
   5
 73
   0
 11
313.656774
 21
-208.569455
  0
TEXT
  8
5
  6
CONTINUOUS
 62
7
 10
310.656774
 20
-213.569455
 40
3.000000
  1
--
 41
0.854701
 50
0.000000
 51
0.000000
 72
   5
 73
   0
 11
313.656774
 21
-213.569455
  0
TEXT
  8
5
  6
CONTINUOUS
 62
7
 10
315.656774
 20
-208.319455
 40
2.500000
  1
--
 41
0.854701
 50
0.000000
 51
0.000000
 72
   5
 73
   0
 11
318.156774
 21
-208.319455
  0
TEXT
  8
5
  6
CONTINUOUS
 62
7
 10
315.656774
 20
-213.569455
 40
3.000000
  1
--
 41
0.854701
 50
0.000000
 51
0.000000
 72
   5
 73
   0
 11
318.656774
 21
-213.569455
  0
TEXT
  8
5
  6
CONTINUOUS
 62
7
 10
335.656774
 20
-213.569455
 40
3.000000
  1
--
 41
0.854701
 50
0.000000
 51
0.000000
 72
   5
 73
   0
 11
338.656774
 21
-213.569455
  0
TEXT
  8
5
  6
CONTINUOUS
 62
7
 10
390.406774
 20
-208.819455
 40
3.500000
  1
--
 41
0.854701
 50
0.000000
 51
0.000000
 72
   5
 73
   0
 11
393.906774
 21
-208.819455
  0
TEXT
  8
5
  6
CONTINUOUS
 62
7
 10
390.406774
 20
-213.819455
 40
3.500000
  1
--
 41
0.854701
 50
0.000000
 51
0.000000
 72
   5
 73
   0
 11
393.906774
 21
-213.819455
  0
LINE
  8
5
  6
CONTINUOUS
 62
6
 10
309.6567742348
 20
-209.5694551973
 11
309.6567742348
 21
-204.5694551973
  0
LINE
  8
5
  6
CONTINUOUS
 62
6
 10
309.6567742348
 20
-214.5694551973
 11
309.6567742348
 21
-209.5694551973
  0
LINE
  8
5
  6
CONTINUOUS
 62
6
 10
314.6567742348
 20
-204.5694551973
 11
314.6567742348
 21
-209.5694551973
  0
LINE
  8
5
  6
CONTINUOUS
 62
6
 10
314.6567742348
 20
-209.5694551973
 11
314.6567742348
 21
-214.5694551973
  0
LINE
  8
5
  6
CONTINUOUS
 62
6
 10
334.6567742348
 20
-204.5694551973
 11
334.6567742348
 21
-209.5694551973
  0
LINE
  8
5
  6
CONTINUOUS
 62
6
 10
334.6567742348
 20
-209.5694551973
 11
334.6567742348
 21
-214.5694551973
  0
LINE
  8
5
  6
CONTINUOUS
 62
6
 10
374.6567742348
 20
-204.5694551973
 11
374.6567742348
 21
-209.5694551973
  0
LINE
  8
5
  6
CONTINUOUS
 62
6
 10
374.6567742348
 20
-209.5694551973
 11
374.6567742348
 21
-214.5694551973
  0
LINE
  8
5
  6
CONTINUOUS
 62
6
 10
389.6567742348
 20
-204.5694551973
 11
389.6567742348
 21
-209.5694551973
  0
LINE
  8
5
  6
CONTINUOUS
 62
6
 10
389.6567742348
 20
-209.5694551973
 11
389.6567742348
 21
-214.5694551973
  0
LINE
  8
5
  6
CONTINUOUS
 62
6
 10
394.6567742348
 20
-204.5694551973
 11
394.6567742348
 21
-209.5694551973
  0
LINE
  8
5
  6
CONTINUOUS
 62
6
 10
394.6567742348
 20
-209.5694551973
 11
394.6567742348
 21
-214.5694551973
  0
TEXT
  8
5
  6
CONTINUOUS
 62
7
 10
335.656774
 20
-209.069455
 40
4.000000
  1
--
 41
0.854701
 50
0.000000
 51
0.000000
 72
   5
 73
   0
 11
339.656774
 21
-209.069455
  0
LINE
  8
5
  6
CONTINUOUS
 62
6
 10
299.6567742348
 20
-194.5694551974
 11
309.6567742348
 21
-194.5694551973
  0
LINE
  8
5
  6
CONTINUOUS
 62
6
 10
309.6567742348
 20
-199.5694551973
 11
304.6567742348
 21
-199.5694551973
  0
LINE
  8
5
  6
CONTINUOUS
 62
6
 10
309.6567742348
 20
-194.5694551973
 11
309.6567742348
 21
-199.5694551973
  0
TEXT
  8
5
  6
CONTINUOUS
 62
7
 10
302.194993
 20
-198.569455
 40
3.000000
  1
型番
 41
0.921659
 50
0.000000
 51
0.000000
 72
   5
 73
   0
 11
308.194993
 21
-198.569455
  0
LINE
  8
5
  6
CONTINUOUS
 62
6
 10
299.6567742348
 20
-204.5694551973
 11
299.6567742348
 21
-199.5694551973
  0
LINE
  8
5
  6
CONTINUOUS
 62
6
 10
299.6567742348
 20
-199.5694551973
 11
309.6567742348
 21
-199.5694551973
  0
LINE
  8
5
  6
CONTINUOUS
 62
6
 10
309.6567742348
 20
-199.5694551973
 11
309.6567742348
 21
-204.5694551973
  0
TEXT
  8
5
  6
CONTINUOUS
 62
7
 10
302.944993
 20
-204.069455
 40
4.000000
  1
R0
 41
0.961538
 50
0.000000
 51
0.000000
 72
   5
 73
   0
 11
307.444993
 21
-204.069455
  0
LINE
  8
5
  6
CONTINUOUS
 62
6
 10
299.6567742348
 20
-209.5694551973
 11
299.6567742348
 21
-204.5694551973
  0
LINE
  8
5
  6
CONTINUOUS
 62
6
 10
299.6567742348
 20
-214.5694551973
 11
299.6567742348
 21
-209.5694551973
  0
LINE
  8
5
  6
CONTINUOUS
 62
6
 10
309.6567742348
 20
-204.5694551973
 11
309.6567742348
 21
-209.5694551973
  0
LINE
  8
5
  6
CONTINUOUS
 62
6
 10
309.6567742348
 20
-209.5694551973
 11
309.6567742348
 21
-214.5694551973
  0
LINE
  8
5
  6
CONTINUOUS
 62
6
 10
394.6567742348
 20
-214.5694551973
 11
389.6567742348
 21
-214.5694551973
  0
LINE
  8
5
  6
CONTINUOUS
 62
6
 10
389.6567742348
 20
-214.5694551973
 11
374.6567742348
 21
-214.5694551973
  0
LINE
  8
5
  6
CONTINUOUS
 62
6
 10
374.6567742348
 20
-214.5694551973
 11
334.6567742348
 21
-214.5694551973
  0
LINE
  8
5
  6
CONTINUOUS
 62
6
 10
334.6567742348
 20
-214.5694551973
 11
314.6567742348
 21
-214.5694551973
  0
LINE
  8
5
  6
CONTINUOUS
 62
6
 10
314.6567742348
 20
-214.5694551973
 11
309.6567742348
 21
-214.5694551973
  0
LINE
  8
5
  6
CONTINUOUS
 62
6
 10
309.6567742348
 20
-214.5694551973
 11
299.6567742348
 21
-214.5694551973
  0
LINE
  8
5
  6
CONTINUOUS
 62
6
 10
309.6567742348
 20
-222.0694551973
 11
309.6567742348
 21
-217.0694551973
  0
LINE
  8
5
  6
CONTINUOUS
 62
6
 10
309.6567742348
 20
-217.0694551973
 11
314.6567742348
 21
-217.0694551973
  0
LINE
  8
5
  6
CONTINUOUS
 62
6
 10
314.6567742348
 20
-217.0694551973
 11
334.6567742348
 21
-217.0694551973
  0
LINE
  8
5
  6
CONTINUOUS
 62
6
 10
334.6567742348
 20
-217.0694551973
 11
374.6567742348
 21
-217.0694551973
  0
LINE
  8
5
  6
CONTINUOUS
 62
6
 10
374.6567742348
 20
-217.0694551973
 11
389.6567742348
 21
-217.0694551973
  0
LINE
  8
5
  6
CONTINUOUS
 62
6
 10
389.6567742348
 20
-217.0694551973
 11
394.6567742348
 21
-217.0694551973
  0
LINE
  8
5
  6
CONTINUOUS
 62
6
 10
394.6567742348
 20
-217.0694551973
 11
394.6567742348
 21
-222.0694551973
  0
LINE
  8
5
  6
CONTINUOUS
 62
6
 10
394.6567742348
 20
-222.0694551973
 11
389.6567742348
 21
-222.0694551973
  0
LINE
  8
5
  6
CONTINUOUS
 62
6
 10
389.6567742348
 20
-222.0694551973
 11
374.6567742348
 21
-222.0694551973
  0
LINE
  8
5
  6
CONTINUOUS
 62
6
 10
374.6567742348
 20
-222.0694551973
 11
334.6567742348
 21
-222.0694551973
  0
LINE
  8
5
  6
CONTINUOUS
 62
6
 10
334.6567742348
 20
-222.0694551973
 11
314.6567742348
 21
-222.0694551973
  0
LINE
  8
5
  6
CONTINUOUS
 62
6
 10
314.6567742348
 20
-222.0694551973
 11
309.6567742348
 21
-222.0694551973
  0
LINE
  8
5
  6
CONTINUOUS
 62
6
 10
314.6567742348
 20
-217.0694551973
 11
314.6567742348
 21
-222.0694551973
  0
LINE
  8
5
  6
CONTINUOUS
 62
6
 10
334.6567742348
 20
-217.0694551973
 11
334.6567742348
 21
-222.0694551973
  0
LINE
  8
5
  6
CONTINUOUS
 62
6
 10
374.6567742348
 20
-217.0694551973
 11
374.6567742348
 21
-222.0694551973
  0
LINE
  8
5
  6
CONTINUOUS
 62
6
 10
389.6567742348
 20
-217.0694551973
 11
389.6567742348
 21
-222.0694551973
  0
TEXT
  8
5
  6
CONTINUOUS
 62
7
 10
309.856774
 20
-220.719455
 40
2.300000
  1
項番
 41
0.921659
 50
0.000000
 51
0.000000
 72
   5
 73
   0
 11
314.456774
 21
-220.719455
  0
TEXT
  8
5
  6
CONTINUOUS
 62
7
 10
319.664774
 20
-221.069455
 40
3.000000
  1
品　　名
 41
0.737916
 50
0.000000
 51
0.000000
 72
   5
 73
   0
 11
329.648774
 21
-221.069455
  0
TEXT
  8
5
  6
CONTINUOUS
 62
7
 10
339.503774
 20
-221.069455
 40
3.000000
  1
定  格 / 型  番 / 材　質
 41
0.686277
 50
0.000000
 51
0.000000
 72
   5
 73
   0
 11
369.809774
 21
-221.069455
  0
TEXT
  8
5
  6
CONTINUOUS
 62
7
 10
376.959274
 20
-221.069455
 40
3.000000
  1
メーカー
 41
0.768293
 50
0.000000
 51
0.000000
 72
   5
 73
   0
 11
387.354274
 21
-221.069455
  0
TEXT
  8
5
  6
CONTINUOUS
 62
7
 10
389.856774
 20
-220.719455
 40
2.300000
  1
数量
 41
0.921659
 50
0.000000
 51
0.000000
 72
   5
 73
   0
 11
394.456774
 21
-220.719455
  0
LINE
  8
5
  6
CONTINUOUS
 62
6
 10
309.6567742348
 20
-227.0694551973
 11
309.6567742348
 21
-222.0694551973
  0
LINE
  8
5
  6
CONTINUOUS
 62
6
 10
309.6567742348
 20
-222.0694551973
 11
314.6567742348
 21
-222.0694551973
  0
LINE
  8
5
  6
CONTINUOUS
 62
6
 10
314.6567742348
 20
-222.0694551973
 11
334.6567742348
 21
-222.0694551973
  0
LINE
  8
5
  6
CONTINUOUS
 62
6
 10
334.6567742348
 20
-222.0694551973
 11
374.6567742348
 21
-222.0694551973
  0
LINE
  8
5
  6
CONTINUOUS
 62
6
 10
374.6567742348
 20
-222.0694551973
 11
389.6567742348
 21
-222.0694551973
  0
LINE
  8
5
  6
CONTINUOUS
 62
6
 10
389.6567742348
 20
-222.0694551973
 11
394.6567742348
 21
-222.0694551973
  0
LINE
  8
5
  6
CONTINUOUS
 62
6
 10
394.6567742348
 20
-222.0694551973
 11
394.6567742348
 21
-227.0694551973
  0
LINE
  8
5
  6
CONTINUOUS
 62
6
 10
394.6567742348
 20
-227.0694551973
 11
389.6567742348
 21
-227.0694551973
  0
LINE
  8
5
  6
CONTINUOUS
 62
6
 10
389.6567742348
 20
-227.0694551973
 11
374.6567742348
 21
-227.0694551973
  0
LINE
  8
5
  6
CONTINUOUS
 62
6
 10
374.6567742348
 20
-227.0694551973
 11
334.6567742348
 21
-227.0694551973
  0
LINE
  8
5
  6
CONTINUOUS
 62
6
 10
334.6567742348
 20
-227.0694551973
 11
314.6567742348
 21
-227.0694551973
  0
LINE
  8
5
  6
CONTINUOUS
 62
6
 10
314.6567742348
 20
-227.0694551973
 11
309.6567742348
 21
-227.0694551973
  0
LINE
  8
5
  6
CONTINUOUS
 62
6
 10
314.6567742348
 20
-222.0694551973
 11
314.6567742348
 21
-227.0694551973
  0
LINE
  8
5
  6
CONTINUOUS
 62
6
 10
334.6567742348
 20
-222.0694551973
 11
334.6567742348
 21
-227.0694551973
  0
LINE
  8
5
  6
CONTINUOUS
 62
6
 10
374.6567742348
 20
-222.0694551973
 11
374.6567742348
 21
-227.0694551973
  0
LINE
  8
5
  6
CONTINUOUS
 62
6
 10
389.6567742348
 20
-222.0694551973
 11
389.6567742348
 21
-227.0694551973
  0
TEXT
  8
5
  6
CONTINUOUS
 62
7
 10
309.906774
 20
-226.069455
 40
3.000000
  1
102
 41
0.815217
 50
0.000000
 51
0.000000
 72
   5
 73
   0
 11
314.406774
 21
-226.069455
  0
TEXT
  8
5
  6
CONTINUOUS
 62
7
 10
315.656774
 20
-226.069455
 40
3.000000
  1
ﾍﾞｾﾞﾙ
 41
0.759119
 50
0.000000
 51
0.000000
 72
   5
 73
   0
 11
322.898774
 21
-226.069455
  0
TEXT
  8
5
  6
CONTINUOUS
 62
7
 10
335.656774
 20
-226.569455
 40
4.000000
  1
NW073-FSM-IV
 41
0.762389
 50
0.000000
 51
0.000000
 72
   5
 73
   0
 11
359.656774
 21
-226.569455
  0
TEXT
  8
5
  6
CONTINUOUS
 62
7
 10
391.281774
 20
-226.319455
 40
3.500000
  1
1
 41
1.000000
 50
0.000000
 51
0.000000
 72
   5
 73
   0
 11
393.031774
 21
-226.319455
  0
LINE
  8
5
  6
CONTINUOUS
 62
6
 10
394.6567742348
 20
-232.0694551973
 11
389.6567742348
 21
-232.0694551973
  0
LINE
  8
5
  6
CONTINUOUS
 62
6
 10
389.6567742348
 20
-232.0694551973
 11
374.6567742348
 21
-232.0694551973
  0
LINE
  8
5
  6
CONTINUOUS
 62
6
 10
374.6567742348
 20
-232.0694551973
 11
334.6567742348
 21
-232.0694551973
  0
LINE
  8
5
  6
CONTINUOUS
 62
6
 10
334.6567742348
 20
-232.0694551973
 11
314.6567742348
 21
-232.0694551973
  0
LINE
  8
5
  6
CONTINUOUS
 62
6
 10
314.6567742348
 20
-232.0694551973
 11
309.6567742348
 21
-232.0694551973
  0
TEXT
  8
5
  6
CONTINUOUS
 62
7
 10
309.906774
 20
-231.069455
 40
3.000000
  1
103
 41
0.815217
 50
0.000000
 51
0.000000
 72
   5
 73
   0
 11
314.406774
 21
-231.069455
  0
TEXT
  8
5
  6
CONTINUOUS
 62
7
 10
310.656774
 20
-236.069455
 40
3.000000
  1
--
 41
0.854701
 50
0.000000
 51
0.000000
 72
   5
 73
   0
 11
313.656774
 21
-236.069455
  0
TEXT
  8
5
  6
CONTINUOUS
 62
7
 10
315.656774
 20
-230.819455
 40
2.500000
  1
RJ45(CAT6)
 41
0.790812
 50
0.000000
 51
0.000000
 72
   5
 73
   0
 11
328.566774
 21
-230.819455
  0
TEXT
  8
5
  6
CONTINUOUS
 62
7
 10
315.656774
 20
-236.069455
 40
3.000000
  1
--
 41
0.854701
 50
0.000000
 51
0.000000
 72
   5
 73
   0
 11
318.656774
 21
-236.069455
  0
TEXT
  8
5
  6
CONTINUOUS
 62
7
 10
335.656774
 20
-236.069455
 40
3.000000
  1
--
 41
0.854701
 50
0.000000
 51
0.000000
 72
   5
 73
   0
 11
338.656774
 21
-236.069455
  0
TEXT
  8
5
  6
CONTINUOUS
 62
7
 10
391.281774
 20
-231.319455
 40
3.500000
  1
1
 41
1.000000
 50
0.000000
 51
0.000000
 72
   5
 73
   0
 11
393.031774
 21
-231.319455
  0
TEXT
  8
5
  6
CONTINUOUS
 62
7
 10
390.406774
 20
-236.319455
 40
3.500000
  1
--
 41
0.854701
 50
0.000000
 51
0.000000
 72
   5
 73
   0
 11
393.906774
 21
-236.319455
  0
LINE
  8
5
  6
CONTINUOUS
 62
6
 10
309.6567742348
 20
-232.0694551973
 11
309.6567742348
 21
-227.0694551973
  0
LINE
  8
5
  6
CONTINUOUS
 62
6
 10
309.6567742348
 20
-237.0694551973
 11
309.6567742348
 21
-232.0694551973
  0
LINE
  8
5
  6
CONTINUOUS
 62
6
 10
314.6567742348
 20
-227.0694551973
 11
314.6567742348
 21
-232.0694551973
  0
LINE
  8
5
  6
CONTINUOUS
 62
6
 10
314.6567742348
 20
-232.0694551973
 11
314.6567742348
 21
-237.0694551973
  0
LINE
  8
5
  6
CONTINUOUS
 62
6
 10
334.6567742348
 20
-227.0694551973
 11
334.6567742348
 21
-232.0694551973
  0
LINE
  8
5
  6
CONTINUOUS
 62
6
 10
334.6567742348
 20
-232.0694551973
 11
334.6567742348
 21
-237.0694551973
  0
LINE
  8
5
  6
CONTINUOUS
 62
6
 10
374.6567742348
 20
-227.0694551973
 11
374.6567742348
 21
-232.0694551973
  0
LINE
  8
5
  6
CONTINUOUS
 62
6
 10
374.6567742348
 20
-232.0694551973
 11
374.6567742348
 21
-237.0694551973
  0
LINE
  8
5
  6
CONTINUOUS
 62
6
 10
389.6567742348
 20
-227.0694551973
 11
389.6567742348
 21
-232.0694551973
  0
LINE
  8
5
  6
CONTINUOUS
 62
6
 10
389.6567742348
 20
-232.0694551973
 11
389.6567742348
 21
-237.0694551973
  0
LINE
  8
5
  6
CONTINUOUS
 62
6
 10
394.6567742348
 20
-227.0694551973
 11
394.6567742348
 21
-232.0694551973
  0
LINE
  8
5
  6
CONTINUOUS
 62
6
 10
394.6567742348
 20
-232.0694551973
 11
394.6567742348
 21
-237.0694551973
  0
TEXT
  8
5
  6
CONTINUOUS
 62
7
 10
335.656774
 20
-231.569455
 40
4.000000
  1
NW080-88S-SI-C6-SH
 41
0.756939
 50
0.000000
 51
0.000000
 72
   5
 73
   0
 11
371.656774
 21
-231.569455
  0
LINE
  8
5
  6
CONTINUOUS
 62
6
 10
299.6567742348
 20
-222.0694551973
 11
299.6567742348
 21
-217.0694551973
  0
LINE
  8
5
  6
CONTINUOUS
 62
6
 10
299.6567742348
 20
-217.0694551973
 11
309.6567742348
 21
-217.0694551973
  0
LINE
  8
5
  6
CONTINUOUS
 62
6
 10
309.6567742348
 20
-222.0694551973
 11
304.6567742348
 21
-222.0694551973
  0
LINE
  8
5
  6
CONTINUOUS
 62
6
 10
309.6567742348
 20
-217.0694551973
 11
309.6567742348
 21
-222.0694551973
  0
TEXT
  8
5
  6
CONTINUOUS
 62
7
 10
302.194993
 20
-221.069455
 40
3.000000
  1
型番
 41
0.921659
 50
0.000000
 51
0.000000
 72
   5
 73
   0
 11
308.194993
 21
-221.069455
  0
LINE
  8
5
  6
CONTINUOUS
 62
6
 10
299.6567742348
 20
-227.0694551973
 11
299.6567742348
 21
-222.0694551973
  0
LINE
  8
5
  6
CONTINUOUS
 62
6
 10
299.6567742348
 20
-222.0694551973
 11
309.6567742348
 21
-222.0694551973
  0
LINE
  8
5
  6
CONTINUOUS
 62
6
 10
309.6567742348
 20
-222.0694551973
 11
309.6567742348
 21
-227.0694551973
  0
TEXT
  8
5
  6
CONTINUOUS
 62
7
 10
302.944993
 20
-226.569455
 40
4.000000
  1
R1
 41
0.961538
 50
0.000000
 51
0.000000
 72
   5
 73
   0
 11
307.444993
 21
-226.569455
  0
LINE
  8
5
  6
CONTINUOUS
 62
6
 10
299.6567742348
 20
-232.0694551973
 11
299.6567742348
 21
-227.0694551973
  0
LINE
  8
5
  6
CONTINUOUS
 62
6
 10
299.6567742348
 20
-237.0694551973
 11
299.6567742348
 21
-232.0694551973
  0
LINE
  8
5
  6
CONTINUOUS
 62
6
 10
309.6567742348
 20
-227.0694551973
 11
309.6567742348
 21
-232.0694551973
  0
LINE
  8
5
  6
CONTINUOUS
 62
6
 10
309.6567742348
 20
-232.0694551973
 11
309.6567742348
 21
-237.0694551973
  0
LINE
  8
5
  6
CONTINUOUS
 62
6
 10
394.6567742348
 20
-237.0694551973
 11
389.6567742348
 21
-237.0694551973
  0
LINE
  8
5
  6
CONTINUOUS
 62
6
 10
389.6567742348
 20
-237.0694551973
 11
374.6567742348
 21
-237.0694551973
  0
LINE
  8
5
  6
CONTINUOUS
 62
6
 10
374.6567742348
 20
-237.0694551973
 11
334.6567742348
 21
-237.0694551973
  0
LINE
  8
5
  6
CONTINUOUS
 62
6
 10
334.6567742348
 20
-237.0694551973
 11
314.6567742348
 21
-237.0694551973
  0
LINE
  8
5
  6
CONTINUOUS
 62
6
 10
314.6567742348
 20
-237.0694551973
 11
309.6567742348
 21
-237.0694551973
  0
LINE
  8
5
  6
CONTINUOUS
 62
6
 10
309.6567742348
 20
-237.0694551973
 11
299.6567742348
 21
-237.0694551973
  0
TEXT
  8
5
  6
CONTINUOUS
 62
7
 10
375.656774
 20
-203.569455
 40
3.000000
  1
MISUMI
 41
0.836104
 50
0.000000
 51
0.000000
 72
   5
 73
   0
 11
385.313774
 21
-203.569455
  0
TEXT
  8
5
  6
CONTINUOUS
 62
7
 10
375.656774
 20
-213.569455
 40
3.000000
  1
--
 41
0.854701
 50
0.000000
 51
0.000000
 72
   5
 73
   0
 11
378.656774
 21
-213.569455
  0
TEXT
  8
5
  6
CONTINUOUS
 62
7
 10
375.656774
 20
-226.069455
 40
3.000000
  1
MISUMI
 41
0.836104
 50
0.000000
 51
0.000000
 72
   5
 73
   0
 11
385.313774
 21
-226.069455
  0
TEXT
  8
5
  6
CONTINUOUS
 62
7
 10
375.656774
 20
-236.069455
 40
3.000000
  1
--
 41
0.854701
 50
0.000000
 51
0.000000
 72
   5
 73
   0
 11
378.656774
 21
-236.069455
  0
TEXT
  8
5
  6
CONTINUOUS
 62
7
 10
375.656774
 20
-208.569455
 40
3.000000
  1
--
 41
0.854701
 50
0.000000
 51
0.000000
 72
   5
 73
   0
 11
378.656774
 21
-208.569455
  0
TEXT
  8
5
  6
CONTINUOUS
 62
7
 10
375.656774
 20
-231.069455
 40
3.000000
  1
MISUMI
 41
0.836104
 50
0.000000
 51
0.000000
 72
   5
 73
   0
 11
385.313774
 21
-231.069455
  0
LINE
  8
5
  6
CONTINUOUS
 62
6
 10
309.6567742347
 20
-245.5363213157
 11
309.6567742347
 21
-240.5363213157
  0
LINE
  8
5
  6
CONTINUOUS
 62
6
 10
309.6567742347
 20
-240.5363213157
 11
314.6567742347
 21
-240.5363213157
  0
LINE
  8
5
  6
CONTINUOUS
 62
6
 10
314.6567742347
 20
-240.5363213157
 11
334.6567742347
 21
-240.5363213157
  0
LINE
  8
5
  6
CONTINUOUS
 62
6
 10
334.6567742347
 20
-240.5363213157
 11
374.6567742347
 21
-240.5363213157
  0
LINE
  8
5
  6
CONTINUOUS
 62
6
 10
374.6567742347
 20
-240.5363213157
 11
389.6567742347
 21
-240.5363213157
  0
LINE
  8
5
  6
CONTINUOUS
 62
6
 10
389.6567742347
 20
-240.5363213157
 11
394.6567742347
 21
-240.5363213157
  0
LINE
  8
5
  6
CONTINUOUS
 62
6
 10
394.6567742347
 20
-240.5363213157
 11
394.6567742347
 21
-245.5363213157
  0
LINE
  8
5
  6
CONTINUOUS
 62
6
 10
394.6567742347
 20
-245.5363213157
 11
389.6567742347
 21
-245.5363213157
  0
LINE
  8
5
  6
CONTINUOUS
 62
6
 10
389.6567742347
 20
-245.5363213157
 11
374.6567742347
 21
-245.5363213157
  0
LINE
  8
5
  6
CONTINUOUS
 62
6
 10
374.6567742347
 20
-245.5363213157
 11
334.6567742347
 21
-245.5363213157
  0
LINE
  8
5
  6
CONTINUOUS
 62
6
 10
334.6567742347
 20
-245.5363213157
 11
314.6567742347
 21
-245.5363213157
  0
LINE
  8
5
  6
CONTINUOUS
 62
6
 10
314.6567742347
 20
-245.5363213157
 11
309.6567742347
 21
-245.5363213157
  0
LINE
  8
5
  6
CONTINUOUS
 62
6
 10
314.6567742347
 20
-240.5363213157
 11
314.6567742347
 21
-245.5363213157
  0
LINE
  8
5
  6
CONTINUOUS
 62
6
 10
334.6567742347
 20
-240.5363213157
 11
334.6567742347
 21
-245.5363213157
  0
LINE
  8
5
  6
CONTINUOUS
 62
6
 10
374.6567742347
 20
-240.5363213157
 11
374.6567742347
 21
-245.5363213157
  0
LINE
  8
5
  6
CONTINUOUS
 62
6
 10
389.6567742347
 20
-240.5363213157
 11
389.6567742347
 21
-245.5363213157
  0
TEXT
  8
5
  6
CONTINUOUS
 62
7
 10
309.856774
 20
-244.186321
 40
2.300000
  1
項番
 41
0.921659
 50
0.000000
 51
0.000000
 72
   5
 73
   0
 11
314.456774
 21
-244.186321
  0
TEXT
  8
5
  6
CONTINUOUS
 62
7
 10
319.664774
 20
-244.536321
 40
3.000000
  1
品　　名
 41
0.737916
 50
0.000000
 51
0.000000
 72
   5
 73
   0
 11
329.648774
 21
-244.536321
  0
TEXT
  8
5
  6
CONTINUOUS
 62
7
 10
339.503774
 20
-244.536321
 40
3.000000
  1
定  格 / 型  番 / 材　質
 41
0.686277
 50
0.000000
 51
0.000000
 72
   5
 73
   0
 11
369.809774
 21
-244.536321
  0
TEXT
  8
5
  6
CONTINUOUS
 62
7
 10
376.959274
 20
-244.536321
 40
3.000000
  1
メーカー
 41
0.768293
 50
0.000000
 51
0.000000
 72
   5
 73
   0
 11
387.354274
 21
-244.536321
  0
TEXT
  8
5
  6
CONTINUOUS
 62
7
 10
389.856774
 20
-244.186321
 40
2.300000
  1
数量
 41
0.921659
 50
0.000000
 51
0.000000
 72
   5
 73
   0
 11
394.456774
 21
-244.186321
  0
LINE
  8
5
  6
CONTINUOUS
 62
6
 10
309.6567742347
 20
-250.5363213157
 11
309.6567742347
 21
-245.5363213157
  0
LINE
  8
5
  6
CONTINUOUS
 62
6
 10
309.6567742347
 20
-245.5363213157
 11
314.6567742347
 21
-245.5363213157
  0
LINE
  8
5
  6
CONTINUOUS
 62
6
 10
314.6567742347
 20
-245.5363213157
 11
334.6567742347
 21
-245.5363213157
  0
LINE
  8
5
  6
CONTINUOUS
 62
6
 10
334.6567742347
 20
-245.5363213157
 11
374.6567742347
 21
-245.5363213157
  0
LINE
  8
5
  6
CONTINUOUS
 62
6
 10
374.6567742347
 20
-245.5363213157
 11
389.6567742347
 21
-245.5363213157
  0
LINE
  8
5
  6
CONTINUOUS
 62
6
 10
389.6567742347
 20
-245.5363213157
 11
394.6567742347
 21
-245.5363213157
  0
LINE
  8
5
  6
CONTINUOUS
 62
6
 10
394.6567742347
 20
-245.5363213157
 11
394.6567742347
 21
-250.5363213157
  0
LINE
  8
5
  6
CONTINUOUS
 62
6
 10
394.6567742347
 20
-250.5363213157
 11
389.6567742347
 21
-250.5363213157
  0
LINE
  8
5
  6
CONTINUOUS
 62
6
 10
389.6567742347
 20
-250.5363213157
 11
374.6567742347
 21
-250.5363213157
  0
LINE
  8
5
  6
CONTINUOUS
 62
6
 10
374.6567742347
 20
-250.5363213157
 11
334.6567742347
 21
-250.5363213157
  0
LINE
  8
5
  6
CONTINUOUS
 62
6
 10
334.6567742347
 20
-250.5363213157
 11
314.6567742347
 21
-250.5363213157
  0
LINE
  8
5
  6
CONTINUOUS
 62
6
 10
314.6567742347
 20
-250.5363213157
 11
309.6567742347
 21
-250.5363213157
  0
LINE
  8
5
  6
CONTINUOUS
 62
6
 10
314.6567742347
 20
-245.5363213157
 11
314.6567742347
 21
-250.5363213157
  0
LINE
  8
5
  6
CONTINUOUS
 62
6
 10
334.6567742347
 20
-245.5363213157
 11
334.6567742347
 21
-250.5363213157
  0
LINE
  8
5
  6
CONTINUOUS
 62
6
 10
374.6567742347
 20
-245.5363213157
 11
374.6567742347
 21
-250.5363213157
  0
LINE
  8
5
  6
CONTINUOUS
 62
6
 10
389.6567742347
 20
-245.5363213157
 11
389.6567742347
 21
-250.5363213157
  0
TEXT
  8
5
  6
CONTINUOUS
 62
7
 10
309.906774
 20
-249.536321
 40
3.000000
  1
111
 41
0.815217
 50
0.000000
 51
0.000000
 72
   5
 73
   0
 11
314.406774
 21
-249.536321
  0
TEXT
  8
5
  6
CONTINUOUS
 62
7
 10
315.656774
 20
-249.536321
 40
3.000000
  1
USBﾌﾞﾗﾝｸﾊﾟﾈﾙ
 41
0.826938
 50
0.000000
 51
0.000000
 72
   5
 73
   0
 11
335.180774
 21
-249.536321
  0
TEXT
  8
5
  6
CONTINUOUS
 62
7
 10
335.656774
 20
-250.036321
 40
4.000000
  1
MIUSB1-BL
 41
0.767918
 50
0.000000
 51
0.000000
 72
   5
 73
   0
 11
353.656774
 21
-250.036321
  0
TEXT
  8
5
  6
CONTINUOUS
 62
7
 10
391.281774
 20
-249.786321
 40
3.500000
  1
1
 41
1.000000
 50
0.000000
 51
0.000000
 72
   5
 73
   0
 11
393.031774
 21
-249.786321
  0
LINE
  8
5
  6
CONTINUOUS
 62
6
 10
394.6567742347
 20
-255.5363213157
 11
389.6567742347
 21
-255.5363213157
  0
LINE
  8
5
  6
CONTINUOUS
 62
6
 10
389.6567742347
 20
-255.5363213157
 11
374.6567742347
 21
-255.5363213157
  0
LINE
  8
5
  6
CONTINUOUS
 62
6
 10
374.6567742347
 20
-255.5363213157
 11
334.6567742347
 21
-255.5363213157
  0
LINE
  8
5
  6
CONTINUOUS
 62
6
 10
334.6567742347
 20
-255.5363213157
 11
314.6567742347
 21
-255.5363213157
  0
LINE
  8
5
  6
CONTINUOUS
 62
6
 10
314.6567742347
 20
-255.5363213157
 11
309.6567742347
 21
-255.5363213157
  0
TEXT
  8
5
  6
CONTINUOUS
 62
7
 10
309.906774
 20
-254.536321
 40
3.000000
  1
112
 41
0.815217
 50
0.000000
 51
0.000000
 72
   5
 73
   0
 11
314.406774
 21
-254.536321
  0
TEXT
  8
5
  6
CONTINUOUS
 62
7
 10
310.656774
 20
-259.536321
 40
3.000000
  1
--
 41
0.854701
 50
0.000000
 51
0.000000
 72
   5
 73
   0
 11
313.656774
 21
-259.536321
  0
TEXT
  8
5
  6
CONTINUOUS
 62
7
 10
315.656774
 20
-254.536321
 40
3.000000
  1
ﾋﾞｽ
 41
0.761957
 50
0.000000
 51
0.000000
 72
   5
 73
   0
 11
319.862774
 21
-254.536321
  0
TEXT
  8
5
  6
CONTINUOUS
 62
7
 10
315.656774
 20
-259.536321
 40
3.000000
  1
--
 41
0.854701
 50
0.000000
 51
0.000000
 72
   5
 73
   0
 11
318.656774
 21
-259.536321
  0
TEXT
  8
5
  6
CONTINUOUS
 62
7
 10
335.656774
 20
-259.536321
 40
3.000000
  1
--
 41
0.854701
 50
0.000000
 51
0.000000
 72
   5
 73
   0
 11
338.656774
 21
-259.536321
  0
TEXT
  8
5
  6
CONTINUOUS
 62
7
 10
391.281774
 20
-254.786321
 40
3.500000
  1
2
 41
1.000000
 50
0.000000
 51
0.000000
 72
   5
 73
   0
 11
393.031774
 21
-254.786321
  0
TEXT
  8
5
  6
CONTINUOUS
 62
7
 10
390.406774
 20
-259.786321
 40
3.500000
  1
--
 41
0.854701
 50
0.000000
 51
0.000000
 72
   5
 73
   0
 11
393.906774
 21
-259.786321
  0
LINE
  8
5
  6
CONTINUOUS
 62
6
 10
309.6567742347
 20
-255.5363213157
 11
309.6567742347
 21
-250.5363213157
  0
LINE
  8
5
  6
CONTINUOUS
 62
6
 10
309.6567742347
 20
-260.5363213157
 11
309.6567742347
 21
-255.5363213157
  0
LINE
  8
5
  6
CONTINUOUS
 62
6
 10
314.6567742347
 20
-250.5363213157
 11
314.6567742347
 21
-255.5363213157
  0
LINE
  8
5
  6
CONTINUOUS
 62
6
 10
314.6567742347
 20
-255.5363213157
 11
314.6567742347
 21
-260.5363213157
  0
LINE
  8
5
  6
CONTINUOUS
 62
6
 10
334.6567742347
 20
-250.5363213157
 11
334.6567742347
 21
-255.5363213157
  0
LINE
  8
5
  6
CONTINUOUS
 62
6
 10
334.6567742347
 20
-255.5363213157
 11
334.6567742347
 21
-260.5363213157
  0
LINE
  8
5
  6
CONTINUOUS
 62
6
 10
374.6567742347
 20
-250.5363213157
 11
374.6567742347
 21
-255.5363213157
  0
LINE
  8
5
  6
CONTINUOUS
 62
6
 10
374.6567742347
 20
-255.5363213157
 11
374.6567742347
 21
-260.5363213157
  0
LINE
  8
5
  6
CONTINUOUS
 62
6
 10
389.6567742347
 20
-250.5363213157
 11
389.6567742347
 21
-255.5363213157
  0
LINE
  8
5
  6
CONTINUOUS
 62
6
 10
389.6567742347
 20
-255.5363213157
 11
389.6567742347
 21
-260.5363213157
  0
LINE
  8
5
  6
CONTINUOUS
 62
6
 10
394.6567742347
 20
-250.5363213157
 11
394.6567742347
 21
-255.5363213157
  0
LINE
  8
5
  6
CONTINUOUS
 62
6
 10
394.6567742347
 20
-255.5363213157
 11
394.6567742347
 21
-260.5363213157
  0
TEXT
  8
5
  6
CONTINUOUS
 62
7
 10
335.656774
 20
-255.036321
 40
4.000000
  1
(+)B1ﾅﾍﾞ 3.5×6
 41
0.772400
 50
0.000000
 51
0.000000
 72
   5
 73
   0
 11
365.656774
 21
-255.036321
  0
LINE
  8
5
  6
CONTINUOUS
 62
6
 10
299.6567742347
 20
-245.5363213157
 11
299.6567742348
 21
-240.5363213159
  0
LINE
  8
5
  6
CONTINUOUS
 62
6
 10
299.6567742348
 20
-240.5363213159
 11
309.6567742347
 21
-240.5363213157
  0
LINE
  8
5
  6
CONTINUOUS
 62
6
 10
309.6567742347
 20
-245.5363213157
 11
304.6567742347
 21
-245.5363213157
  0
LINE
  8
5
  6
CONTINUOUS
 62
6
 10
309.6567742347
 20
-240.5363213157
 11
309.6567742347
 21
-245.5363213157
  0
TEXT
  8
5
  6
CONTINUOUS
 62
7
 10
302.194993
 20
-244.536321
 40
3.000000
  1
型番
 41
0.921659
 50
0.000000
 51
0.000000
 72
   5
 73
   0
 11
308.194993
 21
-244.536321
  0
LINE
  8
5
  6
CONTINUOUS
 62
6
 10
299.6567742347
 20
-250.5363213157
 11
299.6567742347
 21
-245.5363213157
  0
LINE
  8
5
  6
CONTINUOUS
 62
6
 10
299.6567742347
 20
-245.5363213157
 11
309.6567742347
 21
-245.5363213157
  0
LINE
  8
5
  6
CONTINUOUS
 62
6
 10
309.6567742347
 20
-245.5363213157
 11
309.6567742347
 21
-250.5363213157
  0
TEXT
  8
5
  6
CONTINUOUS
 62
7
 10
302.912993
 20
-250.036321
 40
4.000000
  1
U0
 41
0.975214
 50
0.000000
 51
0.000000
 72
   5
 73
   0
 11
307.476993
 21
-250.036321
  0
LINE
  8
5
  6
CONTINUOUS
 62
6
 10
299.6567742347
 20
-255.5363213157
 11
299.6567742347
 21
-250.5363213157
  0
LINE
  8
5
  6
CONTINUOUS
 62
6
 10
299.6567742347
 20
-260.5363213157
 11
299.6567742347
 21
-255.5363213157
  0
LINE
  8
5
  6
CONTINUOUS
 62
6
 10
309.6567742347
 20
-250.5363213157
 11
309.6567742347
 21
-255.5363213157
  0
LINE
  8
5
  6
CONTINUOUS
 62
6
 10
309.6567742347
 20
-255.5363213157
 11
309.6567742347
 21
-260.5363213157
  0
LINE
  8
5
  6
CONTINUOUS
 62
6
 10
394.6567742347
 20
-260.5363213157
 11
389.6567742347
 21
-260.5363213157
  0
LINE
  8
5
  6
CONTINUOUS
 62
6
 10
389.6567742347
 20
-260.5363213157
 11
374.6567742347
 21
-260.5363213157
  0
LINE
  8
5
  6
CONTINUOUS
 62
6
 10
374.6567742347
 20
-260.5363213157
 11
334.6567742347
 21
-260.5363213157
  0
LINE
  8
5
  6
CONTINUOUS
 62
6
 10
334.6567742347
 20
-260.5363213157
 11
314.6567742347
 21
-260.5363213157
  0
LINE
  8
5
  6
CONTINUOUS
 62
6
 10
314.6567742347
 20
-260.5363213157
 11
309.6567742347
 21
-260.5363213157
  0
LINE
  8
5
  6
CONTINUOUS
 62
6
 10
309.6567742347
 20
-260.5363213157
 11
299.6567742347
 21
-260.5363213157
  0
LINE
  8
5
  6
CONTINUOUS
 62
6
 10
309.6567742347
 20
-268.0363213157
 11
309.6567742347
 21
-263.0363213157
  0
LINE
  8
5
  6
CONTINUOUS
 62
6
 10
309.6567742347
 20
-263.0363213157
 11
314.6567742347
 21
-263.0363213157
  0
LINE
  8
5
  6
CONTINUOUS
 62
6
 10
314.6567742347
 20
-263.0363213157
 11
334.6567742347
 21
-263.0363213157
  0
LINE
  8
5
  6
CONTINUOUS
 62
6
 10
334.6567742347
 20
-263.0363213157
 11
374.6567742347
 21
-263.0363213157
  0
LINE
  8
5
  6
CONTINUOUS
 62
6
 10
374.6567742347
 20
-263.0363213157
 11
389.6567742347
 21
-263.0363213157
  0
LINE
  8
5
  6
CONTINUOUS
 62
6
 10
389.6567742347
 20
-263.0363213157
 11
394.6567742347
 21
-263.0363213157
  0
LINE
  8
5
  6
CONTINUOUS
 62
6
 10
394.6567742347
 20
-263.0363213157
 11
394.6567742347
 21
-268.0363213157
  0
LINE
  8
5
  6
CONTINUOUS
 62
6
 10
394.6567742347
 20
-268.0363213157
 11
389.6567742347
 21
-268.0363213157
  0
LINE
  8
5
  6
CONTINUOUS
 62
6
 10
389.6567742347
 20
-268.0363213157
 11
374.6567742347
 21
-268.0363213157
  0
LINE
  8
5
  6
CONTINUOUS
 62
6
 10
374.6567742347
 20
-268.0363213157
 11
334.6567742347
 21
-268.0363213157
  0
LINE
  8
5
  6
CONTINUOUS
 62
6
 10
334.6567742347
 20
-268.0363213157
 11
314.6567742347
 21
-268.0363213157
  0
LINE
  8
5
  6
CONTINUOUS
 62
6
 10
314.6567742347
 20
-268.0363213157
 11
309.6567742347
 21
-268.0363213157
  0
LINE
  8
5
  6
CONTINUOUS
 62
6
 10
314.6567742347
 20
-263.0363213157
 11
314.6567742347
 21
-268.0363213157
  0
LINE
  8
5
  6
CONTINUOUS
 62
6
 10
334.6567742347
 20
-263.0363213157
 11
334.6567742347
 21
-268.0363213157
  0
LINE
  8
5
  6
CONTINUOUS
 62
6
 10
374.6567742347
 20
-263.0363213157
 11
374.6567742347
 21
-268.0363213157
  0
LINE
  8
5
  6
CONTINUOUS
 62
6
 10
389.6567742347
 20
-263.0363213157
 11
389.6567742347
 21
-268.0363213157
  0
TEXT
  8
5
  6
CONTINUOUS
 62
7
 10
309.856774
 20
-266.686321
 40
2.300000
  1
項番
 41
0.921659
 50
0.000000
 51
0.000000
 72
   5
 73
   0
 11
314.456774
 21
-266.686321
  0
TEXT
  8
5
  6
CONTINUOUS
 62
7
 10
319.664774
 20
-267.036321
 40
3.000000
  1
品　　名
 41
0.737916
 50
0.000000
 51
0.000000
 72
   5
 73
   0
 11
329.648774
 21
-267.036321
  0
TEXT
  8
5
  6
CONTINUOUS
 62
7
 10
339.503774
 20
-267.036321
 40
3.000000
  1
定  格 / 型  番 / 材　質
 41
0.686277
 50
0.000000
 51
0.000000
 72
   5
 73
   0
 11
369.809774
 21
-267.036321
  0
TEXT
  8
5
  6
CONTINUOUS
 62
7
 10
376.959274
 20
-267.036321
 40
3.000000
  1
メーカー
 41
0.768293
 50
0.000000
 51
0.000000
 72
   5
 73
   0
 11
387.354274
 21
-267.036321
  0
TEXT
  8
5
  6
CONTINUOUS
 62
7
 10
389.856774
 20
-266.686321
 40
2.300000
  1
数量
 41
0.921659
 50
0.000000
 51
0.000000
 72
   5
 73
   0
 11
394.456774
 21
-266.686321
  0
LINE
  8
5
  6
CONTINUOUS
 62
6
 10
309.6567742347
 20
-273.0363213157
 11
309.6567742347
 21
-268.0363213157
  0
LINE
  8
5
  6
CONTINUOUS
 62
6
 10
309.6567742347
 20
-268.0363213157
 11
314.6567742347
 21
-268.0363213157
  0
LINE
  8
5
  6
CONTINUOUS
 62
6
 10
314.6567742347
 20
-268.0363213157
 11
334.6567742347
 21
-268.0363213157
  0
LINE
  8
5
  6
CONTINUOUS
 62
6
 10
334.6567742347
 20
-268.0363213157
 11
374.6567742347
 21
-268.0363213157
  0
LINE
  8
5
  6
CONTINUOUS
 62
6
 10
374.6567742347
 20
-268.0363213157
 11
389.6567742347
 21
-268.0363213157
  0
LINE
  8
5
  6
CONTINUOUS
 62
6
 10
389.6567742347
 20
-268.0363213157
 11
394.6567742347
 21
-268.0363213157
  0
LINE
  8
5
  6
CONTINUOUS
 62
6
 10
394.6567742347
 20
-268.0363213157
 11
394.6567742347
 21
-273.0363213157
  0
LINE
  8
5
  6
CONTINUOUS
 62
6
 10
394.6567742347
 20
-273.0363213157
 11
389.6567742347
 21
-273.0363213157
  0
LINE
  8
5
  6
CONTINUOUS
 62
6
 10
389.6567742347
 20
-273.0363213157
 11
374.6567742347
 21
-273.0363213157
  0
LINE
  8
5
  6
CONTINUOUS
 62
6
 10
374.6567742347
 20
-273.0363213157
 11
334.6567742347
 21
-273.0363213157
  0
LINE
  8
5
  6
CONTINUOUS
 62
6
 10
334.6567742347
 20
-273.0363213157
 11
314.6567742347
 21
-273.0363213157
  0
LINE
  8
5
  6
CONTINUOUS
 62
6
 10
314.6567742347
 20
-273.0363213157
 11
309.6567742347
 21
-273.0363213157
  0
LINE
  8
5
  6
CONTINUOUS
 62
6
 10
314.6567742347
 20
-268.0363213157
 11
314.6567742347
 21
-273.0363213157
  0
LINE
  8
5
  6
CONTINUOUS
 62
6
 10
334.6567742347
 20
-268.0363213157
 11
334.6567742347
 21
-273.0363213157
  0
LINE
  8
5
  6
CONTINUOUS
 62
6
 10
374.6567742347
 20
-268.0363213157
 11
374.6567742347
 21
-273.0363213157
  0
LINE
  8
5
  6
CONTINUOUS
 62
6
 10
389.6567742347
 20
-268.0363213157
 11
389.6567742347
 21
-273.0363213157
  0
TEXT
  8
5
  6
CONTINUOUS
 62
7
 10
309.906774
 20
-272.036321
 40
3.000000
  1
113
 41
0.815217
 50
0.000000
 51
0.000000
 72
   5
 73
   0
 11
314.406774
 21
-272.036321
  0
TEXT
  8
5
  6
CONTINUOUS
 62
7
 10
315.656774
 20
-272.036321
 40
3.000000
  1
USBｺﾈｸﾀ
 41
0.910841
 50
0.000000
 51
0.000000
 72
   5
 73
   0
 11
328.007774
 21
-272.036321
  0
TEXT
  8
5
  6
CONTINUOUS
 62
7
 10
335.656774
 20
-272.536321
 40
4.000000
  1
MIUSB1-A-B
 41
0.765697
 50
0.000000
 51
0.000000
 72
   5
 73
   0
 11
355.656774
 21
-272.536321
  0
TEXT
  8
5
  6
CONTINUOUS
 62
7
 10
391.281774
 20
-272.286321
 40
3.500000
  1
1
 41
1.000000
 50
0.000000
 51
0.000000
 72
   5
 73
   0
 11
393.031774
 21
-272.286321
  0
LINE
  8
5
  6
CONTINUOUS
 62
6
 10
394.6567742347
 20
-278.0363213157
 11
389.6567742347
 21
-278.0363213157
  0
LINE
  8
5
  6
CONTINUOUS
 62
6
 10
389.6567742347
 20
-278.0363213157
 11
374.6567742347
 21
-278.0363213157
  0
LINE
  8
5
  6
CONTINUOUS
 62
6
 10
374.6567742347
 20
-278.0363213157
 11
334.6567742347
 21
-278.0363213157
  0
LINE
  8
5
  6
CONTINUOUS
 62
6
 10
334.6567742347
 20
-278.0363213157
 11
314.6567742347
 21
-278.0363213157
  0
LINE
  8
5
  6
CONTINUOUS
 62
6
 10
314.6567742347
 20
-278.0363213157
 11
309.6567742347
 21
-278.0363213157
  0
TEXT
  8
5
  6
CONTINUOUS
 62
7
 10
309.906774
 20
-277.036321
 40
3.000000
  1
114
 41
0.815217
 50
0.000000
 51
0.000000
 72
   5
 73
   0
 11
314.406774
 21
-277.036321
  0
TEXT
  8
5
  6
CONTINUOUS
 62
7
 10
310.656774
 20
-282.036321
 40
3.000000
  1
--
 41
0.854701
 50
0.000000
 51
0.000000
 72
   5
 73
   0
 11
313.656774
 21
-282.036321
  0
TEXT
  8
5
  6
CONTINUOUS
 62
7
 10
315.656774
 20
-277.036321
 40
3.000000
  1
ﾋﾞｽ
 41
0.761957
 50
0.000000
 51
0.000000
 72
   5
 73
   0
 11
319.862774
 21
-277.036321
  0
TEXT
  8
5
  6
CONTINUOUS
 62
7
 10
315.656774
 20
-282.036321
 40
3.000000
  1
--
 41
0.854701
 50
0.000000
 51
0.000000
 72
   5
 73
   0
 11
318.656774
 21
-282.036321
  0
TEXT
  8
5
  6
CONTINUOUS
 62
7
 10
335.656774
 20
-282.036321
 40
3.000000
  1
--
 41
0.854701
 50
0.000000
 51
0.000000
 72
   5
 73
   0
 11
338.656774
 21
-282.036321
  0
TEXT
  8
5
  6
CONTINUOUS
 62
7
 10
391.281774
 20
-277.286321
 40
3.500000
  1
2
 41
1.000000
 50
0.000000
 51
0.000000
 72
   5
 73
   0
 11
393.031774
 21
-277.286321
  0
TEXT
  8
5
  6
CONTINUOUS
 62
7
 10
390.406774
 20
-282.286321
 40
3.500000
  1
--
 41
0.854701
 50
0.000000
 51
0.000000
 72
   5
 73
   0
 11
393.906774
 21
-282.286321
  0
LINE
  8
5
  6
CONTINUOUS
 62
6
 10
309.6567742347
 20
-278.0363213157
 11
309.6567742347
 21
-273.0363213157
  0
LINE
  8
5
  6
CONTINUOUS
 62
6
 10
309.6567742347
 20
-283.0363213157
 11
309.6567742347
 21
-278.0363213157
  0
LINE
  8
5
  6
CONTINUOUS
 62
6
 10
314.6567742347
 20
-273.0363213157
 11
314.6567742347
 21
-278.0363213157
  0
LINE
  8
5
  6
CONTINUOUS
 62
6
 10
314.6567742347
 20
-278.0363213157
 11
314.6567742347
 21
-283.0363213157
  0
LINE
  8
5
  6
CONTINUOUS
 62
6
 10
334.6567742347
 20
-273.0363213157
 11
334.6567742347
 21
-278.0363213157
  0
LINE
  8
5
  6
CONTINUOUS
 62
6
 10
334.6567742347
 20
-278.0363213157
 11
334.6567742347
 21
-283.0363213157
  0
LINE
  8
5
  6
CONTINUOUS
 62
6
 10
374.6567742347
 20
-273.0363213157
 11
374.6567742347
 21
-278.0363213157
  0
LINE
  8
5
  6
CONTINUOUS
 62
6
 10
374.6567742347
 20
-278.0363213157
 11
374.6567742347
 21
-283.0363213157
  0
LINE
  8
5
  6
CONTINUOUS
 62
6
 10
389.6567742347
 20
-273.0363213157
 11
389.6567742347
 21
-278.0363213157
  0
LINE
  8
5
  6
CONTINUOUS
 62
6
 10
389.6567742347
 20
-278.0363213157
 11
389.6567742347
 21
-283.0363213157
  0
LINE
  8
5
  6
CONTINUOUS
 62
6
 10
394.6567742347
 20
-273.0363213157
 11
394.6567742347
 21
-278.0363213157
  0
LINE
  8
5
  6
CONTINUOUS
 62
6
 10
394.6567742347
 20
-278.0363213157
 11
394.6567742347
 21
-283.0363213157
  0
TEXT
  8
5
  6
CONTINUOUS
 62
7
 10
335.656774
 20
-277.536321
 40
4.000000
  1
M3×8 小ワｾﾑｽ
 41
0.809465
 50
0.000000
 51
0.000000
 72
   5
 73
   0
 11
361.656774
 21
-277.536321
  0
LINE
  8
5
  6
CONTINUOUS
 62
6
 10
299.6567742347
 20
-268.0363213157
 11
299.6567742347
 21
-263.0363213157
  0
LINE
  8
5
  6
CONTINUOUS
 62
6
 10
299.6567742347
 20
-263.0363213157
 11
309.6567742347
 21
-263.0363213157
  0
LINE
  8
5
  6
CONTINUOUS
 62
6
 10
309.6567742347
 20
-268.0363213157
 11
304.6567742347
 21
-268.0363213157
  0
LINE
  8
5
  6
CONTINUOUS
 62
6
 10
309.6567742347
 20
-263.0363213157
 11
309.6567742347
 21
-268.0363213157
  0
TEXT
  8
5
  6
CONTINUOUS
 62
7
 10
302.194993
 20
-267.036321
 40
3.000000
  1
型番
 41
0.921659
 50
0.000000
 51
0.000000
 72
   5
 73
   0
 11
308.194993
 21
-267.036321
  0
LINE
  8
5
  6
CONTINUOUS
 62
6
 10
299.6567742347
 20
-273.0363213157
 11
299.6567742347
 21
-268.0363213157
  0
LINE
  8
5
  6
CONTINUOUS
 62
6
 10
299.6567742347
 20
-268.0363213157
 11
309.6567742347
 21
-268.0363213157
  0
LINE
  8
5
  6
CONTINUOUS
 62
6
 10
309.6567742347
 20
-268.0363213157
 11
309.6567742347
 21
-273.0363213157
  0
TEXT
  8
5
  6
CONTINUOUS
 62
7
 10
302.912993
 20
-272.536321
 40
4.000000
  1
U1
 41
0.975214
 50
0.000000
 51
0.000000
 72
   5
 73
   0
 11
307.476993
 21
-272.536321
  0
LINE
  8
5
  6
CONTINUOUS
 62
6
 10
299.6567742347
 20
-278.0363213157
 11
299.6567742347
 21
-273.0363213157
  0
LINE
  8
5
  6
CONTINUOUS
 62
6
 10
299.6567742347
 20
-283.0363213157
 11
299.6567742347
 21
-278.0363213157
  0
LINE
  8
5
  6
CONTINUOUS
 62
6
 10
309.6567742347
 20
-273.0363213157
 11
309.6567742347
 21
-278.0363213157
  0
LINE
  8
5
  6
CONTINUOUS
 62
6
 10
309.6567742347
 20
-278.0363213157
 11
309.6567742347
 21
-283.0363213157
  0
LINE
  8
5
  6
CONTINUOUS
 62
6
 10
394.6567742347
 20
-283.0363213157
 11
389.6567742347
 21
-283.0363213157
  0
LINE
  8
5
  6
CONTINUOUS
 62
6
 10
389.6567742347
 20
-283.0363213157
 11
374.6567742347
 21
-283.0363213157
  0
LINE
  8
5
  6
CONTINUOUS
 62
6
 10
374.6567742347
 20
-283.0363213157
 11
334.6567742347
 21
-283.0363213157
  0
LINE
  8
5
  6
CONTINUOUS
 62
6
 10
334.6567742347
 20
-283.0363213157
 11
314.6567742347
 21
-283.0363213157
  0
LINE
  8
5
  6
CONTINUOUS
 62
6
 10
314.6567742347
 20
-283.0363213157
 11
309.6567742347
 21
-283.0363213157
  0
LINE
  8
5
  6
CONTINUOUS
 62
6
 10
309.6567742347
 20
-283.0363213157
 11
299.6567742347
 21
-283.0363213157
  0
TEXT
  8
5
  6
CONTINUOUS
 62
7
 10
375.656774
 20
-249.536321
 40
3.000000
  1
MADOKA
 41
1.028831
 50
0.000000
 51
0.000000
 72
   5
 73
   0
 11
387.539774
 21
-249.536321
  0
TEXT
  8
5
  6
CONTINUOUS
 62
7
 10
375.656774
 20
-259.536321
 40
3.000000
  1
--
 41
0.854701
 50
0.000000
 51
0.000000
 72
   5
 73
   0
 11
378.656774
 21
-259.536321
  0
TEXT
  8
5
  6
CONTINUOUS
 62
7
 10
375.656774
 20
-282.036321
 40
3.000000
  1
--
 41
0.854701
 50
0.000000
 51
0.000000
 72
   5
 73
   0
 11
378.656774
 21
-282.036321
  0
TEXT
  8
5
  6
CONTINUOUS
 62
7
 10
375.656774
 20
-254.536321
 40
3.000000
  1
--
 41
0.854701
 50
0.000000
 51
0.000000
 72
   5
 73
   0
 11
378.656774
 21
-254.536321
  0
TEXT
  8
5
  6
CONTINUOUS
 62
7
 10
375.656774
 20
-277.036321
 40
3.000000
  1
--
 41
0.854701
 50
0.000000
 51
0.000000
 72
   5
 73
   0
 11
378.656774
 21
-277.036321
  0
LINE
  8
3
  6
CONTINUOUS
 62
9
 10
230.9657145103
 20
-210.0011142107
 11
213.0157145103
 21
-210.0011142107
  0
LINE
  8
3
  6
CONTINUOUS
 62
9
 10
232.9657145103
 20
-233.9511142107
 11
232.9657145103
 21
-212.0011142107
  0
LINE
  8
3
  6
CONTINUOUS
 62
9
 10
213.0157145103
 20
-235.9511142107
 11
230.9657145103
 21
-235.9511142107
  0
LINE
  8
3
  6
CONTINUOUS
 62
9
 10
211.0157145103
 20
-233.9511142107
 11
211.0157145103
 21
-212.0011142107
  0
ARC
  8
3
  6
CONTINUOUS
 62
9
 10
213.0157145103
 20
-212.0011142107
 40
2.0000000000
 50
90.0000000000
 51
180.0000000000
  0
ARC
  8
3
  6
CONTINUOUS
 62
9
 10
230.9657145103
 20
-212.0011142107
 40
2.0000000000
 50
0.0000000000
 51
90.0000000000
  0
ARC
  8
3
  6
CONTINUOUS
 62
9
 10
230.9657145103
 20
-233.9511142107
 40
2.0000000000
 50
270.0000000000
 51
0.0000000000
  0
ARC
  8
3
  6
CONTINUOUS
 62
9
 10
213.0157145103
 20
-233.9511142107
 40
2.0000000000
 50
180.0000000000
 51
270.0000000000
  0
POINT
  8
3
  6
CONTINUOUS
 62
9
 10
221.9907145103
 20
-222.9761142107
  0
LINE
  8
3
  6
HIDDEN
 62
9
 10
213.4907145103
 20
-210.8261142107
 11
230.4907145103
 21
-210.8261142107
  0
LINE
  8
3
  6
HIDDEN
 62
9
 10
230.4907145103
 20
-210.8261142107
 11
230.4907145103
 21
-235.1261142107
  0
LINE
  8
3
  6
HIDDEN
 62
9
 10
230.4907145103
 20
-235.1261142107
 11
213.4907145103
 21
-235.1261142107
  0
LINE
  8
3
  6
HIDDEN
 62
9
 10
213.4907145103
 20
-235.1261142107
 11
213.4907145103
 21
-210.8261142107
  0
LINE
  8
3
  6
CONTINUOUS
 62
7
 10
272.9157145103
 20
-210.0011142107
 11
254.9657145103
 21
-210.0011142107
  0
LINE
  8
3
  6
CONTINUOUS
 62
7
 10
274.9157145103
 20
-233.9511142107
 11
274.9157145103
 21
-212.0011142107
  0
LINE
  8
3
  6
CONTINUOUS
 62
7
 10
254.9657145103
 20
-235.9511142107
 11
272.9157145103
 21
-235.9511142107
  0
LINE
  8
3
  6
CONTINUOUS
 62
7
 10
252.9657145103
 20
-233.9511142107
 11
252.9657145103
 21
-212.0011142107
  0
POINT
  8
3
  6
CONTINUOUS
 62
5
 10
263.9407145103
 20
-222.9761142107
  0
LINE
  8
3
  6
CONTINUOUS
 62
5
 10
256.6207145103
 20
-214.6011142107
 11
271.2607145103
 21
-214.6011142107
  0
LINE
  8
3
  6
CONTINUOUS
 62
5
 10
271.2607145103
 20
-214.6011142107
 11
271.2607145103
 21
-225.8011142107
  0
LINE
  8
3
  6
CONTINUOUS
 62
5
 10
271.2607145103
 20
-225.8011142107
 11
256.6207145103
 21
-225.8011142107
  0
LINE
  8
3
  6
CONTINUOUS
 62
5
 10
256.6207145103
 20
-225.8011142107
 11
256.6207145103
 21
-214.6011142107
  0
LINE
  8
3
  6
CONTINUOUS
 62
7
 10
258.3657145103
 20
-227.8011142107
 11
269.5157145103
 21
-227.8011142107
  0
LINE
  8
3
  6
CONTINUOUS
 62
7
 10
269.5157145103
 20
-227.8011142107
 11
269.5157145103
 21
-234.9511142107
  0
LINE
  8
3
  6
CONTINUOUS
 62
7
 10
269.5157145103
 20
-234.9511142107
 11
258.3657145103
 21
-234.9511142107
  0
LINE
  8
3
  6
CONTINUOUS
 62
7
 10
258.3657145103
 20
-234.9511142107
 11
258.3657145103
 21
-227.8011142107
  0
LINE
  8
3
  6
HIDDEN
 62
7
 10
260.8657145103
 20
-230.5761142107
 11
267.0157145103
 21
-230.5761142107
  0
LINE
  8
3
  6
HIDDEN
 62
7
 10
267.0157145103
 20
-230.5761142107
 11
267.0157145103
 21
-232.1761142107
  0
LINE
  8
3
  6
HIDDEN
 62
7
 10
267.0157145103
 20
-232.1761142107
 11
260.8657145103
 21
-232.1761142107
  0
LINE
  8
3
  6
HIDDEN
 62
7
 10
260.8657145103
 20
-232.1761142107
 11
260.8657145103
 21
-230.5761142107
  0
ARC
  8
3
  6
CONTINUOUS
 62
7
 10
254.9657145103
 20
-212.0011142107
 40
2.0000000000
 50
90.0000000000
 51
180.0000000000
  0
ARC
  8
3
  6
CONTINUOUS
 62
7
 10
272.9157145103
 20
-212.0011142107
 40
2.0000000000
 50
0.0000000000
 51
90.0000000000
  0
ARC
  8
3
  6
CONTINUOUS
 62
7
 10
272.9157145103
 20
-233.9511142107
 40
2.0000000000
 50
270.0000000000
 51
0.0000000000
  0
ARC
  8
3
  6
CONTINUOUS
 62
7
 10
254.9657145103
 20
-233.9511142107
 40
2.0000000000
 50
180.0000000000
 51
270.0000000000
  0
LINE
  8
3
  6
HIDDEN
 62
3
 10
255.4407145103
 20
-210.8261142107
 11
272.4407145103
 21
-210.8261142107
  0
LINE
  8
3
  6
HIDDEN
 62
3
 10
272.4407145103
 20
-210.8261142107
 11
272.4407145103
 21
-235.1261142107
  0
LINE
  8
3
  6
HIDDEN
 62
3
 10
272.4407145103
 20
-235.1261142107
 11
255.4407145103
 21
-235.1261142107
  0
LINE
  8
3
  6
HIDDEN
 62
3
 10
255.4407145103
 20
-235.1261142107
 11
255.4407145103
 21
-210.8261142107
  0
LINE
  8
3
  6
CONTINUOUS
 62
5
 10
269.9407145103
 20
-224.8011142107
 11
269.9407145103
 21
-217.8011142107
  0
LINE
  8
3
  6
CONTINUOUS
 62
5
 10
269.9407145103
 20
-217.8011142107
 11
267.1407145103
 21
-217.8011142107
  0
LINE
  8
3
  6
CONTINUOUS
 62
5
 10
267.1407145103
 20
-217.8011142107
 11
267.1407145103
 21
-216.3011142107
  0
LINE
  8
3
  6
CONTINUOUS
 62
5
 10
267.1407145103
 20
-216.3011142107
 11
266.0907145103
 21
-216.3011142107
  0
LINE
  8
3
  6
CONTINUOUS
 62
5
 10
266.0907145103
 20
-216.3011142107
 11
266.0907145103
 21
-214.6011142107
  0
LINE
  8
3
  6
CONTINUOUS
 62
5
 10
261.7907145103
 20
-214.6011142107
 11
261.7907145103
 21
-216.3011142107
  0
LINE
  8
3
  6
CONTINUOUS
 62
5
 10
261.7907145103
 20
-216.3011142107
 11
260.7407145103
 21
-216.3011142107
  0
LINE
  8
3
  6
CONTINUOUS
 62
5
 10
260.7407145103
 20
-216.3011142107
 11
260.7407145103
 21
-217.8011142107
  0
LINE
  8
3
  6
CONTINUOUS
 62
5
 10
260.7407145103
 20
-217.8011142107
 11
257.9407145103
 21
-217.8011142107
  0
LINE
  8
3
  6
CONTINUOUS
 62
5
 10
257.9407145103
 20
-217.8011142107
 11
257.9407145103
 21
-224.8011142107
  0
LINE
  8
3
  6
CONTINUOUS
 62
5
 10
257.9407145103
 20
-224.8011142107
 11
269.9407145103
 21
-224.8011142107
  0
INSERT
  8
3
  6
CONTINUOUS
 62
5
  2
BALN1
 10
232.9657145103
 20
-215.7735407057
  0
INSERT
  8
3
  6
CONTINUOUS
 62
5
  2
BALN2
 10
274.9157145103
 20
-215.7735407057
  0
INSERT
  8
3
  6
CONTINUOUS
 62
5
  2
BALN3
 10
263.9407145103
 20
-222.9761142107
  0
TEXT
  8
3
  6
CONTINUOUS
 62
5
 10
174.490715
 20
-225.476114
 40
5.000000
  1
⑩ RJ45詳細
 41
0.822123
 50
0.000000
 51
0.000000
 72
   5
 73
   0
 11
201.990715
 21
-225.476114
  0
TEXT
  8
3
  6
CONTINUOUS
 62
5
 10
176.990715
 20
-271.495593
 40
5.000000
  1
⑪ USB詳細
 41
0.830565
 50
0.000000
 51
0.000000
 72
   5
 73
   0
 11
201.990715
 21
-271.495593
  0
INSERT
  8
3
  6
CONTINUOUS
 62
5
  2
BALN4
 10
231.4907145103
 20
-252.1955929806
  0
INSERT
  8
3
  6
CONTINUOUS
 62
5
  2
BALN5
 10
224.3820176819
 20
-255.6375952318
  0
INSERT
  8
3
  6
CONTINUOUS
 62
5
  2
BALN6
 10
273.4407145103
 20
-252.1955929806
  0
INSERT
  8
3
  6
CONTINUOUS
 62
5
  2
BALN7
 10
266.3320176819
 20
-255.6375952318
  0
TEXT
  8
3
  6
CONTINUOUS
 62
7
 10
219.490715
 20
-243.951114
 40
5.000000
  1
R0
 41
0.854701
 50
0.000000
 51
0.000000
 72
   5
 73
   0
 11
224.490715
 21
-243.951114
  0
TEXT
  8
3
  6
CONTINUOUS
 62
7
 10
261.440715
 20
-243.951114
 40
5.000000
  1
R1
 41
0.854701
 50
0.000000
 51
0.000000
 72
   5
 73
   0
 11
266.440715
 21
-243.951114
  0
TEXT
  8
3
  6
CONTINUOUS
 62
7
 10
219.490715
 20
-294.995593
 40
5.000000
  1
U0
 41
0.854701
 50
0.000000
 51
0.000000
 72
   5
 73
   0
 11
224.490715
 21
-294.995593
  0
TEXT
  8
3
  6
CONTINUOUS
 62
7
 10
261.440715
 20
-294.795593
 40
5.000000
  1
U1
 41
0.854701
 50
0.000000
 51
0.000000
 72
   5
 73
   0
 11
266.440715
 21
-294.795593
  0
TEXT
  8
5
  6
CONTINUOUS
 62
7
 10
348.653069
 20
22.742557
 40
4.200000
  1
Panel Interface
 41
0.641296
 50
0.000000
 51
0.000000
 72
   5
 73
   0
 11
375.264269
 21
22.742557
  0
TEXT
  8
5
  6
CONTINUOUS
 62
7
 10
348.653069
 20
18.542557
 40
4.200000
  1
Type:MCON-001-072******
 41
0.788714
 50
0.000000
 51
0.000000
 72
   5
 73
   0
 11
399.137069
 21
18.542557
  0
TEXT
  8
5
  6
CONTINUOUS
 62
7
 10
348.653069
 20
14.342557
 40
4.200000
  1
                      仕様図　1/2
 41
0.558184
 50
0.000000
 51
0.000000
 72
   5
 73
   0
 11
398.494469
 21
14.342557
  0
TEXT
  8
5
  6
CONTINUOUS
 62
7
 10
348.433321
 20
-308.965523
 40
6.000000
  1
M0051A072B
 41
0.765697
 50
0.000000
 51
0.000000
 72
   5
 73
   0
 11
378.433321
 21
-308.965523
  0
TEXT
  8
3
  6
CONTINUOUS
 62
7
 10
157.407606
 20
39.432029
 40
4.500000
  1
ACｲﾝﾚｯﾄ,RJ45,USBの詳細は仕様2/2を参照してください。
 41
0.815217
 50
0.000000
 51
0.000000
 72
   5
 73
   0
 11
272.157606
 21
39.432029
  0
LINE
  8
3
  6
CONTINUOUS
 62
7
 10
173.1605182328
 20
161.7025214536
 11
173.1605182328
 21
186.0025214536
  0
LINE
  8
3
  6
CONTINUOUS
 62
7
 10
173.1605182328
 20
186.0025214536
 11
190.1605182328
 21
186.0025214536
  0
LINE
  8
3
  6
CONTINUOUS
 62
7
 10
190.1605182328
 20
186.0025214536
 11
190.1605182328
 21
161.7025214536
  0
LINE
  8
3
  6
CONTINUOUS
 62
7
 10
190.1605182328
 20
161.7025214536
 11
173.1605182328
 21
161.7025214536
  0
POINT
  8
3
  6
CONTINUOUS
 62
9
 10
181.6605182328
 20
173.8525214536
  0
TEXT
  8
3
  6
CONTINUOUS
 62
7
 10
176.660518
 20
173.852521
 40
5.000000
  1
⑩
 41
1.000000
 50
0.000000
 51
0.000000
 72
   5
 73
   0
 11
181.660518
 21
173.852521
  0
TEXT
  8
3
  6
CONTINUOUS
 62
7
 10
176.660518
 20
168.852521
 40
5.000000
  1
RJ45
 41
0.796813
 50
0.000000
 51
0.000000
 72
   5
 73
   0
 11
186.660518
 21
168.852521
  0
POINT
  8
3
  6
CONTINUOUS
 62
7
 10
206.1605182328
 20
173.8525214536
  0
LINE
  8
3
  6
CONTINUOUS
 62
7
 10
197.6605182328
 20
185.3525214536
 11
214.6605182328
 21
185.3525214536
  0
LINE
  8
3
  6
CONTINUOUS
 62
7
 10
197.6605182328
 20
162.3525214536
 11
197.6605182328
 21
185.3525214536
  0
LINE
  8
3
  6
CONTINUOUS
 62
7
 10
214.6605182328
 20
162.3525214536
 11
197.6605182328
 21
162.3525214536
  0
LINE
  8
3
  6
CONTINUOUS
 62
7
 10
214.6605182328
 20
185.3525214536
 11
214.6605182328
 21
162.3525214536
  0
CIRCLE
  8
3
  6
CONTINUOUS
 62
7
 10
206.1605182328
 20
188.3525214536
 40
1.5000000000
  0
CIRCLE
  8
3
  6
CONTINUOUS
 62
7
 10
206.1605182328
 20
159.3525214536
 40
1.5000000000
  0
TEXT
  8
3
  6
CONTINUOUS
 62
7
 10
202.410518
 20
173.852521
 40
5.000000
  1
⑪
 41
1.000000
 50
0.000000
 51
0.000000
 72
   5
 73
   0
 11
207.410518
 21
173.852521
  0
TEXT
  8
3
  6
CONTINUOUS
 62
7
 10
202.410518
 20
168.852521
 40
5.000000
  1
USB
 41
0.815217
 50
0.000000
 51
0.000000
 72
   5
 73
   0
 11
209.910518
 21
168.852521
  0
INSERT
  8
1
  6
CONTINUOUS
 62
5
  2
LTEX0
 10
143.4661466639
 20
87.8525214537
  0
LINE
  8
1
  6
CONTINUOUS
 62
7
 10
78.8199585694
 20
-162.4919493140
 11
26.8199585694
 21
-162.4919493140
  0
LINE
  8
1
  6
CONTINUOUS
 62
7
 10
80.3199585694
 20
-285.4919493140
 11
80.3199585694
 21
-163.9919493140
  0
LINE
  8
1
  6
CONTINUOUS
 62
7
 10
26.8199585694
 20
-286.9919493140
 11
78.8199585694
 21
-286.9919493140
  0
LINE
  8
1
  6
CONTINUOUS
 62
7
 10
25.3199585694
 20
-285.4919493140
 11
25.3199585694
 21
-163.9919493140
  0
LINE
  8
1
  6
CONTINUOUS
 62
7
 10
82.3199585694
 20
-287.9919493140
 11
82.3199585694
 21
-161.4919493140
  0
LINE
  8
1
  6
CONTINUOUS
 62
7
 10
81.3199585694
 20
-160.4919493140
 11
24.3199585694
 21
-160.4919493140
  0
LINE
  8
1
  6
CONTINUOUS
 62
7
 10
23.3199585694
 20
-287.9919493140
 11
23.3199585694
 21
-161.4919493140
  0
LINE
  8
1
  6
CONTINUOUS
 62
7
 10
24.3199585694
 20
-288.9919493140
 11
81.3199585694
 21
-288.9919493140
  0
ARC
  8
1
  6
CONTINUOUS
 62
7
 10
26.8199585694
 20
-163.9919493140
 40
1.5000000000
 50
90.0000000000
 51
180.0000000000
  0
ARC
  8
1
  6
CONTINUOUS
 62
7
 10
78.8199585694
 20
-163.9919493140
 40
1.5000000000
 50
0.0000000000
 51
90.0000000000
  0
ARC
  8
1
  6
CONTINUOUS
 62
7
 10
78.8199585694
 20
-285.4919493140
 40
1.5000000000
 50
270.0000000000
 51
0.0000000000
  0
ARC
  8
1
  6
CONTINUOUS
 62
7
 10
26.8199585694
 20
-285.4919493140
 40
1.5000000000
 50
180.0000000000
 51
270.0000000000
  0
CIRCLE
  8
1
  6
HIDDEN
 62
3
 10
32.8199585694
 20
-166.2419493140
 40
1.7500000000
  0
CIRCLE
  8
1
  6
HIDDEN
 62
3
 10
32.8199585694
 20
-166.2419493140
 40
3.2500000000
  0
CIRCLE
  8
1
  6
HIDDEN
 62
3
 10
72.8199585694
 20
-166.2419493140
 40
1.7500000000
  0
CIRCLE
  8
1
  6
HIDDEN
 62
3
 10
72.8199585694
 20
-166.2419493140
 40
3.2500000000
  0
LINE
  8
1
  6
HIDDEN
 62
3
 10
75.8199585694
 20
-171.2419493140
 11
78.8199585694
 21
-171.2419493140
  0
LINE
  8
1
  6
HIDDEN
 62
3
 10
27.8199585694
 20
-171.2419493140
 11
75.8199585694
 21
-171.2419493140
  0
CIRCLE
  8
1
  6
HIDDEN
 62
3
 10
32.8199585694
 20
-283.2419493140
 40
1.7500000000
  0
CIRCLE
  8
1
  6
HIDDEN
 62
3
 10
32.8199585694
 20
-283.2419493140
 40
3.2500000000
  0
CIRCLE
  8
1
  6
HIDDEN
 62
3
 10
72.8199585694
 20
-283.2419493140
 40
1.7500000000
  0
CIRCLE
  8
1
  6
HIDDEN
 62
3
 10
72.8199585694
 20
-283.2419493140
 40
3.2500000000
  0
CIRCLE
  8
1
  6
HIDDEN
 62
3
 10
52.8199585694
 20
-166.2419493140
 40
2.0000000000
  0
LINE
  8
1
  6
CONTINUOUS
 62
7
 10
84.3199585694
 20
-287.9919493140
 11
84.3199585694
 21
-161.4919493140
  0
LINE
  8
1
  6
CONTINUOUS
 62
7
 10
81.3199585694
 20
-158.4919493140
 11
24.3199585694
 21
-158.4919493140
  0
LINE
  8
1
  6
CONTINUOUS
 62
7
 10
21.3199585694
 20
-287.9919493140
 11
21.3199585694
 21
-161.4919493140
  0
LINE
  8
1
  6
CONTINUOUS
 62
7
 10
24.3199585694
 20
-290.9919493140
 11
81.3199585694
 21
-290.9919493140
  0
LINE
  8
1
  6
CONTINUOUS
 62
7
 10
86.3199585694
 20
-297.9919493140
 11
86.3199585694
 21
-154.1169493140
  0
LINE
  8
1
  6
CONTINUOUS
 62
7
 10
19.3199585694
 20
-154.1169493140
 11
19.3199585694
 21
-297.9919493140
  0
LINE
  8
1
  6
CONTINUOUS
 62
7
 10
87.3199585694
 20
-298.9919493140
 11
87.3199585694
 21
-143.4919493140
  0
LINE
  8
1
  6
CONTINUOUS
 62
7
 10
18.3199585694
 20
-143.4919493140
 11
18.3199585694
 21
-298.9919493140
  0
ARC
  8
1
  6
CONTINUOUS
 62
7
 10
24.3199585694
 20
-161.4919493140
 40
1.0000000000
 50
90.0000000000
 51
180.0000000000
  0
ARC
  8
1
  6
CONTINUOUS
 62
7
 10
81.3199585694
 20
-161.4919493140
 40
1.0000000000
 50
0.0000000000
 51
90.0000000000
  0
ARC
  8
1
  6
CONTINUOUS
 62
7
 10
81.3199585694
 20
-287.9919493140
 40
1.0000000000
 50
270.0000000000
 51
0.0000000000
  0
ARC
  8
1
  6
CONTINUOUS
 62
7
 10
24.3199585694
 20
-287.9919493140
 40
1.0000000000
 50
180.0000000000
 51
270.0000000000
  0
LINE
  8
1
  6
HIDDEN
 62
3
 10
78.8199585694
 20
-181.2419493140
 11
78.8199585694
 21
-171.2419493140
  0
ARC
  8
1
  6
CONTINUOUS
 62
7
 10
24.3199585694
 20
-161.4919493140
 40
3.0000000000
 50
90.0000000000
 51
180.0000000000
  0
ARC
  8
1
  6
CONTINUOUS
 62
7
 10
81.3199585694
 20
-161.4919493140
 40
3.0000000000
 50
0.0000000000
 51
90.0000000000
  0
ARC
  8
1
  6
CONTINUOUS
 62
7
 10
81.3199585694
 20
-287.9919493140
 40
3.0000000000
 50
270.0000000000
 51
0.0000000000
  0
ARC
  8
1
  6
CONTINUOUS
 62
7
 10
24.3199585694
 20
-287.9919493140
 40
3.0000000000
 50
180.0000000000
 51
270.0000000000
  0
LINE
  8
1
  6
DASHDOT
 62
1
 10
89.3199585694
 20
-150.4919493140
 11
16.3199585694
 21
-150.4919493140
  0
LINE
  8
1
  6
CONTINUOUS
 62
7
 10
87.3199585694
 20
-298.9919493140
 11
18.3199585694
 21
-298.9919493140
  0
LINE
  8
1
  6
CONTINUOUS
 62
7
 10
19.3199585694
 20
-297.9919493140
 11
86.3199585694
 21
-297.9919493140
  0
LINE
  8
1
  6
CONTINUOUS
 62
7
 10
19.3199585694
 20
-156.4919493140
 11
19.3199585694
 21
-144.4919493140
  0
LINE
  8
1
  6
CONTINUOUS
 62
7
 10
19.3199585694
 20
-144.4919493140
 11
24.3199585694
 21
-144.4919493140
  0
LINE
  8
1
  6
CONTINUOUS
 62
7
 10
24.3199585694
 20
-144.4919493140
 11
24.3199585694
 21
-156.4919493140
  0
LINE
  8
1
  6
CONTINUOUS
 62
7
 10
24.3199585694
 20
-156.4919493140
 11
19.3199585694
 21
-156.4919493140
  0
LINE
  8
1
  6
CONTINUOUS
 62
7
 10
86.3199585694
 20
-144.4919493140
 11
81.3199585694
 21
-144.4919493140
  0
LINE
  8
1
  6
CONTINUOUS
 62
7
 10
81.3199585694
 20
-144.4919493140
 11
81.3199585694
 21
-156.4919493140
  0
LINE
  8
1
  6
CONTINUOUS
 62
7
 10
81.3199585694
 20
-156.4919493140
 11
86.3199585694
 21
-156.4919493140
  0
LINE
  8
1
  6
CONTINUOUS
 62
7
 10
86.3199585694
 20
-156.4919493140
 11
86.3199585694
 21
-144.4919493140
  0
LINE
  8
1
  6
CONTINUOUS
 62
7
 10
81.3199585694
 20
-156.4919493140
 11
81.3199585694
 21
-157.4919493140
  0
LINE
  8
1
  6
CONTINUOUS
 62
7
 10
81.3199585694
 20
-157.4919493140
 11
24.3199585694
 21
-157.4919493140
  0
LINE
  8
1
  6
CONTINUOUS
 62
7
 10
24.3199585694
 20
-157.4919493140
 11
24.3199585694
 21
-156.4919493140
  0
LINE
  8
1
  6
CONTINUOUS
 62
7
 10
87.3199585694
 20
-143.4919493140
 11
18.3199585694
 21
-143.4919493140
  0
CIRCLE
  8
1
  6
HIDDEN
 62
3
 10
52.8199585694
 20
-166.2419493140
 40
1.6500000000
  0
CIRCLE
  8
1
  6
HIDDEN
 62
3
 10
52.8199585694
 20
-283.2419493140
 40
2.0000000000
  0
CIRCLE
  8
1
  6
HIDDEN
 62
3
 10
52.8199585694
 20
-283.2419493140
 40
1.6500000000
  0
CIRCLE
  8
1
  6
HIDDEN
 62
7
 10
52.8199585694
 20
-294.4919493140
 40
2.0000000000
  0
CIRCLE
  8
1
  6
CONTINUOUS
 62
7
 10
52.8199585694
 20
-294.4919493140
 40
1.6500000000
  0
TEXT
  8
1
  6
CONTINUOUS
 62
7
 10
37.318425
 20
-307.250464
 40
4.000000
  1
内 部 図
 41
0.854701
 50
0.000000
 51
0.000000
 72
   5
 73
   0
 11
53.318425
 21
-307.250464
  0
LINE
  8
1
  6
HIDDEN
 62
3
 10
78.8199585694
 20
-181.2419493140
 11
75.8199585694
 21
-181.2419493140
  0
LINE
  8
1
  6
HIDDEN
 62
3
 10
75.8199585694
 20
-181.2419493140
 11
75.8199585694
 21
-171.2419493140
  0
LINE
  8
1
  6
HIDDEN
 62
3
 10
26.8199585694
 20
-278.2419493140
 11
29.8199585694
 21
-278.2419493140
  0
LINE
  8
1
  6
HIDDEN
 62
3
 10
77.8199585694
 20
-278.2419493140
 11
29.8199585694
 21
-278.2419493140
  0
LINE
  8
1
  6
HIDDEN
 62
3
 10
26.8199585694
 20
-268.2419493140
 11
29.8199585694
 21
-268.2419493140
  0
LINE
  8
3
  6
HIDDEN
 62
3
 10
29.8199585694
 20
-268.2419493140
 11
29.8199585694
 21
-278.2419493140
  0
LINE
  8
1
  6
HIDDEN
 62
3
 10
26.8199585694
 20
-268.2419493140
 11
26.8199585694
 21
-278.2419493140
  0
LINE
  8
1
  6
HIDDEN
 62
3
 10
78.8199585694
 20
-277.2419493140
 11
78.8199585694
 21
-181.2419493140
  0
LINE
  8
1
  6
HIDDEN
 62
3
 10
26.8199585694
 20
-172.2419493140
 11
26.8199585694
 21
-268.2419493140
  0
ARC
  8
1
  6
HIDDEN
 62
3
 10
27.8199585694
 20
-172.2419493140
 40
1.0000000000
 50
90.0000000000
 51
180.0000000000
  0
ARC
  8
1
  6
HIDDEN
 62
3
 10
77.8199585694
 20
-277.2419493140
 40
1.0000000000
 50
270.0000000000
 51
0.0000000000
  0
LINE
  8
7
  6
CONTINUOUS
 62
7
 10
80.0699585694
 20
-285.7419493138
 11
80.0699585694
 21
-163.7419493142
  0
LINE
  8
7
  6
CONTINUOUS
 62
7
 10
79.0699585694
 20
-162.7419493142
 11
26.5699585694
 21
-162.7419493138
  0
LINE
  8
7
  6
CONTINUOUS
 62
7
 10
25.5699585694
 20
-285.7419493142
 11
25.5699585694
 21
-163.7419493138
  0
LINE
  8
7
  6
CONTINUOUS
 62
7
 10
79.0699585694
 20
-286.7419493138
 11
26.5699585694
 21
-286.7419493142
  0
LINE
  8
7
  6
CONTINUOUS
 62
7
 10
26.5699585694
 20
-162.7419493138
 11
25.5699585694
 21
-163.7419493138
  0
LINE
  8
7
  6
CONTINUOUS
 62
7
 10
80.0699585694
 20
-163.7419493142
 11
79.0699585694
 21
-162.7419493142
  0
LINE
  8
7
  6
CONTINUOUS
 62
7
 10
80.0699585694
 20
-285.7419493138
 11
79.0699585694
 21
-286.7419493138
  0
LINE
  8
7
  6
CONTINUOUS
 62
7
 10
26.5699585694
 20
-286.7419493142
 11
25.5699585694
 21
-285.7419493142
  0
CIRCLE
  8
3
  6
CONTINUOUS
 62
6
 10
52.8199585694
 20
-166.2419493140
 40
3.9000000000
  0
LINE
  8
3
  6
CONTINUOUS
 62
6
 10
51.0963857903
 20
-164.5183765349
 11
54.5435313486
 21
-167.9655220932
  0
LINE
  8
3
  6
CONTINUOUS
 62
6
 10
51.0963857903
 20
-167.9655220932
 11
54.5435313486
 21
-164.5183765349
  0
CIRCLE
  8
3
  6
CONTINUOUS
 62
6
 10
52.8199585694
 20
-166.2419493140
 40
3.4125000000
  0
CIRCLE
  8
3
  6
CONTINUOUS
 62
6
 10
52.8199585694
 20
-283.2419493140
 40
3.9000000000
  0
LINE
  8
3
  6
CONTINUOUS
 62
6
 10
51.0963857903
 20
-281.5183765348
 11
54.5435313486
 21
-284.9655220931
  0
LINE
  8
3
  6
CONTINUOUS
 62
6
 10
51.0963857903
 20
-284.9655220931
 11
54.5435313486
 21
-281.5183765348
  0
CIRCLE
  8
3
  6
CONTINUOUS
 62
6
 10
52.8199585694
 20
-283.2419493140
 40
3.4125000000
  0
LINE
  8
3
  6
CONTINUOUS
 62
7
 10
80.0699585694
 20
-285.7419493138
 11
80.0699585694
 21
-163.7419493142
  0
LINE
  8
3
  6
CONTINUOUS
 62
7
 10
80.0699585694
 20
-163.7419493142
 11
79.0699585694
 21
-162.7419493142
  0
LINE
  8
3
  6
CONTINUOUS
 62
7
 10
79.0699585694
 20
-162.7419493142
 11
26.5699585694
 21
-162.7419493138
  0
LINE
  8
3
  6
CONTINUOUS
 62
7
 10
26.5699585694
 20
-162.7419493138
 11
25.5699585694
 21
-163.7419493138
  0
LINE
  8
3
  6
CONTINUOUS
 62
7
 10
25.5699585694
 20
-285.7419493142
 11
25.5699585694
 21
-163.7419493138
  0
LINE
  8
3
  6
CONTINUOUS
 62
7
 10
26.5699585694
 20
-286.7419493142
 11
25.5699585694
 21
-285.7419493142
  0
LINE
  8
3
  6
CONTINUOUS
 62
7
 10
79.0699585694
 20
-286.7419493138
 11
26.5699585694
 21
-286.7419493142
  0
LINE
  8
3
  6
CONTINUOUS
 62
7
 10
80.0699585694
 20
-285.7419493138
 11
79.0699585694
 21
-286.7419493138
  0
POINT
  8
3
  6
CONTINUOUS
 62
7
 10
65.0699585694
 20
-189.7419493141
  0
LINE
  8
3
  6
CONTINUOUS
 62
7
 10
56.5699585694
 20
-178.2419493141
 11
73.5699585694
 21
-178.2419493141
  0
LINE
  8
3
  6
CONTINUOUS
 62
7
 10
56.5699585694
 20
-201.2419493141
 11
56.5699585694
 21
-178.2419493141
  0
LINE
  8
3
  6
CONTINUOUS
 62
7
 10
73.5699585694
 20
-201.2419493141
 11
56.5699585694
 21
-201.2419493141
  0
LINE
  8
3
  6
CONTINUOUS
 62
7
 10
73.5699585694
 20
-178.2419493141
 11
73.5699585694
 21
-201.2419493141
  0
CIRCLE
  8
3
  6
CONTINUOUS
 62
7
 10
65.0699585694
 20
-175.2419493141
 40
1.5000000000
  0
CIRCLE
  8
3
  6
CONTINUOUS
 62
7
 10
65.0699585694
 20
-204.2419493141
 40
1.5000000000
  0
TEXT
  8
3
  6
CONTINUOUS
 62
7
 10
61.319959
 20
-189.741949
 40
5.000000
  1
⑪
 41
1.000000
 50
0.000000
 51
0.000000
 72
   5
 73
   0
 11
66.319959
 21
-189.741949
  0
TEXT
  8
3
  6
CONTINUOUS
 62
7
 10
61.319959
 20
-194.741949
 40
5.000000
  1
USB
 41
0.815217
 50
0.000000
 51
0.000000
 72
   5
 73
   0
 11
68.819959
 21
-194.741949
  0
LINE
  8
3
  6
CONTINUOUS
 62
7
 10
32.0699585694
 20
-201.8919493140
 11
32.0699585694
 21
-177.5919493140
  0
LINE
  8
3
  6
CONTINUOUS
 62
7
 10
32.0699585694
 20
-177.5919493140
 11
49.0699585694
 21
-177.5919493140
  0
LINE
  8
3
  6
CONTINUOUS
 62
7
 10
49.0699585694
 20
-177.5919493140
 11
49.0699585694
 21
-201.8919493140
  0
LINE
  8
3
  6
CONTINUOUS
 62
7
 10
49.0699585694
 20
-201.8919493140
 11
32.0699585694
 21
-201.8919493140
  0
POINT
  8
3
  6
CONTINUOUS
 62
9
 10
40.5699585694
 20
-189.7419493140
  0
TEXT
  8
3
  6
CONTINUOUS
 62
7
 10
35.569959
 20
-189.741949
 40
5.000000
  1
⑩
 41
1.000000
 50
0.000000
 51
0.000000
 72
   5
 73
   0
 11
40.569959
 21
-189.741949
  0
TEXT
  8
3
  6
CONTINUOUS
 62
7
 10
35.569959
 20
-194.741949
 40
5.000000
  1
RJ45
 41
0.796813
 50
0.000000
 51
0.000000
 72
   5
 73
   0
 11
45.569959
 21
-194.741949
  0
LINE
  8
4
  6
CONTINUOUS
 62
3
 10
319.0572849682
 20
172.3091792572
 11
372.0572849682
 21
172.3091792572
  0
LINE
  8
4
  6
CONTINUOUS
 62
3
 10
372.0572849682
 20
172.3091792572
 11
372.0572849682
 21
64.3091792572
  0
LINE
  8
4
  6
CONTINUOUS
 62
3
 10
319.0572849682
 20
64.3091792572
 11
319.0572849682
 21
172.3091792572
  0
LINE
  8
4
  6
CONTINUOUS
 62
3
 10
372.0572849682
 20
64.3091792572
 11
319.0572849682
 21
64.3091792572
  0
CIRCLE
  8
4
  6
CONTINUOUS
 62
3
 10
325.5572849682
 20
176.8091792572
 40
1.5000000000
  0
CIRCLE
  8
4
  6
CONTINUOUS
 62
3
 10
365.5572849682
 20
176.8091792572
 40
1.5000000000
  0
CIRCLE
  8
4
  6
CONTINUOUS
 62
3
 10
325.5572849682
 20
59.8091792572
 40
1.5000000000
  0
CIRCLE
  8
4
  6
CONTINUOUS
 62
3
 10
365.5572849682
 20
59.8091792572
 40
1.5000000000
  0
CIRCLE
  8
4
  6
CONTINUOUS
 62
3
 10
345.5572849682
 20
176.8091792572
 40
2.2500000000
  0
CIRCLE
  8
4
  6
CONTINUOUS
 62
3
 10
345.5572849682
 20
59.8091792572
 40
2.2500000000
  0
DIMENSION
  8
4
  6
CONTINUOUS
 62
5
  2
*D7
 10
325.5572849682
 20
183.5026280811
 11
322.3072849682
 21
186.2526280811
  70
0
 13
319.0572849682
 23
172.3091792572
 14
325.5572849682
 24
175.3091792572
 50
0.000000
  0
DIMENSION
  8
4
  6
CONTINUOUS
 62
5
  2
*D8
 10
345.5572849682
 20
183.5026280811
 11
335.5572849682
 21
186.2526280811
  70
0
 13
325.5572849682
 23
175.3091792572
 14
345.5572849682
 24
174.5591792572
 50
0.000000
  0
DIMENSION
  8
4
  6
CONTINUOUS
 62
5
  2
*D9
 10
365.5572849682
 20
183.5026280811
 11
355.5572849682
 21
186.2526280811
  70
0
 13
345.5572849682
 23
174.5591792572
 14
365.5572849682
 24
175.3091792572
 50
0.000000
  0
DIMENSION
  8
4
  6
CONTINUOUS
 62
5
  2
*D10
 10
372.0572849682
 20
183.5026280811
 11
368.8072849682
 21
186.2526280811
  70
0
 13
365.5572849682
 23
175.3091792572
 14
372.0572849682
 24
172.3091792572
 50
0.000000
  0
DIMENSION
  8
4
  6
CONTINUOUS
 62
5
  2
*D11
 10
372.0572849682
 20
190.5026280811
 11
345.5572849682
 21
193.2526280811
  70
0
 13
319.0572849682
 23
172.3091792572
 14
372.0572849682
 24
172.3091792572
 50
0.000000
  0
DIMENSION
  8
4
  6
CONTINUOUS
 62
5
  2
*D12
 10
324.7064153436
 20
178.0445014346
 11
327.8220422934
 21
178.3691069023
  70
3
 15
326.4081545928
 25
175.5738570798
  0
DIMENSION
  8
4
  6
CONTINUOUS
 62
5
  2
*D13
 10
344.1560871308
 20
178.5696180151
 11
347.7089323390
 21
178.5217543918
  70
3
 15
346.9584828056
 25
175.0487404993
  0
TEXT
  8
4
  6
CONTINUOUS
 62
7
 10
322.885309
 20
36.103267
 40
5.000000
  1
パネルカット図
 41
0.872818
 50
0.000000
 51
0.000000
 72
   5
 73
   0
 11
357.885309
 21
36.103267
  0
TEXT
  8
4
  6
CONTINUOUS
 62
7
 10
322.885309
 20
31.103267
 40
5.000000
  1
推奨板厚 t=1.6以上
 41
0.827967
 50
0.000000
 51
0.000000
 72
   5
 73
   0
 11
367.885309
 21
31.103267
  0
LINE
  8
1
  6
HIDDEN
 62
1
 10
380.0572849682
 20
44.0591792572
 11
380.0572849682
 21
199.5591792572
  0
LINE
  8
1
  6
HIDDEN
 62
1
 10
380.0572849682
 20
199.5591792572
 11
311.0572849682
 21
199.5591792572
  0
LINE
  8
1
  6
HIDDEN
 62
1
 10
311.0572849682
 20
199.5591792572
 11
311.0572849682
 21
44.0591792572
  0
LINE
  8
1
  6
HIDDEN
 62
1
 10
380.0572849682
 20
44.0591792572
 11
311.0572849682
 21
44.0591792572
  0
DIMENSION
  8
1
  6
CONTINUOUS
 62
5
  2
*D14
 10
306.8614186851
 20
64.3091792572
 11
304.3614186851
 21
62.0591792572
  70
0
 13
367.0572849682
 23
59.8091792572
 14
319.0572849682
 24
64.3091792572
 50
90.000000
  0
DIMENSION
  8
1
  6
CONTINUOUS
 62
5
  2
*D15
 10
306.8614186851
 20
172.3091792572
 11
304.1114186851
 21
118.3091792572
  70
0
 13
319.0572849682
 23
64.3091792572
 14
319.0572849682
 24
172.3091792572
 50
90.000000
  0
DIMENSION
  8
1
  6
CONTINUOUS
 62
5
  2
*D16
 10
306.8614186851
 20
176.8091792572
 11
304.3614186851
 21
174.5591792572
  70
0
 13
319.0572849682
 23
172.3091792572
 14
367.0572849682
 24
176.8091792572
 50
90.000000
  0
DIMENSION
  8
1
  6
CONTINUOUS
 62
5
  2
*D17
 10
299.8614186851
 20
176.8091792572
 11
297.1114186851
 21
118.3091792572
  70
0
 13
367.0572849682
 23
59.8091792572
 14
367.0572849682
 24
176.8091792572
 50
90.000000
  0
DIMENSION
  8
1
  6
CONTINUOUS
 62
5
  2
*D18
 10
387.7005190311
 20
64.3091792572
 11
384.9505190311
 21
54.1841792572
  70
0
 13
380.0572849682
 23
44.0591792572
 14
372.0572849682
 24
64.3091792572
 50
90.000000
  0
DIMENSION
  8
1
  6
CONTINUOUS
 62
5
  2
*D19
 10
387.7005190311
 20
172.3091792572
 11
384.9505190311
 21
118.3091792572
  70
0
 13
372.0572849682
 23
64.3091792572
 14
372.0572849682
 24
172.3091792572
 50
90.000000
  0
DIMENSION
  8
1
  6
CONTINUOUS
 62
5
  2
*D20
 10
387.7005190311
 20
199.5591792572
 11
384.9505190311
 21
185.9341792572
  70
0
 13
372.0572849682
 23
172.3091792572
 14
380.0572849682
 24
199.5591792572
 50
90.000000
  0
INSERT
  8
1
  6
CONTINUOUS
 62
5
  2
LTEX1
 10
323.9116262976
 20
44.0591792572
  0
INSERT
  8
1
  6
CONTINUOUS
 62
5
  2
BALN8
 10
131.0889601190
 20
214.9344220794
  0
INSERT
  8
1
  6
CONTINUOUS
 62
5
  2
BALN9
 10
112.1348058892
 20
202.0171741535
  0
INSERT
  8
1
  6
CONTINUOUS
 62
5
  2
BALN10
 10
173.9105182328
 20
197.3525214537
  0
INSERT
  8
1
  6
CONTINUOUS
 62
5
  2
BALN11
 10
193.9105182328
 20
201.2525214536
  0
INSERT
  8
1
  6
CONTINUOUS
 62
5
  2
BALN12
 10
210.8775143248
 20
187.5497784381
  0
POINT
  8
5
  6
CONTINUOUS
 62
6
 10
93.2490435001
 20
-61.9655230621
  0
TEXT
  8
1
  6
CONTINUOUS
 62
7
 10
119.192537
 20
-266.112123
 40
3.000000
  1
USB中継は表裏を
 41
0.846501
 50
0.000000
 51
0.000000
 72
   5
 73
   0
 11
141.692537
 21
-266.112123
  0
TEXT
  8
1
  6
CONTINUOUS
 62
7
 10
119.192537
 20
-269.112123
 40
3.000000
  1
変えることが可能です。
 41
0.866142
 50
0.000000
 51
0.000000
 72
   5
 73
   0
 11
152.192537
 21
-269.112123
  0
LINE
  8
1
  6
CONTINUOUS
 62
1
 10
127.2813206605
 20
-270.5456714967
 11
144.2813206605
 21
-270.5456714967
  0
LINE
  8
1
  6
CONTINUOUS
 62
1
 10
145.2813206605
 20
-305.1456714967
 11
145.2813206605
 21
-304.3456714967
  0
LINE
  8
1
  6
CONTINUOUS
 62
1
 10
145.2813206605
 20
-301.3456714967
 11
145.2813206605
 21
-275.3456714967
  0
LINE
  8
1
  6
CONTINUOUS
 62
1
 10
145.2813206605
 20
-272.3456714967
 11
145.2813206605
 21
-271.5456714967
  0
LINE
  8
1
  6
CONTINUOUS
 62
1
 10
144.2813206605
 20
-306.1456714967
 11
127.2813206605
 21
-306.1456714967
  0
LINE
  8
1
  6
CONTINUOUS
 62
1
 10
126.2813206605
 20
-305.1456714967
 11
126.2813206605
 21
-304.3456714967
  0
LINE
  8
1
  6
CONTINUOUS
 62
1
 10
126.2813206605
 20
-301.3456714967
 11
126.2813206605
 21
-275.3456714967
  0
LINE
  8
1
  6
CONTINUOUS
 62
1
 10
126.2813206605
 20
-272.3456714967
 11
126.2813206605
 21
-271.5456714967
  0
LINE
  8
1
  6
CONTINUOUS
 62
1
 10
143.6813206605
 20
-276.9456714967
 11
127.8813206605
 21
-276.9456714967
  0
LINE
  8
1
  6
CONTINUOUS
 62
1
 10
144.1813206605
 20
-299.2456714967
 11
144.1813206605
 21
-277.4456714967
  0
LINE
  8
1
  6
CONTINUOUS
 62
1
 10
127.8813206605
 20
-299.7456714967
 11
143.6813206605
 21
-299.7456714967
  0
LINE
  8
1
  6
CONTINUOUS
 62
1
 10
127.3813206605
 20
-299.2456714967
 11
127.3813206605
 21
-277.4456714967
  0
CIRCLE
  8
1
  6
CONTINUOUS
 62
1
 10
135.7813206605
 20
-273.8456714967
 40
1.5000000000
  0
CIRCLE
  8
1
  6
CONTINUOUS
 62
1
 10
135.7813206605
 20
-302.8456714967
 40
1.5000000000
  0
ARC
  8
1
  6
CONTINUOUS
 62
1
 10
144.2813206605
 20
-271.5456714967
 40
1.0000000000
 50
0.0000000000
 51
90.0000000000
  0
ARC
  8
1
  6
CONTINUOUS
 62
1
 10
127.2813206605
 20
-271.5456714967
 40
1.0000000000
 50
90.0000000000
 51
180.0000000000
  0
ARC
  8
1
  6
CONTINUOUS
 62
1
 10
127.2813206605
 20
-305.1456714967
 40
1.0000000000
 50
180.0000000000
 51
270.0000000000
  0
ARC
  8
1
  6
CONTINUOUS
 62
1
 10
144.2813206605
 20
-305.1456714967
 40
1.0000000000
 50
270.0000000000
 51
0.0000000000
  0
LINE
  8
1
  6
CONTINUOUS
 62
1
 10
145.2813206605
 20
-304.3456714967
 11
143.2813206605
 21
-304.3456714967
  0
LINE
  8
1
  6
CONTINUOUS
 62
1
 10
143.2813206605
 20
-304.3456714967
 11
143.2813206605
 21
-301.3456714967
  0
LINE
  8
1
  6
CONTINUOUS
 62
1
 10
143.2813206605
 20
-301.3456714967
 11
145.2813206605
 21
-301.3456714967
  0
LINE
  8
1
  6
CONTINUOUS
 62
1
 10
126.2813206605
 20
-304.3456714967
 11
128.2813206605
 21
-304.3456714967
  0
LINE
  8
1
  6
CONTINUOUS
 62
1
 10
128.2813206605
 20
-304.3456714967
 11
128.2813206605
 21
-301.3456714967
  0
LINE
  8
1
  6
CONTINUOUS
 62
1
 10
128.2813206605
 20
-301.3456714967
 11
126.2813206605
 21
-301.3456714967
  0
LINE
  8
1
  6
CONTINUOUS
 62
1
 10
126.2813206605
 20
-272.3456714967
 11
128.2813206605
 21
-272.3456714967
  0
LINE
  8
1
  6
CONTINUOUS
 62
1
 10
128.2813206605
 20
-272.3456714967
 11
128.2813206605
 21
-275.3456714967
  0
LINE
  8
1
  6
CONTINUOUS
 62
1
 10
128.2813206605
 20
-275.3456714967
 11
126.2813206605
 21
-275.3456714967
  0
LINE
  8
1
  6
CONTINUOUS
 62
1
 10
145.2813206605
 20
-272.3456714967
 11
143.2813206605
 21
-272.3456714967
  0
LINE
  8
1
  6
CONTINUOUS
 62
1
 10
143.2813206605
 20
-272.3456714967
 11
143.2813206605
 21
-275.3456714967
  0
LINE
  8
1
  6
CONTINUOUS
 62
1
 10
143.2813206605
 20
-275.3456714967
 11
145.2813206605
 21
-275.3456714967
  0
ARC
  8
1
  6
CONTINUOUS
 62
1
 10
127.8813206605
 20
-277.4456714967
 40
0.5000000000
 50
90.0000000000
 51
180.0000000000
  0
ARC
  8
1
  6
CONTINUOUS
 62
1
 10
143.6813206605
 20
-277.4456714967
 40
0.5000000000
 50
0.0000000000
 51
90.0000000000
  0
ARC
  8
1
  6
CONTINUOUS
 62
1
 10
143.6813206605
 20
-299.2456714967
 40
0.5000000000
 50
270.0000000000
 51
0.0000000000
  0
ARC
  8
1
  6
CONTINUOUS
 62
1
 10
127.8813206605
 20
-299.2456714967
 40
0.5000000000
 50
180.0000000000
 51
270.0000000000
  0
LINE
  8
2
  6
CONTINUOUS
 62
1
 10
130.8713191605
 20
-286.6056714967
 11
135.7813211605
 21
-286.6056714967
  0
LINE
  8
2
  6
CONTINUOUS
 62
1
 10
130.2313241605
 20
-287.2456714967
 11
130.2313241605
 21
-288.4456714967
  0
LINE
  8
2
  6
CONTINUOUS
 62
1
 10
130.7313241605
 20
-288.0656724967
 11
140.8313181605
 21
-288.0656724967
  0
LINE
  8
2
  6
CONTINUOUS
 62
1
 10
130.2313241605
 20
-288.4456714967
 11
135.7813211605
 21
-288.4456714967
  0
LINE
  8
2
  6
CONTINUOUS
 62
1
 10
129.5813181605
 20
-286.5256714967
 11
129.5813181605
 21
-287.4856704967
  0
LINE
  8
2
  6
CONTINUOUS
 62
1
 10
130.7313241605
 20
-288.0656724967
 11
130.7313241605
 21
-287.1056714967
  0
LINE
  8
2
  6
CONTINUOUS
 62
1
 10
132.8713191605
 20
-288.4456714967
 11
132.8713191605
 21
-289.8256714967
  0
LINE
  8
2
  6
CONTINUOUS
 62
1
 10
131.6913211605
 20
-288.4456714967
 11
131.6913211605
 21
-289.8256714967
  0
LINE
  8
2
  6
CONTINUOUS
 62
1
 10
135.3713191605
 20
-288.4456714967
 11
135.3713191605
 21
-289.8256714967
  0
LINE
  8
2
  6
CONTINUOUS
 62
1
 10
134.1913211605
 20
-288.4456714967
 11
134.1913211605
 21
-289.8256714967
  0
LINE
  8
2
  6
CONTINUOUS
 62
1
 10
134.1913211605
 20
-289.8256714967
 11
135.3713191605
 21
-289.8256714967
  0
LINE
  8
2
  6
CONTINUOUS
 62
1
 10
131.6913211605
 20
-289.8256714967
 11
132.8713191605
 21
-289.8256714967
  0
LINE
  8
2
  6
CONTINUOUS
 62
1
 10
130.0813181605
 20
-286.4256704967
 11
132.0717931605
 21
-286.4256704967
  0
LINE
  8
2
  6
CONTINUOUS
 62
1
 10
130.0813181605
 20
-286.4256704967
 11
130.0813181605
 21
-287.5356744967
  0
LINE
  8
2
  6
CONTINUOUS
 62
1
 10
132.1532981605
 20
-286.5756704967
 11
132.0642711605
 21
-286.4866434967
  0
LINE
  8
2
  6
CONTINUOUS
 62
1
 10
130.1813151605
 20
-287.6356704967
 11
130.0313151605
 21
-287.4856704967
  0
LINE
  8
2
  6
CONTINUOUS
 62
1
 10
130.0313191605
 20
-287.4856704967
 11
129.5313191605
 21
-287.4856704967
  0
LINE
  8
2
  6
CONTINUOUS
 62
1
 10
130.0313191605
 20
-289.4856714967
 11
129.5313191605
 21
-289.4856714967
  0
LINE
  8
2
  6
CONTINUOUS
 62
1
 10
130.1813201605
 20
-289.3356704967
 11
130.1813201605
 21
-287.6356704967
  0
LINE
  8
2
  6
CONTINUOUS
 62
1
 10
130.1813181605
 20
-289.3356714967
 11
130.0313181605
 21
-289.4856714967
  0
LINE
  8
2
  6
CONTINUOUS
 62
1
 10
132.7813131605
 20
-286.5756724967
 11
133.4093341605
 21
-286.5756724967
  0
LINE
  8
2
  6
CONTINUOUS
 62
1
 10
133.4093321605
 20
-286.5756734967
 11
133.4983621605
 21
-286.4866434967
  0
LINE
  8
2
  6
CONTINUOUS
 62
1
 10
132.7813211605
 20
-286.5756724967
 11
132.1532981605
 21
-286.5756724967
  0
LINE
  8
2
  6
CONTINUOUS
 62
1
 10
132.1533041605
 20
-286.5756704967
 11
132.0642731605
 21
-286.4866404967
  0
LINE
  8
2
  6
CONTINUOUS
 62
1
 10
131.5917891605
 20
-285.9479644967
 11
131.8093801605
 21
-286.0152104967
  0
LINE
  8
2
  6
CONTINUOUS
 62
1
 10
132.0148381605
 20
-286.2423384967
 11
132.0642701605
 21
-286.4866414967
  0
LINE
  8
2
  6
CONTINUOUS
 62
1
 10
132.0794421605
 20
-286.0573914967
 11
132.1028901605
 21
-286.1732734967
  0
LINE
  8
2
  6
CONTINUOUS
 62
1
 10
133.9708481605
 20
-285.9479624967
 11
133.7532591605
 21
-286.0152084967
  0
LINE
  8
2
  6
CONTINUOUS
 62
1
 10
133.5477951605
 20
-286.2423384967
 11
133.4983621605
 21
-286.4866414967
  0
LINE
  8
2
  6
CONTINUOUS
 62
1
 10
133.4831901605
 20
-286.0573904967
 11
133.4597431605
 21
-286.1732724967
  0
LINE
  8
2
  6
CONTINUOUS
 62
1
 10
133.4983641605
 20
-286.4866434967
 11
133.4316959181
 21
-285.9456714967
  0
LINE
  8
2
  6
CONTINUOUS
 62
1
 10
132.0642751605
 20
-286.4866434967
 11
132.1309425574
 21
-285.9456714967
  0
LINE
  8
2
  6
CONTINUOUS
 62
1
 10
132.7813211605
 20
-290.3956714967
 11
132.1532981605
 21
-290.3956714967
  0
LINE
  8
2
  6
CONTINUOUS
 62
1
 10
132.1533021605
 20
-290.3956724967
 11
132.0642731605
 21
-290.4847014967
  0
LINE
  8
2
  6
CONTINUOUS
 62
1
 10
132.7813131605
 20
-290.3956714967
 11
133.4093341605
 21
-290.3956714967
  0
LINE
  8
2
  6
CONTINUOUS
 62
1
 10
133.4093361605
 20
-290.3956694967
 11
133.4983651605
 21
-290.4846984967
  0
LINE
  8
2
  6
CONTINUOUS
 62
1
 10
133.9708471605
 20
-291.0233774967
 11
133.7532581605
 21
-290.9561314967
  0
LINE
  8
2
  6
CONTINUOUS
 62
1
 10
133.4831921605
 20
-290.9139534967
 11
133.4597451605
 21
-290.7980714967
  0
LINE
  8
2
  6
CONTINUOUS
 62
1
 10
131.5917931605
 20
-291.0233764967
 11
131.8093841605
 21
-290.9561304967
  0
LINE
  8
2
  6
CONTINUOUS
 62
1
 10
132.0148411605
 20
-290.7290074967
 11
132.0642741605
 21
-290.4847024967
  0
LINE
  8
2
  6
CONTINUOUS
 62
1
 10
132.0794451605
 20
-290.9139544967
 11
132.1028931605
 21
-290.7980724967
  0
LINE
  8
2
  6
CONTINUOUS
 62
1
 10
132.0642721605
 20
-290.4846984967
 11
132.1334041605
 21
-291.0456704967
  0
LINE
  8
2
  6
CONTINUOUS
 62
1
 10
133.4983701605
 20
-290.4846994967
 11
133.4292381605
 21
-291.0456694967
  0
LINE
  8
2
  6
CONTINUOUS
 62
1
 10
133.5477951605
 20
-290.7290064967
 11
133.4983621605
 21
-290.4847014967
  0
LINE
  8
2
  6
CONTINUOUS
 62
1
 10
133.4908471605
 20
-286.4256704967
 11
135.7813211605
 21
-286.4256704967
  0
LINE
  8
2
  6
CONTINUOUS
 62
1
 10
129.5813181605
 20
-289.4856714967
 11
129.5813181605
 21
-290.8974294967
  0
LINE
  8
2
  6
CONTINUOUS
 62
1
 10
130.0813181605
 20
-289.4356714967
 11
130.0813181605
 21
-291.0456714967
  0
LINE
  8
2
  6
CONTINUOUS
 62
1
 10
134.5313231605
 20
-288.9456714967
 11
134.2813211605
 21
-288.9456714967
  0
LINE
  8
2
  6
CONTINUOUS
 62
1
 10
134.2813211605
 20
-288.5778984967
 11
134.2813211605
 21
-288.9456714967
  0
LINE
  8
2
  6
CONTINUOUS
 62
1
 10
134.5313231605
 20
-288.8988234967
 11
134.5313231605
 21
-288.9456714967
  0
LINE
  8
2
  6
CONTINUOUS
 62
1
 10
135.0313231605
 20
-288.9456714967
 11
135.2813231605
 21
-288.9456714967
  0
LINE
  8
2
  6
CONTINUOUS
 62
1
 10
135.0313231605
 20
-288.8988234967
 11
135.0313231605
 21
-288.9456714967
  0
LINE
  8
2
  6
CONTINUOUS
 62
1
 10
135.2813231605
 20
-288.5778984967
 11
135.2813231605
 21
-288.9456714967
  0
LINE
  8
2
  6
CONTINUOUS
 62
1
 10
135.1875711605
 20
-288.4456714967
 11
135.2353111605
 21
-288.5491214967
  0
LINE
  8
2
  6
CONTINUOUS
 62
1
 10
134.3750731605
 20
-288.4456704967
 11
134.3273321605
 21
-288.5491214967
  0
LINE
  8
2
  6
CONTINUOUS
 62
1
 10
132.0313231605
 20
-288.9456714967
 11
131.7813191605
 21
-288.9456714967
  0
LINE
  8
2
  6
CONTINUOUS
 62
1
 10
131.7813191605
 20
-288.5778984967
 11
131.7813191605
 21
-288.9456714967
  0
LINE
  8
2
  6
CONTINUOUS
 62
1
 10
132.0313191605
 20
-288.8988234967
 11
132.0313191605
 21
-288.9456714967
  0
LINE
  8
2
  6
CONTINUOUS
 62
1
 10
132.5313231605
 20
-288.9456714967
 11
132.7813231605
 21
-288.9456714967
  0
LINE
  8
2
  6
CONTINUOUS
 62
1
 10
132.5313231605
 20
-288.8988234967
 11
132.5313231605
 21
-288.9456714967
  0
LINE
  8
2
  6
CONTINUOUS
 62
1
 10
132.7813231605
 20
-288.5778984967
 11
132.7813231605
 21
-288.9456714967
  0
LINE
  8
2
  6
CONTINUOUS
 62
1
 10
132.6875701605
 20
-288.4456714967
 11
132.7353101605
 21
-288.5491224967
  0
LINE
  8
2
  6
CONTINUOUS
 62
1
 10
131.8750711605
 20
-288.4456724967
 11
131.8273321605
 21
-288.5491214967
  0
LINE
  8
2
  6
CONTINUOUS
 62
1
 10
140.6913231605
 20
-286.6056714967
 11
135.7813211605
 21
-286.6056714967
  0
LINE
  8
2
  6
CONTINUOUS
 62
1
 10
141.3313181605
 20
-287.2456714967
 11
141.3313181605
 21
-288.4456714967
  0
LINE
  8
2
  6
CONTINUOUS
 62
1
 10
140.8313181605
 20
-287.1056714967
 11
130.7313241605
 21
-287.1056714967
  0
LINE
  8
2
  6
CONTINUOUS
 62
1
 10
141.3313181605
 20
-288.4456714967
 11
135.7813211605
 21
-288.4456714967
  0
LINE
  8
2
  6
CONTINUOUS
 62
1
 10
141.9813221605
 20
-286.5256714967
 11
141.9813221605
 21
-287.4856704967
  0
LINE
  8
2
  6
CONTINUOUS
 62
1
 10
140.8313181605
 20
-288.0656724967
 11
140.8313181605
 21
-287.1056714967
  0
LINE
  8
2
  6
CONTINUOUS
 62
1
 10
138.6913231605
 20
-288.4456714967
 11
138.6913231605
 21
-289.8256714967
  0
LINE
  8
2
  6
CONTINUOUS
 62
1
 10
139.8713211605
 20
-288.4456714967
 11
139.8713211605
 21
-289.8256714967
  0
LINE
  8
2
  6
CONTINUOUS
 62
1
 10
136.1913211605
 20
-288.4456714967
 11
136.1913211605
 21
-289.8256714967
  0
LINE
  8
2
  6
CONTINUOUS
 62
1
 10
137.3713211605
 20
-288.4456714967
 11
137.3713211605
 21
-289.8256714967
  0
LINE
  8
2
  6
CONTINUOUS
 62
1
 10
137.3713211605
 20
-289.8256714967
 11
136.1913211605
 21
-289.8256714967
  0
LINE
  8
2
  6
CONTINUOUS
 62
1
 10
139.8713211605
 20
-289.8256714967
 11
138.6913231605
 21
-289.8256714967
  0
LINE
  8
2
  6
CONTINUOUS
 62
1
 10
141.4813221605
 20
-286.4256704967
 11
139.4908491605
 21
-286.4256704967
  0
LINE
  8
2
  6
CONTINUOUS
 62
1
 10
141.4813221605
 20
-286.4256704967
 11
141.4813221605
 21
-287.5356744967
  0
LINE
  8
2
  6
CONTINUOUS
 62
1
 10
139.4093421605
 20
-286.5756714967
 11
139.4983711605
 21
-286.4866424967
  0
LINE
  8
2
  6
CONTINUOUS
 62
1
 10
141.3813251605
 20
-287.6356714967
 11
141.5313251605
 21
-287.4856714967
  0
LINE
  8
2
  6
CONTINUOUS
 62
1
 10
141.5313211605
 20
-287.4856704967
 11
142.0313211605
 21
-287.4856704967
  0
LINE
  8
2
  6
CONTINUOUS
 62
1
 10
141.5313211605
 20
-289.4856714967
 11
142.0313211605
 21
-289.4856714967
  0
LINE
  8
2
  6
CONTINUOUS
 62
1
 10
141.3813211605
 20
-289.3356704967
 11
141.3813211605
 21
-287.6356704967
  0
LINE
  8
2
  6
CONTINUOUS
 62
1
 10
141.3813241605
 20
-289.3356714967
 11
141.5313241605
 21
-289.4856714967
  0
LINE
  8
2
  6
CONTINUOUS
 62
1
 10
138.7813271605
 20
-286.5756724967
 11
138.1533051605
 21
-286.5756724967
  0
LINE
  8
2
  6
CONTINUOUS
 62
1
 10
138.1533081605
 20
-286.5756714967
 11
138.0642781605
 21
-286.4866424967
  0
LINE
  8
2
  6
CONTINUOUS
 62
1
 10
138.7813211605
 20
-286.5756724967
 11
139.4093421605
 21
-286.5756724967
  0
LINE
  8
2
  6
CONTINUOUS
 62
1
 10
139.4093371605
 20
-286.5756694967
 11
139.4983661605
 21
-286.4866404967
  0
LINE
  8
2
  6
CONTINUOUS
 62
1
 10
139.9708511605
 20
-285.9479644967
 11
139.7532621605
 21
-286.0152094967
  0
LINE
  8
2
  6
CONTINUOUS
 62
1
 10
139.5478051605
 20
-286.2423384967
 11
139.4983731605
 21
-286.4866404967
  0
LINE
  8
2
  6
CONTINUOUS
 62
1
 10
139.4832011605
 20
-286.0573904967
 11
139.4597531605
 21
-286.1732734967
  0
LINE
  8
2
  6
CONTINUOUS
 62
1
 10
137.5917951605
 20
-285.9479624967
 11
137.8093841605
 21
-286.0152074967
  0
LINE
  8
2
  6
CONTINUOUS
 62
1
 10
138.0148481605
 20
-286.2423374967
 11
138.0642811605
 21
-286.4866404967
  0
LINE
  8
2
  6
CONTINUOUS
 62
1
 10
138.0794511605
 20
-286.0573904967
 11
138.1028991605
 21
-286.1732724967
  0
LINE
  8
2
  6
CONTINUOUS
 62
1
 10
138.0642791605
 20
-286.4866434967
 11
138.1309464385
 21
-285.9456714967
  0
LINE
  8
2
  6
CONTINUOUS
 62
1
 10
139.4983681605
 20
-286.4866434967
 11
139.4316999181
 21
-285.9456714967
  0
LINE
  8
2
  6
CONTINUOUS
 62
1
 10
138.7813211605
 20
-290.3956714967
 11
139.4093421605
 21
-290.3956714967
  0
LINE
  8
2
  6
CONTINUOUS
 62
1
 10
139.4093401605
 20
-290.3956734967
 11
139.4983691605
 21
-290.4847024967
  0
LINE
  8
2
  6
CONTINUOUS
 62
1
 10
138.7813271605
 20
-290.3956714967
 11
138.1533051605
 21
-290.3956714967
  0
LINE
  8
2
  6
CONTINUOUS
 62
1
 10
138.1533061605
 20
-290.3956724967
 11
138.0642771605
 21
-290.4847014967
  0
LINE
  8
2
  6
CONTINUOUS
 62
1
 10
137.5917941605
 20
-291.0233784967
 11
137.8093851605
 21
-290.9561324967
  0
LINE
  8
2
  6
CONTINUOUS
 62
1
 10
138.0794501605
 20
-290.9139544967
 11
138.1028981605
 21
-290.7980724967
  0
LINE
  8
2
  6
CONTINUOUS
 62
1
 10
139.9708471605
 20
-291.0233774967
 11
139.7532561605
 21
-290.9561314967
  0
LINE
  8
2
  6
CONTINUOUS
 62
1
 10
139.5478021605
 20
-290.7290054967
 11
139.4983691605
 21
-290.4847014967
  0
LINE
  8
2
  6
CONTINUOUS
 62
1
 10
139.4831991605
 20
-290.9139514967
 11
139.4597511605
 21
-290.7980704967
  0
LINE
  8
2
  6
CONTINUOUS
 62
1
 10
139.4983671605
 20
-290.4846974967
 11
139.4292341605
 21
-291.0456694967
  0
LINE
  8
2
  6
CONTINUOUS
 62
1
 10
138.0642701605
 20
-290.4846994967
 11
138.1334031605
 21
-291.0456714967
  0
LINE
  8
2
  6
CONTINUOUS
 62
1
 10
138.0148461605
 20
-290.7290064967
 11
138.0642791605
 21
-290.4847024967
  0
LINE
  8
2
  6
CONTINUOUS
 62
1
 10
138.0717951605
 20
-286.4256704967
 11
135.7813211605
 21
-286.4256704967
  0
LINE
  8
2
  6
CONTINUOUS
 62
1
 10
141.9813221605
 20
-289.4856714967
 11
141.9813221605
 21
-290.8974294967
  0
LINE
  8
2
  6
CONTINUOUS
 62
1
 10
141.4813221605
 20
-289.4356714967
 11
141.4813221605
 21
-291.0456714967
  0
LINE
  8
2
  6
CONTINUOUS
 62
1
 10
137.0313191605
 20
-288.9456714967
 11
137.2813191605
 21
-288.9456714967
  0
LINE
  8
2
  6
CONTINUOUS
 62
1
 10
137.2813191605
 20
-288.5778984967
 11
137.2813191605
 21
-288.9456714967
  0
LINE
  8
2
  6
CONTINUOUS
 62
1
 10
137.0313191605
 20
-288.8988234967
 11
137.0313191605
 21
-288.9456714967
  0
LINE
  8
2
  6
CONTINUOUS
 62
1
 10
136.5313191605
 20
-288.9456714967
 11
136.2813191605
 21
-288.9456714967
  0
LINE
  8
2
  6
CONTINUOUS
 62
1
 10
136.5313191605
 20
-288.8988234967
 11
136.5313191605
 21
-288.9456714967
  0
LINE
  8
2
  6
CONTINUOUS
 62
1
 10
136.2813191605
 20
-288.5778984967
 11
136.2813191605
 21
-288.9456714967
  0
LINE
  8
2
  6
CONTINUOUS
 62
1
 10
136.3750711605
 20
-288.4456724967
 11
136.3273311605
 21
-288.5491214967
  0
LINE
  8
2
  6
CONTINUOUS
 62
1
 10
137.1875701605
 20
-288.4456724967
 11
137.2353101605
 21
-288.5491224967
  0
LINE
  8
2
  6
CONTINUOUS
 62
1
 10
139.5313191605
 20
-288.9456714967
 11
139.7813191605
 21
-288.9456714967
  0
LINE
  8
2
  6
CONTINUOUS
 62
1
 10
139.7813191605
 20
-288.5778984967
 11
139.7813191605
 21
-288.9456714967
  0
LINE
  8
2
  6
CONTINUOUS
 62
1
 10
139.5313191605
 20
-288.8988234967
 11
139.5313191605
 21
-288.9456714967
  0
LINE
  8
2
  6
CONTINUOUS
 62
1
 10
139.0313191605
 20
-288.9456714967
 11
138.7813191605
 21
-288.9456714967
  0
LINE
  8
2
  6
CONTINUOUS
 62
1
 10
139.0313191605
 20
-288.8988234967
 11
139.0313191605
 21
-288.9456714967
  0
LINE
  8
2
  6
CONTINUOUS
 62
1
 10
138.7813191605
 20
-288.5778984967
 11
138.7813191605
 21
-288.9456714967
  0
LINE
  8
2
  6
CONTINUOUS
 62
1
 10
138.8750701605
 20
-288.4456714967
 11
138.8273301605
 21
-288.5491214967
  0
LINE
  8
2
  6
CONTINUOUS
 62
1
 10
139.6875691605
 20
-288.4456734967
 11
139.7353091605
 21
-288.5491224967
  0
ARC
  8
2
  6
CONTINUOUS
 62
1
 10
130.8713191605
 20
-287.2456714967
 40
0.6400000000
 50
89.9999960000
 51
180.0000050000
  0
ARC
  8
2
  6
CONTINUOUS
 62
1
 10
130.1813201605
 20
-286.5256714967
 40
0.6000000000
 50
104.8351115820
 51
180.0000050000
  0
ARC
  8
2
  6
CONTINUOUS
 62
1
 10
129.8513191605
 20
-290.7256704967
 40
0.3200000000
 50
180.0000090000
 51
269.9999970000
  0
ARC
  8
2
  6
CONTINUOUS
 62
1
 10
131.5893771605
 20
-286.1565514967
 40
0.5000000000
 50
11.4389220000
 51
24.9457536051
  0
ARC
  8
2
  6
CONTINUOUS
 62
1
 10
131.7207971605
 20
-286.3018334967
 40
0.3000000000
 50
11.4389220000
 51
72.8263110000
  0
ARC
  8
2
  6
CONTINUOUS
 62
1
 10
133.9732611605
 20
-286.1565514967
 40
0.5000000000
 50
155.0542463949
 51
168.5610770000
  0
ARC
  8
2
  6
CONTINUOUS
 62
1
 10
133.8418371605
 20
-286.3018334967
 40
0.3000000000
 50
107.1736870000
 51
168.5610770000
  0
ARC
  8
2
  6
CONTINUOUS
 62
1
 10
133.9732631605
 20
-290.8147914967
 40
0.5000000000
 50
191.4389230000
 51
207.5006860000
  0
ARC
  8
2
  6
CONTINUOUS
 62
1
 10
134.1184791605
 20
-290.5456704967
 40
0.5000000000
 50
252.8263130000
 51
270.0000040000
  0
ARC
  8
2
  6
CONTINUOUS
 62
1
 10
133.8418371605
 20
-290.6695094967
 40
0.3000000000
 50
191.4389230000
 51
252.8263130000
  0
ARC
  8
2
  6
CONTINUOUS
 62
1
 10
131.5893771605
 20
-290.8147914967
 40
0.5000000000
 50
332.4993140000
 51
348.5610780000
  0
ARC
  8
2
  6
CONTINUOUS
 62
1
 10
131.4441551605
 20
-290.5456704967
 40
0.5000000000
 50
270.0000040000
 51
287.1736890000
  0
ARC
  8
2
  6
CONTINUOUS
 62
1
 10
131.7207971605
 20
-290.6695094967
 40
0.3000000000
 50
287.1736890000
 51
348.5610780000
  0
ARC
  8
2
  6
CONTINUOUS
 62
1
 10
134.7813231605
 20
-288.8988234967
 40
0.2500000000
 50
0.0000090000
 51
90.0000030000
  0
ARC
  8
2
  6
CONTINUOUS
 62
1
 10
134.7813231605
 20
-288.5778984967
 40
0.5000000000
 50
164.6655340000
 51
179.9999910000
  0
ARC
  8
2
  6
CONTINUOUS
 62
1
 10
134.7813231605
 20
-288.3456704967
 40
0.6500000000
 50
247.3801390000
 51
270.0000040000
  0
ARC
  8
2
  6
CONTINUOUS
 62
1
 10
134.7813231605
 20
-288.8988234967
 40
0.2500000000
 50
89.9999960000
 51
179.9999910000
  0
ARC
  8
2
  6
CONTINUOUS
 62
1
 10
134.7813231605
 20
-288.7586294967
 40
0.5000000000
 50
0.0000090000
 51
24.7724080000
  0
ARC
  8
2
  6
CONTINUOUS
 62
1
 10
134.7813231605
 20
-288.5778984967
 40
0.5000000000
 50
0.0000090000
 51
15.3344680000
  0
ARC
  8
2
  6
CONTINUOUS
 62
1
 10
134.7813231605
 20
-288.3456704967
 40
0.6500000000
 50
270.0000040000
 51
292.6198700000
  0
ARC
  8
2
  6
CONTINUOUS
 62
1
 10
134.7813231605
 20
-288.7586294967
 40
0.5000000000
 50
155.2275920000
 51
179.9999910000
  0
ARC
  8
2
  6
CONTINUOUS
 62
1
 10
132.2813231605
 20
-288.7586294967
 40
0.5000000000
 50
155.2275920000
 51
179.9999910000
  0
ARC
  8
2
  6
CONTINUOUS
 62
1
 10
132.2813231605
 20
-288.8988234967
 40
0.2500000000
 50
0.0000090000
 51
90.0000030000
  0
ARC
  8
2
  6
CONTINUOUS
 62
1
 10
132.2813231605
 20
-288.5778984967
 40
0.5000000000
 50
164.6655340000
 51
179.9999910000
  0
ARC
  8
2
  6
CONTINUOUS
 62
1
 10
132.2813231605
 20
-288.3456704967
 40
0.6500000000
 50
247.3801390000
 51
270.0000040000
  0
ARC
  8
2
  6
CONTINUOUS
 62
1
 10
132.2813231605
 20
-288.8988234967
 40
0.2500000000
 50
89.9999960000
 51
179.9999910000
  0
ARC
  8
2
  6
CONTINUOUS
 62
1
 10
132.2813231605
 20
-288.7586294967
 40
0.5000000000
 50
0.0000090000
 51
24.7724080000
  0
ARC
  8
2
  6
CONTINUOUS
 62
1
 10
132.2813231605
 20
-288.5778984967
 40
0.5000000000
 50
0.0000090000
 51
15.3344680000
  0
ARC
  8
2
  6
CONTINUOUS
 62
1
 10
132.2813231605
 20
-288.3456704967
 40
0.6500000000
 50
270.0000040000
 51
292.6198700000
  0
ARC
  8
2
  6
CONTINUOUS
 62
1
 10
139.2813191605
 20
-288.3456704967
 40
0.6500000000
 50
247.3801320000
 51
269.9999970000
  0
ARC
  8
2
  6
CONTINUOUS
 62
1
 10
139.2813191605
 20
-288.5778984967
 40
0.5000000000
 50
164.6655340000
 51
179.9999910000
  0
ARC
  8
2
  6
CONTINUOUS
 62
1
 10
140.6913231605
 20
-287.2456714967
 40
0.6400000000
 50
0.0000000000
 51
90.0000030000
  0
ARC
  8
2
  6
CONTINUOUS
 62
1
 10
141.3813211605
 20
-286.5256714967
 40
0.6000000000
 50
0.0000000000
 51
75.1648884180
  0
ARC
  8
2
  6
CONTINUOUS
 62
1
 10
141.7113231605
 20
-290.7256704967
 40
0.3200000000
 50
269.9999970000
 51
0.0000000000
  0
ARC
  8
2
  6
CONTINUOUS
 62
1
 10
139.9732651605
 20
-286.1565514967
 40
0.5000000000
 50
155.0542463949
 51
168.5610770000
  0
ARC
  8
2
  6
CONTINUOUS
 62
1
 10
139.8418431605
 20
-286.3018334967
 40
0.3000000000
 50
107.1736870000
 51
168.5610770000
  0
ARC
  8
2
  6
CONTINUOUS
 62
1
 10
137.5893811605
 20
-286.1565514967
 40
0.5000000000
 50
11.4389220000
 51
24.9457536051
  0
ARC
  8
2
  6
CONTINUOUS
 62
1
 10
137.7208051605
 20
-286.3018334967
 40
0.3000000000
 50
11.4389220000
 51
72.8263110000
  0
ARC
  8
2
  6
CONTINUOUS
 62
1
 10
137.5893771605
 20
-290.8147914967
 40
0.5000000000
 50
332.4993140000
 51
348.5610780000
  0
ARC
  8
2
  6
CONTINUOUS
 62
1
 10
137.4441631605
 20
-290.5456704967
 40
0.5000000000
 50
269.9999970000
 51
287.1736890000
  0
ARC
  8
2
  6
CONTINUOUS
 62
1
 10
137.7208051605
 20
-290.6695094967
 40
0.3000000000
 50
287.1736890000
 51
348.5610780000
  0
ARC
  8
2
  6
CONTINUOUS
 62
1
 10
139.9732651605
 20
-290.8147914967
 40
0.5000000000
 50
191.4389230000
 51
207.5006860000
  0
ARC
  8
2
  6
CONTINUOUS
 62
1
 10
140.1184851605
 20
-290.5456704967
 40
0.5000000000
 50
252.8263130000
 51
269.9999970000
  0
ARC
  8
2
  6
CONTINUOUS
 62
1
 10
139.8418431605
 20
-290.6695094967
 40
0.3000000000
 50
191.4389230000
 51
252.8263130000
  0
ARC
  8
2
  6
CONTINUOUS
 62
1
 10
136.7813191605
 20
-288.8988234967
 40
0.2500000000
 50
89.9999960000
 51
179.9999910000
  0
ARC
  8
2
  6
CONTINUOUS
 62
1
 10
136.7813191605
 20
-288.5778984967
 40
0.5000000000
 50
0.0000030000
 51
15.3344680000
  0
ARC
  8
2
  6
CONTINUOUS
 62
1
 10
136.7813191605
 20
-288.3456704967
 40
0.6500000000
 50
269.9999970000
 51
292.6198630000
  0
ARC
  8
2
  6
CONTINUOUS
 62
1
 10
136.7813191605
 20
-288.8988234967
 40
0.2500000000
 50
0.0000030000
 51
90.0000030000
  0
ARC
  8
2
  6
CONTINUOUS
 62
1
 10
136.7813191605
 20
-288.7586294967
 40
0.5000000000
 50
155.2275920000
 51
179.9999910000
  0
ARC
  8
2
  6
CONTINUOUS
 62
1
 10
136.7813191605
 20
-288.5778984967
 40
0.5000000000
 50
164.6655340000
 51
179.9999910000
  0
ARC
  8
2
  6
CONTINUOUS
 62
1
 10
136.7813191605
 20
-288.3456704967
 40
0.6500000000
 50
247.3801320000
 51
269.9999970000
  0
ARC
  8
2
  6
CONTINUOUS
 62
1
 10
136.7813191605
 20
-288.7586294967
 40
0.5000000000
 50
0.0000090000
 51
24.7724080000
  0
ARC
  8
2
  6
CONTINUOUS
 62
1
 10
139.2813191605
 20
-288.7586294967
 40
0.5000000000
 50
0.0000090000
 51
24.7724080000
  0
ARC
  8
2
  6
CONTINUOUS
 62
1
 10
139.2813191605
 20
-288.8988234967
 40
0.2500000000
 50
89.9999960000
 51
179.9999910000
  0
ARC
  8
2
  6
CONTINUOUS
 62
1
 10
139.2813191605
 20
-288.5778984967
 40
0.5000000000
 50
0.0000030000
 51
15.3344680000
  0
ARC
  8
2
  6
CONTINUOUS
 62
1
 10
139.2813191605
 20
-288.3456704967
 40
0.6500000000
 50
269.9999970000
 51
292.6198630000
  0
ARC
  8
2
  6
CONTINUOUS
 62
1
 10
139.2813191605
 20
-288.8988234967
 40
0.2500000000
 50
0.0000030000
 51
90.0000030000
  0
ARC
  8
2
  6
CONTINUOUS
 62
1
 10
139.2813191605
 20
-288.7586294967
 40
0.5000000000
 50
155.2275920000
 51
179.9999910000
  0
LINE
  8
2
  6
CONTINUOUS
 62
1
 10
141.7113231437
 20
-291.0456704967
 11
129.8513191605
 21
-291.0456704967
  0
LINE
  8
1
  6
CONTINUOUS
 62
1
 10
129.5313206605
 20
-285.9456714967
 11
142.0313206605
 21
-285.9456714967
  0
LINE
  8
1
  6
CONTINUOUS
 62
1
 10
142.0313206605
 20
-285.9456714967
 11
142.0313206605
 21
-291.3456714967
  0
LINE
  8
1
  6
CONTINUOUS
 62
1
 10
142.0313206605
 20
-291.3456714967
 11
129.5313206605
 21
-291.3456714967
  0
LINE
  8
1
  6
CONTINUOUS
 62
1
 10
129.5313206605
 20
-291.3456714967
 11
129.5313206605
 21
-285.9456714967
  0
POINT
  8
3
  6
CONTINUOUS
 62
7
 10
135.7813206605
 20
-288.3456714967
  0
CIRCLE
  8
3
  6
CONTINUOUS
 62
6
 10
263.9407145103
 20
-283.4955929806
 40
3.0285714286
  0
LINE
  8
3
  6
CONTINUOUS
 62
6
 10
262.6022623888
 20
-282.1571408591
 11
265.2791666318
 21
-284.8340451021
  0
LINE
  8
3
  6
CONTINUOUS
 62
6
 10
262.6022623888
 20
-284.8340451021
 11
265.2791666318
 21
-282.1571408591
  0
CIRCLE
  8
3
  6
CONTINUOUS
 62
6
 10
263.9407145103
 20
-283.4955929806
 40
2.6500000000
  0
CIRCLE
  8
3
  6
CONTINUOUS
 62
6
 10
263.9407145103
 20
-254.4955929806
 40
3.0285714286
  0
LINE
  8
3
  6
CONTINUOUS
 62
6
 10
262.6022623888
 20
-253.1571408591
 11
265.2791666318
 21
-255.8340451021
  0
LINE
  8
3
  6
CONTINUOUS
 62
6
 10
262.6022623888
 20
-255.8340451021
 11
265.2791666318
 21
-253.1571408591
  0
CIRCLE
  8
3
  6
CONTINUOUS
 62
6
 10
263.9407145103
 20
-254.4955929806
 40
2.6500000000
  0
LINE
  8
1
  6
HIDDEN
 62
1
 10
272.4407145103
 20
-251.1955929806
 11
255.4407145103
 21
-251.1955929806
  0
LINE
  8
1
  6
HIDDEN
 62
1
 10
254.4407145103
 20
-285.7955929806
 11
254.4407145103
 21
-284.9955929806
  0
LINE
  8
1
  6
HIDDEN
 62
1
 10
254.4407145103
 20
-281.9955929806
 11
254.4407145103
 21
-255.9955929806
  0
LINE
  8
1
  6
HIDDEN
 62
1
 10
254.4407145103
 20
-252.9955929806
 11
254.4407145103
 21
-252.1955929806
  0
LINE
  8
1
  6
HIDDEN
 62
1
 10
255.4407145103
 20
-286.7955929806
 11
272.4407145103
 21
-286.7955929806
  0
LINE
  8
1
  6
HIDDEN
 62
1
 10
273.4407145103
 20
-285.7955929806
 11
273.4407145103
 21
-284.9955929806
  0
LINE
  8
1
  6
HIDDEN
 62
1
 10
273.4407145103
 20
-281.9955929806
 11
273.4407145103
 21
-255.9955929806
  0
LINE
  8
1
  6
HIDDEN
 62
1
 10
273.4407145103
 20
-252.9955929806
 11
273.4407145103
 21
-252.1955929806
  0
LINE
  8
1
  6
CONTINUOUS
 62
1
 10
256.0407145103
 20
-257.5955929806
 11
271.8407145103
 21
-257.5955929806
  0
LINE
  8
1
  6
CONTINUOUS
 62
1
 10
255.5407145103
 20
-279.8955929806
 11
255.5407145103
 21
-258.0955929806
  0
LINE
  8
1
  6
CONTINUOUS
 62
1
 10
271.8407145103
 20
-280.3955929806
 11
256.0407145103
 21
-280.3955929806
  0
LINE
  8
1
  6
CONTINUOUS
 62
1
 10
272.3407145103
 20
-279.8955929806
 11
272.3407145103
 21
-258.0955929806
  0
ARC
  8
1
  6
HIDDEN
 62
1
 10
255.4407145103
 20
-252.1955929806
 40
1.0000000000
 50
90.0000000000
 51
180.0000000000
  0
ARC
  8
1
  6
HIDDEN
 62
1
 10
272.4407145103
 20
-252.1955929806
 40
1.0000000000
 50
0.0000000000
 51
90.0000000000
  0
ARC
  8
1
  6
HIDDEN
 62
1
 10
272.4407145103
 20
-285.7955929806
 40
1.0000000000
 50
270.0000000000
 51
0.0000000000
  0
ARC
  8
1
  6
HIDDEN
 62
1
 10
255.4407145103
 20
-285.7955929806
 40
1.0000000000
 50
180.0000000000
 51
270.0000000000
  0
LINE
  8
1
  6
HIDDEN
 62
1
 10
254.4407145103
 20
-284.9955929806
 11
256.4407145103
 21
-284.9955929806
  0
LINE
  8
1
  6
HIDDEN
 62
1
 10
256.4407145103
 20
-284.9955929806
 11
256.4407145103
 21
-281.9955929806
  0
LINE
  8
1
  6
HIDDEN
 62
1
 10
256.4407145103
 20
-281.9955929806
 11
254.4407145103
 21
-281.9955929806
  0
LINE
  8
1
  6
HIDDEN
 62
1
 10
273.4407145103
 20
-284.9955929806
 11
271.4407145103
 21
-284.9955929806
  0
LINE
  8
1
  6
HIDDEN
 62
1
 10
271.4407145103
 20
-284.9955929806
 11
271.4407145103
 21
-281.9955929806
  0
LINE
  8
1
  6
HIDDEN
 62
1
 10
271.4407145103
 20
-281.9955929806
 11
273.4407145103
 21
-281.9955929806
  0
LINE
  8
1
  6
HIDDEN
 62
1
 10
273.4407145103
 20
-252.9955929806
 11
271.4407145103
 21
-252.9955929806
  0
LINE
  8
1
  6
HIDDEN
 62
1
 10
271.4407145103
 20
-252.9955929806
 11
271.4407145103
 21
-255.9955929806
  0
LINE
  8
1
  6
HIDDEN
 62
1
 10
271.4407145103
 20
-255.9955929806
 11
273.4407145103
 21
-255.9955929806
  0
LINE
  8
1
  6
HIDDEN
 62
1
 10
254.4407145103
 20
-252.9955929806
 11
256.4407145103
 21
-252.9955929806
  0
LINE
  8
1
  6
HIDDEN
 62
1
 10
256.4407145103
 20
-252.9955929806
 11
256.4407145103
 21
-255.9955929806
  0
LINE
  8
1
  6
HIDDEN
 62
1
 10
256.4407145103
 20
-255.9955929806
 11
254.4407145103
 21
-255.9955929806
  0
ARC
  8
1
  6
CONTINUOUS
 62
1
 10
271.8407145103
 20
-258.0955929806
 40
0.5000000000
 50
0.0000000000
 51
90.0000000000
  0
ARC
  8
1
  6
CONTINUOUS
 62
1
 10
256.0407145103
 20
-258.0955929806
 40
0.5000000000
 50
90.0000000000
 51
180.0000000000
  0
ARC
  8
1
  6
CONTINUOUS
 62
1
 10
256.0407145103
 20
-279.8955929806
 40
0.5000000000
 50
180.0000000000
 51
270.0000000000
  0
ARC
  8
1
  6
CONTINUOUS
 62
1
 10
271.8407145103
 20
-279.8955929806
 40
0.5000000000
 50
270.0000000000
 51
0.0000000000
  0
LINE
  8
3
  6
CONTINUOUS
 62
1
 10
259.4289378150
 20
-264.9573696759
 11
261.1124912056
 21
-263.2738162853
  0
LINE
  8
3
  6
CONTINUOUS
 62
1
 10
259.8270139334
 20
-265.0842935575
 11
261.2044150872
 21
-263.7068924037
  0
LINE
  8
3
  6
CONTINUOUS
 62
1
 10
259.3557145103
 20
-271.4405929806
 11
259.3557145103
 21
-270.5455929806
  0
LINE
  8
3
  6
CONTINUOUS
 62
1
 10
259.3557145103
 20
-266.0455929806
 11
259.3557145103
 21
-265.1341463712
  0
LINE
  8
3
  6
CONTINUOUS
 62
1
 10
259.5607145103
 20
-266.5455929806
 11
259.5607145103
 21
-270.0455929806
  0
LINE
  8
3
  6
CONTINUOUS
 62
1
 10
259.6215311664
 20
-266.5455929806
 11
259.6215311664
 21
-270.0455929806
  0
LINE
  8
3
  6
CONTINUOUS
 62
1
 10
259.7157145103
 20
-271.0155929806
 11
259.7157145103
 21
-270.5455929806
  0
LINE
  8
3
  6
CONTINUOUS
 62
1
 10
259.7157145103
 20
-266.0455929806
 11
259.7157145103
 21
-265.3529941343
  0
LINE
  8
3
  6
CONTINUOUS
 62
1
 10
261.1407145103
 20
-268.7855929806
 11
261.1407145103
 21
-266.2055929806
  0
LINE
  8
3
  6
CONTINUOUS
 62
1
 10
268.2757145103
 20
-271.6905929806
 11
259.6057145103
 21
-271.6905929806
  0
LINE
  8
3
  6
CONTINUOUS
 62
1
 10
261.6407145103
 20
-268.5855929806
 11
261.6407145103
 21
-266.4055929806
  0
LINE
  8
3
  6
CONTINUOUS
 62
1
 10
267.7857145103
 20
-271.3955929806
 11
260.0957145103
 21
-271.3955929806
  0
LINE
  8
3
  6
CONTINUOUS
 62
1
 10
262.1907145103
 20
-270.0954831177
 11
262.1907145103
 21
-269.0855929806
  0
LINE
  8
3
  6
CONTINUOUS
 62
1
 10
262.1907145103
 20
-265.9055929806
 11
262.1907145103
 21
-264.8957028435
  0
LINE
  8
3
  6
CONTINUOUS
 62
1
 10
263.1907145103
 20
-270.0954831177
 11
263.1907145103
 21
-269.0855929806
  0
LINE
  8
3
  6
CONTINUOUS
 62
1
 10
263.1907145103
 20
-265.9055929806
 11
263.1907145103
 21
-264.8957028435
  0
LINE
  8
3
  6
CONTINUOUS
 62
1
 10
265.6907145103
 20
-270.0955929806
 11
264.6907145103
 21
-270.0955929806
  0
LINE
  8
3
  6
CONTINUOUS
 62
1
 10
263.1907145103
 20
-270.0955929806
 11
262.1907145103
 21
-270.0955929806
  0
LINE
  8
3
  6
CONTINUOUS
 62
1
 10
266.4407145103
 20
-269.0855929806
 11
261.4407145103
 21
-269.0855929806
  0
LINE
  8
3
  6
CONTINUOUS
 62
1
 10
266.2407145103
 20
-268.5855929806
 11
261.6407145103
 21
-268.5855929806
  0
LINE
  8
3
  6
CONTINUOUS
 62
1
 10
264.6907145103
 20
-270.0954831177
 11
264.6907145103
 21
-269.0855929806
  0
LINE
  8
3
  6
CONTINUOUS
 62
1
 10
264.6907145103
 20
-265.9055929806
 11
264.6907145103
 21
-264.8957028435
  0
LINE
  8
3
  6
CONTINUOUS
 62
1
 10
265.6907145103
 20
-270.0954831177
 11
265.6907145103
 21
-269.0855929806
  0
LINE
  8
3
  6
CONTINUOUS
 62
1
 10
265.6907145103
 20
-265.9055929806
 11
265.6907145103
 21
-264.8957028435
  0
LINE
  8
3
  6
CONTINUOUS
 62
1
 10
266.2407145103
 20
-266.4055929806
 11
266.2407145103
 21
-268.5855929806
  0
LINE
  8
3
  6
CONTINUOUS
 62
1
 10
266.7407145103
 20
-268.7855929806
 11
266.7407145103
 21
-266.2055929806
  0
LINE
  8
3
  6
CONTINUOUS
 62
1
 10
261.6407145103
 20
-266.4055929806
 11
266.2407145103
 21
-266.4055929806
  0
LINE
  8
3
  6
CONTINUOUS
 62
1
 10
261.4407145103
 20
-265.9055929806
 11
266.4407145103
 21
-265.9055929806
  0
LINE
  8
3
  6
CONTINUOUS
 62
1
 10
267.8656825548
 20
-266.5455929806
 11
267.8656825548
 21
-270.0455929806
  0
LINE
  8
3
  6
CONTINUOUS
 62
1
 10
267.9211330354
 20
-266.5455929806
 11
267.9211330354
 21
-270.0455929806
  0
LINE
  8
3
  6
CONTINUOUS
 62
1
 10
268.1657145103
 20
-265.3529941343
 11
268.1657145103
 21
-266.0455929806
  0
LINE
  8
3
  6
CONTINUOUS
 62
1
 10
268.1657145103
 20
-270.5455929806
 11
268.1657145103
 21
-271.0155929806
  0
LINE
  8
3
  6
CONTINUOUS
 62
1
 10
268.2598978542
 20
-266.5455929806
 11
268.2598978542
 21
-270.0455929806
  0
LINE
  8
3
  6
CONTINUOUS
 62
1
 10
268.3207145103
 20
-266.5455929806
 11
268.3207145103
 21
-270.0455929806
  0
LINE
  8
3
  6
CONTINUOUS
 62
1
 10
268.5257145103
 20
-265.1341463712
 11
268.5257145103
 21
-266.0455929806
  0
LINE
  8
3
  6
CONTINUOUS
 62
1
 10
268.5257145103
 20
-270.5455929806
 11
268.5257145103
 21
-271.4405929806
  0
LINE
  8
3
  6
CONTINUOUS
 62
1
 10
265.6907145103
 20
-264.8955929806
 11
264.6907145103
 21
-264.8955929806
  0
LINE
  8
3
  6
CONTINUOUS
 62
1
 10
263.1907145103
 20
-264.8955929806
 11
262.1907145103
 21
-264.8955929806
  0
LINE
  8
3
  6
CONTINUOUS
 62
1
 10
261.4731156640
 20
-263.5955929806
 11
266.4083133566
 21
-263.5955929806
  0
LINE
  8
3
  6
CONTINUOUS
 62
1
 10
266.6770139334
 20
-263.7068924037
 11
268.0544150872
 21
-265.0842935575
  0
LINE
  8
3
  6
CONTINUOUS
 62
1
 10
261.2892679009
 20
-263.2005929806
 11
266.5921611197
 21
-263.2005929806
  0
LINE
  8
3
  6
CONTINUOUS
 62
1
 10
266.7689378150
 20
-263.2738162853
 11
268.4524912056
 21
-264.9573696759
  0
ARC
  8
3
  6
CONTINUOUS
 62
1
 10
268.2757145103
 20
-271.4405929806
 40
0.2500000000
 50
270.0000000000
 51
0.0000000000
  0
ARC
  8
3
  6
CONTINUOUS
 62
1
 10
259.6057145103
 20
-271.4405929806
 40
0.2500000000
 50
180.0000000000
 51
270.0000000000
  0
ARC
  8
3
  6
CONTINUOUS
 62
1
 10
268.2757145103
 20
-265.1341463712
 40
0.2500000000
 50
0.0000000000
 51
45.0000000000
  0
ARC
  8
3
  6
CONTINUOUS
 62
1
 10
266.5921611197
 20
-263.4505929806
 40
0.2500000000
 50
45.0000000000
 51
90.0000000000
  0
ARC
  8
3
  6
CONTINUOUS
 62
1
 10
259.6057145103
 20
-265.1341463712
 40
0.2500000000
 50
135.0000000000
 51
180.0000000000
  0
ARC
  8
3
  6
CONTINUOUS
 62
1
 10
261.2892679009
 20
-263.4505929806
 40
0.2500000000
 50
90.0000000000
 51
135.0000000000
  0
ARC
  8
3
  6
CONTINUOUS
 62
1
 10
266.4407145103
 20
-268.7855929806
 40
0.3000000000
 50
270.0000000000
 51
0.0000000000
  0
ARC
  8
3
  6
CONTINUOUS
 62
1
 10
261.4407145103
 20
-268.7855929806
 40
0.3000000000
 50
180.0000000000
 51
270.0000000000
  0
ARC
  8
3
  6
CONTINUOUS
 62
1
 10
261.4407145103
 20
-266.2055929806
 40
0.3000000000
 50
90.0000000000
 51
180.0000000000
  0
ARC
  8
3
  6
CONTINUOUS
 62
1
 10
266.4407145103
 20
-266.2055929806
 40
0.3000000000
 50
0.0000000000
 51
90.0000000000
  0
ARC
  8
3
  6
CONTINUOUS
 62
1
 10
267.7857145103
 20
-265.3529941343
 40
0.3800000000
 50
0.0000000000
 51
45.0000000000
  0
ARC
  8
3
  6
CONTINUOUS
 62
1
 10
266.4083133566
 20
-263.9755929806
 40
0.3800000000
 50
45.0000000000
 51
90.0000000000
  0
ARC
  8
3
  6
CONTINUOUS
 62
1
 10
261.4731156640
 20
-263.9755929806
 40
0.3800000000
 50
90.0000000000
 51
135.0000000000
  0
ARC
  8
3
  6
CONTINUOUS
 62
1
 10
260.0957145103
 20
-265.3529941343
 40
0.3800000000
 50
135.0000000000
 51
180.0000000000
  0
ARC
  8
3
  6
CONTINUOUS
 62
1
 10
267.7857145103
 20
-271.0155929806
 40
0.3800000000
 50
270.0000000000
 51
0.0000000000
  0
ARC
  8
3
  6
CONTINUOUS
 62
1
 10
260.0957145103
 20
-271.0155929806
 40
0.3800000000
 50
180.0000000000
 51
270.0000000000
  0
LINE
  8
3
  6
CONTINUOUS
 62
1
 10
260.0157464658
 20
-266.5455929806
 11
260.0157464658
 21
-270.0455929806
  0
LINE
  8
3
  6
CONTINUOUS
 62
1
 10
259.9602959852
 20
-266.5455929806
 11
259.9602959852
 21
-270.0455929806
  0
LINE
  8
3
  6
CONTINUOUS
 62
1
 10
268.1657145103
 20
-266.0455929806
 11
268.5257145103
 21
-266.0455929806
  0
LINE
  8
3
  6
CONTINUOUS
 62
1
 10
267.8657145103
 20
-266.5455929806
 11
268.5257145103
 21
-266.5455929805
  0
LINE
  8
3
  6
CONTINUOUS
 62
1
 10
268.5257145103
 20
-270.0455929806
 11
267.8657145103
 21
-270.0455929806
  0
LINE
  8
3
  6
CONTINUOUS
 62
1
 10
260.0157464658
 20
-270.0455929806
 11
259.3557145103
 21
-270.0455929806
  0
LINE
  8
3
  6
CONTINUOUS
 62
1
 10
259.3557145103
 20
-270.5455929806
 11
259.7157145103
 21
-270.5455929806
  0
LINE
  8
3
  6
CONTINUOUS
 62
1
 10
259.3557145103
 20
-266.5455929806
 11
260.0157464658
 21
-266.5455929806
  0
LINE
  8
3
  6
CONTINUOUS
 62
1
 10
259.3557145103
 20
-266.0455929806
 11
259.7157145103
 21
-266.0455929806
  0
LINE
  8
1
  6
CONTINUOUS
 62
1
 10
259.3557145103
 20
-265.0305929806
 11
261.1857145103
 21
-263.2005929806
  0
LINE
  8
1
  6
CONTINUOUS
 62
1
 10
261.1857145103
 20
-263.2005929806
 11
266.6957145103
 21
-263.2005929806
  0
LINE
  8
1
  6
CONTINUOUS
 62
1
 10
266.6957145103
 20
-263.2005929806
 11
268.5257145103
 21
-265.0305929806
  0
LINE
  8
1
  6
CONTINUOUS
 62
1
 10
268.5257145103
 20
-265.0305929806
 11
268.5257145103
 21
-271.6905929806
  0
LINE
  8
1
  6
CONTINUOUS
 62
1
 10
268.5257145103
 20
-271.6905929806
 11
259.3557145103
 21
-271.6905929806
  0
LINE
  8
1
  6
CONTINUOUS
 62
1
 10
259.3557145103
 20
-271.6905929806
 11
259.3557145103
 21
-265.0305929806
  0
POINT
  8
3
  6
CONTINUOUS
 62
7
 10
263.9407145103
 20
-268.9955929806
  0
LINE
  8
1
  6
CONTINUOUS
 62
7
 10
255.4407145103
 20
-257.4955929806
 11
272.4407145103
 21
-257.4955929806
  0
LINE
  8
1
  6
CONTINUOUS
 62
7
 10
272.4407145103
 20
-257.4955929806
 11
272.4407145103
 21
-280.4955929806
  0
LINE
  8
1
  6
CONTINUOUS
 62
7
 10
272.4407145103
 20
-280.4955929806
 11
255.4407145103
 21
-280.4955929806
  0
LINE
  8
1
  6
CONTINUOUS
 62
7
 10
255.4407145103
 20
-280.4955929806
 11
255.4407145103
 21
-257.4955929806
  0
CIRCLE
  8
3
  6
CONTINUOUS
 62
6
 10
221.9907145103
 20
-283.4955929806
 40
3.0285714286
  0
LINE
  8
3
  6
CONTINUOUS
 62
6
 10
220.6522623888
 20
-282.1571408591
 11
223.3291666318
 21
-284.8340451021
  0
LINE
  8
3
  6
CONTINUOUS
 62
6
 10
220.6522623888
 20
-284.8340451021
 11
223.3291666318
 21
-282.1571408591
  0
CIRCLE
  8
3
  6
CONTINUOUS
 62
6
 10
221.9907145103
 20
-254.4955929806
 40
3.0285714286
  0
LINE
  8
3
  6
CONTINUOUS
 62
6
 10
220.6522623888
 20
-253.1571408591
 11
223.3291666318
 21
-255.8340451021
  0
LINE
  8
3
  6
CONTINUOUS
 62
6
 10
220.6522623888
 20
-255.8340451021
 11
223.3291666318
 21
-253.1571408591
  0
LINE
  8
1
  6
HIDDEN
 62
1
 10
230.4907145103
 20
-251.1955929806
 11
213.4907145103
 21
-251.1955929806
  0
LINE
  8
1
  6
HIDDEN
 62
1
 10
212.4907145103
 20
-285.7955929806
 11
212.4907145103
 21
-284.9955929806
  0
LINE
  8
1
  6
HIDDEN
 62
1
 10
212.4907145103
 20
-281.9955929806
 11
212.4907145103
 21
-255.9955929806
  0
LINE
  8
1
  6
HIDDEN
 62
1
 10
212.4907145103
 20
-252.9955929806
 11
212.4907145103
 21
-252.1955929806
  0
LINE
  8
1
  6
HIDDEN
 62
1
 10
213.4907145103
 20
-286.7955929806
 11
230.4907145103
 21
-286.7955929806
  0
LINE
  8
1
  6
HIDDEN
 62
1
 10
231.4907145103
 20
-285.7955929806
 11
231.4907145103
 21
-284.9955929806
  0
LINE
  8
1
  6
HIDDEN
 62
1
 10
231.4907145103
 20
-281.9955929806
 11
231.4907145103
 21
-255.9955929806
  0
LINE
  8
1
  6
HIDDEN
 62
1
 10
231.4907145103
 20
-252.9955929806
 11
231.4907145103
 21
-252.1955929806
  0
LINE
  8
1
  6
CONTINUOUS
 62
1
 10
214.0907145103
 20
-257.5955929806
 11
229.8907145103
 21
-257.5955929806
  0
LINE
  8
1
  6
CONTINUOUS
 62
1
 10
213.5907145103
 20
-279.8955929806
 11
213.5907145103
 21
-258.0955929806
  0
LINE
  8
1
  6
CONTINUOUS
 62
1
 10
229.8907145103
 20
-280.3955929806
 11
214.0907145103
 21
-280.3955929806
  0
LINE
  8
1
  6
CONTINUOUS
 62
1
 10
230.3907145103
 20
-279.8955929806
 11
230.3907145103
 21
-258.0955929806
  0
ARC
  8
1
  6
HIDDEN
 62
1
 10
213.4907145103
 20
-252.1955929806
 40
1.0000000000
 50
90.0000000000
 51
180.0000000000
  0
ARC
  8
1
  6
HIDDEN
 62
1
 10
230.4907145103
 20
-252.1955929806
 40
1.0000000000
 50
0.0000000000
 51
90.0000000000
  0
ARC
  8
1
  6
HIDDEN
 62
1
 10
230.4907145103
 20
-285.7955929806
 40
1.0000000000
 50
270.0000000000
 51
0.0000000000
  0
ARC
  8
1
  6
HIDDEN
 62
1
 10
213.4907145103
 20
-285.7955929806
 40
1.0000000000
 50
180.0000000000
 51
270.0000000000
  0
LINE
  8
1
  6
HIDDEN
 62
1
 10
212.4907145103
 20
-284.9955929806
 11
214.4907145103
 21
-284.9955929806
  0
LINE
  8
1
  6
HIDDEN
 62
1
 10
214.4907145103
 20
-284.9955929806
 11
214.4907145103
 21
-281.9955929806
  0
LINE
  8
1
  6
HIDDEN
 62
1
 10
214.4907145103
 20
-281.9955929806
 11
212.4907145103
 21
-281.9955929806
  0
LINE
  8
1
  6
HIDDEN
 62
1
 10
231.4907145103
 20
-284.9955929806
 11
229.4907145103
 21
-284.9955929806
  0
LINE
  8
1
  6
HIDDEN
 62
1
 10
229.4907145103
 20
-284.9955929806
 11
229.4907145103
 21
-281.9955929806
  0
LINE
  8
1
  6
HIDDEN
 62
1
 10
229.4907145103
 20
-281.9955929806
 11
231.4907145103
 21
-281.9955929806
  0
LINE
  8
1
  6
HIDDEN
 62
1
 10
231.4907145103
 20
-252.9955929806
 11
229.4907145103
 21
-252.9955929806
  0
LINE
  8
1
  6
HIDDEN
 62
1
 10
229.4907145103
 20
-252.9955929806
 11
229.4907145103
 21
-255.9955929806
  0
LINE
  8
1
  6
HIDDEN
 62
1
 10
229.4907145103
 20
-255.9955929806
 11
231.4907145103
 21
-255.9955929806
  0
LINE
  8
1
  6
HIDDEN
 62
1
 10
212.4907145103
 20
-252.9955929806
 11
214.4907145103
 21
-252.9955929806
  0
LINE
  8
1
  6
HIDDEN
 62
1
 10
214.4907145103
 20
-252.9955929806
 11
214.4907145103
 21
-255.9955929806
  0
LINE
  8
1
  6
HIDDEN
 62
1
 10
214.4907145103
 20
-255.9955929806
 11
212.4907145103
 21
-255.9955929806
  0
ARC
  8
1
  6
CONTINUOUS
 62
1
 10
229.8907145103
 20
-258.0955929806
 40
0.5000000000
 50
0.0000000000
 51
90.0000000000
  0
ARC
  8
1
  6
CONTINUOUS
 62
1
 10
214.0907145103
 20
-258.0955929806
 40
0.5000000000
 50
90.0000000000
 51
180.0000000000
  0
ARC
  8
1
  6
CONTINUOUS
 62
1
 10
214.0907145103
 20
-279.8955929806
 40
0.5000000000
 50
180.0000000000
 51
270.0000000000
  0
ARC
  8
1
  6
CONTINUOUS
 62
1
 10
229.8907145103
 20
-279.8955929806
 40
0.5000000000
 50
270.0000000000
 51
0.0000000000
  0
LINE
  8
1
  6
CONTINUOUS
 62
7
 10
213.4907145103
 20
-257.4955929806
 11
230.4907145103
 21
-257.4955929806
  0
LINE
  8
1
  6
CONTINUOUS
 62
7
 10
230.4907145103
 20
-257.4955929806
 11
230.4907145103
 21
-280.4955929806
  0
LINE
  8
1
  6
CONTINUOUS
 62
7
 10
230.4907145103
 20
-280.4955929806
 11
213.4907145103
 21
-280.4955929806
  0
LINE
  8
1
  6
CONTINUOUS
 62
7
 10
213.4907145103
 20
-280.4955929806
 11
213.4907145103
 21
-257.4955929806
  0
POINT
  8
3
  6
CONTINUOUS
 62
7
 10
221.9907145103
 20
-268.9955929806
  0
POINT
  8
3
  6
CONTINUOUS
 62
7
 10
221.9907145103
 20
-268.9955929806
  0
TEXT
  8
5
  6
CONTINUOUS
 62
7
 10
375.656774
 20
-272.036321
 40
3.000000
  1
MADOKA
 41
1.028831
 50
0.000000
 51
0.000000
 72
   5
 73
   0
 11
387.539774
 21
-272.036321
  0
POINT
  8
5
  6
CONTINUOUS
 62
6
 10
7.7490435001
 20
-56.9655230621
  0
POINT
  8
5
  6
CONTINUOUS
 62
6
 10
7.7490435001
 20
-56.9655230621
  0
POINT
  8
5
  6
CONTINUOUS
 62
6
 10
7.7490435001
 20
-51.9655230621
  0
POINT
  8
5
  6
CONTINUOUS
 62
6
 10
7.7490435001
 20
-51.9655230621
  0
POINT
  8
5
  6
CONTINUOUS
 62
6
 10
7.7490435000
 20
-46.9655230621
  0
POINT
  8
5
  6
CONTINUOUS
 62
6
 10
7.7490435000
 20
-46.9655230621
  0
POINT
  8
5
  6
CONTINUOUS
 62
6
 10
7.7490435000
 20
-46.9655230621
  0
LINE
  8
5
  6
CONTINUOUS
 62
6
 10
3.2490435001
 20
-44.4655230621
 11
97.7490435001
 21
-44.4655230621
  0
POINT
  8
5
  6
CONTINUOUS
 62
6
 10
7.7490435001
 20
-41.9655230621
  0
POINT
  8
5
  6
CONTINUOUS
 62
6
 10
18.2490435001
 20
-41.9655230621
  0
POINT
  8
5
  6
CONTINUOUS
 62
6
 10
93.2490435001
 20
-41.9655230621
  0
POINT
  8
5
  6
CONTINUOUS
 62
6
 10
24.2490435001
 20
-41.9655230621
  0
POINT
  8
5
  6
CONTINUOUS
 62
6
 10
7.7490435001
 20
-41.9655230621
  0
POINT
  8
5
  6
CONTINUOUS
 62
6
 10
7.7490435001
 20
-41.9655230621
  0
POINT
  8
5
  6
CONTINUOUS
 62
6
 10
7.7490435001
 20
-41.9655230621
  0
POINT
  8
5
  6
CONTINUOUS
 62
6
 10
7.7490435001
 20
-41.9655230621
  0
POINT
  8
1
  6
CONTINUOUS
 62
7
 10
7.7490435001
 20
-41.9655230621
  0
POINT
  8
5
  6
CONTINUOUS
 62
6
 10
7.7490435001
 20
-41.9655230621
  0
POINT
  8
5
  6
CONTINUOUS
 62
6
 10
7.7490435001
 20
-41.9655230621
  0
POINT
  8
5
  6
CONTINUOUS
 62
6
 10
7.7490435001
 20
-41.9655230621
  0
POINT
  8
5
  6
CONTINUOUS
 62
6
 10
7.7490435001
 20
-41.9655230621
  0
TEXT
  8
3
  6
CONTINUOUS
 62
7
 10
180.305310
 20
272.431921
 40
5.000000
  1
型番仕様
 41
0.886918
 50
0.000000
 51
0.000000
 72
   5
 73
   0
 11
200.305310
 21
272.431921
  0
TEXT
  8
3
  6
CONTINUOUS
 62
7
 10
180.305310
 20
265.431921
 40
5.000000
  1
MCON-001-072 %%uPB%%u %%u**%%u %%uR*%%u %%uU*%%u
 41
0.754243
 50
0.000000
 51
0.000000
 72
   5
 73
   0
 11
240.305310
 21
265.431921
  0
LINE
  8
3
  6
CONTINUOUS
 62
7
 10
237.9792111194
 20
265.2068256128
 11
237.9792111194
 21
260.2068256127
  0
LINE
  8
3
  6
CONTINUOUS
 62
7
 10
237.9792111194
 20
260.2068256127
 11
239.5327239927
 21
260.2068256128
  0
LINE
  8
3
  6
CONTINUOUS
 62
7
 10
239.5327239927
 20
247.7068256128
 11
230.4522461659
 21
247.7068256128
  0
LINE
  8
3
  6
CONTINUOUS
 62
7
 10
230.4522461659
 20
247.7068256129
 11
230.4522461659
 21
265.2068256128
  0
LINE
  8
3
  6
CONTINUOUS
 62
7
 10
239.5327239927
 20
235.2068256128
 11
222.4892677158
 21
235.2068256128
  0
LINE
  8
3
  6
CONTINUOUS
 62
7
 10
222.4892677158
 20
235.2068256128
 11
222.4892677158
 21
265.2068256128
  0
TEXT
  8
3
  6
CONTINUOUS
 62
7
 10
240.673961
 20
257.572683
 40
4.500000
  1
⑪ U0:USB無し(ﾌﾞﾗﾝｸﾊﾟﾈﾙ)
 41
0.779221
 50
0.000000
 51
0.000000
 72
   5
 73
   0
 11
294.673961
 21
257.572683
  0
TEXT
  8
3
  6
CONTINUOUS
 62
7
 10
240.673961
 20
252.072683
 40
4.500000
  1
　 U1:USB有り
 41
0.809465
 50
0.000000
 51
0.000000
 72
   5
 73
   0
 11
269.923961
 21
252.072683
  0
TEXT
  8
3
  6
CONTINUOUS
 62
7
 10
240.673961
 20
245.445647
 40
4.500000
  1
⑩ R0:RJ45無し(ﾌﾞﾗﾝｸﾊﾟﾈﾙ)
 41
0.777847
 50
0.000000
 51
0.000000
 72
   5
 73
   0
 11
296.923961
 21
245.445647
  0
TEXT
  8
3
  6
CONTINUOUS
 62
7
 10
240.673961
 20
239.945647
 40
4.500000
  1
　 R1:RJ45有り
 41
0.804598
 50
0.000000
 51
0.000000
 72
   5
 73
   0
 11
272.173961
 21
239.945647
  0
TEXT
  8
3
  6
CONTINUOUS
 62
7
 10
240.476103
 20
233.162320
 40
4.000000
  1
⑨ AC:C14 ﾀｲﾌﾟｲﾝﾚｯﾄ
 41
0.766747
 50
0.000000
 51
0.000000
 72
   5
 73
   0
 11
278.476103
 21
233.162320
  0
LINE
  8
5
  6
CONTINUOUS
 62
6
 10
3.2490435001
 20
-39.4655230621
 11
97.7490435001
 21
-39.4655230621
  0
POINT
  8
5
  6
CONTINUOUS
 62
6
 10
7.7490435001
 20
-36.9655230621
  0
POINT
  8
5
  6
CONTINUOUS
 62
6
 10
7.7490435001
 20
-36.9655230621
  0
POINT
  8
5
  6
CONTINUOUS
 62
6
 10
7.7490435001
 20
-36.9655230621
  0
POINT
  8
5
  6
CONTINUOUS
 62
6
 10
7.7490435001
 20
-36.9655230621
  0
POINT
  8
5
  6
CONTINUOUS
 62
6
 10
7.7490435001
 20
-36.9655230621
  0
POINT
  8
1
  6
CONTINUOUS
 62
7
 10
7.7490435001
 20
-36.9655230621
  0
POINT
  8
5
  6
CONTINUOUS
 62
6
 10
7.7490435001
 20
-36.9655230621
  0
POINT
  8
5
  6
CONTINUOUS
 62
6
 10
7.7490435001
 20
-36.9655230621
  0
POINT
  8
5
  6
CONTINUOUS
 62
6
 10
7.7490435001
 20
-36.9655230621
  0
POINT
  8
5
  6
CONTINUOUS
 62
6
 10
7.7490435001
 20
-36.9655230621
  0
LINE
  8
5
  6
CONTINUOUS
 62
6
 10
13.5000000000
 20
244.5000000000
 11
13.5000000000
 21
279.5000000000
  0
LINE
  8
5
  6
CONTINUOUS
 62
6
 10
25.5000000000
 20
244.5000000000
 11
25.5000000000
 21
279.5000000000
  0
LINE
  8
5
  6
CONTINUOUS
 62
6
 10
90.0000000000
 20
244.5000000000
 11
90.0000000000
 21
279.5000000000
  0
LINE
  8
5
  6
CONTINUOUS
 62
6
 10
99.0000000000
 20
279.5000000000
 11
99.0000000000
 21
244.5000000000
  0
TEXT
  8
5
  6
CONTINUOUS
 62
6
 10
6.292500
 20
245.500000
 40
3.000000
  1
Rev.
 41
0.719124
 50
0.000000
 51
0.000000
 72
   5
 73
   0
 11
11.707500
 21
245.500000
  0
LINE
  8
5
  6
CONTINUOUS
 62
6
 10
4.5000000000
 20
249.5000000000
 11
99.0000000000
 21
249.5000000000
  0
LINE
  8
5
  6
CONTINUOUS
 62
6
 10
4.5000000000
 20
254.5000000000
 11
99.0000000000
 21
254.5000000000
  0
LINE
  8
5
  6
CONTINUOUS
 62
6
 10
4.5000000000
 20
259.5000000000
 11
99.0000000000
 21
259.5000000000
  0
LINE
  8
5
  6
CONTINUOUS
 62
6
 10
4.5000000000
 20
264.5000000000
 11
99.0000000000
 21
264.5000000000
  0
LINE
  8
5
  6
CONTINUOUS
 62
6
 10
4.5000000000
 20
244.5000000000
 11
99.0000000000
 21
244.5000000000
  0
POINT
  8
5
  6
CONTINUOUS
 62
6
 10
9.0000000000
 20
252.0000000000
  0
POINT
  8
5
  6
CONTINUOUS
 62
6
 10
9.0000000000
 20
257.0000000000
  0
POINT
  8
5
  6
CONTINUOUS
 62
6
 10
9.0000000000
 20
262.0000000000
  0
POINT
  8
5
  6
CONTINUOUS
 62
6
 10
9.0000000000
 20
267.0000000000
  0
POINT
  8
5
  6
CONTINUOUS
 62
6
 10
19.5000000000
 20
267.0000000000
  0
POINT
  8
5
  6
CONTINUOUS
 62
6
 10
19.5000000000
 20
262.0000000000
  0
POINT
  8
5
  6
CONTINUOUS
 62
6
 10
19.5000000000
 20
257.0000000000
  0
POINT
  8
5
  6
CONTINUOUS
 62
6
 10
19.5000000000
 20
252.0000000000
  0
POINT
  8
5
  6
CONTINUOUS
 62
6
 10
94.5000000000
 20
252.0000000000
  0
POINT
  8
5
  6
CONTINUOUS
 62
6
 10
94.5000000000
 20
257.0000000000
  0
POINT
  8
5
  6
CONTINUOUS
 62
6
 10
94.5000000000
 20
262.0000000000
  0
POINT
  8
5
  6
CONTINUOUS
 62
6
 10
94.5000000000
 20
267.0000000000
  0
POINT
  8
5
  6
CONTINUOUS
 62
6
 10
25.5000000000
 20
267.0000000000
  0
POINT
  8
5
  6
CONTINUOUS
 62
6
 10
25.5000000000
 20
262.0000000000
  0
POINT
  8
5
  6
CONTINUOUS
 62
6
 10
25.5000000000
 20
257.0000000000
  0
POINT
  8
5
  6
CONTINUOUS
 62
6
 10
25.5000000000
 20
252.0000000000
  0
POINT
  8
5
  6
CONTINUOUS
 62
6
 10
94.5000000000
 20
252.0000000000
  0
POINT
  8
5
  6
CONTINUOUS
 62
6
 10
9.0000000000
 20
257.0000000000
  0
POINT
  8
5
  6
CONTINUOUS
 62
6
 10
9.0000000000
 20
257.0000000000
  0
POINT
  8
5
  6
CONTINUOUS
 62
6
 10
9.0000000000
 20
262.0000000000
  0
POINT
  8
5
  6
CONTINUOUS
 62
6
 10
9.0000000000
 20
262.0000000000
  0
POINT
  8
5
  6
CONTINUOUS
 62
6
 10
9.0000000000
 20
267.0000000000
  0
POINT
  8
5
  6
CONTINUOUS
 62
6
 10
9.0000000000
 20
267.0000000000
  0
POINT
  8
5
  6
CONTINUOUS
 62
6
 10
9.0000000000
 20
267.0000000000
  0
LINE
  8
5
  6
CONTINUOUS
 62
6
 10
4.5000000000
 20
269.5000000000
 11
99.0000000000
 21
269.5000000000
  0
POINT
  8
5
  6
CONTINUOUS
 62
6
 10
9.0000000000
 20
272.0000000000
  0
POINT
  8
5
  6
CONTINUOUS
 62
6
 10
19.5000000000
 20
272.0000000000
  0
POINT
  8
5
  6
CONTINUOUS
 62
6
 10
94.5000000000
 20
272.0000000000
  0
POINT
  8
5
  6
CONTINUOUS
 62
6
 10
25.5000000000
 20
272.0000000000
  0
POINT
  8
5
  6
CONTINUOUS
 62
6
 10
9.0000000000
 20
272.0000000000
  0
POINT
  8
5
  6
CONTINUOUS
 62
6
 10
9.0000000000
 20
272.0000000000
  0
POINT
  8
5
  6
CONTINUOUS
 62
6
 10
9.0000000000
 20
272.0000000000
  0
POINT
  8
5
  6
CONTINUOUS
 62
6
 10
9.0000000000
 20
272.0000000000
  0
POINT
  8
1
  6
CONTINUOUS
 62
7
 10
9.0000000000
 20
272.0000000000
  0
POINT
  8
5
  6
CONTINUOUS
 62
6
 10
9.0000000000
 20
272.0000000000
  0
POINT
  8
5
  6
CONTINUOUS
 62
6
 10
9.0000000000
 20
272.0000000000
  0
POINT
  8
5
  6
CONTINUOUS
 62
6
 10
9.0000000000
 20
272.0000000000
  0
POINT
  8
5
  6
CONTINUOUS
 62
6
 10
9.0000000000
 20
272.0000000000
  0
LINE
  8
5
  6
CONTINUOUS
 62
6
 10
4.5000000000
 20
274.5000000000
 11
99.0000000000
 21
274.5000000000
  0
POINT
  8
5
  6
CONTINUOUS
 62
6
 10
9.0000000000
 20
277.0000000000
  0
POINT
  8
5
  6
CONTINUOUS
 62
6
 10
9.0000000000
 20
277.0000000000
  0
POINT
  8
5
  6
CONTINUOUS
 62
6
 10
9.0000000000
 20
277.0000000000
  0
POINT
  8
5
  6
CONTINUOUS
 62
6
 10
9.0000000000
 20
277.0000000000
  0
POINT
  8
5
  6
CONTINUOUS
 62
6
 10
9.0000000000
 20
277.0000000000
  0
POINT
  8
1
  6
CONTINUOUS
 62
7
 10
9.0000000000
 20
277.0000000000
  0
POINT
  8
5
  6
CONTINUOUS
 62
6
 10
9.0000000000
 20
277.0000000000
  0
POINT
  8
5
  6
CONTINUOUS
 62
6
 10
9.0000000000
 20
277.0000000000
  0
POINT
  8
5
  6
CONTINUOUS
 62
6
 10
9.0000000000
 20
277.0000000000
  0
POINT
  8
5
  6
CONTINUOUS
 62
6
 10
9.0000000000
 20
277.0000000000
  0
TEXT
  8
3
  6
CONTINUOUS
 62
5
 10
125.986004
 20
-59.817179
 40
7.000000
  1
⑨
 41
1.000000
 50
0.000000
 51
0.000000
 72
   5
 73
   0
 11
132.986004
 21
-59.817179
  0
TEXT
  8
3
  6
CONTINUOUS
 62
5
 10
125.986004
 20
-66.817179
 40
7.000000
  1
ACｲﾝﾚｯﾄ
 41
0.774336
 50
0.000000
 51
0.000000
 72
   5
 73
   0
 11
150.486004
 21
-66.817179
  0
TEXT
  8
3
  6
CONTINUOUS
 62
5
 10
125.986004
 20
-73.817179
 40
7.000000
  1
詳細
 41
0.921659
 50
0.000000
 51
0.000000
 72
   5
 73
   0
 11
139.986004
 21
-73.817179
  0
TEXT
  8
3
  6
CONTINUOUS
 62
7
 10
147.270724
 20
-92.595002
 40
6.000000
  1
AC
 41
0.854701
 50
0.000000
 51
0.000000
 72
   5
 73
   0
 11
153.270724
 21
-92.595002
  0
TEXT
  8
3
  6
CONTINUOUS
 62
7
 10
147.270724
 20
-98.595002
 40
6.000000
  1
C14ﾀｲﾌﾟｲﾝﾚｯﾄ IEC60320準拠
 41
0.769704
 50
0.000000
 51
0.000000
 72
   5
 73
   0
 11
222.270724
 21
-98.595002
  0
TEXT
  8
3
  6
CONTINUOUS
 62
7
 10
147.270724
 20
-104.595002
 40
6.000000
  1
裏面接続端子仕様:187ﾀﾌﾞ　t=0.8
 41
0.815217
 50
0.000000
 51
0.000000
 72
   5
 73
   0
 11
237.270724
 21
-104.595002
  0
INSERT
  8
1
  6
CONTINUOUS
 62
5
  2
BALN13
 10
196.0488132409
 20
-56.8156214360
  0
INSERT
  8
1
  6
CONTINUOUS
 62
5
  2
BALN14
 10
200.0400895974
 20
-64.6543248739
  0
LINE
  8
5
  6
CONTINUOUS
 62
6
 10
314.3163840243
 20
-42.1608537296
 11
314.3163840243
 21
-37.1608537296
  0
LINE
  8
5
  6
CONTINUOUS
 62
6
 10
314.3163840243
 20
-37.1608537296
 11
319.3163840243
 21
-37.1608537296
  0
LINE
  8
5
  6
CONTINUOUS
 62
6
 10
319.3163840243
 20
-37.1608537296
 11
339.3163840243
 21
-37.1608537296
  0
LINE
  8
5
  6
CONTINUOUS
 62
6
 10
339.3163840243
 20
-37.1608537296
 11
379.3163840243
 21
-37.1608537296
  0
LINE
  8
5
  6
CONTINUOUS
 62
6
 10
379.3163840243
 20
-37.1608537296
 11
394.3163840243
 21
-37.1608537296
  0
LINE
  8
5
  6
CONTINUOUS
 62
6
 10
394.3163840243
 20
-42.1608537296
 11
379.3163840243
 21
-42.1608537296
  0
LINE
  8
5
  6
CONTINUOUS
 62
6
 10
379.3163840243
 20
-42.1608537296
 11
339.3163840243
 21
-42.1608537296
  0
LINE
  8
5
  6
CONTINUOUS
 62
6
 10
339.3163840243
 20
-42.1608537296
 11
319.3163840243
 21
-42.1608537296
  0
LINE
  8
5
  6
CONTINUOUS
 62
6
 10
319.3163840243
 20
-42.1608537296
 11
314.3163840243
 21
-42.1608537296
  0
LINE
  8
5
  6
CONTINUOUS
 62
6
 10
319.3163840243
 20
-37.1608537296
 11
319.3163840243
 21
-42.1608537296
  0
LINE
  8
5
  6
CONTINUOUS
 62
6
 10
339.3163840243
 20
-37.1608537296
 11
339.3163840243
 21
-42.1608537296
  0
LINE
  8
5
  6
CONTINUOUS
 62
6
 10
379.3163840243
 20
-37.1608537296
 11
379.3163840243
 21
-42.1608537296
  0
LINE
  8
5
  6
CONTINUOUS
 62
6
 10
394.3163840243
 20
-37.1608537296
 11
394.3163840243
 21
-42.1608537296
  0
TEXT
  8
5
  6
CONTINUOUS
 62
7
 10
314.516384
 20
-40.810854
 40
2.300000
  1
項番
 41
0.921659
 50
0.000000
 51
0.000000
 72
   5
 73
   0
 11
319.116384
 21
-40.810854
  0
TEXT
  8
5
  6
CONTINUOUS
 62
7
 10
324.324384
 20
-41.160854
 40
3.000000
  1
品　　名
 41
0.737916
 50
0.000000
 51
0.000000
 72
   5
 73
   0
 11
334.308384
 21
-41.160854
  0
TEXT
  8
5
  6
CONTINUOUS
 62
7
 10
344.163384
 20
-41.160854
 40
3.000000
  1
定  格 / 型  番 / 材　質
 41
0.686277
 50
0.000000
 51
0.000000
 72
   5
 73
   0
 11
374.469384
 21
-41.160854
  0
TEXT
  8
5
  6
CONTINUOUS
 62
7
 10
381.618884
 20
-41.160854
 40
3.000000
  1
メーカー
 41
0.768293
 50
0.000000
 51
0.000000
 72
   5
 73
   0
 11
392.013884
 21
-41.160854
  0
LINE
  8
5
  6
CONTINUOUS
 62
6
 10
314.3163840243
 20
-47.1608537296
 11
314.3163840243
 21
-42.1608537296
  0
LINE
  8
5
  6
CONTINUOUS
 62
6
 10
314.3163840243
 20
-42.1608537296
 11
319.3163840243
 21
-42.1608537296
  0
LINE
  8
5
  6
CONTINUOUS
 62
6
 10
319.3163840243
 20
-42.1608537296
 11
339.3163840243
 21
-42.1608537296
  0
LINE
  8
5
  6
CONTINUOUS
 62
6
 10
339.3163840243
 20
-42.1608537296
 11
379.3163840243
 21
-42.1608537296
  0
LINE
  8
5
  6
CONTINUOUS
 62
6
 10
379.3163840243
 20
-42.1608537296
 11
394.3163840243
 21
-42.1608537296
  0
LINE
  8
5
  6
CONTINUOUS
 62
6
 10
394.3163840243
 20
-47.1608537296
 11
379.3163840243
 21
-47.1608537296
  0
LINE
  8
5
  6
CONTINUOUS
 62
6
 10
339.3163840243
 20
-47.1608537296
 11
319.3163840243
 21
-47.1608537296
  0
LINE
  8
5
  6
CONTINUOUS
 62
6
 10
319.3163840243
 20
-47.1608537296
 11
314.3163840243
 21
-47.1608537296
  0
LINE
  8
5
  6
CONTINUOUS
 62
6
 10
319.3163840243
 20
-42.1608537296
 11
319.3163840243
 21
-47.1608537296
  0
LINE
  8
5
  6
CONTINUOUS
 62
6
 10
339.3163840243
 20
-42.1608537296
 11
339.3163840243
 21
-47.1608537296
  0
LINE
  8
5
  6
CONTINUOUS
 62
6
 10
379.3163840243
 20
-42.1608537296
 11
379.3163840243
 21
-52.1608537296
  0
LINE
  8
5
  6
CONTINUOUS
 62
6
 10
394.3163840243
 20
-42.1608537296
 11
394.3163840243
 21
-47.1608537296
  0
TEXT
  8
5
  6
CONTINUOUS
 62
7
 10
320.316384
 20
-46.160854
 40
3.000000
  1
ﾊﾟﾈﾙ
 41
0.865339
 50
0.000000
 51
0.000000
 72
   5
 73
   0
 11
326.832384
 21
-46.160854
  0
TEXT
  8
5
  6
CONTINUOUS
 62
7
 10
340.316384
 20
-46.660854
 40
4.000000
  1
M0051B072B
 41
0.765697
 50
0.000000
 51
0.000000
 72
   5
 73
   0
 11
360.316384
 21
-46.660854
  0
TEXT
  8
5
  6
CONTINUOUS
 62
7
 10
395.941384
 20
-46.410854
 40
3.500000
  1
1
 41
1.000000
 50
0.000000
 51
0.000000
 72
   5
 73
   0
 11
397.691384
 21
-46.410854
  0
LINE
  8
5
  6
CONTINUOUS
 62
6
 10
394.3163840243
 20
-62.1608537296
 11
379.3163840243
 21
-62.1608537296
  0
LINE
  8
5
  6
CONTINUOUS
 62
6
 10
379.3163840243
 20
-62.1608537296
 11
339.3163840243
 21
-62.1608537296
  0
LINE
  8
5
  6
CONTINUOUS
 62
6
 10
339.3163840243
 20
-62.1608537296
 11
319.3163840243
 21
-62.1608537296
  0
LINE
  8
5
  6
CONTINUOUS
 62
6
 10
319.3163840243
 20
-62.1608537296
 11
314.3163840243
 21
-62.1608537296
  0
LINE
  8
5
  6
CONTINUOUS
 62
6
 10
314.3163840243
 20
-52.1608537296
 11
314.3163840243
 21
-47.1608537296
  0
LINE
  8
5
  6
CONTINUOUS
 62
6
 10
314.3163840243
 20
-67.1608537296
 11
314.3163840243
 21
-62.1608537296
  0
LINE
  8
5
  6
CONTINUOUS
 62
6
 10
319.3163840243
 20
-47.1608537296
 11
319.3163840243
 21
-52.1608537296
  0
LINE
  8
5
  6
CONTINUOUS
 62
6
 10
319.3163840243
 20
-62.1608537296
 11
319.3163840243
 21
-67.1608537296
  0
LINE
  8
5
  6
CONTINUOUS
 62
6
 10
339.3163840243
 20
-47.1608537296
 11
339.3163840243
 21
-52.1608537296
  0
LINE
  8
5
  6
CONTINUOUS
 62
6
 10
339.3163840243
 20
-62.1608537296
 11
339.3163840243
 21
-67.1608537296
  0
LINE
  8
5
  6
CONTINUOUS
 62
6
 10
379.3163840243
 20
-62.1608537296
 11
379.3163840243
 21
-67.1608537296
  0
LINE
  8
5
  6
CONTINUOUS
 62
6
 10
394.3163840243
 20
-47.1608537296
 11
394.3163840243
 21
-52.1608537296
  0
LINE
  8
5
  6
CONTINUOUS
 62
6
 10
394.3163840243
 20
-62.1608537296
 11
394.3163840243
 21
-67.1608537296
  0
LINE
  8
5
  6
CONTINUOUS
 62
6
 10
304.3163840243
 20
-42.1608537296
 11
304.3163840243
 21
-37.1608537296
  0
LINE
  8
5
  6
CONTINUOUS
 62
6
 10
304.3163840243
 20
-37.1608537296
 11
314.3163840243
 21
-37.1608537296
  0
LINE
  8
5
  6
CONTINUOUS
 62
6
 10
314.3163840243
 20
-42.1608537296
 11
309.3163840243
 21
-42.1608537296
  0
LINE
  8
5
  6
CONTINUOUS
 62
6
 10
314.3163840243
 20
-37.1608537296
 11
314.3163840243
 21
-42.1608537296
  0
TEXT
  8
5
  6
CONTINUOUS
 62
7
 10
306.854603
 20
-41.160854
 40
3.000000
  1
型番
 41
0.921659
 50
0.000000
 51
0.000000
 72
   5
 73
   0
 11
312.854603
 21
-41.160854
  0
LINE
  8
5
  6
CONTINUOUS
 62
6
 10
304.3163840243
 20
-47.1608537296
 11
304.3163840243
 21
-42.1608537296
  0
LINE
  8
5
  6
CONTINUOUS
 62
6
 10
304.3163840243
 20
-42.1608537296
 11
314.3163840243
 21
-42.1608537296
  0
LINE
  8
5
  6
CONTINUOUS
 62
6
 10
314.3163840243
 20
-42.1608537296
 11
314.3163840243
 21
-47.1608537296
  0
TEXT
  8
5
  6
CONTINUOUS
 62
7
 10
307.854603
 20
-51.660854
 40
4.000000
  1
AC
 41
0.854701
 50
0.000000
 51
0.000000
 72
   5
 73
   0
 11
311.854603
 21
-51.660854
  0
LINE
  8
5
  6
CONTINUOUS
 62
6
 10
304.3163840243
 20
-52.1608537296
 11
304.3163840243
 21
-47.1608537296
  0
LINE
  8
5
  6
CONTINUOUS
 62
6
 10
304.3163840243
 20
-67.1608537296
 11
304.3163840243
 21
-62.1608537296
  0
LINE
  8
5
  6
CONTINUOUS
 62
6
 10
314.3163840243
 20
-47.1608537296
 11
314.3163840243
 21
-52.1608537296
  0
LINE
  8
5
  6
CONTINUOUS
 62
6
 10
314.3163840243
 20
-62.1608537296
 11
314.3163840243
 21
-67.1608537296
  0
LINE
  8
5
  6
CONTINUOUS
 62
6
 10
394.3163840243
 20
-67.1608537296
 11
379.3163840243
 21
-67.1608537296
  0
LINE
  8
5
  6
CONTINUOUS
 62
6
 10
379.3163840243
 20
-67.1608537296
 11
339.3163840243
 21
-67.1608537296
  0
LINE
  8
5
  6
CONTINUOUS
 62
6
 10
339.3163840243
 20
-67.1608537296
 11
319.3163840243
 21
-67.1608537296
  0
LINE
  8
5
  6
CONTINUOUS
 62
6
 10
319.3163840243
 20
-67.1608537296
 11
314.3163840243
 21
-67.1608537296
  0
LINE
  8
5
  6
CONTINUOUS
 62
6
 10
314.3163840243
 20
-67.1608537296
 11
304.3163840243
 21
-67.1608537296
  0
TEXT
  8
5
  6
CONTINUOUS
 62
7
 10
380.316384
 20
-46.160854
 40
3.000000
  1
MADOKA
 41
1.028831
 50
0.000000
 51
0.000000
 72
   5
 73
   0
 11
392.199384
 21
-46.160854
  0
LINE
  8
5
  6
CONTINUOUS
 62
6
 10
379.3163840243
 20
-52.1608537296
 11
339.3163840243
 21
-52.1608537296
  0
LINE
  8
5
  6
CONTINUOUS
 62
6
 10
394.3163840243
 20
-52.1608537296
 11
379.3163840243
 21
-52.1608537296
  0
LINE
  8
5
  6
CONTINUOUS
 62
6
 10
339.3163840243
 20
-52.1608537296
 11
319.3163840243
 21
-52.1608537296
  0
LINE
  8
5
  6
CONTINUOUS
 62
6
 10
319.3163840243
 20
-52.1608537296
 11
314.3163840243
 21
-52.1608537296
  0
TEXT
  8
5
  6
CONTINUOUS
 62
7
 10
315.316384
 20
-56.160854
 40
3.000000
  1
92
 41
0.854701
 50
0.000000
 51
0.000000
 72
   5
 73
   0
 11
318.316384
 21
-56.160854
  0
TEXT
  8
5
  6
CONTINUOUS
 62
7
 10
395.941384
 20
-56.410854
 40
3.500000
  1
2
 41
1.000000
 50
0.000000
 51
0.000000
 72
   5
 73
   0
 11
397.691384
 21
-56.410854
  0
LINE
  8
5
  6
CONTINUOUS
 62
6
 10
319.3163840243
 20
-57.1608537296
 11
314.3163840243
 21
-57.1608537296
  0
LINE
  8
5
  6
CONTINUOUS
 62
6
 10
339.3163840243
 20
-57.1608537296
 11
319.3163840243
 21
-57.1608537296
  0
LINE
  8
5
  6
CONTINUOUS
 62
6
 10
394.3163840243
 20
-52.1608537296
 11
394.3163840243
 21
-57.1608537296
  0
LINE
  8
5
  6
CONTINUOUS
 62
6
 10
379.3163840243
 20
-52.1608537296
 11
379.3163840243
 21
-57.1608537296
  0
LINE
  8
5
  6
CONTINUOUS
 62
6
 10
339.3163840243
 20
-52.1608537296
 11
339.3163840243
 21
-57.1608537296
  0
LINE
  8
5
  6
CONTINUOUS
 62
6
 10
319.3163840243
 20
-52.1608537296
 11
319.3163840243
 21
-57.1608537296
  0
LINE
  8
5
  6
CONTINUOUS
 62
6
 10
314.3163840243
 20
-52.1608537296
 11
314.3163840243
 21
-57.1608537296
  0
LINE
  8
5
  6
CONTINUOUS
 62
6
 10
314.3163840243
 20
-57.1608537296
 11
314.3163840243
 21
-62.1608537296
  0
LINE
  8
5
  6
CONTINUOUS
 62
6
 10
319.3163840243
 20
-57.1608537296
 11
319.3163840243
 21
-62.1608537296
  0
LINE
  8
5
  6
CONTINUOUS
 62
6
 10
339.3163840243
 20
-57.1608537296
 11
339.3163840243
 21
-62.1608537296
  0
LINE
  8
5
  6
CONTINUOUS
 62
6
 10
394.3163840243
 20
-57.1608537296
 11
394.3163840243
 21
-62.1608537296
  0
LINE
  8
5
  6
CONTINUOUS
 62
6
 10
304.3163840243
 20
-57.1608537296
 11
304.3163840243
 21
-52.1608537296
  0
LINE
  8
5
  6
CONTINUOUS
 62
6
 10
304.3163840243
 20
-62.1608537296
 11
304.3163840243
 21
-57.1608537296
  0
LINE
  8
5
  6
CONTINUOUS
 62
6
 10
379.3163840243
 20
-47.1608537296
 11
339.3163840243
 21
-47.1608537296
  0
TEXT
  8
5
  6
CONTINUOUS
 62
7
 10
380.316384
 20
-51.160854
 40
3.000000
  1
MISUMI
 41
0.836104
 50
0.000000
 51
0.000000
 72
   5
 73
   0
 11
389.973384
 21
-51.160854
  0
TEXT
  8
5
  6
CONTINUOUS
 62
7
 10
395.941384
 20
-51.410854
 40
3.500000
  1
1
 41
1.000000
 50
0.000000
 51
0.000000
 72
   5
 73
   0
 11
397.691384
 21
-51.410854
  0
TEXT
  8
5
  6
CONTINUOUS
 62
7
 10
340.316384
 20
-51.660854
 40
4.000000
  1
WTN-1171AA
 41
0.765697
 50
0.000000
 51
0.000000
 72
   5
 73
   0
 11
360.316384
 21
-51.660854
  0
TEXT
  8
5
  6
CONTINUOUS
 62
7
 10
320.316384
 20
-51.160854
 40
3.000000
  1
ACｲﾝﾚｯﾄ
 41
0.874558
 50
0.000000
 51
0.000000
 72
   5
 73
   0
 11
332.175384
 21
-51.160854
  0
TEXT
  8
5
  6
CONTINUOUS
 62
7
 10
315.316384
 20
-51.160854
 40
3.000000
  1
91
 41
0.854701
 50
0.000000
 51
0.000000
 72
   5
 73
   0
 11
318.316384
 21
-51.160854
  0
TEXT
  8
1
  6
CONTINUOUS
 62
7
 10
362.271912
 20
-46.284844
 40
3.000000
  1
SPCC t=1.6
 41
0.765697
 50
0.000000
 51
0.000000
 72
   5
 73
   0
 11
377.271912
 21
-46.284844
  0
TEXT
  8
5
  6
CONTINUOUS
 62
7
 10
320.316384
 20
-56.160854
 40
3.000000
  1
ﾋﾞｽ
 41
0.761957
 50
0.000000
 51
0.000000
 72
   5
 73
   0
 11
324.522384
 21
-56.160854
  0
TEXT
  8
5
  6
CONTINUOUS
 62
7
 10
340.316384
 20
-56.660854
 40
4.000000
  1
M3×8 ｻﾗﾋﾞｽ
 41
0.782361
 50
0.000000
 51
0.000000
 72
   5
 73
   0
 11
362.316384
 21
-56.660854
  0
TEXT
  8
5
  6
CONTINUOUS
 62
7
 10
380.316384
 20
-56.160854
 40
3.000000
  1
--
 41
0.854701
 50
0.000000
 51
0.000000
 72
   5
 73
   0
 11
383.316384
 21
-56.160854
  0
LINE
  8
5
  6
CONTINUOUS
 62
6
 10
379.3163840243
 20
-57.1608537296
 11
379.3163840243
 21
-62.1608537296
  0
LINE
  8
5
  6
CONTINUOUS
 62
6
 10
394.3163840243
 20
-37.1608537296
 11
399.3163840243
 21
-37.1608537296
  0
LINE
  8
5
  6
CONTINUOUS
 62
6
 10
399.3163840243
 20
-37.1608537296
 11
399.3163840243
 21
-42.1608537296
  0
LINE
  8
5
  6
CONTINUOUS
 62
6
 10
399.3163840243
 20
-42.1608537296
 11
394.3163840243
 21
-42.1608537296
  0
TEXT
  8
5
  6
CONTINUOUS
 62
7
 10
394.516384
 20
-40.810854
 40
2.300000
  1
数量
 41
0.921659
 50
0.000000
 51
0.000000
 72
   5
 73
   0
 11
399.116384
 21
-40.810854
  0
LINE
  8
5
  6
CONTINUOUS
 62
6
 10
394.3163840243
 20
-42.1608537296
 11
399.3163840243
 21
-42.1608537296
  0
LINE
  8
5
  6
CONTINUOUS
 62
6
 10
399.3163840243
 20
-42.1608537296
 11
399.3163840243
 21
-47.1608537296
  0
LINE
  8
5
  6
CONTINUOUS
 62
6
 10
399.3163840243
 20
-47.1608537296
 11
394.3163840243
 21
-47.1608537296
  0
LINE
  8
5
  6
CONTINUOUS
 62
6
 10
399.3163840243
 20
-62.1608537296
 11
394.3163840243
 21
-62.1608537296
  0
LINE
  8
5
  6
CONTINUOUS
 62
6
 10
399.3163840243
 20
-47.1608537296
 11
399.3163840243
 21
-52.1608537296
  0
LINE
  8
5
  6
CONTINUOUS
 62
6
 10
399.3163840243
 20
-62.1608537296
 11
399.3163840243
 21
-67.1608537296
  0
LINE
  8
5
  6
CONTINUOUS
 62
6
 10
399.3163840243
 20
-67.1608537296
 11
394.3163840243
 21
-67.1608537296
  0
LINE
  8
5
  6
CONTINUOUS
 62
6
 10
399.3163840243
 20
-52.1608537296
 11
394.3163840243
 21
-52.1608537296
  0
LINE
  8
5
  6
CONTINUOUS
 62
6
 10
399.3163840243
 20
-52.1608537296
 11
399.3163840243
 21
-57.1608537296
  0
LINE
  8
5
  6
CONTINUOUS
 62
6
 10
399.3163840243
 20
-57.1608537296
 11
399.3163840243
 21
-62.1608537296
  0
LINE
  8
5
  6
CONTINUOUS
 62
6
 10
299.6567742348
 20
-199.5694551974
 11
299.6567742348
 21
-194.5694551974
  0
TEXT
  8
1
  6
CONTINUOUS
 62
7
 10
185.160518
 20
139.347089
 40
5.000000
  1
⑨
 41
1.000000
 50
0.000000
 51
0.000000
 72
   5
 73
   0
 11
190.160518
 21
139.347089
  0
TEXT
  8
1
  6
CONTINUOUS
 62
7
 10
185.160518
 20
134.347089
 40
5.000000
  1
ACｲﾝﾚｯﾄ
 41
0.774336
 50
0.000000
 51
0.000000
 72
   5
 73
   0
 11
202.660518
 21
134.347089
  0
LINE
  8
1
  6
CONTINUOUS
 62
1
 10
206.4105182328
 20
133.1025214536
 11
181.4105182328
 21
133.1025214536
  0
POINT
  8
1
  6
CONTINUOUS
 62
1
 10
193.9105182328
 20
121.8525214536
  0
CIRCLE
  8
1
  6
CONTINUOUS
 62
1
 10
213.9105182328
 20
121.8525214536
 40
1.7500000000
  0
CIRCLE
  8
1
  6
CONTINUOUS
 62
1
 10
213.9105182328
 20
121.8525214536
 40
3.0000000000
  0
LINE
  8
1
  6
CONTINUOUS
 62
1
 10
186.9105182328
 20
130.9025214536
 11
200.9105182328
 21
130.9025214536
  0
LINE
  8
1
  6
CONTINUOUS
 62
1
 10
206.0605182328
 20
117.6025214536
 11
206.0605182328
 21
125.9025214536
  0
LINE
  8
1
  6
CONTINUOUS
 62
1
 10
184.7605182328
 20
114.6025214536
 11
203.0605182328
 21
114.6025214536
  0
LINE
  8
1
  6
CONTINUOUS
 62
1
 10
181.7605182328
 20
117.6025214536
 11
181.7605182328
 21
125.9025214536
  0
LINE
  8
1
  6
CONTINUOUS
 62
1
 10
192.9105182328
 20
126.7525214536
 11
194.9105182328
 21
126.7525214536
  0
LINE
  8
1
  6
CONTINUOUS
 62
1
 10
194.9105182328
 20
126.7525214536
 11
194.9105182328
 21
122.7525214536
  0
LINE
  8
1
  6
CONTINUOUS
 62
1
 10
194.9105182328
 20
122.7525214536
 11
192.9105182328
 21
122.7525214536
  0
LINE
  8
1
  6
CONTINUOUS
 62
1
 10
192.9105182328
 20
122.7525214536
 11
192.9105182328
 21
126.7525214536
  0
LINE
  8
1
  6
CONTINUOUS
 62
1
 10
185.9105182328
 20
122.7525214536
 11
187.9105182328
 21
122.7525214536
  0
LINE
  8
1
  6
CONTINUOUS
 62
1
 10
187.9105182328
 20
122.7525214536
 11
187.9105182328
 21
118.7525214536
  0
LINE
  8
1
  6
CONTINUOUS
 62
1
 10
187.9105182328
 20
118.7525214536
 11
185.9105182328
 21
118.7525214536
  0
LINE
  8
1
  6
CONTINUOUS
 62
1
 10
185.9105182328
 20
118.7525214536
 11
185.9105182328
 21
122.7525214536
  0
LINE
  8
1
  6
CONTINUOUS
 62
1
 10
201.9105182328
 20
122.7525214536
 11
199.9105182328
 21
122.7525214536
  0
LINE
  8
1
  6
CONTINUOUS
 62
1
 10
199.9105182328
 20
122.7525214536
 11
199.9105182328
 21
118.7525214536
  0
LINE
  8
1
  6
CONTINUOUS
 62
1
 10
199.9105182328
 20
118.7525214536
 11
201.9105182328
 21
118.7525214536
  0
LINE
  8
1
  6
CONTINUOUS
 62
1
 10
201.9105182328
 20
118.7525214536
 11
201.9105182328
 21
122.7525214536
  0
ARC
  8
1
  6
CONTINUOUS
 62
1
 10
203.0605182328
 20
117.6025214536
 40
3.0000000000
 50
270.0000000000
 51
0.0000000000
  0
ARC
  8
1
  6
CONTINUOUS
 62
1
 10
184.7605182328
 20
117.6025214536
 40
3.0000000000
 50
180.0000000000
 51
270.0000000000
  0
LINE
  8
1
  6
CONTINUOUS
 62
1
 10
186.9105182328
 20
130.9025214536
 11
181.7605182328
 21
125.9025214536
  0
LINE
  8
1
  6
CONTINUOUS
 62
1
 10
200.9105182328
 20
130.9025214536
 11
206.0605182328
 21
125.9025214536
  0
INSERT
  8
1
  6
CONTINUOUS
 62
7
  2
S2
 10
193.9105182328
 20
128.7525214536
  0
TEXT
  8
1
  6
CONTINUOUS
 62
1
 10
186.010518
 20
122.752521
 40
3.600000
  1
L
 41
1.000000
 50
0.000000
 51
0.000000
 72
   5
 73
   0
 11
187.810518
 21
122.752521
  0
TEXT
  8
1
  6
CONTINUOUS
 62
1
 10
200.010518
 20
122.752521
 40
3.600000
  1
N
 41
1.000000
 50
0.000000
 51
0.000000
 72
   5
 73
   0
 11
201.810518
 21
122.752521
  0
CIRCLE
  8
1
  6
CONTINUOUS
 62
1
 10
173.9105182328
 20
121.8525214539
 40
1.7500000000
  0
CIRCLE
  8
1
  6
CONTINUOUS
 62
1
 10
173.9105182328
 20
121.8525214539
 40
3.0000000000
  0
LINE
  8
1
  6
CONTINUOUS
 62
1
 10
206.4105182328
 20
110.6025214535
 11
181.4105182328
 21
110.6025214535
  0
ARC
  8
1
  6
CONTINUOUS
 62
1
 10
213.9105182328
 20
121.8525214536
 40
5.0000000000
 50
310.4132080494
 51
49.5867919506
  0
LINE
  8
1
  6
CONTINUOUS
 62
1
 10
208.4105182328
 20
131.1025214536
 11
208.4105182328
 21
112.6025214539
  0
LINE
  8
1
  6
CONTINUOUS
 62
1
 10
179.4105182328
 20
112.6025214538
 11
179.4105182328
 21
131.1025214538
  0
LINE
  8
1
  6
CONTINUOUS
 62
1
 10
209.5314630555
 20
132.1480769741
 11
217.1519954163
 21
125.6594658540
  0
LINE
  8
1
  6
CONTINUOUS
 62
1
 10
209.5314630555
 20
111.5569659329
 11
217.1519954163
 21
118.0455770531
  0
LINE
  8
1
  6
CONTINUOUS
 62
1
 10
178.2895734100
 20
132.1480769741
 11
170.6690410492
 21
125.6594658541
  0
LINE
  8
1
  6
CONTINUOUS
 62
1
 10
178.2895734100
 20
111.5569659330
 11
170.6690410492
 21
118.0455770531
  0
ARC
  8
1
  6
CONTINUOUS
 62
1
 10
173.9105182328
 20
121.8525214536
 40
5.0000000000
 50
130.4132080494
 51
229.5867919506
  0
ARC
  8
1
  6
CONTINUOUS
 62
1
 10
206.9382813089
 20
129.1025214536
 40
4.0000000000
 50
49.5867919506
 51
90.0000000000
  0
ARC
  8
1
  6
CONTINUOUS
 62
1
 10
206.9382813088
 20
114.6025214535
 40
4.0000000000
 50
270.0000000000
 51
310.4132080494
  0
ARC
  8
1
  6
CONTINUOUS
 62
1
 10
180.8827551566
 20
114.6025214536
 40
4.0000000000
 50
229.5867919506
 51
270.0000000000
  0
ARC
  8
1
  6
CONTINUOUS
 62
1
 10
180.8827551566
 20
129.1025214536
 40
4.0000000000
 50
90.0000000000
 51
130.4132080494
  0
ARC
  8
1
  6
CONTINUOUS
 62
1
 10
181.4105182328
 20
131.1025214538
 40
2.0000000000
 50
90.0000000000
 51
180.0000000000
  0
ARC
  8
1
  6
CONTINUOUS
 62
1
 10
181.4105182328
 20
112.6025214538
 40
2.0000000000
 50
180.0000000000
 51
270.0000000000
  0
ARC
  8
1
  6
CONTINUOUS
 62
1
 10
206.4105182328
 20
112.6025214539
 40
2.0000000000
 50
270.0000000000
 51
0.0000000000
  0
ARC
  8
1
  6
CONTINUOUS
 62
1
 10
206.4105182328
 20
131.1025214536
 40
2.0000000000
 50
0.0000000000
 51
90.0000000000
  0
LINE
  8
1
  6
CONTINUOUS
 62
1
 10
206.9382813089
 20
133.1025214536
 11
206.4105182328
 21
133.1025214536
  0
LINE
  8
1
  6
CONTINUOUS
 62
1
 10
206.9382813088
 20
110.6025214535
 11
206.4105182328
 21
110.6025214535
  0
LINE
  8
1
  6
CONTINUOUS
 62
1
 10
180.8827551566
 20
133.1025214536
 11
181.4105182328
 21
133.1025214536
  0
LINE
  8
1
  6
CONTINUOUS
 62
1
 10
181.4105182328
 20
110.6025214535
 11
180.8827551566
 21
110.6025214535
  0
TEXT
  8
1
  6
CONTINUOUS
 62
7
 10
44.069959
 20
-224.247382
 40
5.000000
  1
⑨
 41
1.000000
 50
0.000000
 51
0.000000
 72
   5
 73
   0
 11
49.069959
 21
-224.247382
  0
TEXT
  8
1
  6
CONTINUOUS
 62
7
 10
44.069959
 20
-229.247382
 40
5.000000
  1
ACｲﾝﾚｯﾄ
 41
0.774336
 50
0.000000
 51
0.000000
 72
   5
 73
   0
 11
61.569959
 21
-229.247382
  0
LINE
  8
1
  6
CONTINUOUS
 62
1
 10
65.3199585694
 20
-230.4919493141
 11
40.3199585694
 21
-230.4919493141
  0
POINT
  8
1
  6
CONTINUOUS
 62
1
 10
52.8199585694
 20
-241.7419493141
  0
CIRCLE
  8
1
  6
CONTINUOUS
 62
1
 10
72.8199585694
 20
-241.7419493141
 40
1.7500000000
  0
CIRCLE
  8
1
  6
CONTINUOUS
 62
1
 10
72.8199585694
 20
-241.7419493141
 40
3.0000000000
  0
LINE
  8
1
  6
CONTINUOUS
 62
1
 10
45.8199585694
 20
-232.6919493141
 11
59.8199585694
 21
-232.6919493141
  0
LINE
  8
1
  6
CONTINUOUS
 62
1
 10
64.9699585694
 20
-245.9919493141
 11
64.9699585694
 21
-237.6919493141
  0
LINE
  8
1
  6
CONTINUOUS
 62
1
 10
43.6699585694
 20
-248.9919493141
 11
61.9699585694
 21
-248.9919493141
  0
LINE
  8
1
  6
CONTINUOUS
 62
1
 10
40.6699585694
 20
-245.9919493141
 11
40.6699585694
 21
-237.6919493141
  0
LINE
  8
1
  6
CONTINUOUS
 62
1
 10
51.8199585694
 20
-236.8419493141
 11
53.8199585694
 21
-236.8419493141
  0
LINE
  8
1
  6
CONTINUOUS
 62
1
 10
53.8199585694
 20
-236.8419493141
 11
53.8199585694
 21
-240.8419493141
  0
LINE
  8
1
  6
CONTINUOUS
 62
1
 10
53.8199585694
 20
-240.8419493141
 11
51.8199585694
 21
-240.8419493141
  0
LINE
  8
1
  6
CONTINUOUS
 62
1
 10
51.8199585694
 20
-240.8419493141
 11
51.8199585694
 21
-236.8419493141
  0
LINE
  8
1
  6
CONTINUOUS
 62
1
 10
44.8199585694
 20
-240.8419493141
 11
46.8199585694
 21
-240.8419493141
  0
LINE
  8
1
  6
CONTINUOUS
 62
1
 10
46.8199585694
 20
-240.8419493141
 11
46.8199585694
 21
-244.8419493141
  0
LINE
  8
1
  6
CONTINUOUS
 62
1
 10
46.8199585694
 20
-244.8419493141
 11
44.8199585694
 21
-244.8419493141
  0
LINE
  8
1
  6
CONTINUOUS
 62
1
 10
44.8199585694
 20
-244.8419493141
 11
44.8199585694
 21
-240.8419493141
  0
LINE
  8
1
  6
CONTINUOUS
 62
1
 10
60.8199585694
 20
-240.8419493141
 11
58.8199585694
 21
-240.8419493141
  0
LINE
  8
1
  6
CONTINUOUS
 62
1
 10
58.8199585694
 20
-240.8419493141
 11
58.8199585694
 21
-244.8419493141
  0
LINE
  8
1
  6
CONTINUOUS
 62
1
 10
58.8199585694
 20
-244.8419493141
 11
60.8199585694
 21
-244.8419493141
  0
LINE
  8
1
  6
CONTINUOUS
 62
1
 10
60.8199585694
 20
-244.8419493141
 11
60.8199585694
 21
-240.8419493141
  0
ARC
  8
1
  6
CONTINUOUS
 62
1
 10
61.9699585694
 20
-245.9919493141
 40
3.0000000000
 50
270.0000000000
 51
0.0000000000
  0
ARC
  8
1
  6
CONTINUOUS
 62
1
 10
43.6699585694
 20
-245.9919493141
 40
3.0000000000
 50
180.0000000000
 51
270.0000000000
  0
LINE
  8
1
  6
CONTINUOUS
 62
1
 10
45.8199585694
 20
-232.6919493141
 11
40.6699585694
 21
-237.6919493141
  0
LINE
  8
1
  6
CONTINUOUS
 62
1
 10
59.8199585694
 20
-232.6919493141
 11
64.9699585694
 21
-237.6919493141
  0
INSERT
  8
1
  6
CONTINUOUS
 62
7
  2
S3
 10
52.8199585694
 20
-234.8419493141
  0
TEXT
  8
1
  6
CONTINUOUS
 62
1
 10
44.919959
 20
-240.841949
 40
3.600000
  1
L
 41
1.000000
 50
0.000000
 51
0.000000
 72
   5
 73
   0
 11
46.719959
 21
-240.841949
  0
TEXT
  8
1
  6
CONTINUOUS
 62
1
 10
58.919959
 20
-240.841949
 40
3.600000
  1
N
 41
1.000000
 50
0.000000
 51
0.000000
 72
   5
 73
   0
 11
60.719959
 21
-240.841949
  0
CIRCLE
  8
1
  6
CONTINUOUS
 62
1
 10
32.8199585694
 20
-241.7419493137
 40
1.7500000000
  0
CIRCLE
  8
1
  6
CONTINUOUS
 62
1
 10
32.8199585694
 20
-241.7419493137
 40
3.0000000000
  0
LINE
  8
1
  6
CONTINUOUS
 62
1
 10
65.3199585694
 20
-252.9919493142
 11
40.3199585694
 21
-252.9919493142
  0
ARC
  8
1
  6
CONTINUOUS
 62
1
 10
72.8199585694
 20
-241.7419493141
 40
5.0000000000
 50
310.4132080494
 51
49.5867919506
  0
LINE
  8
1
  6
CONTINUOUS
 62
1
 10
67.3199585694
 20
-232.4919493140
 11
67.3199585694
 21
-250.9919493138
  0
LINE
  8
1
  6
CONTINUOUS
 62
1
 10
38.3199585694
 20
-250.9919493138
 11
38.3199585694
 21
-232.4919493138
  0
LINE
  8
1
  6
CONTINUOUS
 62
1
 10
68.4409033922
 20
-231.4463937935
 11
76.0614357530
 21
-237.9350049136
  0
LINE
  8
1
  6
CONTINUOUS
 62
1
 10
68.4409033921
 20
-252.0375048348
 11
76.0614357530
 21
-245.5488937146
  0
LINE
  8
1
  6
CONTINUOUS
 62
1
 10
37.1990137467
 20
-231.4463937935
 11
29.5784813859
 21
-237.9350049136
  0
LINE
  8
1
  6
CONTINUOUS
 62
1
 10
37.1990137466
 20
-252.0375048347
 11
29.5784813859
 21
-245.5488937146
  0
ARC
  8
1
  6
CONTINUOUS
 62
1
 10
32.8199585694
 20
-241.7419493141
 40
5.0000000000
 50
130.4132080494
 51
229.5867919506
  0
ARC
  8
1
  6
CONTINUOUS
 62
1
 10
65.8477216456
 20
-234.4919493141
 40
4.0000000000
 50
49.5867919506
 51
90.0000000000
  0
ARC
  8
1
  6
CONTINUOUS
 62
1
 10
65.8477216455
 20
-248.9919493142
 40
4.0000000000
 50
270.0000000000
 51
310.4132080494
  0
ARC
  8
1
  6
CONTINUOUS
 62
1
 10
39.7921954933
 20
-248.9919493141
 40
4.0000000000
 50
229.5867919506
 51
270.0000000000
  0
ARC
  8
1
  6
CONTINUOUS
 62
1
 10
39.7921954933
 20
-234.4919493141
 40
4.0000000000
 50
90.0000000000
 51
130.4132080494
  0
ARC
  8
1
  6
CONTINUOUS
 62
1
 10
40.3199585694
 20
-232.4919493138
 40
2.0000000000
 50
90.0000000000
 51
180.0000000000
  0
ARC
  8
1
  6
CONTINUOUS
 62
1
 10
40.3199585694
 20
-250.9919493138
 40
2.0000000000
 50
180.0000000000
 51
270.0000000000
  0
ARC
  8
1
  6
CONTINUOUS
 62
1
 10
65.3199585694
 20
-250.9919493138
 40
2.0000000000
 50
270.0000000000
 51
0.0000000000
  0
ARC
  8
1
  6
CONTINUOUS
 62
1
 10
65.3199585694
 20
-232.4919493140
 40
2.0000000000
 50
0.0000000000
 51
90.0000000000
  0
LINE
  8
1
  6
CONTINUOUS
 62
1
 10
65.8477216456
 20
-230.4919493141
 11
65.3199585694
 21
-230.4919493141
  0
LINE
  8
1
  6
CONTINUOUS
 62
1
 10
65.8477216455
 20
-252.9919493142
 11
65.3199585694
 21
-252.9919493142
  0
LINE
  8
1
  6
CONTINUOUS
 62
1
 10
39.7921954933
 20
-230.4919493141
 11
40.3199585694
 21
-230.4919493141
  0
LINE
  8
1
  6
CONTINUOUS
 62
1
 10
40.3199585694
 20
-252.9919493142
 11
39.7921954933
 21
-252.9919493142
  0
LINE
  8
1
  6
CONTINUOUS
 62
1
 10
191.2016374758
 20
-52.0658727524
 11
166.2016374758
 21
-52.0658727524
  0
POINT
  8
1
  6
CONTINUOUS
 62
1
 10
178.7016374758
 20
-63.3158727524
  0
CIRCLE
  8
1
  6
CONTINUOUS
 62
1
 10
198.7016374758
 20
-63.3158727524
 40
3.0000000000
  0
LINE
  8
1
  6
CONTINUOUS
 62
1
 10
171.7016374758
 20
-54.2658727524
 11
185.7016374758
 21
-54.2658727524
  0
LINE
  8
1
  6
CONTINUOUS
 62
1
 10
190.8516374758
 20
-67.5658727524
 11
190.8516374758
 21
-59.2658727524
  0
LINE
  8
1
  6
CONTINUOUS
 62
1
 10
169.5516374758
 20
-70.5658727524
 11
187.8516374758
 21
-70.5658727524
  0
LINE
  8
1
  6
CONTINUOUS
 62
1
 10
166.5516374758
 20
-67.5658727524
 11
166.5516374758
 21
-59.2658727524
  0
LINE
  8
1
  6
CONTINUOUS
 62
1
 10
177.7016374758
 20
-58.4158727524
 11
179.7016374758
 21
-58.4158727524
  0
LINE
  8
1
  6
CONTINUOUS
 62
1
 10
179.7016374758
 20
-58.4158727524
 11
179.7016374758
 21
-62.4158727524
  0
LINE
  8
1
  6
CONTINUOUS
 62
1
 10
179.7016374758
 20
-62.4158727524
 11
177.7016374758
 21
-62.4158727524
  0
LINE
  8
1
  6
CONTINUOUS
 62
1
 10
177.7016374758
 20
-62.4158727524
 11
177.7016374758
 21
-58.4158727524
  0
LINE
  8
1
  6
CONTINUOUS
 62
1
 10
170.7016374758
 20
-62.4158727524
 11
172.7016374758
 21
-62.4158727524
  0
LINE
  8
1
  6
CONTINUOUS
 62
1
 10
172.7016374758
 20
-62.4158727524
 11
172.7016374758
 21
-66.4158727524
  0
LINE
  8
1
  6
CONTINUOUS
 62
1
 10
172.7016374758
 20
-66.4158727524
 11
170.7016374758
 21
-66.4158727524
  0
LINE
  8
1
  6
CONTINUOUS
 62
1
 10
170.7016374758
 20
-66.4158727524
 11
170.7016374758
 21
-62.4158727524
  0
LINE
  8
1
  6
CONTINUOUS
 62
1
 10
186.7016374758
 20
-62.4158727524
 11
184.7016374758
 21
-62.4158727524
  0
LINE
  8
1
  6
CONTINUOUS
 62
1
 10
184.7016374758
 20
-62.4158727524
 11
184.7016374758
 21
-66.4158727524
  0
LINE
  8
1
  6
CONTINUOUS
 62
1
 10
184.7016374758
 20
-66.4158727524
 11
186.7016374758
 21
-66.4158727524
  0
LINE
  8
1
  6
CONTINUOUS
 62
1
 10
186.7016374758
 20
-66.4158727524
 11
186.7016374758
 21
-62.4158727524
  0
ARC
  8
1
  6
CONTINUOUS
 62
1
 10
187.8516374758
 20
-67.5658727524
 40
3.0000000000
 50
270.0000000000
 51
0.0000000000
  0
ARC
  8
1
  6
CONTINUOUS
 62
1
 10
169.5516374758
 20
-67.5658727524
 40
3.0000000000
 50
180.0000000000
 51
270.0000000000
  0
LINE
  8
1
  6
CONTINUOUS
 62
1
 10
171.7016374758
 20
-54.2658727524
 11
166.5516374758
 21
-59.2658727524
  0
LINE
  8
1
  6
CONTINUOUS
 62
1
 10
185.7016374758
 20
-54.2658727524
 11
190.8516374758
 21
-59.2658727524
  0
INSERT
  8
1
  6
CONTINUOUS
 62
7
  2
S4
 10
178.7016374758
 20
-56.4158727524
  0
TEXT
  8
1
  6
CONTINUOUS
 62
1
 10
170.801637
 20
-62.415873
 40
3.600000
  1
L
 41
1.000000
 50
0.000000
 51
0.000000
 72
   5
 73
   0
 11
172.601637
 21
-62.415873
  0
TEXT
  8
1
  6
CONTINUOUS
 62
1
 10
184.801637
 20
-62.415873
 40
3.600000
  1
N
 41
1.000000
 50
0.000000
 51
0.000000
 72
   5
 73
   0
 11
186.601637
 21
-62.415873
  0
CIRCLE
  8
1
  6
CONTINUOUS
 62
1
 10
158.7016374758
 20
-63.3158727520
 40
3.0000000000
  0
LINE
  8
1
  6
CONTINUOUS
 62
1
 10
191.2016374758
 20
-74.5658727524
 11
166.2016374758
 21
-74.5658727524
  0
ARC
  8
1
  6
CONTINUOUS
 62
1
 10
198.7016374758
 20
-63.3158727524
 40
5.0000000000
 50
310.4132080494
 51
49.5867919506
  0
LINE
  8
1
  6
CONTINUOUS
 62
1
 10
193.2016374758
 20
-54.0658727523
 11
193.2016374758
 21
-72.5658727521
  0
LINE
  8
1
  6
CONTINUOUS
 62
1
 10
164.2016374758
 20
-72.5658727521
 11
164.2016374758
 21
-54.0658727521
  0
LINE
  8
1
  6
CONTINUOUS
 62
1
 10
194.3225822986
 20
-53.0203172318
 11
201.9431146594
 21
-59.5089283519
  0
LINE
  8
1
  6
CONTINUOUS
 62
1
 10
194.3225822985
 20
-73.6114282730
 11
201.9431146594
 21
-67.1228171529
  0
LINE
  8
1
  6
CONTINUOUS
 62
1
 10
163.0806926531
 20
-53.0203172318
 11
155.4601602923
 21
-59.5089283519
  0
LINE
  8
1
  6
CONTINUOUS
 62
1
 10
163.0806926530
 20
-73.6114282729
 11
155.4601602923
 21
-67.1228171529
  0
ARC
  8
1
  6
CONTINUOUS
 62
1
 10
158.7016374758
 20
-63.3158727524
 40
5.0000000000
 50
130.4132080494
 51
229.5867919506
  0
ARC
  8
1
  6
CONTINUOUS
 62
1
 10
191.7294005520
 20
-56.0658727524
 40
4.0000000000
 50
49.5867919506
 51
90.0000000000
  0
ARC
  8
1
  6
CONTINUOUS
 62
1
 10
191.7294005519
 20
-70.5658727525
 40
4.0000000000
 50
270.0000000000
 51
310.4132080494
  0
ARC
  8
1
  6
CONTINUOUS
 62
1
 10
165.6738743997
 20
-70.5658727524
 40
4.0000000000
 50
229.5867919506
 51
270.0000000000
  0
ARC
  8
1
  6
CONTINUOUS
 62
1
 10
165.6738743997
 20
-56.0658727524
 40
4.0000000000
 50
90.0000000000
 51
130.4132080494
  0
ARC
  8
1
  6
CONTINUOUS
 62
1
 10
166.2016374758
 20
-54.0658727521
 40
2.0000000000
 50
90.0000000000
 51
180.0000000000
  0
ARC
  8
1
  6
CONTINUOUS
 62
1
 10
166.2016374758
 20
-72.5658727521
 40
2.0000000000
 50
180.0000000000
 51
270.0000000000
  0
ARC
  8
1
  6
CONTINUOUS
 62
1
 10
191.2016374758
 20
-72.5658727521
 40
2.0000000000
 50
270.0000000000
 51
0.0000000000
  0
ARC
  8
1
  6
CONTINUOUS
 62
1
 10
191.2016374758
 20
-54.0658727523
 40
2.0000000000
 50
0.0000000000
 51
90.0000000000
  0
LINE
  8
1
  6
CONTINUOUS
 62
1
 10
191.7294005520
 20
-52.0658727524
 11
191.2016374758
 21
-52.0658727524
  0
LINE
  8
1
  6
CONTINUOUS
 62
1
 10
191.7294005519
 20
-74.5658727524
 11
191.2016374758
 21
-74.5658727524
  0
LINE
  8
1
  6
CONTINUOUS
 62
1
 10
165.6738743997
 20
-52.0658727524
 11
166.2016374758
 21
-52.0658727524
  0
LINE
  8
1
  6
CONTINUOUS
 62
1
 10
166.2016374758
 20
-74.5658727524
 11
165.6738743997
 21
-74.5658727524
  0
LINE
  8
3
  6
CONTINUOUS
 62
6
 10
197.3631853543
 20
-61.9774206309
 11
200.0400895974
 21
-64.6543248739
  0
LINE
  8
3
  6
CONTINUOUS
 62
6
 10
197.3631853543
 20
-64.6543248739
 11
200.0400895974
 21
-61.9774206309
  0
CIRCLE
  8
3
  6
CONTINUOUS
 62
6
 10
198.7016374758
 20
-63.3158727524
 40
2.6500000000
  0
LINE
  8
3
  6
CONTINUOUS
 62
6
 10
157.3631853543
 20
-61.9774206305
 11
160.0400895974
 21
-64.6543248736
  0
LINE
  8
3
  6
CONTINUOUS
 62
6
 10
157.3631853543
 20
-64.6543248736
 11
160.0400895974
 21
-61.9774206305
  0
CIRCLE
  8
3
  6
CONTINUOUS
 62
6
 10
158.7016374758
 20
-63.3158727520
 40
2.6500000000
  0
TEXT
  8
5
  6
CONTINUOUS
 62
7
 10
315.316384
 20
-46.160854
 40
3.000000
  1
90
 41
0.854701
 50
0.000000
 51
0.000000
 72
   5
 73
   0
 11
318.316384
 21
-46.160854
  0
LINE
  8
5
  6
CONTINUOUS
 62
6
 10
379.3163840243
 20
-57.1608537296
 11
339.3163840243
 21
-57.1608537296
  0
LINE
  8
5
  6
CONTINUOUS
 62
6
 10
394.3163840243
 20
-57.1608537296
 11
379.3163840243
 21
-57.1608537296
  0
LINE
  8
5
  6
CONTINUOUS
 62
6
 10
399.3163840243
 20
-57.1608537296
 11
394.3163840243
 21
-57.1608537296
  0
INSERT
  8
1
  6
CONTINUOUS
 62
5
  2
BALN15
 10
71.4522201424
 20
-174.7444432884
  0
POINT
  8
5
  6
CONTINUOUS
 62
6
 10
9.0000000000
 20
252.0000000000
  0
POINT
  8
5
  6
CONTINUOUS
 62
6
 10
9.0000000000
 20
252.0000000000
  0
POINT
  8
5
  6
CONTINUOUS
 62
6
 10
9.0000000000
 20
252.0000000000
  0
POINT
  8
5
  6
CONTINUOUS
 62
6
 10
9.0000000000
 20
252.0000000000
  0
POINT
  8
5
  6
CONTINUOUS
 62
6
 10
9.0000000000
 20
252.0000000000
  0
POINT
  8
5
  6
CONTINUOUS
 62
6
 10
9.0000000000
 20
252.0000000000
  0
POINT
  8
5
  6
CONTINUOUS
 62
6
 10
8.9999999999
 20
252.0000000000
  0
LINE
  8
1
  6
CONTINUOUS
 62
7
 10
11.4999999999
 20
250.0000000000
 11
6.4999999999
 21
250.0000000000
  0
TEXT
  8
1
  6
CONTINUOUS
 62
7
 10
7.948950
 20
249.621673
 40
3.300000
  1
B
 41
1.274000
 50
0.000000
 51
0.000000
 72
   5
 73
   0
 11
10.051050
 21
249.621673
  0
LINE
  8
1
  6
CONTINUOUS
 62
7
 10
8.9999999999
 20
254.0000000000
 11
6.4999999999
 21
250.0000000000
  0
LINE
  8
1
  6
CONTINUOUS
 62
7
 10
8.9999999999
 20
254.0000000000
 11
11.4999999999
 21
250.0000000000
  0
POINT
  8
1
  6
CONTINUOUS
 62
7
 10
8.9999999999
 20
252.0000000000
  0
TEXT
  8
1
  6
CONTINUOUS
 62
7
 10
14.836500
 20
250.500000
 40
3.000000
  1
'22.3.23
 41
0.599037
 50
0.000000
 51
0.000000
 72
   5
 73
   0
 11
24.163500
 21
250.500000
  0
TEXT
  8
1
  6
CONTINUOUS
 62
7
 10
28.160983
 20
250.056979
 40
4.000000
  1
PB追加に伴う変更
 41
0.854701
 50
0.000000
 51
0.000000
 72
   5
 73
   0
 11
60.160983
 21
250.056979
  0
TEXT
  8
1
  6
CONTINUOUS
 62
7
 10
91.000000
 20
250.250000
 40
3.500000
  1
山田
 41
0.921659
 50
0.000000
 51
0.000000
 72
   5
 73
   0
 11
98.000000
 21
250.250000
  0
POINT
  8
5
  6
CONTINUOUS
 62
6
 10
7.7490435001
 20
-61.9655230621
  0
POINT
  8
5
  6
CONTINUOUS
 62
6
 10
7.7490435001
 20
-61.9655230621
  0
POINT
  8
5
  6
CONTINUOUS
 62
6
 10
7.7490435001
 20
-61.9655230621
  0
POINT
  8
5
  6
CONTINUOUS
 62
6
 10
7.7490435001
 20
-61.9655230621
  0
POINT
  8
5
  6
CONTINUOUS
 62
6
 10
7.7490435001
 20
-61.9655230621
  0
POINT
  8
5
  6
CONTINUOUS
 62
6
 10
7.7490435001
 20
-61.9655230621
  0
POINT
  8
5
  6
CONTINUOUS
 62
6
 10
7.7490435000
 20
-61.9655230621
  0
LINE
  8
1
  6
CONTINUOUS
 62
7
 10
10.2490435000
 20
-63.9655230621
 11
5.2490435000
 21
-63.9655230621
  0
TEXT
  8
1
  6
CONTINUOUS
 62
7
 10
6.697994
 20
-64.343850
 40
3.300000
  1
B
 41
1.274000
 50
0.000000
 51
0.000000
 72
   5
 73
   0
 11
8.800094
 21
-64.343850
  0
LINE
  8
1
  6
CONTINUOUS
 62
7
 10
7.7490435000
 20
-59.9655230621
 11
5.2490435000
 21
-63.9655230621
  0
LINE
  8
1
  6
CONTINUOUS
 62
7
 10
7.7490435000
 20
-59.9655230621
 11
10.2490435000
 21
-63.9655230621
  0
POINT
  8
1
  6
CONTINUOUS
 62
7
 10
7.7490435000
 20
-61.9655230621
  0
TEXT
  8
1
  6
CONTINUOUS
 62
7
 10
13.585544
 20
-63.465523
 40
3.000000
  1
'22.3.23
 41
0.599037
 50
0.000000
 51
0.000000
 72
   5
 73
   0
 11
22.912544
 21
-63.465523
  0
TEXT
  8
1
  6
CONTINUOUS
 62
7
 10
26.910027
 20
-63.908544
 40
4.000000
  1
PB追加に伴う変更
 41
0.854701
 50
0.000000
 51
0.000000
 72
   5
 73
   0
 11
58.910027
 21
-63.908544
  0
TEXT
  8
1
  6
CONTINUOUS
 62
7
 10
89.749044
 20
-63.715523
 40
3.500000
  1
山田
 41
0.921659
 50
0.000000
 51
0.000000
 72
   5
 73
   0
 11
96.749044
 21
-63.715523
  0
POINT
  8
5
  6
CONTINUOUS
 62
6
 10
183.4561860564
 20
245.2817122723
  0
POINT
  8
5
  6
CONTINUOUS
 62
6
 10
183.4561860564
 20
245.2817122723
  0
POINT
  8
1
  6
CONTINUOUS
 62
6
 10
183.4561860564
 20
245.2817122723
  0
POINT
  8
5
  6
CONTINUOUS
 62
6
 10
183.4561860563
 20
245.2817122723
  0
INSERT
  8
1
  6
CONTINUOUS
 62
7
  2
S5
 10
183.4561860563
 20
245.2817122723
  0
LINE
  8
1
  6
CONTINUOUS
 62
7
 10
215.4460940247
 20
255.4421384890
 11
191.1553339894
 21
255.4421384891
  0
LINE
  8
1
  6
CONTINUOUS
 62
7
 10
191.1553339894
 20
255.4421384891
 11
191.1553339894
 21
247.5261181951
  0
TEXT
  8
1
  6
CONTINUOUS
 62
7
 10
189.213507
 20
242.760930
 40
3.500000
  1
①ﾍﾞｰｽ,②ｶﾊﾞｰ材質
 41
0.806452
 50
0.000000
 51
0.000000
 72
   5
 73
   0
 11
218.963507
 21
242.760930
  0
TEXT
  8
1
  6
CONTINUOUS
 62
7
 10
189.213507
 20
239.260930
 40
3.500000
  1
無印:ｱﾙﾐﾀﾞｲｷｬｽﾄ
 41
0.786164
 50
0.000000
 51
0.000000
 72
   5
 73
   0
 11
215.463507
 21
239.260930
  0
TEXT
  8
1
  6
CONTINUOUS
 62
7
 10
189.213507
 20
235.760930
 40
3.500000
  1
PB:PBT(UL:V-0)
 41
0.760043
 50
0.000000
 51
0.000000
 72
   5
 73
   0
 11
213.713507
 21
235.760930
  0
LINE
  8
1
  6
CONTINUOUS
 62
7
 10
215.4460940247
 20
265.4921488332
 11
215.4460940247
 21
255.4421384890
  0
TEXT
  8
3
  6
CONTINUOUS
 62
7
 10
4.891319
 20
-75.156418
 40
5.000000
  1
型番仕様
 41
0.886918
 50
0.000000
 51
0.000000
 72
   5
 73
   0
 11
24.891319
 21
-75.156418
  0
TEXT
  8
3
  6
CONTINUOUS
 62
7
 10
4.891319
 20
-82.156418
 40
5.000000
  1
MCON-001-072 %%uPB%%u %%u**%%u %%uR*%%u %%uU*%%u
 41
0.754243
 50
0.000000
 51
0.000000
 72
   5
 73
   0
 11
64.891319
 21
-82.156418
  0
LINE
  8
3
  6
CONTINUOUS
 62
7
 10
62.5652203063
 20
-82.3815138971
 11
62.5652203063
 21
-87.3815138972
  0
LINE
  8
3
  6
CONTINUOUS
 62
7
 10
62.5652203063
 20
-87.3815138972
 11
64.1187331796
 21
-87.3815138971
  0
LINE
  8
3
  6
CONTINUOUS
 62
7
 10
64.1187331796
 20
-99.8815138971
 11
55.0382553528
 21
-99.8815138971
  0
LINE
  8
3
  6
CONTINUOUS
 62
7
 10
55.0382553528
 20
-99.8815138970
 11
55.0382553528
 21
-82.3815138971
  0
LINE
  8
3
  6
CONTINUOUS
 62
7
 10
64.1187331796
 20
-112.3815138971
 11
47.0752769027
 21
-112.3815138971
  0
LINE
  8
3
  6
CONTINUOUS
 62
7
 10
47.0752769027
 20
-112.3815138971
 11
47.0752769027
 21
-82.3815138971
  0
POINT
  8
5
  6
CONTINUOUS
 62
6
 10
8.0421952432
 20
-102.3066272377
  0
POINT
  8
5
  6
CONTINUOUS
 62
6
 10
8.0421952432
 20
-102.3066272377
  0
POINT
  8
1
  6
CONTINUOUS
 62
6
 10
8.0421952432
 20
-102.3066272377
  0
POINT
  8
5
  6
CONTINUOUS
 62
6
 10
8.0421952432
 20
-102.3066272377
  0
INSERT
  8
1
  6
CONTINUOUS
 62
7
  2
S6
 10
8.0421952432
 20
-102.3066272377
  0
LINE
  8
1
  6
CONTINUOUS
 62
7
 10
40.0321032116
 20
-92.1462010209
 11
15.7413431763
 21
-92.1462010209
  0
LINE
  8
1
  6
CONTINUOUS
 62
7
 10
15.7413431762
 20
-92.1462010209
 11
15.7413431762
 21
-100.0622213148
  0
TEXT
  8
1
  6
CONTINUOUS
 62
7
 10
13.799516
 20
-104.827410
 40
3.500000
  1
①ﾍﾞｰｽ,②ｶﾊﾞｰ材質
 41
0.806452
 50
0.000000
 51
0.000000
 72
   5
 73
   0
 11
43.549516
 21
-104.827410
  0
TEXT
  8
1
  6
CONTINUOUS
 62
7
 10
13.799516
 20
-108.327410
 40
3.500000
  1
無印:ｱﾙﾐﾀﾞｲｷｬｽﾄ
 41
0.786164
 50
0.000000
 51
0.000000
 72
   5
 73
   0
 11
40.049516
 21
-108.327410
  0
TEXT
  8
1
  6
CONTINUOUS
 62
7
 10
13.799516
 20
-111.827410
 40
3.500000
  1
PB:PBT(UL:V-0)
 41
0.760043
 50
0.000000
 51
0.000000
 72
   5
 73
   0
 11
38.299516
 21
-111.827410
  0
LINE
  8
1
  6
CONTINUOUS
 62
7
 10
40.0321032116
 20
-82.0961906767
 11
40.0321032116
 21
-92.1462010209
  0
TEXT
  8
3
  6
CONTINUOUS
 62
7
 10
65.062112
 20
-114.426020
 40
4.000000
  1
⑨ AC:C14 ﾀｲﾌﾟｲﾝﾚｯﾄ
 41
0.766747
 50
0.000000
 51
0.000000
 72
   5
 73
   0
 11
103.062112
 21
-114.426020
  0
TEXT
  8
3
  6
CONTINUOUS
 62
7
 10
65.259970
 20
-102.142692
 40
4.500000
  1
⑩ R0:RJ45無し(ﾌﾞﾗﾝｸﾊﾟﾈﾙ)
 41
0.777847
 50
0.000000
 51
0.000000
 72
   5
 73
   0
 11
121.509970
 21
-102.142692
  0
TEXT
  8
3
  6
CONTINUOUS
 62
7
 10
65.259970
 20
-107.642692
 40
4.500000
  1
　 R1:RJ45有り
 41
0.804598
 50
0.000000
 51
0.000000
 72
   5
 73
   0
 11
96.759970
 21
-107.642692
  0
TEXT
  8
3
  6
CONTINUOUS
 62
7
 10
65.259970
 20
-90.015657
 40
4.500000
  1
⑪ U0:USB無し(ﾌﾞﾗﾝｸﾊﾟﾈﾙ)
 41
0.779221
 50
0.000000
 51
0.000000
 72
   5
 73
   0
 11
119.259970
 21
-90.015657
  0
TEXT
  8
3
  6
CONTINUOUS
 62
7
 10
65.259970
 20
-95.515657
 40
4.500000
  1
　 U1:USB有り
 41
0.809465
 50
0.000000
 51
0.000000
 72
   5
 73
   0
 11
94.509970
 21
-95.515657
  0
POINT
  8
5
  6
CONTINUOUS
 62
6
 10
137.2868002249
 20
38.5097255163
  0
POINT
  8
5
  6
CONTINUOUS
 62
6
 10
137.2868002249
 20
38.5097255163
  0
POINT
  8
1
  6
CONTINUOUS
 62
6
 10
137.2868002249
 20
38.5097255163
  0
POINT
  8
5
  6
CONTINUOUS
 62
6
 10
137.2868002249
 20
38.5097255163
  0
INSERT
  8
1
  6
CONTINUOUS
 62
7
  2
S7
 10
137.2868002249
 20
38.5097255163
  0
INSERT
  8
3
  6
CONTINUOUS
 62
5
  2
LTEX2
 10
134.5962334454
 20
86.7605564293
  0
INSERT
  8
3
  6
CONTINUOUS
 62
5
  2
LTEX3
 10
88.2645106558
 20
17.3439335173
  0
INSERT
  8
3
  6
CONTINUOUS
 62
5
  2
LTEX4
 10
39.2645106558
 20
18.7789024664
  0
CIRCLE
  8
1
  6
HIDDEN
 62
6
 10
193.9105182328
 20
91.3525214537
 40
2.0000000000
  0
CIRCLE
  8
1
  6
HIDDEN
 62
6
 10
193.9105182328
 20
91.3525214537
 40
4.0000000000
  0
INSERT
  8
1
  6
CONTINUOUS
 62
7
  2
S8
 10
183.4105174579
 20
91.3525214537
  0
INSERT
  8
1
  6
CONTINUOUS
 62
7
  2
S9
 10
233.9316052311
 20
82.0992534633
  0
INSERT
  8
1
  6
CONTINUOUS
 62
5
  2
LTEX5
 10
197.9105182328
 20
91.3525214537
  0
CIRCLE
  8
1
  6
HIDDEN
 62
6
 10
52.8199585694
 20
-272.2419493140
 40
2.0000000000
  0
CIRCLE
  8
1
  6
HIDDEN
 62
6
 10
52.8199585694
 20
-272.2419493140
 40
4.0000000000
  0
INSERT
  8
1
  6
CONTINUOUS
 62
7
  2
S10
 10
42.3199577945
 20
-272.2419493140
  0
INSERT
  8
1
  6
CONTINUOUS
 62
7
  2
S11
 10
92.8410455678
 20
-281.4952173043
  0
INSERT
  8
1
  6
CONTINUOUS
 62
5
  2
LTEX6
 10
56.8199585694
 20
-272.2419493140
  0
TEXT
  8
5
  6
CONTINUOUS
 62
7
 10
338.753123
 20
268.474804
 40
3.000000
  1
ｱﾙﾐﾀﾞｲｷｬｽﾄ銀色塗装
 41
0.833541
 50
0.000000
 51
0.000000
 72
   5
 73
   0
 11
366.785123
 21
268.474804
  0
TEXT
  8
5
  6
CONTINUOUS
 62
7
 10
338.753123
 20
265.474804
 40
3.000000
  1
又は
 41
0.921659
 50
0.000000
 51
0.000000
 72
   5
 73
   0
 11
344.753123
 21
265.474804
  0
TEXT
  8
5
  6
CONTINUOUS
 62
7
 10
338.753123
 20
262.474804
 40
3.000000
  1
PBT 黒色(UL  V-0)
 41
0.751838
 50
0.000000
 51
0.000000
 72
   5
 73
   0
 11
363.293123
 21
262.474804
  0
POINT
  8
5
  6
CONTINUOUS
 62
6
 10
309.3313851285
 20
266.8545250502
  0
POINT
  8
5
  6
CONTINUOUS
 62
6
 10
309.3313851285
 20
266.8545250502
  0
POINT
  8
1
  6
CONTINUOUS
 62
6
 10
309.3313851285
 20
266.8545250502
  0
POINT
  8
5
  6
CONTINUOUS
 62
6
 10
309.3313851285
 20
266.8545250502
  0
INSERT
  8
1
  6
CONTINUOUS
 62
7
  2
S12
 10
309.3313851285
 20
266.8545250502
  0
POINT
  8
5
  6
CONTINUOUS
 62
6
 10
300.1750246168
 20
-44.5140157843
  0
POINT
  8
5
  6
CONTINUOUS
 62
6
 10
300.1750246168
 20
-44.5140157843
  0
POINT
  8
1
  6
CONTINUOUS
 62
6
 10
300.1750246168
 20
-44.5140157843
  0
POINT
  8
5
  6
CONTINUOUS
 62
6
 10
300.1750246168
 20
-44.5140157843
  0
INSERT
  8
1
  6
CONTINUOUS
 62
7
  2
S13
 10
300.1750246168
 20
-44.5140157843
  0
ENDSEC
  0
EOF
