  0
SECTION
  2
HEADER
  9
$ACADVER
  1
AC1009
  9
$DWGCODEPAGE
  3
dos932
  9
$INSBASE
 10
203.5000000000
 20
-21.6122944226
  9
$EXTMIN
 10
-359.6978886854
 20
-373.0664330087
  9
$EXTMAX
 10
918.5206662995
 20
329.8418441634
  9
$LIMMIN
 10
-359.6978886854
 20
-373.0664330087
  9
$LIMMAX
 10
918.5206662995
 20
329.8418441634
  9
$VIEWCTR
 10
0.0000000000
 20
0.0000000000
  9
$VIEWSIZE
 40
0.0000000000
  9
$SNAPMODE
 70
     0
  9
$SNAPUNIT
 10
20.0
 20
20.0
  9
$SNAPBASE
 10
0.000000
 20
0.000000
  9
$SNAPANG
 50
0.0
  9
$SNAPSTYLE
 70
     0
  9
$SNAPISOPAIR
 70
     0
  9
$GRIDMODE
 70
     0
  9
$GRIDUNIT
 10
10.000000
 20
10.000000
  9
$ORTHOMODE
 70
     0
  9
$REGENMODE
 70
     0
  9
$FILLMODE
 70
     1
  9
$QTEXTMODE
 70
     0
  9
$DRAGMODE
 70
     1
  9
$LTSCALE
 40
1.0
  9
$OSMODE
 70
     0
  9
$ATTMODE
 70
     1
  9
$TEXTSIZE
 40
3.500000
  9
$TRACEWID
 40
0.05
  9
$TEXTSTYLE
  7
STANDARD
  9
$CLAYER
  8
3
  9
$CELTYPE
  6
CONTINUOUS
  9
$CECOLOR
  62
7
  9
$DIMSCALE
 40
1.0000000000
  9
$DIMASZ
 40
1.5000000000
  9
$DIMEXO
 40
0.5000000000
  9
$DIMDLI
 40
6.000000
  9
$DIMRND
 40
0.0
  9
$DIMDLE
 40
0.0
  9
$DIMEXE
 40
1.0000000000
  9
$DIMTP
 40
0.0
  9
$DIMTM
 40
0.0
  9
$DIMTXT
 40
3.500000
  9
$DIMCEN
 40
0.09
  9
$DIMTSZ
 40
0.0
  9
$DIMTOL
 70
     0
  9
$DIMLIM
 70
     0
  9
$DIMTIH
 70
     0
  9
$DIMTOH
 70
     0
  9
$DIMSE1
 70
     0
  9
$DIMSE2
 70
     0
  9
$DIMTAD
 70
     1
  9
$DIMZIN
 70
     0
  9
$DIMBLK
  1

  9
$DIMASO
 70
     1
  9
$DIMSHO
 70
     0
  9
$DIMPOST
  1

  9
$DIMAPOST
  1

  9
$DIMALT
 70
     0
  9
$DIMALTD
 70
     3
  9
$DIMCLRD
 70
     5
  9
$DIMCLRE
 70
     5
  9
$DIMCLRT
 70
     7
  9
$DIMALTF
 40
25.4
  9
$DIMLFAC
 40
1.0
  9
$DIMTOFL
 70
     0
  9
$DIMTVP
 40
0.0
  9
$DIMTIX
 70
     0
  9
$DIMSOXD
 70
     0
  9
$DIMSAH
 70
     0
  9
$LUNITS
 70
     2
  9
$LUPREC
 70
     4
  9
$AXISMODE
 70
     0
  9
$AXISUNIT
 10
0.0
 20
0.0
  9
$SKETCHINC
 40
0.1
  9
$FILLETRAD
 40
0.0
  9
$AUNITS
 70
     0
  9
$AUPREC
 70
     0
  9
$MENU
  1
ACAD
  9
$ELEVATION
 40
0.0
  9
$THICKNESS
 40
0.0
  9
$VIEWDIR
 10
0.0
 20
0.0
 30
1.0
  9
$LIMCHECK
 70
     0
  9
$BLIPMODE
 70
     1
  9
$CHAMFERA
 40
0.0
  9
$CHAMFERB
 40
0.0
  9
$FASTZOOM
 70
     1
  9
$SKPOLY
 70
     0
  9
$TDCREATE
 40
2460019.0000000051
  9
$TDUPDATE
 40
2460019.0000000051
  9
$TDINDWG
 40
0.0000000000
  9
$TDUSRTIMER
 40
0.0000000000
  9
$USRTIMER
 70
     1
  9
$ANGBASE
 50
0.0
  9
$ANGDIR
 70
     0
  9
$PDMODE
 70
     65
  9
$PDSIZE
 40
0.2
  9
$PLINEWID
 40
0.0
  9
$COORDS
 70
     2
  9
$USERI1
 70
     0
  9
$USERI2
 70
     0
  9
$USERI3
 70
     0
  9
$USERI4
 70
     0
  9
$USERI5
 70
     0
  9
$USERR1
 40
0.0
  9
$USERR2
 40
0.0
  9
$USERR3
 40
0.0
  9
$USERR4
 40
0.0
  9
$USERR5
 40
0.0
  0
ENDSEC
  0
SECTION
  2
TABLES
  0
TABLE
  2
LTYPE
 70
     9
  0
LTYPE
  2
CONTINUOUS
 70
    64
  3
Solid line
 72
    65
 73
     0
 40
0.0
  0
LTYPE
  2
DASHED
 70
    64
  3
__ __ __ __ __ __ __ __ __ __ __ __ __ __ __
 72
    65
 73
     2
 40
3.0
 49
2.0
 49
-1.0
  0
LTYPE
  2
HIDDEN
 70
    64
  3
_ _ _ _ _ _ _ _ _ _ _ _ _ _ _ _ _ _ _ _ _ _ _
 72
    65
 73
     2
 40
1.5
 49
1.0
 49
-0.5
  0
LTYPE
  2
CENTER
 70
    64
  3
____ _ ____ _ ____ _ ____ _ ____ _ ____ _ ____
 72
    65
 73
     4
 40
24.0
 49
20.0
 49
-1.0
 49
2.0
 49
-1.0
  0
LTYPE
  2
PHANTOM
 70
    64
  3
_____ _ _ _____ _ _ _____ _ _ _____ _ _ ____
 72
    65
 73
     6
 40
27.0
 49
20.0
 49
-1.0
 49
2.0
 49
-1.0
 49
2.0
 49
-1.0
  0
LTYPE
  2
DOT
 70
    64
  3
...............................................
 72
    65
 73
     2
 40
1.5
 49
0.5
 49
-1.0
  0
LTYPE
  2
DASHDOT
 70
    64
  3
__ . __ . __ . __ . __ . __ . __ . __ . __ . __
 72
    65
 73
     4
 40
8.5
 49
6.0
 49
-1.0
 49
0.5
 49
-1.0
  0
LTYPE
  2
DIVIDE
 70
    64
  3
__ . . __ . . __ . . __ . . __ . . __ . . __
 72
    65
 73
     6
 40
10.0
 49
6.0
 49
-1.0
 49
0.5
 49
-1.0
 49
0.5
 49
-1.0
  0
LTYPE
  2
BORDER
 70
    64
  3
__ __ . __ __ . __ __ . __ __ . __ __ . __ __
 72
    65
 73
     6
 40
15.5
 49
6.0
 49
-1.0
 49
6.0
 49
-1.0
 49
0.5
 49
-1.0
  0
ENDTAB
  0
TABLE
  2
LAYER
 70
  7
  0
LAYER
  2
0
 70
    64
 62
     7
  6
CONTINUOUS
  0
LAYER
  2
1
 70
    64
 62
     7
  6
CONTINUOUS
  0
LAYER
  2
2
 70
    64
 62
     7
  6
CONTINUOUS
  0
LAYER
  2
3
 70
    64
 62
     7
  6
CONTINUOUS
  0
LAYER
  2
4
 70
    64
 62
     7
  6
CONTINUOUS
  0
LAYER
  2
5
 70
    64
 62
     7
  6
CONTINUOUS
  0
LAYER
  2
DEFPOINTS
 70
     0
 62
    -7
  6
CONTINUOUS
  0
ENDTAB
  0
TABLE
  2
STYLE
 70
     1
  0
STYLE
  2
STANDARD
 70
    64
 40
0.0
 41
1.0
 71
     0
 42
3.500000
  3
TXT
  4
EXTFONT
 50
0.0
  0
ENDTAB
  0
TABLE
  2
VIEW
 70
     0
  0
ENDTAB
  0
ENDSEC
  0
SECTION
  2
BLOCKS
  0
BLOCK
  8
0
  2
CI
 70
   0
 10
0.0
 20
0.0
  0
CIRCLE
  8
0
  62
0
 10
0.0
 20
0.0
 40
0.1666666666
  0
ENDBLK
  8
0
  0
BLOCK
  8
5
  2
S0
 70
     0
 10
0.0000000000
 20
0.0000000000
  3
S0
  0
POINT
  8
5
  6
CONTINUOUS
 62
6
 10
-6.5000000000
 20
-6.5000000000
  0
LINE
  8
5
  6
CONTINUOUS
 62
6
 10
4.5000000000
 20
4.5000000000
 11
402.5000000000
 21
4.5000000000
  0
LINE
  8
5
  6
CONTINUOUS
 62
6
 10
4.5000000000
 20
4.5000000000
 11
4.5000000000
 21
279.5000000000
  0
LINE
  8
5
  6
CONTINUOUS
 62
6
 10
44.5000000000
 20
284.0000000000
 11
44.5000000000
 21
279.5000000000
  0
LINE
  8
5
  6
CONTINUOUS
 62
6
 10
44.5000000000
 20
4.5000000000
 11
44.5000000000
 21
0.0000000000
  0
LINE
  8
5
  6
CONTINUOUS
 62
6
 10
84.5000000000
 20
284.0000000000
 11
84.5000000000
 21
279.5000000000
  0
LINE
  8
5
  6
CONTINUOUS
 62
6
 10
124.5000000000
 20
284.0000000000
 11
124.5000000000
 21
279.5000000000
  0
LINE
  8
5
  6
CONTINUOUS
 62
6
 10
164.5000000000
 20
284.0000000000
 11
164.5000000000
 21
279.5000000000
  0
LINE
  8
5
  6
CONTINUOUS
 62
6
 10
204.5000000000
 20
284.0000000000
 11
204.5000000000
 21
279.5000000000
  0
LINE
  8
5
  6
CONTINUOUS
 62
6
 10
244.5000000000
 20
284.0000000000
 11
244.5000000000
 21
279.5000000000
  0
LINE
  8
5
  6
CONTINUOUS
 62
6
 10
84.5000000000
 20
4.5000000000
 11
84.5000000000
 21
0.0000000000
  0
LINE
  8
5
  6
CONTINUOUS
 62
6
 10
124.5000000000
 20
4.5000000000
 11
124.5000000000
 21
0.0000000000
  0
LINE
  8
5
  6
CONTINUOUS
 62
6
 10
164.5000000000
 20
4.5000000000
 11
164.5000000000
 21
0.0000000000
  0
LINE
  8
5
  6
CONTINUOUS
 62
6
 10
204.5000000000
 20
4.5000000000
 11
204.5000000000
 21
0.0000000000
  0
LINE
  8
5
  6
CONTINUOUS
 62
6
 10
244.5000000000
 20
4.5000000000
 11
244.5000000000
 21
0.0000000000
  0
LINE
  8
5
  6
CONTINUOUS
 62
6
 10
0.0000000000
 20
239.5000000000
 11
4.5000000000
 21
239.5000000000
  0
LINE
  8
5
  6
CONTINUOUS
 62
6
 10
402.5000000000
 20
239.5000000000
 11
407.0000000000
 21
239.5000000000
  0
LINE
  8
5
  6
CONTINUOUS
 62
6
 10
0.0000000000
 20
199.5000000000
 11
4.5000000000
 21
199.5000000000
  0
LINE
  8
5
  6
CONTINUOUS
 62
6
 10
0.0000000000
 20
159.5000000000
 11
4.5000000000
 21
159.5000000000
  0
LINE
  8
5
  6
CONTINUOUS
 62
6
 10
0.0000000000
 20
119.5000000000
 11
4.5000000000
 21
119.5000000000
  0
LINE
  8
5
  6
CONTINUOUS
 62
6
 10
402.5000000000
 20
199.5000000000
 11
407.0000000000
 21
199.5000000000
  0
LINE
  8
5
  6
CONTINUOUS
 62
6
 10
402.5000000000
 20
159.5000000000
 11
407.0000000000
 21
159.5000000000
  0
LINE
  8
5
  6
CONTINUOUS
 62
6
 10
402.5000000000
 20
119.5000000000
 11
407.0000000000
 21
119.5000000000
  0
TEXT
  8
5
  6
CONTINUOUS
 62
6
 10
23.500000
 20
279.500000
 40
4.000000
  1
1
 41
1.000000
 50
0.000000
 51
0.000000
 72
   5
 73
   0
 11
25.500000
 21
279.500000
  0
TEXT
  8
5
  6
CONTINUOUS
 62
6
 10
23.500000
 20
0.500000
 40
4.000000
  1
1
 41
1.000000
 50
0.000000
 51
0.000000
 72
   5
 73
   0
 11
25.500000
 21
0.500000
  0
TEXT
  8
5
  6
CONTINUOUS
 62
6
 10
63.500000
 20
279.500000
 40
4.000000
  1
2
 41
1.000000
 50
0.000000
 51
0.000000
 72
   5
 73
   0
 11
65.500000
 21
279.500000
  0
TEXT
  8
5
  6
CONTINUOUS
 62
6
 10
103.500000
 20
279.500000
 40
4.000000
  1
3
 41
1.000000
 50
0.000000
 51
0.000000
 72
   5
 73
   0
 11
105.500000
 21
279.500000
  0
TEXT
  8
5
  6
CONTINUOUS
 62
6
 10
143.500000
 20
279.500000
 40
4.000000
  1
4
 41
1.000000
 50
0.000000
 51
0.000000
 72
   5
 73
   0
 11
145.500000
 21
279.500000
  0
TEXT
  8
5
  6
CONTINUOUS
 62
6
 10
183.500000
 20
279.500000
 40
4.000000
  1
5
 41
1.000000
 50
0.000000
 51
0.000000
 72
   5
 73
   0
 11
185.500000
 21
279.500000
  0
TEXT
  8
5
  6
CONTINUOUS
 62
6
 10
223.500000
 20
279.500000
 40
4.000000
  1
6
 41
1.000000
 50
0.000000
 51
0.000000
 72
   5
 73
   0
 11
225.500000
 21
279.500000
  0
TEXT
  8
5
  6
CONTINUOUS
 62
6
 10
263.500000
 20
279.500000
 40
4.000000
  1
7
 41
1.000000
 50
0.000000
 51
0.000000
 72
   5
 73
   0
 11
265.500000
 21
279.500000
  0
TEXT
  8
5
  6
CONTINUOUS
 62
6
 10
63.500000
 20
0.500000
 40
4.000000
  1
2
 41
1.000000
 50
0.000000
 51
0.000000
 72
   5
 73
   0
 11
65.500000
 21
0.500000
  0
TEXT
  8
5
  6
CONTINUOUS
 62
6
 10
103.500000
 20
0.500000
 40
4.000000
  1
3
 41
1.000000
 50
0.000000
 51
0.000000
 72
   5
 73
   0
 11
105.500000
 21
0.500000
  0
TEXT
  8
5
  6
CONTINUOUS
 62
6
 10
143.500000
 20
0.500000
 40
4.000000
  1
4
 41
1.000000
 50
0.000000
 51
0.000000
 72
   5
 73
   0
 11
145.500000
 21
0.500000
  0
TEXT
  8
5
  6
CONTINUOUS
 62
6
 10
183.500000
 20
0.500000
 40
4.000000
  1
5
 41
1.000000
 50
0.000000
 51
0.000000
 72
   5
 73
   0
 11
185.500000
 21
0.500000
  0
TEXT
  8
5
  6
CONTINUOUS
 62
6
 10
223.500000
 20
0.500000
 40
4.000000
  1
6
 41
1.000000
 50
0.000000
 51
0.000000
 72
   5
 73
   0
 11
225.500000
 21
0.500000
  0
TEXT
  8
5
  6
CONTINUOUS
 62
6
 10
263.500000
 20
0.500000
 40
4.000000
  1
7
 41
1.000000
 50
0.000000
 51
0.000000
 72
   5
 73
   0
 11
265.500000
 21
0.500000
  0
TEXT
  8
5
  6
CONTINUOUS
 62
6
 10
1.626773
 20
257.454143
 40
4.000000
  1
A
 41
1.266000
 50
0.000000
 51
0.000000
 72
   5
 73
   0
 11
4.158773
 21
257.454143
  0
TEXT
  8
5
  6
CONTINUOUS
 62
6
 10
402.786513
 20
257.492354
 40
4.000000
  1
A
 41
1.266000
 50
0.000000
 51
0.000000
 72
   5
 73
   0
 11
405.318513
 21
257.492354
  0
TEXT
  8
5
  6
CONTINUOUS
 62
6
 10
1.610773
 20
217.454143
 40
4.000000
  1
B
 41
1.274000
 50
0.000000
 51
0.000000
 72
   5
 73
   0
 11
4.158773
 21
217.454143
  0
TEXT
  8
5
  6
CONTINUOUS
 62
6
 10
1.502773
 20
177.454143
 40
4.000000
  1
C
 41
1.328000
 50
0.000000
 51
0.000000
 72
   5
 73
   0
 11
4.158773
 21
177.454143
  0
TEXT
  8
5
  6
CONTINUOUS
 62
6
 10
1.566773
 20
137.454143
 40
4.000000
  1
D
 41
1.296000
 50
0.000000
 51
0.000000
 72
   5
 73
   0
 11
4.158773
 21
137.454143
  0
TEXT
  8
5
  6
CONTINUOUS
 62
6
 10
1.894773
 20
97.454143
 40
4.000000
  1
E
 41
1.132000
 50
0.000000
 51
0.000000
 72
   5
 73
   0
 11
4.158773
 21
97.454143
  0
TEXT
  8
5
  6
CONTINUOUS
 62
6
 10
402.786513
 20
217.492354
 40
4.000000
  1
B
 41
1.274000
 50
0.000000
 51
0.000000
 72
   5
 73
   0
 11
405.334513
 21
217.492354
  0
TEXT
  8
5
  6
CONTINUOUS
 62
6
 10
402.786513
 20
177.492354
 40
4.000000
  1
C
 41
1.328000
 50
0.000000
 51
0.000000
 72
   5
 73
   0
 11
405.442513
 21
177.492354
  0
TEXT
  8
5
  6
CONTINUOUS
 62
6
 10
402.786513
 20
137.492354
 40
4.000000
  1
D
 41
1.296000
 50
0.000000
 51
0.000000
 72
   5
 73
   0
 11
405.378513
 21
137.492354
  0
TEXT
  8
5
  6
CONTINUOUS
 62
6
 10
402.786513
 20
97.492354
 40
4.000000
  1
E
 41
1.132000
 50
0.000000
 51
0.000000
 72
   5
 73
   0
 11
405.050513
 21
97.492354
  0
LINE
  8
5
  6
CONTINUOUS
 62
6
 10
347.5000000000
 20
29.5000000000
 11
347.5000000000
 21
4.5000000000
  0
LINE
  8
5
  6
CONTINUOUS
 62
6
 10
347.5000000000
 20
14.5000000000
 11
402.5000000000
 21
14.5000000000
  0
LINE
  8
5
  6
CONTINUOUS
 62
6
 10
347.5000000000
 20
7.5000000000
 11
281.5000000000
 21
7.5000000000
  0
LINE
  8
5
  6
CONTINUOUS
 62
6
 10
303.5000000000
 20
4.5000000000
 11
303.5000000000
 21
21.0000000000
  0
LINE
  8
5
  6
CONTINUOUS
 62
6
 10
336.5000000000
 20
17.0000000000
 11
336.5000000000
 21
4.5000000000
  0
LINE
  8
5
  6
CONTINUOUS
 62
6
 10
325.5000000000
 20
4.5000000000
 11
325.4999999999
 21
21.0000000000
  0
LINE
  8
5
  6
CONTINUOUS
 62
6
 10
314.5000000000
 20
17.0000000000
 11
314.5000000000
 21
4.5000000000
  0
TEXT
  8
5
  6
CONTINUOUS
 62
6
 10
294.250000
 20
4.750000
 40
2.500000
  1
Design
 41
0.779221
 50
0.000000
 51
0.000000
 72
   5
 73
   0
 11
301.750000
 21
4.750000
  0
TEXT
  8
5
  6
CONTINUOUS
 62
6
 10
305.875000
 20
4.750000
 40
2.500000
  1
Draft
 41
0.786164
 50
0.000000
 51
0.000000
 72
   5
 73
   0
 11
312.125000
 21
4.750000
  0
TEXT
  8
5
  6
CONTINUOUS
 62
6
 10
316.875000
 20
4.750000
 40
2.500000
  1
Check
 41
0.786164
 50
0.000000
 51
0.000000
 72
   5
 73
   0
 11
323.125000
 21
4.750000
  0
LINE
  8
5
  6
CONTINUOUS
 62
6
 10
281.5000000000
 20
29.5000000000
 11
402.5000000000
 21
29.5000000000
  0
LINE
  8
5
  6
CONTINUOUS
 62
6
 10
281.5000000000
 20
17.0000000000
 11
347.5000000000
 21
17.0000000000
  0
LINE
  8
5
  6
CONTINUOUS
 62
6
 10
392.5000000000
 20
14.5000000000
 11
392.5000000000
 21
4.5000000000
  0
TEXT
  8
5
  6
CONTINUOUS
 62
6
 10
395.520000
 20
5.000000
 40
2.000000
  1
SIZE
 41
0.788845
 50
0.000000
 51
0.000000
 72
   5
 73
   0
 11
399.480000
 21
5.000000
  0
LINE
  8
5
  6
CONTINUOUS
 62
6
 10
392.5000000000
 20
7.5000000000
 11
402.5000000000
 21
7.5000000000
  0
TEXT
  8
5
  6
CONTINUOUS
 62
6
 10
394.005000
 20
8.500000
 40
5.000000
  1
Ａ３
 41
0.644240
 50
0.000000
 51
0.000000
 72
   5
 73
   0
 11
400.995000
 21
8.500000
  0
TEXT
  8
5
  6
CONTINUOUS
 62
6
 10
338.875000
 20
4.750000
 40
2.500000
  1
Scale
 41
0.786164
 50
0.000000
 51
0.000000
 72
   5
 73
   0
 11
345.125000
 21
4.750000
  0
TEXT
  8
5
  6
CONTINUOUS
 62
6
 10
338.250000
 20
9.750000
 40
5.000000
  1
1/1
 41
0.815217
 50
0.000000
 51
0.000000
 72
   5
 73
   0
 11
345.750000
 21
9.750000
  0
TEXT
  8
5
  6
CONTINUOUS
 62
6
 10
326.625000
 20
4.750000
 40
2.500000
  1
Confirm
 41
0.774336
 50
0.000000
 51
0.000000
 72
   5
 73
   0
 11
335.375000
 21
4.750000
  0
TEXT
  8
5
  6
CONTINUOUS
 62
6
 10
284.500000
 20
4.750000
 40
2.500000
  1
Date
 41
0.796813
 50
0.000000
 51
0.000000
 72
   5
 73
   0
 11
289.500000
 21
4.750000
  0
TEXT
  8
5
  6
CONTINUOUS
 62
6
 10
283.250000
 20
12.462500
 40
3.000000
  1
2020/
 41
0.786164
 50
0.000000
 51
0.000000
 72
   5
 73
   0
 11
290.750000
 21
12.462500
  0
TEXT
  8
5
  6
CONTINUOUS
 62
6
 10
283.250000
 20
9.037500
 40
3.000000
  1
10/15
 41
0.786164
 50
0.000000
 51
0.000000
 72
   5
 73
   0
 11
290.750000
 21
9.037500
  0
LINE
  8
5
  6
CONTINUOUS
 62
6
 10
292.5000000000
 20
17.0000000000
 11
292.5000000000
 21
4.5000000000
  0
LINE
  8
5
  6
CONTINUOUS
 62
6
 10
281.5000000000
 20
4.5000000000
 11
281.5000000000
 21
29.5000000000
  0
TEXT
  8
5
  6
CONTINUOUS
 62
6
 10
281.755293
 20
18.213190
 40
2.000000
  1
Material
 41
0.638921
 50
0.000000
 51
0.000000
 72
   5
 73
   0
 11
288.387293
 21
18.213190
  0
LINE
  8
5
  6
CONTINUOUS
 62
6
 10
288.5000000000
 20
21.0000000000
 11
288.5000000000
 21
17.0000000000
  0
TEXT
  8
5
  6
CONTINUOUS
 62
6
 10
303.605000
 20
18.000000
 40
2.000000
  1
Process
 41
0.751106
 50
0.000000
 51
0.000000
 72
   5
 73
   0
 11
310.395000
 21
18.000000
  0
LINE
  8
5
  6
CONTINUOUS
 62
6
 10
310.5000000000
 20
21.0000000000
 11
310.5000000000
 21
17.0000000000
  0
TEXT
  8
5
  6
CONTINUOUS
 62
6
 10
325.773000
 20
18.000000
 40
2.000000
  1
Amount
 41
0.838182
 50
0.000000
 51
0.000000
 72
   5
 73
   0
 11
332.227000
 21
18.000000
  0
LINE
  8
5
  6
CONTINUOUS
 62
6
 10
332.4999999999
 20
21.0000000000
 11
332.4999999999
 21
17.0000000000
  0
LINE
  8
5
  6
CONTINUOUS
 62
6
 10
347.5000000000
 20
21.0000000000
 11
281.5000000000
 21
21.0000000000
  0
POINT
  8
5
  6
CONTINUOUS
 62
6
 10
289.5000000000
 20
19.0000000000
  0
POINT
  8
5
  6
CONTINUOUS
 62
6
 10
311.5000000000
 20
19.0000000000
  0
POINT
  8
5
  6
CONTINUOUS
 62
6
 10
339.9999999999
 20
19.0000000000
  0
POINT
  8
5
  6
CONTINUOUS
 62
6
 10
298.0000000000
 20
12.2500000000
  0
POINT
  8
5
  6
CONTINUOUS
 62
6
 10
309.0000000000
 20
12.2500000000
  0
POINT
  8
5
  6
CONTINUOUS
 62
6
 10
320.0000000000
 20
12.2500000000
  0
POINT
  8
5
  6
CONTINUOUS
 62
6
 10
331.0000000000
 20
12.2500000000
  0
POINT
  8
5
  6
CONTINUOUS
 62
6
 10
0.0000000000
 20
0.0000000000
  0
TEXT
  8
5
  6
CONTINUOUS
 62
7
 10
301.099806
 20
20.780083
 40
4.000000
  1
MADOKA SYSTEM co,.ltd
 41
0.778201
 50
0.000000
 51
0.000000
 72
   5
 73
   0
 11
344.367806
 21
20.780083
  0
LINE
  8
5
  6
CONTINUOUS
 62
6
 10
284.5000000000
 20
284.0000000000
 11
284.5000000000
 21
279.5000000000
  0
LINE
  8
5
  6
CONTINUOUS
 62
6
 10
284.5000000000
 20
4.5000000000
 11
284.5000000000
 21
0.0000000000
  0
TEXT
  8
5
  6
CONTINUOUS
 62
6
 10
303.500000
 20
279.500000
 40
4.000000
  1
8
 41
1.000000
 50
0.000000
 51
0.000000
 72
   5
 73
   0
 11
305.500000
 21
279.500000
  0
TEXT
  8
5
  6
CONTINUOUS
 62
6
 10
303.500000
 20
0.500000
 40
4.000000
  1
8
 41
1.000000
 50
0.000000
 51
0.000000
 72
   5
 73
   0
 11
305.500000
 21
0.500000
  0
LINE
  8
5
  6
CONTINUOUS
 62
6
 10
324.5000000000
 20
284.0000000000
 11
324.5000000000
 21
279.5000000000
  0
LINE
  8
5
  6
CONTINUOUS
 62
6
 10
324.5000000000
 20
4.5000000000
 11
324.5000000000
 21
0.0000000000
  0
TEXT
  8
5
  6
CONTINUOUS
 62
6
 10
343.500000
 20
279.500000
 40
4.000000
  1
9
 41
1.000000
 50
0.000000
 51
0.000000
 72
   5
 73
   0
 11
345.500000
 21
279.500000
  0
TEXT
  8
5
  6
CONTINUOUS
 62
6
 10
343.500000
 20
0.500000
 40
4.000000
  1
9
 41
1.000000
 50
0.000000
 51
0.000000
 72
   5
 73
   0
 11
345.500000
 21
0.500000
  0
LINE
  8
5
  6
CONTINUOUS
 62
6
 10
364.5000000000
 20
284.0000000000
 11
364.5000000000
 21
279.5000000000
  0
LINE
  8
5
  6
CONTINUOUS
 62
6
 10
364.5000000000
 20
4.5000000000
 11
364.5000000000
 21
0.0000000000
  0
TEXT
  8
5
  6
CONTINUOUS
 62
6
 10
382.500000
 20
279.500000
 40
4.000000
  1
10
 41
0.854701
 50
0.000000
 51
0.000000
 72
   5
 73
   0
 11
386.500000
 21
279.500000
  0
TEXT
  8
5
  6
CONTINUOUS
 62
6
 10
382.500000
 20
0.500000
 40
4.000000
  1
10
 41
0.854701
 50
0.000000
 51
0.000000
 72
   5
 73
   0
 11
386.500000
 21
0.500000
  0
LINE
  8
5
  6
CONTINUOUS
 62
6
 10
0.0000000000
 20
79.5000000000
 11
4.5000000000
 21
79.5000000000
  0
LINE
  8
5
  6
CONTINUOUS
 62
6
 10
402.5000000000
 20
79.5000000000
 11
407.0000000000
 21
79.5000000000
  0
LINE
  8
5
  6
CONTINUOUS
 62
6
 10
0.0000000000
 20
39.5000000000
 11
4.5000000000
 21
39.5000000000
  0
LINE
  8
5
  6
CONTINUOUS
 62
6
 10
402.5000000000
 20
39.5000000000
 11
407.0000000000
 21
39.5000000000
  0
TEXT
  8
5
  6
CONTINUOUS
 62
6
 10
1.954773
 20
57.454143
 40
4.000000
  1
F
 41
1.102000
 50
0.000000
 51
0.000000
 72
   5
 73
   0
 11
4.158773
 21
57.454143
  0
TEXT
  8
5
  6
CONTINUOUS
 62
6
 10
402.786513
 20
57.492354
 40
4.000000
  1
F
 41
1.102000
 50
0.000000
 51
0.000000
 72
   5
 73
   0
 11
404.990513
 21
57.492354
  0
TEXT
  8
5
  6
CONTINUOUS
 62
6
 10
1.438773
 20
17.454143
 40
4.000000
  1
G
 41
1.360000
 50
0.000000
 51
0.000000
 72
   5
 73
   0
 11
4.158773
 21
17.454143
  0
TEXT
  8
5
  6
CONTINUOUS
 62
6
 10
402.786513
 20
17.492354
 40
4.000000
  1
G
 41
1.360000
 50
0.000000
 51
0.000000
 72
   5
 73
   0
 11
405.506513
 21
17.492354
  0
LINE
  8
5
  6
CONTINUOUS
 62
6
 10
4.5000000000
 20
279.5000000000
 11
402.5000000000
 21
279.5000000000
  0
LINE
  8
5
  6
CONTINUOUS
 62
6
 10
402.5000000000
 20
279.5000000000
 11
402.5000000000
 21
4.5000000000
  0
POINT
  8
5
  6
CONTINUOUS
 62
6
 10
353.5000000000
 20
20.5000000000
  0
POINT
  8
5
  6
CONTINUOUS
 62
6
 10
353.5000000000
 20
8.0000000000
  0
LINE
  8
5
  6
CONTINUOUS
 62
6
 10
347.5000000000
 20
26.5000000000
 11
402.5000000000
 21
26.5000000000
  0
LINE
  8
5
  6
CONTINUOUS
 62
6
 10
347.5000000000
 20
11.5000000000
 11
392.5000000000
 21
11.5000000000
  0
TEXT
  8
5
  6
CONTINUOUS
 62
7
 10
362.928500
 20
26.250000
 40
3.500000
  1
Document Name
 41
0.807728
 50
0.000000
 51
0.000000
 72
   5
 73
   0
 11
387.071500
 21
26.250000
  0
TEXT
  8
5
  6
CONTINUOUS
 62
7
 10
359.678500
 20
11.250000
 40
3.500000
  1
Document No.
 41
0.749428
 50
0.000000
 51
0.000000
 72
   5
 73
   0
 11
380.321500
 21
11.250000
  0
ENDBLK
  8
0
  0
BLOCK
  8
1
  2
*D0
 70
     1
 10
0.0000000000
 20
0.0000000000
  3
*D0
  0
LINE
  8
1
  6
BYBLOCK
 62
5
 10
127.9661466639
 20
94.3244525436
 11
127.9661466639
 21
99.7193009011
  0
LINE
  8
1
  6
BYBLOCK
 62
5
 10
111.4661466639
 20
94.3244525436
 11
111.4661466639
 21
99.7193009011
  0
LINE
  8
1
  6
BYBLOCK
 62
5
 10
111.4661466639
 20
98.7193009011
 11
127.9661466639
 21
98.7193009011
  0
SOLID
  8
1
  6
CONTINUOUS
 62
5
 10
126.0342950114
 20
98.2016628109
 11
126.0342950114
 21
99.2369389913
 12
127.9661466639
 22
98.7193009011
 13
127.9661466639
 23
98.7193009011
  0
SOLID
  8
1
  6
CONTINUOUS
 62
5
 10
113.3979983165
 20
99.2369389913
 11
113.3979983165
 21
98.2016628109
 12
111.4661466639
 22
98.7193009011
 13
111.4661466639
 23
98.7193009011
  0
TEXT
  8
1
  6
CONTINUOUS
 62
7
 10
116.216147
 20
99.719301
 40
3.500000
  1
16.5
 41
0.796813
 50
0.000000
 51
0.000000
 72
   5
 73
   0
 11
123.216147
 21
99.719301
  0
POINT
  8
DEFPOINTS
  6
BYBLOCK
 62
5
 10
127.9661466639
 20
93.8244525436
  0
POINT
  8
DEFPOINTS
  6
BYBLOCK
 62
5
 10
111.4661466639
 20
93.8244525436
  0
POINT
  8
DEFPOINTS
  6
BYBLOCK
 62
5
 10
111.4661466639
 20
98.7193009011
  0
ENDBLK
  8
0
  0
BLOCK
  8
1
  2
*D1
 70
     1
 10
0.0000000000
 20
0.0000000000
  3
*D1
  0
LINE
  8
1
  6
BYBLOCK
 62
5
 10
27.2645106558
 20
27.5484212565
 11
19.9779016700
 21
27.5484212565
  0
LINE
  8
1
  6
BYBLOCK
 62
5
 10
28.2645106558
 20
36.5484212565
 11
19.9779016700
 21
36.5484212565
  0
LINE
  8
1
  6
BYBLOCK
 62
5
 10
20.9779016700
 20
36.5484212565
 11
20.9779016700
 21
27.5484212565
  0
SOLID
  8
1
  6
CONTINUOUS
 62
5
 10
20.4602635798
 20
29.4802729091
 11
21.4955397602
 21
29.4802729091
 12
20.9779016700
 22
27.5484212565
 13
20.9779016700
 23
27.5484212565
  0
SOLID
  8
1
  6
CONTINUOUS
 62
5
 10
21.4955397602
 20
34.6165696039
 11
20.4602635798
 21
34.6165696039
 12
20.9779016700
 22
36.5484212565
 13
20.9779016700
 23
36.5484212565
  0
TEXT
  8
1
  6
CONTINUOUS
 62
7
 10
19.977902
 20
31.173421
 40
3.500000
  1
9
 41
1.000000
 50
90.000000
 51
0.000000
 72
   5
 73
   0
 11
19.977902
 21
32.923421
  0
POINT
  8
DEFPOINTS
  6
BYBLOCK
 62
5
 10
27.7645106558
 20
27.5484212565
  0
POINT
  8
DEFPOINTS
  6
BYBLOCK
 62
5
 10
28.7645106558
 20
36.5484212565
  0
POINT
  8
DEFPOINTS
  6
BYBLOCK
 62
5
 10
20.9779016700
 20
36.5484212565
  0
ENDBLK
  8
0
  0
BLOCK
  8
1
  2
*D2
 70
     1
 10
0.0000000000
 20
0.0000000000
  3
*D2
  0
LINE
  8
1
  6
BYBLOCK
 62
5
 10
29.2645106558
 20
37.0484212565
 11
19.7383253733
 21
37.0484212565
  0
LINE
  8
1
  6
BYBLOCK
 62
5
 10
35.7645106558
 20
51.5484212565
 11
19.7383253733
 21
51.5484212565
  0
LINE
  8
1
  6
BYBLOCK
 62
5
 10
20.7383253733
 20
51.5484212565
 11
20.7383253733
 21
37.0484212565
  0
SOLID
  8
1
  6
CONTINUOUS
 62
5
 10
20.2206872831
 20
38.9802729091
 11
21.2559634635
 21
38.9802729091
 12
20.7383253733
 22
37.0484212565
 13
20.7383253733
 23
37.0484212565
  0
SOLID
  8
1
  6
CONTINUOUS
 62
5
 10
21.2559634635
 20
49.6165696039
 11
20.2206872831
 21
49.6165696039
 12
20.7383253733
 22
51.5484212565
 13
20.7383253733
 23
51.5484212565
  0
TEXT
  8
1
  6
CONTINUOUS
 62
7
 10
19.738325
 20
40.798421
 40
3.500000
  1
14.5
 41
0.796813
 50
90.000000
 51
0.000000
 72
   5
 73
   0
 11
19.738325
 21
47.798421
  0
POINT
  8
DEFPOINTS
  6
BYBLOCK
 62
5
 10
29.7645106558
 20
37.0484212565
  0
POINT
  8
DEFPOINTS
  6
BYBLOCK
 62
5
 10
36.2645106558
 20
51.5484212565
  0
POINT
  8
DEFPOINTS
  6
BYBLOCK
 62
5
 10
20.7383253733
 20
51.5484212565
  0
ENDBLK
  8
0
  0
BLOCK
  8
1
  2
*D3
 70
     1
 10
0.0000000000
 20
0.0000000000
  3
*D3
  0
LINE
  8
1
  6
BYBLOCK
 62
5
 10
27.2645106558
 20
27.5484212565
 11
12.2316014101
 21
27.5484212565
  0
LINE
  8
1
  6
BYBLOCK
 62
5
 10
35.7645106558
 20
51.5484212565
 11
12.2316014101
 21
51.5484212565
  0
LINE
  8
1
  6
BYBLOCK
 62
5
 10
13.2316014101
 20
51.5484212565
 11
13.2316014101
 21
27.5484212565
  0
SOLID
  8
1
  6
CONTINUOUS
 62
5
 10
12.7139633199
 20
29.4802729091
 11
13.7492395003
 21
29.4802729091
 12
13.2316014101
 22
27.5484212565
 13
13.2316014101
 23
27.5484212565
  0
SOLID
  8
1
  6
CONTINUOUS
 62
5
 10
13.7492395003
 20
49.6165696039
 11
12.7139633199
 21
49.6165696039
 12
13.2316014101
 22
51.5484212565
 13
13.2316014101
 23
51.5484212565
  0
TEXT
  8
1
  6
CONTINUOUS
 62
7
 10
12.231601
 20
37.798421
 40
3.500000
  1
24
 41
0.854701
 50
90.000000
 51
0.000000
 72
   5
 73
   0
 11
12.231601
 21
41.298421
  0
POINT
  8
DEFPOINTS
  6
BYBLOCK
 62
5
 10
27.7645106558
 20
27.5484212565
  0
POINT
  8
DEFPOINTS
  6
BYBLOCK
 62
5
 10
36.2645106558
 20
51.5484212565
  0
POINT
  8
DEFPOINTS
  6
BYBLOCK
 62
5
 10
13.2316014101
 20
51.5484212565
  0
ENDBLK
  8
0
  0
BLOCK
  8
1
  2
*D4
 70
     1
 10
0.0000000000
 20
0.0000000000
  3
*D4
  0
LINE
  8
1
  6
BYBLOCK
 62
5
 10
27.2645106558
 20
220.1025214537
 11
16.2916228022
 21
220.1025214537
  0
LINE
  8
1
  6
BYBLOCK
 62
5
 10
27.2645106558
 20
64.6025214537
 11
16.2916228022
 21
64.6025214537
  0
LINE
  8
1
  6
BYBLOCK
 62
5
 10
17.2916228022
 20
64.6025214537
 11
17.2916228022
 21
220.1025214537
  0
SOLID
  8
1
  6
CONTINUOUS
 62
5
 10
17.8092608924
 20
218.1706698011
 11
16.7739847120
 21
218.1706698011
 12
17.2916228022
 22
220.1025214537
 13
17.2916228022
 23
220.1025214537
  0
SOLID
  8
1
  6
CONTINUOUS
 62
5
 10
16.7739847120
 20
66.5343731063
 11
17.8092608924
 21
66.5343731063
 12
17.2916228022
 22
64.6025214537
 13
17.2916228022
 23
64.6025214537
  0
TEXT
  8
1
  6
CONTINUOUS
 62
7
 10
16.291623
 20
136.102521
 40
5.000000
  1
155.5
 41
0.786164
 50
90.000000
 51
0.000000
 72
   5
 73
   0
 11
16.291623
 21
148.602521
  0
POINT
  8
DEFPOINTS
  6
BYBLOCK
 62
5
 10
27.7645106558
 20
220.1025214537
  0
POINT
  8
DEFPOINTS
  6
BYBLOCK
 62
5
 10
27.7645106558
 20
64.6025214537
  0
POINT
  8
DEFPOINTS
  6
BYBLOCK
 62
5
 10
17.2916228022
 20
64.6025214537
  0
ENDBLK
  8
0
  0
BLOCK
  8
1
  2
*D5
 70
     1
 10
0.0000000000
 20
0.0000000000
  3
*D5
  0
LINE
  8
1
  6
BYBLOCK
 62
5
 10
27.7645106558
 20
220.6025214537
 11
27.7645106558
 21
225.0648547044
  0
LINE
  8
1
  6
BYBLOCK
 62
5
 10
96.7645106558
 20
220.6025214537
 11
96.7645106558
 21
225.0648547044
  0
LINE
  8
1
  6
BYBLOCK
 62
5
 10
96.7645106558
 20
224.0648547044
 11
27.7645106558
 21
224.0648547044
  0
SOLID
  8
1
  6
CONTINUOUS
 62
5
 10
29.6963623084
 20
224.5824927946
 11
29.6963623084
 21
223.5472166142
 12
27.7645106558
 22
224.0648547044
 13
27.7645106558
 23
224.0648547044
  0
SOLID
  8
1
  6
CONTINUOUS
 62
5
 10
94.8326590033
 20
223.5472166142
 11
94.8326590033
 21
224.5824927946
 12
96.7645106558
 22
224.0648547044
 13
96.7645106558
 23
224.0648547044
  0
TEXT
  8
1
  6
CONTINUOUS
 62
7
 10
59.764511
 20
225.064855
 40
5.000000
  1
69
 41
0.854701
 50
0.000000
 51
0.000000
 72
   5
 73
   0
 11
64.764511
 21
225.064855
  0
POINT
  8
DEFPOINTS
  6
BYBLOCK
 62
5
 10
27.7645106558
 20
220.1025214537
  0
POINT
  8
DEFPOINTS
  6
BYBLOCK
 62
5
 10
96.7645106558
 20
220.1025214537
  0
POINT
  8
DEFPOINTS
  6
BYBLOCK
 62
5
 10
96.7645106558
 20
224.0648547044
  0
ENDBLK
  8
0
  0
BLOCK
  8
5
  2
S1
 70
     0
 10
312.9235759729
 20
221.9463679840
  3
S1
  0
LINE
  8
5
  6
CONTINUOUS
 62
6
 10
312.9235759729
 20
271.9463679840
 11
312.9235759729
 21
276.9463679840
  0
LINE
  8
5
  6
CONTINUOUS
 62
6
 10
312.9235759729
 20
276.9463679840
 11
317.9235759729
 21
276.9463679840
  0
LINE
  8
5
  6
CONTINUOUS
 62
6
 10
317.9235759729
 20
276.9463679840
 11
337.9235759729
 21
276.9463679840
  0
LINE
  8
5
  6
CONTINUOUS
 62
6
 10
337.9235759729
 20
276.9463679840
 11
377.9235759729
 21
276.9463679840
  0
LINE
  8
5
  6
CONTINUOUS
 62
6
 10
377.9235759729
 20
276.9463679840
 11
392.9235759729
 21
276.9463679840
  0
LINE
  8
5
  6
CONTINUOUS
 62
6
 10
392.9235759729
 20
276.9463679840
 11
397.9235759729
 21
276.9463679840
  0
LINE
  8
5
  6
CONTINUOUS
 62
6
 10
397.9235759729
 20
276.9463679840
 11
397.9235759729
 21
271.9463679840
  0
LINE
  8
5
  6
CONTINUOUS
 62
6
 10
397.9235759729
 20
271.9463679840
 11
392.9235759729
 21
271.9463679840
  0
LINE
  8
5
  6
CONTINUOUS
 62
6
 10
392.9235759729
 20
271.9463679840
 11
377.9235759729
 21
271.9463679840
  0
LINE
  8
5
  6
CONTINUOUS
 62
6
 10
377.9235759729
 20
271.9463679840
 11
337.9235759729
 21
271.9463679840
  0
LINE
  8
5
  6
CONTINUOUS
 62
6
 10
337.9235759729
 20
271.9463679840
 11
317.9235759729
 21
271.9463679840
  0
LINE
  8
5
  6
CONTINUOUS
 62
6
 10
317.9235759729
 20
271.9463679840
 11
312.9235759729
 21
271.9463679840
  0
LINE
  8
5
  6
CONTINUOUS
 62
6
 10
317.9235759729
 20
276.9463679840
 11
317.9235759729
 21
271.9463679840
  0
LINE
  8
5
  6
CONTINUOUS
 62
6
 10
337.9235759729
 20
276.9463679840
 11
337.9235759729
 21
271.9463679840
  0
LINE
  8
5
  6
CONTINUOUS
 62
6
 10
377.9235759729
 20
276.9463679840
 11
377.9235759729
 21
271.9463679840
  0
LINE
  8
5
  6
CONTINUOUS
 62
6
 10
392.9235759729
 20
276.9463679840
 11
392.9235759729
 21
271.9463679840
  0
TEXT
  8
5
  6
CONTINUOUS
 62
7
 10
313.123576
 20
273.296368
 40
2.300000
  1
項番
 41
0.921659
 50
0.000000
 51
0.000000
 72
   5
 73
   0
 11
317.723576
 21
273.296368
  0
TEXT
  8
5
  6
CONTINUOUS
 62
7
 10
322.931576
 20
272.946368
 40
3.000000
  1
品　　名
 41
0.737916
 50
0.000000
 51
0.000000
 72
   5
 73
   0
 11
332.915576
 21
272.946368
  0
TEXT
  8
5
  6
CONTINUOUS
 62
7
 10
342.770576
 20
272.946368
 40
3.000000
  1
定  格 / 型  番 / 材　質
 41
0.686277
 50
0.000000
 51
0.000000
 72
   5
 73
   0
 11
373.076576
 21
272.946368
  0
TEXT
  8
5
  6
CONTINUOUS
 62
7
 10
380.226076
 20
272.946368
 40
3.000000
  1
メーカー
 41
0.768293
 50
0.000000
 51
0.000000
 72
   5
 73
   0
 11
390.621076
 21
272.946368
  0
TEXT
  8
5
  6
CONTINUOUS
 62
7
 10
393.123576
 20
273.296368
 40
2.300000
  1
数量
 41
0.921659
 50
0.000000
 51
0.000000
 72
   5
 73
   0
 11
397.723576
 21
273.296368
  0
LINE
  8
5
  6
CONTINUOUS
 62
6
 10
312.9235759729
 20
266.9463679840
 11
312.9235759729
 21
271.9463679840
  0
LINE
  8
5
  6
CONTINUOUS
 62
6
 10
312.9235759729
 20
271.9463679840
 11
317.9235759729
 21
271.9463679840
  0
LINE
  8
5
  6
CONTINUOUS
 62
6
 10
317.9235759729
 20
271.9463679840
 11
337.9235759729
 21
271.9463679840
  0
LINE
  8
5
  6
CONTINUOUS
 62
6
 10
337.9235759729
 20
271.9463679840
 11
377.9235759729
 21
271.9463679840
  0
LINE
  8
5
  6
CONTINUOUS
 62
6
 10
377.9235759729
 20
271.9463679840
 11
392.9235759729
 21
271.9463679840
  0
LINE
  8
5
  6
CONTINUOUS
 62
6
 10
392.9235759729
 20
271.9463679840
 11
397.9235759729
 21
271.9463679840
  0
LINE
  8
5
  6
CONTINUOUS
 62
6
 10
397.9235759729
 20
271.9463679840
 11
397.9235759729
 21
266.9463679840
  0
LINE
  8
5
  6
CONTINUOUS
 62
6
 10
397.9235759729
 20
266.9463679840
 11
392.9235759729
 21
266.9463679840
  0
LINE
  8
5
  6
CONTINUOUS
 62
6
 10
392.9235759729
 20
266.9463679840
 11
377.9235759729
 21
266.9463679840
  0
LINE
  8
5
  6
CONTINUOUS
 62
6
 10
337.9235759729
 20
266.9463679840
 11
317.9235759729
 21
266.9463679840
  0
LINE
  8
5
  6
CONTINUOUS
 62
6
 10
317.9235759729
 20
266.9463679840
 11
312.9235759729
 21
266.9463679840
  0
LINE
  8
5
  6
CONTINUOUS
 62
6
 10
317.9235759729
 20
271.9463679840
 11
317.9235759729
 21
266.9463679840
  0
LINE
  8
5
  6
CONTINUOUS
 62
6
 10
337.9235759729
 20
271.9463679840
 11
337.9235759729
 21
266.9463679840
  0
LINE
  8
5
  6
CONTINUOUS
 62
6
 10
377.9235759729
 20
271.9463679840
 11
377.9235759729
 21
266.9463679840
  0
LINE
  8
5
  6
CONTINUOUS
 62
6
 10
392.9235759729
 20
271.9463679840
 11
392.9235759729
 21
266.9463679840
  0
TEXT
  8
5
  6
CONTINUOUS
 62
7
 10
314.548576
 20
267.696368
 40
3.500000
  1
1
 41
1.000000
 50
0.000000
 51
0.000000
 72
   5
 73
   0
 11
316.298576
 21
267.696368
  0
TEXT
  8
5
  6
CONTINUOUS
 62
7
 10
318.923576
 20
267.946368
 40
3.000000
  1
ベース
 41
0.841018
 50
0.000000
 51
0.000000
 72
   5
 73
   0
 11
327.350576
 21
267.946368
  0
TEXT
  8
5
  6
CONTINUOUS
 62
7
 10
394.548576
 20
267.696368
 40
3.500000
  1
1
 41
1.000000
 50
0.000000
 51
0.000000
 72
   5
 73
   0
 11
396.298576
 21
267.696368
  0
LINE
  8
5
  6
CONTINUOUS
 62
6
 10
397.9235759729
 20
261.9463679840
 11
392.9235759729
 21
261.9463679840
  0
LINE
  8
5
  6
CONTINUOUS
 62
6
 10
397.9235759729
 20
256.9463679840
 11
392.9235759729
 21
256.9463679840
  0
LINE
  8
5
  6
CONTINUOUS
 62
6
 10
397.9235759729
 20
251.9463679840
 11
392.9235759729
 21
251.9463679840
  0
LINE
  8
5
  6
CONTINUOUS
 62
6
 10
397.9235759729
 20
246.9463679840
 11
392.9235759729
 21
246.9463679840
  0
LINE
  8
5
  6
CONTINUOUS
 62
6
 10
397.9235759729
 20
241.9463679840
 11
392.9235759729
 21
241.9463679840
  0
LINE
  8
5
  6
CONTINUOUS
 62
6
 10
397.9235759729
 20
236.9463679840
 11
392.9235759729
 21
236.9463679840
  0
LINE
  8
5
  6
CONTINUOUS
 62
6
 10
397.9235759729
 20
231.9463679840
 11
392.9235759729
 21
231.9463679840
  0
LINE
  8
5
  6
CONTINUOUS
 62
6
 10
397.9235759729
 20
226.9463679840
 11
392.9235759729
 21
226.9463679840
  0
LINE
  8
5
  6
CONTINUOUS
 62
6
 10
392.9235759729
 20
261.9463679840
 11
377.9235759729
 21
261.9463679840
  0
LINE
  8
5
  6
CONTINUOUS
 62
6
 10
392.9235759729
 20
256.9463679840
 11
377.9235759729
 21
256.9463679840
  0
LINE
  8
5
  6
CONTINUOUS
 62
6
 10
392.9235759729
 20
251.9463679840
 11
377.9235759729
 21
251.9463679840
  0
LINE
  8
5
  6
CONTINUOUS
 62
6
 10
392.9235759729
 20
246.9463679840
 11
377.9235759729
 21
246.9463679840
  0
LINE
  8
5
  6
CONTINUOUS
 62
6
 10
392.9235759729
 20
241.9463679840
 11
377.9235759729
 21
241.9463679840
  0
LINE
  8
5
  6
CONTINUOUS
 62
6
 10
392.9235759729
 20
236.9463679840
 11
377.9235759729
 21
236.9463679840
  0
LINE
  8
5
  6
CONTINUOUS
 62
6
 10
392.9235759729
 20
231.9463679840
 11
377.9235759729
 21
231.9463679840
  0
LINE
  8
5
  6
CONTINUOUS
 62
6
 10
392.9235759729
 20
226.9463679840
 11
377.9235759729
 21
226.9463679840
  0
LINE
  8
5
  6
CONTINUOUS
 62
6
 10
377.9235759729
 20
261.9463679840
 11
337.9235759729
 21
261.9463679840
  0
LINE
  8
5
  6
CONTINUOUS
 62
6
 10
377.9235759729
 20
256.9463679840
 11
337.9235759729
 21
256.9463679840
  0
LINE
  8
5
  6
CONTINUOUS
 62
6
 10
377.9235759729
 20
251.9463679840
 11
337.9235759729
 21
251.9463679840
  0
LINE
  8
5
  6
CONTINUOUS
 62
6
 10
377.9235759729
 20
246.9463679840
 11
337.9235759729
 21
246.9463679840
  0
LINE
  8
5
  6
CONTINUOUS
 62
6
 10
377.9235759729
 20
241.9463679840
 11
337.9235759729
 21
241.9463679840
  0
LINE
  8
5
  6
CONTINUOUS
 62
6
 10
377.9235759729
 20
236.9463679840
 11
337.9235759729
 21
236.9463679840
  0
LINE
  8
5
  6
CONTINUOUS
 62
6
 10
377.9235759729
 20
231.9463679840
 11
337.9235759729
 21
231.9463679840
  0
LINE
  8
5
  6
CONTINUOUS
 62
6
 10
337.9235759729
 20
261.9463679840
 11
317.9235759729
 21
261.9463679840
  0
LINE
  8
5
  6
CONTINUOUS
 62
6
 10
337.9235759729
 20
256.9463679840
 11
317.9235759729
 21
256.9463679840
  0
LINE
  8
5
  6
CONTINUOUS
 62
6
 10
337.9235759729
 20
251.9463679840
 11
317.9235759729
 21
251.9463679840
  0
LINE
  8
5
  6
CONTINUOUS
 62
6
 10
337.9235759729
 20
246.9463679840
 11
317.9235759729
 21
246.9463679840
  0
LINE
  8
5
  6
CONTINUOUS
 62
6
 10
337.9235759729
 20
241.9463679840
 11
317.9235759729
 21
241.9463679840
  0
LINE
  8
5
  6
CONTINUOUS
 62
6
 10
337.9235759729
 20
236.9463679840
 11
317.9235759729
 21
236.9463679840
  0
LINE
  8
5
  6
CONTINUOUS
 62
6
 10
337.9235759729
 20
231.9463679840
 11
317.9235759729
 21
231.9463679840
  0
LINE
  8
5
  6
CONTINUOUS
 62
6
 10
337.9235759729
 20
226.9463679840
 11
317.9235759729
 21
226.9463679840
  0
LINE
  8
5
  6
CONTINUOUS
 62
6
 10
317.9235759729
 20
261.9463679840
 11
312.9235759729
 21
261.9463679840
  0
LINE
  8
5
  6
CONTINUOUS
 62
6
 10
317.9235759729
 20
256.9463679840
 11
312.9235759729
 21
256.9463679840
  0
LINE
  8
5
  6
CONTINUOUS
 62
6
 10
317.9235759729
 20
251.9463679840
 11
312.9235759729
 21
251.9463679840
  0
LINE
  8
5
  6
CONTINUOUS
 62
6
 10
317.9235759729
 20
246.9463679840
 11
312.9235759729
 21
246.9463679840
  0
LINE
  8
5
  6
CONTINUOUS
 62
6
 10
317.9235759729
 20
241.9463679840
 11
312.9235759729
 21
241.9463679840
  0
LINE
  8
5
  6
CONTINUOUS
 62
6
 10
317.9235759729
 20
236.9463679840
 11
312.9235759729
 21
236.9463679840
  0
LINE
  8
5
  6
CONTINUOUS
 62
6
 10
317.9235759729
 20
231.9463679840
 11
312.9235759729
 21
231.9463679840
  0
LINE
  8
5
  6
CONTINUOUS
 62
6
 10
317.9235759729
 20
226.9463679840
 11
312.9235759729
 21
226.9463679840
  0
TEXT
  8
5
  6
CONTINUOUS
 62
7
 10
314.548576
 20
262.696368
 40
3.500000
  1
2
 41
1.000000
 50
0.000000
 51
0.000000
 72
   5
 73
   0
 11
316.298576
 21
262.696368
  0
TEXT
  8
5
  6
CONTINUOUS
 62
7
 10
314.548576
 20
257.696368
 40
3.500000
  1
3
 41
1.000000
 50
0.000000
 51
0.000000
 72
   5
 73
   0
 11
316.298576
 21
257.696368
  0
TEXT
  8
5
  6
CONTINUOUS
 62
7
 10
314.548576
 20
252.696368
 40
3.500000
  1
4
 41
1.000000
 50
0.000000
 51
0.000000
 72
   5
 73
   0
 11
316.298576
 21
252.696368
  0
TEXT
  8
5
  6
CONTINUOUS
 62
7
 10
314.548576
 20
247.696368
 40
3.500000
  1
5
 41
1.000000
 50
0.000000
 51
0.000000
 72
   5
 73
   0
 11
316.298576
 21
247.696368
  0
TEXT
  8
5
  6
CONTINUOUS
 62
7
 10
314.548576
 20
242.696368
 40
3.500000
  1
6
 41
1.000000
 50
0.000000
 51
0.000000
 72
   5
 73
   0
 11
316.298576
 21
242.696368
  0
TEXT
  8
5
  6
CONTINUOUS
 62
7
 10
314.548576
 20
237.696368
 40
3.500000
  1
7
 41
1.000000
 50
0.000000
 51
0.000000
 72
   5
 73
   0
 11
316.298576
 21
237.696368
  0
TEXT
  8
5
  6
CONTINUOUS
 62
7
 10
314.548576
 20
232.696368
 40
3.500000
  1
8
 41
1.000000
 50
0.000000
 51
0.000000
 72
   5
 73
   0
 11
316.298576
 21
232.696368
  0
TEXT
  8
5
  6
CONTINUOUS
 62
7
 10
314.548576
 20
227.696368
 40
3.500000
  1
9
 41
1.000000
 50
0.000000
 51
0.000000
 72
   5
 73
   0
 11
316.298576
 21
227.696368
  0
TEXT
  8
5
  6
CONTINUOUS
 62
7
 10
318.923576
 20
262.946368
 40
3.000000
  1
カバー
 41
0.833832
 50
0.000000
 51
0.000000
 72
   5
 73
   0
 11
327.278576
 21
262.946368
  0
TEXT
  8
5
  6
CONTINUOUS
 62
7
 10
318.923576
 20
257.946368
 40
3.000000
  1
ロック
 41
0.719162
 50
0.000000
 51
0.000000
 72
   5
 73
   0
 11
326.129576
 21
257.946368
  0
TEXT
  8
5
  6
CONTINUOUS
 62
7
 10
318.923576
 20
252.946368
 40
3.000000
  1
添付品ﾋﾞｽ
 41
0.822804
 50
0.000000
 51
0.000000
 72
   5
 73
   0
 11
332.129576
 21
252.946368
  0
TEXT
  8
5
  6
CONTINUOUS
 62
7
 10
318.923576
 20
242.946368
 40
3.000000
  1
添付品ﾋﾞｽ
 41
0.822804
 50
0.000000
 51
0.000000
 72
   5
 73
   0
 11
332.129576
 21
242.946368
  0
TEXT
  8
5
  6
CONTINUOUS
 62
7
 10
318.923576
 20
237.946368
 40
3.000000
  1
添付品ﾋﾞｽ
 41
0.822804
 50
0.000000
 51
0.000000
 72
   5
 73
   0
 11
332.129576
 21
237.946368
  0
TEXT
  8
5
  6
CONTINUOUS
 62
7
 10
338.923576
 20
257.946368
 40
3.000000
  1
M4×20 脱落防止ビス
 41
0.819085
 50
0.000000
 51
0.000000
 72
   5
 73
   0
 11
366.862576
 21
257.946368
  0
TEXT
  8
5
  6
CONTINUOUS
 62
7
 10
338.923576
 20
252.946368
 40
3.000000
  1
M3×8小ワｾﾑｽ(ﾍﾞｰｽ固定用)
 41
0.831095
 50
0.000000
 51
0.000000
 72
   5
 73
   0
 11
376.048576
 21
252.946368
  0
TEXT
  8
5
  6
CONTINUOUS
 62
7
 10
338.923576
 20
242.946368
 40
3.000000
  1
M5×10ｱﾌﾞｾｯﾄ
 41
0.813247
 50
0.000000
 51
0.000000
 72
   5
 73
   0
 11
357.709576
 21
242.946368
  0
TEXT
  8
5
  6
CONTINUOUS
 62
7
 10
338.923576
 20
237.946368
 40
3.000000
  1
M5 内歯菊座金
 41
0.851365
 50
0.000000
 51
0.000000
 72
   5
 73
   0
 11
358.564576
 21
237.946368
  0
TEXT
  8
5
  6
CONTINUOUS
 62
7
 10
394.548576
 20
262.696368
 40
3.500000
  1
1
 41
1.000000
 50
0.000000
 51
0.000000
 72
   5
 73
   0
 11
396.298576
 21
262.696368
  0
TEXT
  8
5
  6
CONTINUOUS
 62
7
 10
394.548576
 20
257.696368
 40
3.500000
  1
1
 41
1.000000
 50
0.000000
 51
0.000000
 72
   5
 73
   0
 11
396.298576
 21
257.696368
  0
TEXT
  8
5
  6
CONTINUOUS
 62
7
 10
394.548576
 20
252.696368
 40
3.500000
  1
4
 41
1.000000
 50
0.000000
 51
0.000000
 72
   5
 73
   0
 11
396.298576
 21
252.696368
  0
TEXT
  8
5
  6
CONTINUOUS
 62
7
 10
394.548576
 20
242.696368
 40
3.500000
  1
1
 41
1.000000
 50
0.000000
 51
0.000000
 72
   5
 73
   0
 11
396.298576
 21
242.696368
  0
TEXT
  8
5
  6
CONTINUOUS
 62
7
 10
394.548576
 20
237.696368
 40
3.500000
  1
1
 41
1.000000
 50
0.000000
 51
0.000000
 72
   5
 73
   0
 11
396.298576
 21
237.696368
  0
LINE
  8
5
  6
CONTINUOUS
 62
6
 10
312.9235759729
 20
261.9463679840
 11
312.9235759729
 21
266.9463679840
  0
LINE
  8
5
  6
CONTINUOUS
 62
6
 10
312.9235759729
 20
256.9463679840
 11
312.9235759729
 21
261.9463679840
  0
LINE
  8
5
  6
CONTINUOUS
 62
6
 10
312.9235759729
 20
251.9463679840
 11
312.9235759729
 21
256.9463679840
  0
LINE
  8
5
  6
CONTINUOUS
 62
6
 10
312.9235759729
 20
246.9463679840
 11
312.9235759729
 21
251.9463679840
  0
LINE
  8
5
  6
CONTINUOUS
 62
6
 10
312.9235759729
 20
241.9463679840
 11
312.9235759729
 21
246.9463679840
  0
LINE
  8
5
  6
CONTINUOUS
 62
6
 10
312.9235759729
 20
236.9463679840
 11
312.9235759729
 21
241.9463679840
  0
LINE
  8
5
  6
CONTINUOUS
 62
6
 10
312.9235759729
 20
226.9463679840
 11
312.9235759729
 21
231.9463679840
  0
LINE
  8
5
  6
CONTINUOUS
 62
6
 10
317.9235759729
 20
266.9463679840
 11
317.9235759729
 21
261.9463679840
  0
LINE
  8
5
  6
CONTINUOUS
 62
6
 10
317.9235759729
 20
261.9463679840
 11
317.9235759729
 21
256.9463679840
  0
LINE
  8
5
  6
CONTINUOUS
 62
6
 10
317.9235759729
 20
256.9463679840
 11
317.9235759729
 21
251.9463679840
  0
LINE
  8
5
  6
CONTINUOUS
 62
6
 10
317.9235759729
 20
251.9463679840
 11
317.9235759729
 21
246.9463679840
  0
LINE
  8
5
  6
CONTINUOUS
 62
6
 10
317.9235759729
 20
246.9463679840
 11
317.9235759729
 21
241.9463679840
  0
LINE
  8
5
  6
CONTINUOUS
 62
6
 10
317.9235759729
 20
241.9463679840
 11
317.9235759729
 21
236.9463679840
  0
LINE
  8
5
  6
CONTINUOUS
 62
6
 10
317.9235759729
 20
236.9463679840
 11
317.9235759729
 21
231.9463679840
  0
LINE
  8
5
  6
CONTINUOUS
 62
6
 10
317.9235759729
 20
231.9463679840
 11
317.9235759729
 21
226.9463679840
  0
LINE
  8
5
  6
CONTINUOUS
 62
6
 10
337.9235759729
 20
266.9463679840
 11
337.9235759729
 21
261.9463679840
  0
LINE
  8
5
  6
CONTINUOUS
 62
6
 10
337.9235759729
 20
261.9463679840
 11
337.9235759729
 21
256.9463679840
  0
LINE
  8
5
  6
CONTINUOUS
 62
6
 10
337.9235759729
 20
256.9463679840
 11
337.9235759729
 21
251.9463679840
  0
LINE
  8
5
  6
CONTINUOUS
 62
6
 10
337.9235759729
 20
251.9463679840
 11
337.9235759729
 21
246.9463679840
  0
LINE
  8
5
  6
CONTINUOUS
 62
6
 10
337.9235759729
 20
246.9463679840
 11
337.9235759729
 21
241.9463679840
  0
LINE
  8
5
  6
CONTINUOUS
 62
6
 10
337.9235759729
 20
241.9463679840
 11
337.9235759729
 21
236.9463679840
  0
LINE
  8
5
  6
CONTINUOUS
 62
6
 10
337.9235759729
 20
236.9463679840
 11
337.9235759729
 21
231.9463679840
  0
LINE
  8
5
  6
CONTINUOUS
 62
6
 10
337.9235759729
 20
231.9463679840
 11
337.9235759729
 21
226.9463679840
  0
LINE
  8
5
  6
CONTINUOUS
 62
6
 10
377.9235759729
 20
266.9463679840
 11
377.9235759729
 21
261.9463679840
  0
LINE
  8
5
  6
CONTINUOUS
 62
6
 10
377.9235759729
 20
261.9463679840
 11
377.9235759729
 21
256.9463679840
  0
LINE
  8
5
  6
CONTINUOUS
 62
6
 10
377.9235759729
 20
251.9463679840
 11
377.9235759729
 21
246.9463679840
  0
LINE
  8
5
  6
CONTINUOUS
 62
6
 10
377.9235759729
 20
246.9463679840
 11
377.9235759729
 21
241.9463679840
  0
LINE
  8
5
  6
CONTINUOUS
 62
6
 10
377.9235759729
 20
241.9463679840
 11
377.9235759729
 21
236.9463679840
  0
LINE
  8
5
  6
CONTINUOUS
 62
6
 10
377.9235759729
 20
236.9463679840
 11
377.9235759729
 21
231.9463679840
  0
LINE
  8
5
  6
CONTINUOUS
 62
6
 10
377.9235759729
 20
231.9463679840
 11
377.9235759729
 21
226.9463679840
  0
LINE
  8
5
  6
CONTINUOUS
 62
6
 10
392.9235759729
 20
266.9463679840
 11
392.9235759729
 21
261.9463679840
  0
LINE
  8
5
  6
CONTINUOUS
 62
6
 10
392.9235759729
 20
261.9463679840
 11
392.9235759729
 21
256.9463679840
  0
LINE
  8
5
  6
CONTINUOUS
 62
6
 10
392.9235759729
 20
256.9463679840
 11
392.9235759729
 21
251.9463679840
  0
LINE
  8
5
  6
CONTINUOUS
 62
6
 10
392.9235759729
 20
251.9463679840
 11
392.9235759729
 21
246.9463679840
  0
LINE
  8
5
  6
CONTINUOUS
 62
6
 10
392.9235759729
 20
246.9463679840
 11
392.9235759729
 21
241.9463679840
  0
LINE
  8
5
  6
CONTINUOUS
 62
6
 10
392.9235759729
 20
241.9463679840
 11
392.9235759729
 21
236.9463679840
  0
LINE
  8
5
  6
CONTINUOUS
 62
6
 10
392.9235759729
 20
236.9463679840
 11
392.9235759729
 21
231.9463679840
  0
LINE
  8
5
  6
CONTINUOUS
 62
6
 10
392.9235759729
 20
231.9463679840
 11
392.9235759729
 21
226.9463679840
  0
LINE
  8
5
  6
CONTINUOUS
 62
6
 10
397.9235759729
 20
266.9463679840
 11
397.9235759729
 21
261.9463679840
  0
LINE
  8
5
  6
CONTINUOUS
 62
6
 10
397.9235759729
 20
261.9463679840
 11
397.9235759729
 21
256.9463679840
  0
LINE
  8
5
  6
CONTINUOUS
 62
6
 10
397.9235759729
 20
256.9463679840
 11
397.9235759729
 21
251.9463679840
  0
LINE
  8
5
  6
CONTINUOUS
 62
6
 10
397.9235759729
 20
251.9463679840
 11
397.9235759729
 21
246.9463679840
  0
LINE
  8
5
  6
CONTINUOUS
 62
6
 10
397.9235759729
 20
246.9463679840
 11
397.9235759729
 21
241.9463679840
  0
LINE
  8
5
  6
CONTINUOUS
 62
6
 10
397.9235759729
 20
241.9463679840
 11
397.9235759729
 21
236.9463679840
  0
LINE
  8
5
  6
CONTINUOUS
 62
6
 10
397.9235759729
 20
236.9463679840
 11
397.9235759729
 21
231.9463679840
  0
LINE
  8
5
  6
CONTINUOUS
 62
6
 10
397.9235759729
 20
231.9463679840
 11
397.9235759729
 21
226.9463679840
  0
LINE
  8
5
  6
CONTINUOUS
 62
6
 10
397.9235759729
 20
221.9463679840
 11
392.9235759729
 21
221.9463679840
  0
LINE
  8
5
  6
CONTINUOUS
 62
6
 10
392.9235759729
 20
221.9463679840
 11
377.9235759729
 21
221.9463679840
  0
LINE
  8
5
  6
CONTINUOUS
 62
6
 10
377.9235759729
 20
221.9463679840
 11
337.9235759729
 21
221.9463679840
  0
LINE
  8
5
  6
CONTINUOUS
 62
6
 10
337.9235759729
 20
221.9463679840
 11
317.9235759729
 21
221.9463679840
  0
LINE
  8
5
  6
CONTINUOUS
 62
6
 10
317.9235759729
 20
221.9463679840
 11
312.9235759729
 21
221.9463679840
  0
LINE
  8
5
  6
CONTINUOUS
 62
6
 10
312.9235759729
 20
221.9463679840
 11
312.9235759729
 21
226.9463679840
  0
LINE
  8
5
  6
CONTINUOUS
 62
6
 10
317.9235759729
 20
226.9463679840
 11
317.9235759729
 21
221.9463679840
  0
LINE
  8
5
  6
CONTINUOUS
 62
6
 10
337.9235759729
 20
226.9463679840
 11
337.9235759729
 21
221.9463679840
  0
LINE
  8
5
  6
CONTINUOUS
 62
6
 10
377.9235759729
 20
226.9463679840
 11
377.9235759729
 21
221.9463679840
  0
LINE
  8
5
  6
CONTINUOUS
 62
6
 10
392.9235759729
 20
226.9463679840
 11
392.9235759729
 21
221.9463679840
  0
LINE
  8
5
  6
CONTINUOUS
 62
6
 10
397.9235759729
 20
226.9463679840
 11
397.9235759729
 21
221.9463679840
  0
ENDBLK
  8
0
  0
BLOCK
  8
1
  2
BALN0
 70
     0
 10
65.1092980532
 20
67.0636039311
  3
BALN0
  0
SOLID
  8
1
  6
CONTINUOUS
 62
5
 10
67.0995994495
 20
66.8668798809
 11
66.7345875985
 21
65.8980852079
 12
65.1092980532
 22
67.0636039311
 13
65.1092980532
 23
67.0636039311
  0
LINE
  8
1
  6
BYBLOCK
 62
5
 10
65.1092980532
 20
67.0636039311
 11
88.4832927053
 21
58.2570061116
  0
CIRCLE
  8
1
  6
BYBLOCK
 62
5
 10
91.2906440902
 20
57.1992829901
 40
3.0000000000
  0
TEXT
  8
1
  6
CONTINUOUS
 62
7
 10
90.415644
 20
55.449283
 40
3.500000
  1
3
 41
1.000000
 50
0.000000
 51
0.000000
 72
   5
 73
   0
 11
92.165644
 21
55.449283
  0
ENDBLK
  8
0
  0
BLOCK
  8
1
  2
*D6
 70
     1
 10
0.0000000000
 20
0.0000000000
  3
*D6
  0
LINE
  8
1
  6
BYBLOCK
 62
5
 10
142.4822443727
 20
88.0542751045
 11
141.4983420815
 21
85.7560287554
  0
LINE
  8
1
  6
BYBLOCK
 62
5
 10
144.4500489552
 20
92.6507678028
 11
145.4339512464
 21
94.9490141519
  0
SOLID
  8
1
  6
CONTINUOUS
 62
5
 10
142.1978070062
 20
86.0746045803
 11
141.2460791254
 21
86.4820488227
 12
142.4822443727
 22
88.0542751045
 13
142.4822443727
 23
88.0542751045
  0
SOLID
  8
1
  6
CONTINUOUS
 62
5
 10
144.7344863217
 20
94.6304383270
 11
145.6862142025
 21
94.2229940847
 12
144.4500489552
 22
92.6507678028
 13
144.4500489552
 23
92.6507678028
  0
TEXT
  8
1
  6
CONTINUOUS
 62
7
 10
145.999175
 20
98.810194
 40
3.500000
  1
2-M5
 41
0.796813
 50
66.823748
 51
0.000000
 72
   5
 73
   0
 11
148.754102
 21
105.245284
  0
POINT
  8
DEFPOINTS
  6
BYBLOCK
 62
5
 10
142.4822443727
 20
88.0542751045
  0
POINT
  8
DEFPOINTS
  6
BYBLOCK
 62
5
 10
144.4500489552
 20
92.6507678028
  0
LINE
  8
1
  6
BYBLOCK
 62
5
 10
142.4822443727
 20
88.0542751045
 11
149.6734002150
 21
104.8517231924
  0
ENDBLK
  8
0
  0
BLOCK
  8
3
  2
LTEX0
 70
     0
 10
143.4661466639
 20
87.8525214537
  3
LTEX0
  0
SOLID
  8
3
  6
CONTINUOUS
 62
5
 10
143.6084688299
 20
85.8575917805
 11
142.5919364386
 21
86.0537005949
 12
143.4661466639
 22
87.8525214537
 13
143.4661466639
 23
87.8525214537
  0
TEXT
  8
3
  6
CONTINUOUS
 62
7
 10
138.506017
 20
63.141631
 40
5.000000
  1
 ⑥⑦
 41
0.880282
 50
0.000000
 51
0.000000
 72
   5
 73
   0
 11
151.006017
 21
63.141631
  0
LINE
  8
3
  6
BYBLOCK
 62
5
 10
143.4661466639
 20
87.8525214537
 11
138.5060171650
 21
62.1416307173
  0
LINE
  8
3
  6
BYBLOCK
 62
5
 10
138.5060171650
 20
62.1416307173
 11
151.0060171650
 21
62.1416307173
  0
ENDBLK
  8
0
  0
BLOCK
  8
5
  2
S2
 70
     0
 10
0.0000000000
 20
-320.7245888453
  3
S2
  0
POINT
  8
5
  6
CONTINUOUS
 62
6
 10
-6.5000000000
 20
-327.2245888453
  0
LINE
  8
5
  6
CONTINUOUS
 62
6
 10
4.5000000000
 20
-316.2245888453
 11
402.5000000000
 21
-316.2245888453
  0
LINE
  8
5
  6
CONTINUOUS
 62
6
 10
4.5000000000
 20
-316.2245888453
 11
4.5000000000
 21
-41.2245888453
  0
LINE
  8
5
  6
CONTINUOUS
 62
6
 10
44.5000000000
 20
-36.7245888453
 11
44.5000000000
 21
-41.2245888453
  0
LINE
  8
5
  6
CONTINUOUS
 62
6
 10
44.5000000000
 20
-316.2245888453
 11
44.5000000000
 21
-320.7245888453
  0
LINE
  8
5
  6
CONTINUOUS
 62
6
 10
84.5000000000
 20
-36.7245888453
 11
84.5000000000
 21
-41.2245888453
  0
LINE
  8
5
  6
CONTINUOUS
 62
6
 10
124.5000000000
 20
-36.7245888453
 11
124.5000000000
 21
-41.2245888453
  0
LINE
  8
5
  6
CONTINUOUS
 62
6
 10
164.5000000000
 20
-36.7245888453
 11
164.5000000000
 21
-41.2245888453
  0
LINE
  8
5
  6
CONTINUOUS
 62
6
 10
204.5000000000
 20
-36.7245888453
 11
204.5000000000
 21
-41.2245888453
  0
LINE
  8
5
  6
CONTINUOUS
 62
6
 10
244.5000000000
 20
-36.7245888453
 11
244.5000000000
 21
-41.2245888453
  0
LINE
  8
5
  6
CONTINUOUS
 62
6
 10
84.5000000000
 20
-316.2245888453
 11
84.5000000000
 21
-320.7245888453
  0
LINE
  8
5
  6
CONTINUOUS
 62
6
 10
124.5000000000
 20
-316.2245888453
 11
124.5000000000
 21
-320.7245888453
  0
LINE
  8
5
  6
CONTINUOUS
 62
6
 10
164.5000000000
 20
-316.2245888453
 11
164.5000000000
 21
-320.7245888453
  0
LINE
  8
5
  6
CONTINUOUS
 62
6
 10
204.5000000000
 20
-316.2245888453
 11
204.5000000000
 21
-320.7245888453
  0
LINE
  8
5
  6
CONTINUOUS
 62
6
 10
244.5000000000
 20
-316.2245888453
 11
244.5000000000
 21
-320.7245888453
  0
LINE
  8
5
  6
CONTINUOUS
 62
6
 10
0.0000000000
 20
-81.2245888453
 11
4.5000000000
 21
-81.2245888453
  0
LINE
  8
5
  6
CONTINUOUS
 62
6
 10
402.5000000000
 20
-81.2245888453
 11
407.0000000000
 21
-81.2245888453
  0
LINE
  8
5
  6
CONTINUOUS
 62
6
 10
0.0000000000
 20
-121.2245888453
 11
4.5000000000
 21
-121.2245888453
  0
LINE
  8
5
  6
CONTINUOUS
 62
6
 10
0.0000000000
 20
-161.2245888453
 11
4.5000000000
 21
-161.2245888453
  0
LINE
  8
5
  6
CONTINUOUS
 62
6
 10
0.0000000000
 20
-201.2245888453
 11
4.5000000000
 21
-201.2245888453
  0
LINE
  8
5
  6
CONTINUOUS
 62
6
 10
402.5000000000
 20
-121.2245888453
 11
407.0000000000
 21
-121.2245888453
  0
LINE
  8
5
  6
CONTINUOUS
 62
6
 10
402.5000000000
 20
-161.2245888453
 11
407.0000000000
 21
-161.2245888453
  0
LINE
  8
5
  6
CONTINUOUS
 62
6
 10
402.5000000000
 20
-201.2245888453
 11
407.0000000000
 21
-201.2245888453
  0
TEXT
  8
5
  6
CONTINUOUS
 62
6
 10
23.500000
 20
-41.224589
 40
4.000000
  1
1
 41
1.000000
 50
0.000000
 51
0.000000
 72
   5
 73
   0
 11
25.500000
 21
-41.224589
  0
TEXT
  8
5
  6
CONTINUOUS
 62
6
 10
23.500000
 20
-320.224589
 40
4.000000
  1
1
 41
1.000000
 50
0.000000
 51
0.000000
 72
   5
 73
   0
 11
25.500000
 21
-320.224589
  0
TEXT
  8
5
  6
CONTINUOUS
 62
6
 10
63.500000
 20
-41.224589
 40
4.000000
  1
2
 41
1.000000
 50
0.000000
 51
0.000000
 72
   5
 73
   0
 11
65.500000
 21
-41.224589
  0
TEXT
  8
5
  6
CONTINUOUS
 62
6
 10
103.500000
 20
-41.224589
 40
4.000000
  1
3
 41
1.000000
 50
0.000000
 51
0.000000
 72
   5
 73
   0
 11
105.500000
 21
-41.224589
  0
TEXT
  8
5
  6
CONTINUOUS
 62
6
 10
143.500000
 20
-41.224589
 40
4.000000
  1
4
 41
1.000000
 50
0.000000
 51
0.000000
 72
   5
 73
   0
 11
145.500000
 21
-41.224589
  0
TEXT
  8
5
  6
CONTINUOUS
 62
6
 10
183.500000
 20
-41.224589
 40
4.000000
  1
5
 41
1.000000
 50
0.000000
 51
0.000000
 72
   5
 73
   0
 11
185.500000
 21
-41.224589
  0
TEXT
  8
5
  6
CONTINUOUS
 62
6
 10
223.500000
 20
-41.224589
 40
4.000000
  1
6
 41
1.000000
 50
0.000000
 51
0.000000
 72
   5
 73
   0
 11
225.500000
 21
-41.224589
  0
TEXT
  8
5
  6
CONTINUOUS
 62
6
 10
263.500000
 20
-41.224589
 40
4.000000
  1
7
 41
1.000000
 50
0.000000
 51
0.000000
 72
   5
 73
   0
 11
265.500000
 21
-41.224589
  0
TEXT
  8
5
  6
CONTINUOUS
 62
6
 10
63.500000
 20
-320.224589
 40
4.000000
  1
2
 41
1.000000
 50
0.000000
 51
0.000000
 72
   5
 73
   0
 11
65.500000
 21
-320.224589
  0
TEXT
  8
5
  6
CONTINUOUS
 62
6
 10
103.500000
 20
-320.224589
 40
4.000000
  1
3
 41
1.000000
 50
0.000000
 51
0.000000
 72
   5
 73
   0
 11
105.500000
 21
-320.224589
  0
TEXT
  8
5
  6
CONTINUOUS
 62
6
 10
143.500000
 20
-320.224589
 40
4.000000
  1
4
 41
1.000000
 50
0.000000
 51
0.000000
 72
   5
 73
   0
 11
145.500000
 21
-320.224589
  0
TEXT
  8
5
  6
CONTINUOUS
 62
6
 10
183.500000
 20
-320.224589
 40
4.000000
  1
5
 41
1.000000
 50
0.000000
 51
0.000000
 72
   5
 73
   0
 11
185.500000
 21
-320.224589
  0
TEXT
  8
5
  6
CONTINUOUS
 62
6
 10
223.500000
 20
-320.224589
 40
4.000000
  1
6
 41
1.000000
 50
0.000000
 51
0.000000
 72
   5
 73
   0
 11
225.500000
 21
-320.224589
  0
TEXT
  8
5
  6
CONTINUOUS
 62
6
 10
263.500000
 20
-320.224589
 40
4.000000
  1
7
 41
1.000000
 50
0.000000
 51
0.000000
 72
   5
 73
   0
 11
265.500000
 21
-320.224589
  0
TEXT
  8
5
  6
CONTINUOUS
 62
6
 10
1.626773
 20
-63.270446
 40
4.000000
  1
A
 41
1.266000
 50
0.000000
 51
0.000000
 72
   5
 73
   0
 11
4.158773
 21
-63.270446
  0
TEXT
  8
5
  6
CONTINUOUS
 62
6
 10
402.786513
 20
-63.232235
 40
4.000000
  1
A
 41
1.266000
 50
0.000000
 51
0.000000
 72
   5
 73
   0
 11
405.318513
 21
-63.232235
  0
TEXT
  8
5
  6
CONTINUOUS
 62
6
 10
1.610773
 20
-103.270446
 40
4.000000
  1
B
 41
1.274000
 50
0.000000
 51
0.000000
 72
   5
 73
   0
 11
4.158773
 21
-103.270446
  0
TEXT
  8
5
  6
CONTINUOUS
 62
6
 10
1.502773
 20
-143.270446
 40
4.000000
  1
C
 41
1.328000
 50
0.000000
 51
0.000000
 72
   5
 73
   0
 11
4.158773
 21
-143.270446
  0
TEXT
  8
5
  6
CONTINUOUS
 62
6
 10
1.566773
 20
-183.270446
 40
4.000000
  1
D
 41
1.296000
 50
0.000000
 51
0.000000
 72
   5
 73
   0
 11
4.158773
 21
-183.270446
  0
TEXT
  8
5
  6
CONTINUOUS
 62
6
 10
1.894773
 20
-223.270446
 40
4.000000
  1
E
 41
1.132000
 50
0.000000
 51
0.000000
 72
   5
 73
   0
 11
4.158773
 21
-223.270446
  0
TEXT
  8
5
  6
CONTINUOUS
 62
6
 10
402.786513
 20
-103.232235
 40
4.000000
  1
B
 41
1.274000
 50
0.000000
 51
0.000000
 72
   5
 73
   0
 11
405.334513
 21
-103.232235
  0
TEXT
  8
5
  6
CONTINUOUS
 62
6
 10
402.786513
 20
-143.232235
 40
4.000000
  1
C
 41
1.328000
 50
0.000000
 51
0.000000
 72
   5
 73
   0
 11
405.442513
 21
-143.232235
  0
TEXT
  8
5
  6
CONTINUOUS
 62
6
 10
402.786513
 20
-183.232235
 40
4.000000
  1
D
 41
1.296000
 50
0.000000
 51
0.000000
 72
   5
 73
   0
 11
405.378513
 21
-183.232235
  0
TEXT
  8
5
  6
CONTINUOUS
 62
6
 10
402.786513
 20
-223.232235
 40
4.000000
  1
E
 41
1.132000
 50
0.000000
 51
0.000000
 72
   5
 73
   0
 11
405.050513
 21
-223.232235
  0
LINE
  8
5
  6
CONTINUOUS
 62
6
 10
347.5000000000
 20
-291.2245888453
 11
347.5000000000
 21
-316.2245888453
  0
LINE
  8
5
  6
CONTINUOUS
 62
6
 10
347.5000000000
 20
-306.2245888453
 11
402.5000000000
 21
-306.2245888453
  0
LINE
  8
5
  6
CONTINUOUS
 62
6
 10
347.5000000000
 20
-313.2245888453
 11
281.5000000000
 21
-313.2245888453
  0
LINE
  8
5
  6
CONTINUOUS
 62
6
 10
303.5000000000
 20
-316.2245888453
 11
303.5000000000
 21
-299.7245888453
  0
LINE
  8
5
  6
CONTINUOUS
 62
6
 10
336.5000000000
 20
-303.7245888453
 11
336.5000000000
 21
-316.2245888453
  0
LINE
  8
5
  6
CONTINUOUS
 62
6
 10
325.5000000000
 20
-316.2245888453
 11
325.4999999999
 21
-299.7245888453
  0
LINE
  8
5
  6
CONTINUOUS
 62
6
 10
314.5000000000
 20
-303.7245888453
 11
314.5000000000
 21
-316.2245888453
  0
TEXT
  8
5
  6
CONTINUOUS
 62
6
 10
294.523750
 20
-315.974589
 40
2.500000
  1
Design
 41
0.722338
 50
0.000000
 51
0.000000
 72
   5
 73
   0
 11
301.476250
 21
-315.974589
  0
TEXT
  8
5
  6
CONTINUOUS
 62
6
 10
306.338750
 20
-315.974589
 40
2.500000
  1
Draft
 41
0.669497
 50
0.000000
 51
0.000000
 72
   5
 73
   0
 11
311.661250
 21
-315.974589
  0
TEXT
  8
5
  6
CONTINUOUS
 62
6
 10
316.718750
 20
-315.974589
 40
2.500000
  1
Check
 41
0.825472
 50
0.000000
 51
0.000000
 72
   5
 73
   0
 11
323.281250
 21
-315.974589
  0
LINE
  8
5
  6
CONTINUOUS
 62
6
 10
281.5000000000
 20
-291.2245888453
 11
402.5000000000
 21
-291.2245888453
  0
LINE
  8
5
  6
CONTINUOUS
 62
6
 10
281.5000000000
 20
-303.7245888453
 11
347.5000000000
 21
-303.7245888453
  0
LINE
  8
5
  6
CONTINUOUS
 62
6
 10
392.5000000000
 20
-306.2245888453
 11
392.5000000000
 21
-316.2245888453
  0
TEXT
  8
5
  6
CONTINUOUS
 62
6
 10
395.520000
 20
-315.724589
 40
2.000000
  1
SIZE
 41
0.788845
 50
0.000000
 51
0.000000
 72
   5
 73
   0
 11
399.480000
 21
-315.724589
  0
LINE
  8
5
  6
CONTINUOUS
 62
6
 10
392.5000000000
 20
-313.2245888453
 11
402.5000000000
 21
-313.2245888453
  0
TEXT
  8
5
  6
CONTINUOUS
 62
6
 10
394.005000
 20
-312.224589
 40
5.000000
  1
Ａ３
 41
0.644240
 50
0.000000
 51
0.000000
 72
   5
 73
   0
 11
400.995000
 21
-312.224589
  0
TEXT
  8
5
  6
CONTINUOUS
 62
6
 10
339.138750
 20
-315.974589
 40
2.500000
  1
Scale
 41
0.719811
 50
0.000000
 51
0.000000
 72
   5
 73
   0
 11
344.861250
 21
-315.974589
  0
TEXT
  8
5
  6
CONTINUOUS
 62
6
 10
338.250000
 20
-310.974589
 40
5.000000
  1
1/1
 41
0.815217
 50
0.000000
 51
0.000000
 72
   5
 73
   0
 11
345.750000
 21
-310.974589
  0
TEXT
  8
5
  6
CONTINUOUS
 62
6
 10
326.912500
 20
-315.974589
 40
2.500000
  1
Confirm
 41
0.723451
 50
0.000000
 51
0.000000
 72
   5
 73
   0
 11
335.087500
 21
-315.974589
  0
TEXT
  8
5
  6
CONTINUOUS
 62
6
 10
284.528750
 20
-315.974589
 40
2.500000
  1
Date
 41
0.787649
 50
0.000000
 51
0.000000
 72
   5
 73
   0
 11
289.471250
 21
-315.974589
  0
TEXT
  8
5
  6
CONTINUOUS
 62
6
 10
283.250000
 20
-308.262089
 40
3.000000
  1
2020/
 41
0.786164
 50
0.000000
 51
0.000000
 72
   5
 73
   0
 11
290.750000
 21
-308.262089
  0
TEXT
  8
5
  6
CONTINUOUS
 62
6
 10
283.250000
 20
-311.687089
 40
3.000000
  1
10/15
 41
0.786164
 50
0.000000
 51
0.000000
 72
   5
 73
   0
 11
290.750000
 21
-311.687089
  0
LINE
  8
5
  6
CONTINUOUS
 62
6
 10
292.5000000000
 20
-303.7245888453
 11
292.5000000000
 21
-316.2245888453
  0
LINE
  8
5
  6
CONTINUOUS
 62
6
 10
281.5000000000
 20
-316.2245888453
 11
281.5000000000
 21
-291.2245888453
  0
TEXT
  8
5
  6
CONTINUOUS
 62
6
 10
281.755293
 20
-302.511399
 40
2.000000
  1
Material
 41
0.638921
 50
0.000000
 51
0.000000
 72
   5
 73
   0
 11
288.387293
 21
-302.511399
  0
LINE
  8
5
  6
CONTINUOUS
 62
6
 10
288.5000000000
 20
-299.7245888453
 11
288.5000000000
 21
-303.7245888453
  0
TEXT
  8
5
  6
CONTINUOUS
 62
6
 10
303.605000
 20
-302.724589
 40
2.000000
  1
Process
 41
0.751106
 50
0.000000
 51
0.000000
 72
   5
 73
   0
 11
310.395000
 21
-302.724589
  0
LINE
  8
5
  6
CONTINUOUS
 62
6
 10
310.5000000000
 20
-299.7245888453
 11
310.5000000000
 21
-303.7245888453
  0
TEXT
  8
5
  6
CONTINUOUS
 62
6
 10
325.773000
 20
-302.724589
 40
2.000000
  1
Amount
 41
0.838182
 50
0.000000
 51
0.000000
 72
   5
 73
   0
 11
332.227000
 21
-302.724589
  0
LINE
  8
5
  6
CONTINUOUS
 62
6
 10
332.4999999999
 20
-299.7245888453
 11
332.4999999999
 21
-303.7245888453
  0
LINE
  8
5
  6
CONTINUOUS
 62
6
 10
347.5000000000
 20
-299.7245888453
 11
281.5000000000
 21
-299.7245888453
  0
POINT
  8
5
  6
CONTINUOUS
 62
6
 10
289.5000000000
 20
-301.7245888453
  0
POINT
  8
5
  6
CONTINUOUS
 62
6
 10
311.5000000000
 20
-301.7245888453
  0
POINT
  8
5
  6
CONTINUOUS
 62
6
 10
339.9999999999
 20
-301.7245888453
  0
POINT
  8
5
  6
CONTINUOUS
 62
6
 10
298.0000000000
 20
-308.4745888453
  0
POINT
  8
5
  6
CONTINUOUS
 62
6
 10
309.0000000000
 20
-308.4745888453
  0
POINT
  8
5
  6
CONTINUOUS
 62
6
 10
320.0000000000
 20
-308.4745888453
  0
POINT
  8
5
  6
CONTINUOUS
 62
6
 10
331.0000000000
 20
-308.4745888453
  0
POINT
  8
5
  6
CONTINUOUS
 62
6
 10
0.0000000000
 20
-320.7245888453
  0
TEXT
  8
5
  6
CONTINUOUS
 62
7
 10
301.099806
 20
-299.944506
 40
4.000000
  1
MADOKA SYSTEM co,.ltd
 41
0.778201
 50
0.000000
 51
0.000000
 72
   5
 73
   0
 11
344.367806
 21
-299.944506
  0
LINE
  8
5
  6
CONTINUOUS
 62
6
 10
284.5000000000
 20
-36.7245888453
 11
284.5000000000
 21
-41.2245888453
  0
LINE
  8
5
  6
CONTINUOUS
 62
6
 10
284.5000000000
 20
-316.2245888453
 11
284.5000000000
 21
-320.7245888453
  0
TEXT
  8
5
  6
CONTINUOUS
 62
6
 10
303.500000
 20
-41.224589
 40
4.000000
  1
8
 41
1.000000
 50
0.000000
 51
0.000000
 72
   5
 73
   0
 11
305.500000
 21
-41.224589
  0
TEXT
  8
5
  6
CONTINUOUS
 62
6
 10
303.500000
 20
-320.224589
 40
4.000000
  1
8
 41
1.000000
 50
0.000000
 51
0.000000
 72
   5
 73
   0
 11
305.500000
 21
-320.224589
  0
LINE
  8
5
  6
CONTINUOUS
 62
6
 10
324.5000000000
 20
-36.7245888453
 11
324.5000000000
 21
-41.2245888453
  0
LINE
  8
5
  6
CONTINUOUS
 62
6
 10
324.5000000000
 20
-316.2245888453
 11
324.5000000000
 21
-320.7245888453
  0
TEXT
  8
5
  6
CONTINUOUS
 62
6
 10
343.500000
 20
-41.224589
 40
4.000000
  1
9
 41
1.000000
 50
0.000000
 51
0.000000
 72
   5
 73
   0
 11
345.500000
 21
-41.224589
  0
TEXT
  8
5
  6
CONTINUOUS
 62
6
 10
343.500000
 20
-320.224589
 40
4.000000
  1
9
 41
1.000000
 50
0.000000
 51
0.000000
 72
   5
 73
   0
 11
345.500000
 21
-320.224589
  0
LINE
  8
5
  6
CONTINUOUS
 62
6
 10
364.5000000000
 20
-36.7245888453
 11
364.5000000000
 21
-41.2245888453
  0
LINE
  8
5
  6
CONTINUOUS
 62
6
 10
364.5000000000
 20
-316.2245888453
 11
364.5000000000
 21
-320.7245888453
  0
TEXT
  8
5
  6
CONTINUOUS
 62
6
 10
382.500000
 20
-41.224589
 40
4.000000
  1
10
 41
0.854701
 50
0.000000
 51
0.000000
 72
   5
 73
   0
 11
386.500000
 21
-41.224589
  0
TEXT
  8
5
  6
CONTINUOUS
 62
6
 10
382.500000
 20
-320.224589
 40
4.000000
  1
10
 41
0.854701
 50
0.000000
 51
0.000000
 72
   5
 73
   0
 11
386.500000
 21
-320.224589
  0
LINE
  8
5
  6
CONTINUOUS
 62
6
 10
0.0000000000
 20
-241.2245888453
 11
4.5000000000
 21
-241.2245888453
  0
LINE
  8
5
  6
CONTINUOUS
 62
6
 10
402.5000000000
 20
-241.2245888453
 11
407.0000000000
 21
-241.2245888453
  0
LINE
  8
5
  6
CONTINUOUS
 62
6
 10
0.0000000000
 20
-281.2245888453
 11
4.5000000000
 21
-281.2245888453
  0
LINE
  8
5
  6
CONTINUOUS
 62
6
 10
402.5000000000
 20
-281.2245888453
 11
407.0000000000
 21
-281.2245888453
  0
TEXT
  8
5
  6
CONTINUOUS
 62
6
 10
1.954773
 20
-263.270446
 40
4.000000
  1
F
 41
1.102000
 50
0.000000
 51
0.000000
 72
   5
 73
   0
 11
4.158773
 21
-263.270446
  0
TEXT
  8
5
  6
CONTINUOUS
 62
6
 10
402.786513
 20
-263.232235
 40
4.000000
  1
F
 41
1.102000
 50
0.000000
 51
0.000000
 72
   5
 73
   0
 11
404.990513
 21
-263.232235
  0
TEXT
  8
5
  6
CONTINUOUS
 62
6
 10
1.438773
 20
-303.270446
 40
4.000000
  1
G
 41
1.360000
 50
0.000000
 51
0.000000
 72
   5
 73
   0
 11
4.158773
 21
-303.270446
  0
TEXT
  8
5
  6
CONTINUOUS
 62
6
 10
402.786513
 20
-303.232235
 40
4.000000
  1
G
 41
1.360000
 50
0.000000
 51
0.000000
 72
   5
 73
   0
 11
405.506513
 21
-303.232235
  0
LINE
  8
5
  6
CONTINUOUS
 62
6
 10
4.5000000000
 20
-41.2245888453
 11
402.5000000000
 21
-41.2245888453
  0
LINE
  8
5
  6
CONTINUOUS
 62
6
 10
402.5000000000
 20
-41.2245888453
 11
402.5000000000
 21
-316.2245888453
  0
POINT
  8
5
  6
CONTINUOUS
 62
6
 10
353.5000000000
 20
-300.2245888453
  0
POINT
  8
5
  6
CONTINUOUS
 62
6
 10
353.5000000000
 20
-312.7245888453
  0
LINE
  8
5
  6
CONTINUOUS
 62
6
 10
347.5000000000
 20
-294.2245888453
 11
402.5000000000
 21
-294.2245888453
  0
LINE
  8
5
  6
CONTINUOUS
 62
6
 10
347.5000000000
 20
-309.2245888453
 11
392.5000000000
 21
-309.2245888453
  0
TEXT
  8
5
  6
CONTINUOUS
 62
7
 10
362.928500
 20
-294.474589
 40
3.500000
  1
Document Name
 41
0.807728
 50
0.000000
 51
0.000000
 72
   5
 73
   0
 11
387.071500
 21
-294.474589
  0
TEXT
  8
5
  6
CONTINUOUS
 62
7
 10
359.678500
 20
-309.474589
 40
3.500000
  1
Document No.
 41
0.749428
 50
0.000000
 51
0.000000
 72
   5
 73
   0
 11
380.321500
 21
-309.474589
  0
ENDBLK
  8
0
  0
BLOCK
  8
3
  2
BALN1
 70
     0
 10
110.9395553908
 20
197.7445137344
  3
BALN1
  0
SOLID
  8
3
  6
CONTINUOUS
 62
5
 10
109.9794309481
 20
199.4989826154
 11
110.9852976731
 21
199.7439905769
 12
110.9395553908
 22
197.7445137344
 13
110.9395553908
 23
197.7445137344
  0
LINE
  8
3
  6
BYBLOCK
 62
5
 10
110.9395553908
 20
197.7445137344
 11
104.2398643142
 21
225.2497273708
  0
CIRCLE
  8
3
  6
BYBLOCK
 62
5
 10
103.5298857614
 20
228.1645053134
 40
3.0000000000
  0
TEXT
  8
3
  6
CONTINUOUS
 62
7
 10
102.654886
 20
226.414505
 40
3.500000
  1
2
 41
1.000000
 50
0.000000
 51
0.000000
 72
   5
 73
   0
 11
104.404886
 21
226.414505
  0
ENDBLK
  8
0
  0
BLOCK
  8
3
  2
BALN2
 70
     0
 10
130.9399894366
 20
211.8393700363
  3
BALN2
  0
SOLID
  8
3
  6
CONTINUOUS
 62
5
 10
130.6388546845
 20
213.8165695358
 11
131.6677988411
 21
213.7022424073
 12
130.9399894366
 22
211.8393700363
 13
130.9399894366
 23
211.8393700363
  0
LINE
  8
3
  6
BYBLOCK
 62
5
 10
130.9399894366
 20
211.8393700363
 11
132.4225987781
 21
225.1828541094
  0
CIRCLE
  8
3
  6
BYBLOCK
 62
5
 10
132.7538933563
 20
228.1645053134
 40
3.0000000000
  0
TEXT
  8
3
  6
CONTINUOUS
 62
7
 10
131.878893
 20
226.414505
 40
3.500000
  1
1
 41
1.000000
 50
0.000000
 51
0.000000
 72
   5
 73
   0
 11
133.628893
 21
226.414505
  0
ENDBLK
  8
0
  0
BLOCK
  8
3
  2
BALN3
 70
     0
 10
173.9105182328
 20
197.3525214537
  3
BALN3
  0
SOLID
  8
3
  6
CONTINUOUS
 62
5
 10
172.9725529828
 20
199.1189362379
 11
173.9814238906
 21
199.3512641554
 12
173.9105182328
 22
197.3525214537
 13
173.9105182328
 23
197.3525214537
  0
LINE
  8
3
  6
BYBLOCK
 62
5
 10
173.9105182328
 20
197.3525214537
 11
167.4882126774
 21
225.2410219179
  0
CIRCLE
  8
3
  6
BYBLOCK
 62
5
 10
166.8149780704
 20
228.1645053134
 40
3.0000000000
  0
TEXT
  8
3
  6
CONTINUOUS
 62
7
 10
165.939978
 20
226.414505
 40
3.500000
  1
4
 41
1.000000
 50
0.000000
 51
0.000000
 72
   5
 73
   0
 11
167.689978
 21
226.414505
  0
ENDBLK
  8
0
  0
BLOCK
  8
3
  2
BALN4
 70
     0
 10
193.9105182328
 20
197.3525214537
  3
BALN4
  0
SOLID
  8
3
  6
CONTINUOUS
 62
5
 10
193.1296052330
 20
199.1937642097
 11
194.1548491148
 21
199.3375409549
 12
193.9105182328
 22
197.3525214537
 13
193.9105182328
 23
197.3525214537
  0
LINE
  8
3
  6
BYBLOCK
 62
5
 10
193.9105182328
 20
197.3525214537
 11
190.0061825204
 21
225.1935766822
  0
CIRCLE
  8
3
  6
BYBLOCK
 62
5
 10
189.5895495064
 20
228.1645053134
 40
3.0000000000
  0
TEXT
  8
3
  6
CONTINUOUS
 62
7
 10
188.714550
 20
226.414505
 40
3.500000
  1
5
 41
1.000000
 50
0.000000
 51
0.000000
 72
   5
 73
   0
 11
190.464550
 21
226.414505
  0
ENDBLK
  8
0
  0
BLOCK
  8
3
  2
BALN5
 70
     0
 10
205.2240678788
 20
195.9771255586
  3
BALN5
  0
SOLID
  8
3
  6
CONTINUOUS
 62
5
 10
204.9068082572
 20
197.9518018188
 11
205.9366511169
 21
197.8458751750
 12
205.2240678788
 22
195.9771255586
 13
205.2240678788
 23
195.9771255586
  0
LINE
  8
3
  6
BYBLOCK
 62
5
 10
205.2240678788
 20
195.9771255586
 11
208.2278163802
 21
225.1802498676
  0
CIRCLE
  8
3
  6
BYBLOCK
 62
5
 10
208.5347682231
 20
228.1645053134
 40
3.0000000000
  0
TEXT
  8
3
  6
CONTINUOUS
 62
7
 10
207.659768
 20
226.414505
 40
3.500000
  1
8
 41
1.000000
 50
0.000000
 51
0.000000
 72
   5
 73
   0
 11
209.409768
 21
226.414505
  0
ENDBLK
  8
0
  0
BLOCK
  8
4
  2
*D7
 70
     1
 10
0.0000000000
 20
0.0000000000
  3
*D7
  0
LINE
  8
4
  6
BYBLOCK
 62
5
 10
319.0572849682
 20
173.1619743881
 11
319.0572849682
 21
184.8554232121
  0
LINE
  8
4
  6
BYBLOCK
 62
5
 10
325.5572849682
 20
176.1619743881
 11
325.5572849682
 21
184.8554232121
  0
LINE
  8
4
  6
BYBLOCK
 62
5
 10
325.5572849682
 20
183.8554232121
 11
319.0572849682
 21
183.8554232121
  0
SOLID
  8
4
  6
CONTINUOUS
 62
5
 10
320.9891366208
 20
184.3730613023
 11
320.9891366208
 21
183.3377851219
 12
319.0572849682
 22
183.8554232121
 13
319.0572849682
 23
183.8554232121
  0
SOLID
  8
4
  6
CONTINUOUS
 62
5
 10
323.6254333156
 20
183.3377851219
 11
323.6254333156
 21
184.3730613023
 12
325.5572849682
 22
183.8554232121
 13
325.5572849682
 23
183.8554232121
  0
TEXT
  8
4
  6
CONTINUOUS
 62
7
 10
319.682285
 20
184.855423
 40
3.500000
  1
6.5
 41
0.815217
 50
0.000000
 51
0.000000
 72
   5
 73
   0
 11
324.932285
 21
184.855423
  0
POINT
  8
DEFPOINTS
  6
BYBLOCK
 62
5
 10
319.0572849682
 20
172.6619743881
  0
POINT
  8
DEFPOINTS
  6
BYBLOCK
 62
5
 10
325.5572849682
 20
175.6619743881
  0
POINT
  8
DEFPOINTS
  6
BYBLOCK
 62
5
 10
325.5572849682
 20
183.8554232121
  0
ENDBLK
  8
0
  0
BLOCK
  8
4
  2
*D8
 70
     1
 10
0.0000000000
 20
0.0000000000
  3
*D8
  0
LINE
  8
4
  6
BYBLOCK
 62
5
 10
345.5572849682
 20
175.4119743881
 11
345.5572849682
 21
184.8554232121
  0
LINE
  8
4
  6
BYBLOCK
 62
5
 10
345.5572849682
 20
183.8554232121
 11
325.5572849682
 21
183.8554232121
  0
SOLID
  8
4
  6
CONTINUOUS
 62
5
 10
327.4891366208
 20
184.3730613023
 11
327.4891366208
 21
183.3377851219
 12
325.5572849682
 22
183.8554232121
 13
325.5572849682
 23
183.8554232121
  0
SOLID
  8
4
  6
CONTINUOUS
 62
5
 10
343.6254333156
 20
183.3377851219
 11
343.6254333156
 21
184.3730613023
 12
345.5572849682
 22
183.8554232121
 13
345.5572849682
 23
183.8554232121
  0
TEXT
  8
4
  6
CONTINUOUS
 62
7
 10
333.807285
 20
184.855423
 40
3.500000
  1
20
 41
0.854701
 50
0.000000
 51
0.000000
 72
   5
 73
   0
 11
337.307285
 21
184.855423
  0
POINT
  8
DEFPOINTS
  6
BYBLOCK
 62
5
 10
325.5572849682
 20
175.6619743881
  0
POINT
  8
DEFPOINTS
  6
BYBLOCK
 62
5
 10
345.5572849682
 20
174.9119743881
  0
POINT
  8
DEFPOINTS
  6
BYBLOCK
 62
5
 10
345.5572849682
 20
183.8554232121
  0
ENDBLK
  8
0
  0
BLOCK
  8
4
  2
*D9
 70
     1
 10
0.0000000000
 20
0.0000000000
  3
*D9
  0
LINE
  8
4
  6
BYBLOCK
 62
5
 10
365.5572849682
 20
176.1619743881
 11
365.5572849682
 21
184.8554232121
  0
LINE
  8
4
  6
BYBLOCK
 62
5
 10
365.5572849682
 20
183.8554232121
 11
345.5572849682
 21
183.8554232121
  0
SOLID
  8
4
  6
CONTINUOUS
 62
5
 10
347.4891366208
 20
184.3730613023
 11
347.4891366208
 21
183.3377851219
 12
345.5572849682
 22
183.8554232121
 13
345.5572849682
 23
183.8554232121
  0
SOLID
  8
4
  6
CONTINUOUS
 62
5
 10
363.6254333156
 20
183.3377851219
 11
363.6254333156
 21
184.3730613023
 12
365.5572849682
 22
183.8554232121
 13
365.5572849682
 23
183.8554232121
  0
TEXT
  8
4
  6
CONTINUOUS
 62
7
 10
353.807285
 20
184.855423
 40
3.500000
  1
20
 41
0.854701
 50
0.000000
 51
0.000000
 72
   5
 73
   0
 11
357.307285
 21
184.855423
  0
POINT
  8
DEFPOINTS
  6
BYBLOCK
 62
5
 10
345.5572849682
 20
174.9119743881
  0
POINT
  8
DEFPOINTS
  6
BYBLOCK
 62
5
 10
365.5572849682
 20
175.6619743881
  0
POINT
  8
DEFPOINTS
  6
BYBLOCK
 62
5
 10
365.5572849682
 20
183.8554232121
  0
ENDBLK
  8
0
  0
BLOCK
  8
4
  2
*D10
 70
     1
 10
0.0000000000
 20
0.0000000000
  3
*D10
  0
LINE
  8
4
  6
BYBLOCK
 62
5
 10
372.0572849682
 20
173.1619743881
 11
372.0572849682
 21
184.8554232121
  0
LINE
  8
4
  6
BYBLOCK
 62
5
 10
372.0572849682
 20
183.8554232121
 11
365.5572849682
 21
183.8554232121
  0
SOLID
  8
4
  6
CONTINUOUS
 62
5
 10
367.4891366208
 20
184.3730613023
 11
367.4891366208
 21
183.3377851219
 12
365.5572849682
 22
183.8554232121
 13
365.5572849682
 23
183.8554232121
  0
SOLID
  8
4
  6
CONTINUOUS
 62
5
 10
370.1254333156
 20
183.3377851219
 11
370.1254333156
 21
184.3730613023
 12
372.0572849682
 22
183.8554232121
 13
372.0572849682
 23
183.8554232121
  0
TEXT
  8
4
  6
CONTINUOUS
 62
7
 10
366.182285
 20
184.855423
 40
3.500000
  1
6.5
 41
0.815217
 50
0.000000
 51
0.000000
 72
   5
 73
   0
 11
371.432285
 21
184.855423
  0
POINT
  8
DEFPOINTS
  6
BYBLOCK
 62
5
 10
365.5572849682
 20
175.6619743881
  0
POINT
  8
DEFPOINTS
  6
BYBLOCK
 62
5
 10
372.0572849682
 20
172.6619743881
  0
POINT
  8
DEFPOINTS
  6
BYBLOCK
 62
5
 10
372.0572849682
 20
183.8554232121
  0
ENDBLK
  8
0
  0
BLOCK
  8
4
  2
*D11
 70
     1
 10
0.0000000000
 20
0.0000000000
  3
*D11
  0
LINE
  8
4
  6
BYBLOCK
 62
5
 10
319.0572849682
 20
184.8554232121
 11
319.0572849682
 21
191.8554232121
  0
LINE
  8
4
  6
BYBLOCK
 62
5
 10
372.0572849682
 20
173.1619743881
 11
372.0572849682
 21
191.8554232121
  0
LINE
  8
4
  6
BYBLOCK
 62
5
 10
372.0572849682
 20
190.8554232121
 11
319.0572849682
 21
190.8554232121
  0
SOLID
  8
4
  6
CONTINUOUS
 62
5
 10
320.9891366208
 20
191.3730613023
 11
320.9891366208
 21
190.3377851219
 12
319.0572849682
 22
190.8554232121
 13
319.0572849682
 23
190.8554232121
  0
SOLID
  8
4
  6
CONTINUOUS
 62
5
 10
370.1254333156
 20
190.3377851219
 11
370.1254333156
 21
191.3730613023
 12
372.0572849682
 22
190.8554232121
 13
372.0572849682
 23
190.8554232121
  0
TEXT
  8
4
  6
CONTINUOUS
 62
7
 10
343.807285
 20
191.855423
 40
3.500000
  1
53
 41
0.854701
 50
0.000000
 51
0.000000
 72
   5
 73
   0
 11
347.307285
 21
191.855423
  0
POINT
  8
DEFPOINTS
  6
BYBLOCK
 62
5
 10
319.0572849682
 20
172.6619743881
  0
POINT
  8
DEFPOINTS
  6
BYBLOCK
 62
5
 10
372.0572849682
 20
172.6619743881
  0
POINT
  8
DEFPOINTS
  6
BYBLOCK
 62
5
 10
372.0572849682
 20
190.8554232121
  0
ENDBLK
  8
0
  0
BLOCK
  8
4
  2
*D12
 70
     1
 10
0.0000000000
 20
0.0000000000
  3
*D12
  0
LINE
  8
4
  6
BYBLOCK
 62
5
 10
324.7064153436
 20
178.3972965655
 11
323.2882993026
 21
180.4561668612
  0
LINE
  8
4
  6
BYBLOCK
 62
5
 10
326.4081545928
 20
175.9266522108
 11
327.8262706338
 21
173.8677819151
  0
SOLID
  8
4
  6
CONTINUOUS
 62
5
 10
323.1842795416
 20
179.6946410071
 11
324.0368792918
 21
180.2818977104
 12
324.7064153436
 22
178.3972965655
 13
324.7064153436
 23
178.3972965655
  0
SOLID
  8
4
  6
CONTINUOUS
 62
5
 10
327.9302903948
 20
174.6293077692
 11
327.0776906446
 21
174.0420510659
 12
326.4081545928
 22
175.9266522108
 13
326.4081545928
 23
175.9266522108
  0
TEXT
  8
4
  6
CONTINUOUS
 62
7
 10
332.437449
 20
168.936014
 40
3.500000
  1
4-M3
 41
0.796813
 50
304.558432
 51
0.000000
 72
   5
 73
   0
 11
336.408174
 21
163.171177
  0
POINT
  8
DEFPOINTS
  6
BYBLOCK
 62
5
 10
324.7064153436
 20
178.3972965655
  0
POINT
  8
DEFPOINTS
  6
BYBLOCK
 62
5
 10
326.4081545928
 20
175.9266522108
  0
LINE
  8
4
  6
BYBLOCK
 62
5
 10
324.7064153436
 20
178.3972965655
 11
335.5846262337
 21
162.6039308436
  0
ENDBLK
  8
0
  0
BLOCK
  8
4
  2
*D13
 70
     1
 10
0.0000000000
 20
0.0000000000
  3
*D13
  0
LINE
  8
4
  6
BYBLOCK
 62
5
 10
344.1560871308
 20
178.9224131461
 11
342.5992006447
 21
180.8784562104
  0
LINE
  8
4
  6
BYBLOCK
 62
5
 10
346.9584828056
 20
175.4015356302
 11
348.5153692917
 21
173.4454925659
  0
SOLID
  8
4
  6
CONTINUOUS
 62
5
 10
342.5480086799
 20
180.1115656577
 11
343.3580265968
 21
180.7562886555
 12
344.1560871308
 22
178.9224131461
 13
344.1560871308
 23
178.9224131461
  0
SOLID
  8
4
  6
CONTINUOUS
 62
5
 10
348.5665612565
 20
174.2123831186
 11
347.7565433396
 21
173.5676601208
 12
346.9584828056
 22
175.4015356302
 13
346.9584828056
 23
175.4015356302
  0
TEXT
  8
4
  6
CONTINUOUS
 62
7
 10
353.582932
 20
168.684470
 40
3.500000
  1
2-φ4.5
 41
0.804598
 50
308.517570
 51
0.000000
 72
   5
 73
   0
 11
361.211676
 21
159.099859
  0
POINT
  8
DEFPOINTS
  6
BYBLOCK
 62
5
 10
344.1560871308
 20
178.9224131461
  0
POINT
  8
DEFPOINTS
  6
BYBLOCK
 62
5
 10
346.9584828056
 20
175.4015356302
  0
LINE
  8
4
  6
BYBLOCK
 62
5
 10
344.1560871308
 20
178.9224131461
 11
360.4292590547
 21
158.4771042800
  0
ENDBLK
  8
0
  0
BLOCK
  8
1
  2
*D14
 70
     1
 10
0.0000000000
 20
0.0000000000
  3
*D14
  0
LINE
  8
1
  6
BYBLOCK
 62
5
 10
366.5572849682
 20
60.1619743881
 11
305.8614186851
 21
60.1619743881
  0
LINE
  8
1
  6
BYBLOCK
 62
5
 10
318.5572849682
 20
64.6619743881
 11
305.8614186851
 21
64.6619743881
  0
LINE
  8
1
  6
BYBLOCK
 62
5
 10
306.8614186851
 20
67.1619743881
 11
306.8614186851
 21
57.6619743881
  0
SOLID
  8
1
  6
CONTINUOUS
 62
5
 10
307.3790567753
 20
58.2301227356
 11
306.3437805949
 21
58.2301227356
 12
306.8614186851
 22
60.1619743881
 13
306.8614186851
 23
60.1619743881
  0
SOLID
  8
1
  6
CONTINUOUS
 62
5
 10
306.3437805949
 20
66.5938260407
 11
307.3790567753
 21
66.5938260407
 12
306.8614186851
 22
64.6619743881
 13
306.8614186851
 23
64.6619743881
  0
TEXT
  8
1
  6
CONTINUOUS
 62
7
 10
305.861419
 20
60.161974
 40
3.000000
  1
4.5
 41
0.815217
 50
90.000000
 51
0.000000
 72
   5
 73
   0
 11
305.861419
 21
64.661974
  0
POINT
  8
DEFPOINTS
  6
BYBLOCK
 62
5
 10
367.0572849682
 20
60.1619743881
  0
POINT
  8
DEFPOINTS
  6
BYBLOCK
 62
5
 10
319.0572849682
 20
64.6619743881
  0
POINT
  8
DEFPOINTS
  6
BYBLOCK
 62
5
 10
306.8614186851
 20
64.6619743881
  0
ENDBLK
  8
0
  0
BLOCK
  8
1
  2
*D15
 70
     1
 10
0.0000000000
 20
0.0000000000
  3
*D15
  0
LINE
  8
1
  6
BYBLOCK
 62
5
 10
318.5572849682
 20
172.6619743881
 11
305.8614186851
 21
172.6619743881
  0
LINE
  8
1
  6
BYBLOCK
 62
5
 10
306.8614186851
 20
172.6619743881
 11
306.8614186851
 21
64.6619743881
  0
SOLID
  8
1
  6
CONTINUOUS
 62
5
 10
306.3437805949
 20
66.5938260407
 11
307.3790567753
 21
66.5938260407
 12
306.8614186851
 22
64.6619743881
 13
306.8614186851
 23
64.6619743881
  0
SOLID
  8
1
  6
CONTINUOUS
 62
5
 10
307.3790567753
 20
170.7301227356
 11
306.3437805949
 21
170.7301227356
 12
306.8614186851
 22
172.6619743881
 13
306.8614186851
 23
172.6619743881
  0
TEXT
  8
1
  6
CONTINUOUS
 62
7
 10
305.861419
 20
116.036974
 40
3.500000
  1
108
 41
0.815217
 50
90.000000
 51
0.000000
 72
   5
 73
   0
 11
305.861419
 21
121.286974
  0
POINT
  8
DEFPOINTS
  6
BYBLOCK
 62
5
 10
319.0572849682
 20
64.6619743881
  0
POINT
  8
DEFPOINTS
  6
BYBLOCK
 62
5
 10
319.0572849682
 20
172.6619743881
  0
POINT
  8
DEFPOINTS
  6
BYBLOCK
 62
5
 10
306.8614186851
 20
172.6619743881
  0
ENDBLK
  8
0
  0
BLOCK
  8
1
  2
*D16
 70
     1
 10
0.0000000000
 20
0.0000000000
  3
*D16
  0
LINE
  8
1
  6
BYBLOCK
 62
5
 10
366.5572849682
 20
177.1619743881
 11
305.8614186851
 21
177.1619743881
  0
LINE
  8
1
  6
BYBLOCK
 62
5
 10
306.8614186851
 20
179.6619743881
 11
306.8614186851
 21
170.1619743881
  0
SOLID
  8
1
  6
CONTINUOUS
 62
5
 10
307.3790567753
 20
170.7301227356
 11
306.3437805949
 21
170.7301227356
 12
306.8614186851
 22
172.6619743881
 13
306.8614186851
 23
172.6619743881
  0
SOLID
  8
1
  6
CONTINUOUS
 62
5
 10
306.3437805949
 20
179.0938260407
 11
307.3790567753
 21
179.0938260407
 12
306.8614186851
 22
177.1619743881
 13
306.8614186851
 23
177.1619743881
  0
TEXT
  8
1
  6
CONTINUOUS
 62
7
 10
304.861419
 20
172.661974
 40
3.000000
  1
4.5
 41
0.815217
 50
90.000000
 51
0.000000
 72
   5
 73
   0
 11
304.861419
 21
177.161974
  0
POINT
  8
DEFPOINTS
  6
BYBLOCK
 62
5
 10
319.0572849682
 20
172.6619743881
  0
POINT
  8
DEFPOINTS
  6
BYBLOCK
 62
5
 10
367.0572849682
 20
177.1619743881
  0
POINT
  8
DEFPOINTS
  6
BYBLOCK
 62
5
 10
306.8614186851
 20
177.1619743881
  0
ENDBLK
  8
0
  0
BLOCK
  8
1
  2
*D17
 70
     1
 10
0.0000000000
 20
0.0000000000
  3
*D17
  0
LINE
  8
1
  6
BYBLOCK
 62
5
 10
305.8614186851
 20
60.1619743881
 11
298.8614186851
 21
60.1619743881
  0
LINE
  8
1
  6
BYBLOCK
 62
5
 10
366.5572849682
 20
177.1619743881
 11
298.8614186851
 21
177.1619743881
  0
LINE
  8
1
  6
BYBLOCK
 62
5
 10
299.8614186851
 20
177.1619743881
 11
299.8614186851
 21
60.1619743881
  0
SOLID
  8
1
  6
CONTINUOUS
 62
5
 10
299.3437805949
 20
62.0938260407
 11
300.3790567753
 21
62.0938260407
 12
299.8614186851
 22
60.1619743881
 13
299.8614186851
 23
60.1619743881
  0
SOLID
  8
1
  6
CONTINUOUS
 62
5
 10
300.3790567753
 20
175.2301227356
 11
299.3437805949
 21
175.2301227356
 12
299.8614186851
 22
177.1619743881
 13
299.8614186851
 23
177.1619743881
  0
TEXT
  8
1
  6
CONTINUOUS
 62
7
 10
298.861419
 20
116.036974
 40
3.500000
  1
117
 41
0.815217
 50
90.000000
 51
0.000000
 72
   5
 73
   0
 11
298.861419
 21
121.286974
  0
POINT
  8
DEFPOINTS
  6
BYBLOCK
 62
5
 10
367.0572849682
 20
60.1619743881
  0
POINT
  8
DEFPOINTS
  6
BYBLOCK
 62
5
 10
367.0572849682
 20
177.1619743881
  0
POINT
  8
DEFPOINTS
  6
BYBLOCK
 62
5
 10
299.8614186851
 20
177.1619743881
  0
ENDBLK
  8
0
  0
BLOCK
  8
1
  2
*D18
 70
     1
 10
0.0000000000
 20
0.0000000000
  3
*D18
  0
LINE
  8
1
  6
BYBLOCK
 62
5
 10
380.5572849682
 20
44.4119743881
 11
388.7005190311
 21
44.4119743881
  0
LINE
  8
1
  6
BYBLOCK
 62
5
 10
372.5572849682
 20
64.6619743881
 11
388.7005190311
 21
64.6619743881
  0
LINE
  8
1
  6
BYBLOCK
 62
5
 10
387.7005190311
 20
64.6619743881
 11
387.7005190311
 21
44.4119743881
  0
SOLID
  8
1
  6
CONTINUOUS
 62
5
 10
387.1828809409
 20
46.3438260407
 11
388.2181571213
 21
46.3438260407
 12
387.7005190311
 22
44.4119743881
 13
387.7005190311
 23
44.4119743881
  0
SOLID
  8
1
  6
CONTINUOUS
 62
5
 10
388.2181571213
 20
62.7301227356
 11
387.1828809409
 21
62.7301227356
 12
387.7005190311
 22
64.6619743881
 13
387.7005190311
 23
64.6619743881
  0
TEXT
  8
1
  6
CONTINUOUS
 62
7
 10
386.700519
 20
50.161974
 40
3.500000
  1
20.25
 41
0.786164
 50
90.000000
 51
0.000000
 72
   5
 73
   0
 11
386.700519
 21
58.911974
  0
POINT
  8
DEFPOINTS
  6
BYBLOCK
 62
5
 10
380.0572849682
 20
44.4119743881
  0
POINT
  8
DEFPOINTS
  6
BYBLOCK
 62
5
 10
372.0572849682
 20
64.6619743881
  0
POINT
  8
DEFPOINTS
  6
BYBLOCK
 62
5
 10
387.7005190311
 20
64.6619743881
  0
ENDBLK
  8
0
  0
BLOCK
  8
1
  2
*D19
 70
     1
 10
0.0000000000
 20
0.0000000000
  3
*D19
  0
LINE
  8
1
  6
BYBLOCK
 62
5
 10
372.5572849682
 20
172.6619743881
 11
388.7005190311
 21
172.6619743881
  0
LINE
  8
1
  6
BYBLOCK
 62
5
 10
387.7005190311
 20
172.6619743881
 11
387.7005190311
 21
64.6619743881
  0
SOLID
  8
1
  6
CONTINUOUS
 62
5
 10
387.1828809409
 20
66.5938260407
 11
388.2181571213
 21
66.5938260407
 12
387.7005190311
 22
64.6619743881
 13
387.7005190311
 23
64.6619743881
  0
SOLID
  8
1
  6
CONTINUOUS
 62
5
 10
388.2181571213
 20
170.7301227356
 11
387.1828809409
 21
170.7301227356
 12
387.7005190311
 22
172.6619743881
 13
387.7005190311
 23
172.6619743881
  0
TEXT
  8
1
  6
CONTINUOUS
 62
7
 10
386.700519
 20
116.036974
 40
3.500000
  1
108
 41
0.815217
 50
90.000000
 51
0.000000
 72
   5
 73
   0
 11
386.700519
 21
121.286974
  0
POINT
  8
DEFPOINTS
  6
BYBLOCK
 62
5
 10
372.0572849682
 20
64.6619743881
  0
POINT
  8
DEFPOINTS
  6
BYBLOCK
 62
5
 10
372.0572849682
 20
172.6619743881
  0
POINT
  8
DEFPOINTS
  6
BYBLOCK
 62
5
 10
387.7005190311
 20
172.6619743881
  0
ENDBLK
  8
0
  0
BLOCK
  8
1
  2
*D20
 70
     1
 10
0.0000000000
 20
0.0000000000
  3
*D20
  0
LINE
  8
1
  6
BYBLOCK
 62
5
 10
380.5572849682
 20
199.9119743881
 11
388.7005190311
 21
199.9119743881
  0
LINE
  8
1
  6
BYBLOCK
 62
5
 10
387.7005190311
 20
199.9119743881
 11
387.7005190311
 21
172.6619743881
  0
SOLID
  8
1
  6
CONTINUOUS
 62
5
 10
387.1828809409
 20
174.5938260407
 11
388.2181571213
 21
174.5938260407
 12
387.7005190311
 22
172.6619743881
 13
387.7005190311
 23
172.6619743881
  0
SOLID
  8
1
  6
CONTINUOUS
 62
5
 10
388.2181571213
 20
197.9801227356
 11
387.1828809409
 21
197.9801227356
 12
387.7005190311
 22
199.9119743881
 13
387.7005190311
 23
199.9119743881
  0
TEXT
  8
1
  6
CONTINUOUS
 62
7
 10
386.700519
 20
181.911974
 40
3.500000
  1
27.25
 41
0.786164
 50
90.000000
 51
0.000000
 72
   5
 73
   0
 11
386.700519
 21
190.661974
  0
POINT
  8
DEFPOINTS
  6
BYBLOCK
 62
5
 10
372.0572849682
 20
172.6619743881
  0
POINT
  8
DEFPOINTS
  6
BYBLOCK
 62
5
 10
380.0572849682
 20
199.9119743881
  0
POINT
  8
DEFPOINTS
  6
BYBLOCK
 62
5
 10
387.7005190311
 20
199.9119743881
  0
ENDBLK
  8
0
  0
BLOCK
  8
1
  2
LTEX1
 70
     0
 10
323.9116262976
 20
44.4119743881
  3
LTEX1
  0
SOLID
  8
1
  6
CONTINUOUS
 62
5
 10
324.7338699055
 20
46.2351352284
 11
325.5352905702
 21
45.5797561870
 12
323.9116262976
 22
44.4119743881
 13
323.9116262976
 23
44.4119743881
  0
TEXT
  8
1
  6
CONTINUOUS
 62
7
 10
328.407128
 20
50.909233
 40
2.500000
  1
製品外形
 41
0.886918
 50
0.000000
 51
0.000000
 72
   5
 73
   0
 11
338.407128
 21
50.909233
  0
LINE
  8
1
  6
BYBLOCK
 62
5
 10
323.9116262976
 20
44.4119743881
 11
328.4071280277
 21
49.9092328564
  0
LINE
  8
1
  6
BYBLOCK
 62
5
 10
328.4071280277
 20
49.9092328564
 11
338.4071280277
 21
49.9092328564
  0
ENDBLK
  8
0
  0
BLOCK
  8
3
  2
S3
 70
     0
 10
9.0000000000
 20
-58.7245888453
  3
S3
  0
LINE
  8
3
  6
CONTINUOUS
 62
6
 10
11.5000000000
 20
-60.7245888453
 11
6.5000000000
 21
-60.7245888453
  0
LINE
  8
3
  6
CONTINUOUS
 62
6
 10
9.0000000000
 20
-56.7245888453
 11
6.5000000000
 21
-60.7245888453
  0
LINE
  8
3
  6
CONTINUOUS
 62
6
 10
9.0000000000
 20
-56.7245888453
 11
11.5000000000
 21
-60.7245888453
  0
POINT
  8
3
  6
CONTINUOUS
 62
6
 10
9.0000000000
 20
-58.7245888453
  0
ENDBLK
  8
0
  0
BLOCK
  8
3
  2
BALN6
 70
     0
 10
61.5591943771
 20
-181.4654824090
  3
BALN6
  0
SOLID
  8
3
  6
CONTINUOUS
 62
5
 10
61.2419347555
 20
-179.4908061488
 11
62.2717776153
 21
-179.5967327927
 12
61.5591943771
 22
-181.4654824090
 13
61.5591943771
 23
-181.4654824090
  0
LINE
  8
3
  6
BYBLOCK
 62
5
 10
61.5591943771
 20
-181.4654824090
 11
64.5629428786
 21
-152.2623581001
  0
CIRCLE
  8
3
  6
BYBLOCK
 62
5
 10
64.8698947214
 20
-149.2781026542
 40
3.0000000000
  0
TEXT
  8
3
  6
CONTINUOUS
 62
7
 10
63.994895
 20
-151.028103
 40
3.500000
  1
8
 41
1.000000
 50
0.000000
 51
0.000000
 72
   5
 73
   0
 11
65.744895
 21
-151.028103
  0
ENDBLK
  8
0
  0
BLOCK
  8
3
  2
BALN7
 70
     0
 10
232.9169496562
 20
-54.6072773854
  3
BALN7
  0
SOLID
  8
3
  6
CONTINUOUS
 62
5
 10
234.0831623931
 20
-53.6639069107
 11
234.3986047499
 21
-54.3734009575
 12
232.9169496562
 22
-54.6072773854
 13
232.9169496562
 23
-54.6072773854
  0
LINE
  8
3
  6
BYBLOCK
 62
5
 10
232.9169496562
 20
-54.6072773854
 11
243.2856745442
 21
-49.9973232493
  0
CIRCLE
  8
3
  6
BYBLOCK
 62
5
 10
246.0269490380
 20
-48.7785475728
 40
3.0000000000
  0
TEXT
  8
3
  6
CONTINUOUS
 62
7
 10
244.276949
 20
-50.528548
 40
3.500000
  1
13
 41
0.854701
 50
0.000000
 51
0.000000
 72
   5
 73
   0
 11
247.776949
 21
-50.528548
  0
ENDBLK
  8
0
  0
BLOCK
  8
3
  2
BALN8
 70
     0
 10
232.9169496562
 20
-99.6072773854
  3
BALN8
  0
SOLID
  8
3
  6
CONTINUOUS
 62
5
 10
234.0831623931
 20
-98.6639069107
 11
234.3986047499
 21
-99.3734009575
 12
232.9169496562
 22
-99.6072773854
 13
232.9169496562
 23
-99.6072773854
  0
LINE
  8
3
  6
BYBLOCK
 62
5
 10
232.9169496562
 20
-99.6072773854
 11
243.2856745442
 21
-94.9973232493
  0
CIRCLE
  8
3
  6
BYBLOCK
 62
5
 10
246.0269490380
 20
-93.7785475728
 40
3.0000000000
  0
TEXT
  8
3
  6
CONTINUOUS
 62
7
 10
244.276949
 20
-95.528548
 40
3.500000
  1
13
 41
0.854701
 50
0.000000
 51
0.000000
 72
   5
 73
   0
 11
247.776949
 21
-95.528548
  0
ENDBLK
  8
0
  0
BLOCK
  8
3
  2
BALN9
 70
     0
 10
232.9169496562
 20
-144.6072773854
  3
BALN9
  0
SOLID
  8
3
  6
CONTINUOUS
 62
5
 10
234.0831623931
 20
-143.6639069107
 11
234.3986047499
 21
-144.3734009575
 12
232.9169496562
 22
-144.6072773854
 13
232.9169496562
 23
-144.6072773854
  0
LINE
  8
3
  6
BYBLOCK
 62
5
 10
232.9169496562
 20
-144.6072773854
 11
243.2856745442
 21
-139.9973232493
  0
CIRCLE
  8
3
  6
BYBLOCK
 62
5
 10
246.0269490380
 20
-138.7785475728
 40
3.0000000000
  0
TEXT
  8
3
  6
CONTINUOUS
 62
7
 10
244.276949
 20
-140.528548
 40
3.500000
  1
13
 41
0.854701
 50
0.000000
 51
0.000000
 72
   5
 73
   0
 11
247.776949
 21
-140.528548
  0
ENDBLK
  8
0
  0
BLOCK
  8
3
  2
BALN10
 70
     0
 10
232.9169496562
 20
-189.6072773854
  3
BALN10
  0
SOLID
  8
3
  6
CONTINUOUS
 62
5
 10
234.0831623931
 20
-188.6639069107
 11
234.3986047499
 21
-189.3734009575
 12
232.9169496562
 22
-189.6072773854
 13
232.9169496562
 23
-189.6072773854
  0
LINE
  8
3
  6
BYBLOCK
 62
5
 10
232.9169496562
 20
-189.6072773854
 11
243.2856745442
 21
-184.9973232493
  0
CIRCLE
  8
3
  6
BYBLOCK
 62
5
 10
246.0269490380
 20
-183.7785475728
 40
3.0000000000
  0
TEXT
  8
3
  6
CONTINUOUS
 62
7
 10
244.276949
 20
-185.528548
 40
3.500000
  1
13
 41
0.854701
 50
0.000000
 51
0.000000
 72
   5
 73
   0
 11
247.776949
 21
-185.528548
  0
ENDBLK
  8
0
  0
BLOCK
  8
3
  2
BALN11
 70
     0
 10
232.9169496562
 20
-234.6072773854
  3
BALN11
  0
SOLID
  8
3
  6
CONTINUOUS
 62
5
 10
234.0831623931
 20
-233.6639069107
 11
234.3986047499
 21
-234.3734009575
 12
232.9169496562
 22
-234.6072773854
 13
232.9169496562
 23
-234.6072773854
  0
LINE
  8
3
  6
BYBLOCK
 62
5
 10
232.9169496562
 20
-234.6072773854
 11
243.2856745442
 21
-229.9973232493
  0
CIRCLE
  8
3
  6
BYBLOCK
 62
5
 10
246.0269490380
 20
-228.7785475728
 40
3.0000000000
  0
TEXT
  8
3
  6
CONTINUOUS
 62
7
 10
244.276949
 20
-230.528548
 40
3.500000
  1
13
 41
0.854701
 50
0.000000
 51
0.000000
 72
   5
 73
   0
 11
247.776949
 21
-230.528548
  0
ENDBLK
  8
0
  0
BLOCK
  8
3
  2
BALN12
 70
     0
 10
233.0418223205
 20
-275.1433446018
  3
BALN12
  0
SOLID
  8
3
  6
CONTINUOUS
 62
5
 10
234.2080350573
 20
-274.1999741272
 11
234.5234774141
 21
-274.9094681740
 12
233.0418223205
 22
-275.1433446018
 13
233.0418223205
 23
-275.1433446018
  0
LINE
  8
3
  6
BYBLOCK
 62
5
 10
233.0418223205
 20
-275.1433446018
 11
243.4105472085
 21
-270.5333904658
  0
CIRCLE
  8
3
  6
BYBLOCK
 62
5
 10
246.1518217023
 20
-269.3146147892
 40
3.0000000000
  0
TEXT
  8
3
  6
CONTINUOUS
 62
7
 10
244.401822
 20
-271.064615
 40
3.500000
  1
14
 41
0.854701
 50
0.000000
 51
0.000000
 72
   5
 73
   0
 11
247.901822
 21
-271.064615
  0
ENDBLK
  8
0
  0
BLOCK
  8
1
  2
S4
 70
     0
 10
213.1605182328
 20
101.3525214525
  3
S4
  0
CIRCLE
  8
1
  6
HIDDEN
 62
5
 10
213.1605182328
 20
101.3525214525
 40
4.5000000000
  0
LINE
  8
1
  6
HIDDEN
 62
5
 10
216.5355182329
 20
101.3525214525
 11
209.7855182329
 21
101.3525214525
  0
LINE
  8
1
  6
HIDDEN
 62
5
 10
215.4105182329
 20
99.6650214525
 11
210.9105182329
 21
99.6650214525
  0
LINE
  8
1
  6
HIDDEN
 62
5
 10
214.2855182329
 20
97.9775214525
 11
212.0355182329
 21
97.9775214525
  0
LINE
  8
1
  6
HIDDEN
 62
5
 10
213.1605182328
 20
101.3525214525
 11
213.1605182329
 21
104.7275214525
  0
ENDBLK
  8
0
  0
BLOCK
  8
1
  2
LTEX2
 70
     0
 10
217.1605182328
 20
91.3525214526
  3
LTEX2
  0
SOLID
  8
1
  6
CONTINUOUS
 62
5
 10
219.1529220982
 20
91.1783754306
 11
218.7989175839
 21
90.2055046409
 12
217.1605182328
 22
91.3525214526
 13
217.1605182328
 23
91.3525214526
  0
TEXT
  8
1
  6
CONTINUOUS
 62
7
 10
253.314335
 20
79.197009
 40
3.500000
  1
  M4ｱｰｽﾎﾞｽ
 41
0.765697
 50
0.000000
 51
0.000000
 72
   5
 73
   0
 11
270.814335
 21
79.197009
  0
LINE
  8
1
  6
BYBLOCK
 62
5
 10
217.1605182328
 20
91.3525214526
 11
253.3143346497
 21
78.1970085552
  0
LINE
  8
1
  6
BYBLOCK
 62
5
 10
253.3143346497
 20
78.1970085552
 11
270.8143346497
 21
78.1970085552
  0
ENDBLK
  8
0
  0
BLOCK
  8
1
  2
S5
 70
     0
 10
253.1816052311
 20
82.0992534622
  3
S5
  0
LINE
  8
1
  6
CONTINUOUS
 62
6
 10
255.6816052311
 20
80.0992534622
 11
250.6816052311
 21
80.0992534622
  0
TEXT
  8
1
  6
CONTINUOUS
 62
6
 10
252.086005
 20
79.720926
 40
3.300000
  1
C
 41
1.328000
 50
0.000000
 51
0.000000
 72
   5
 73
   0
 11
254.277205
 21
79.720926
  0
LINE
  8
1
  6
CONTINUOUS
 62
6
 10
253.1816052311
 20
84.0992534622
 11
250.6816052311
 21
80.0992534622
  0
LINE
  8
1
  6
CONTINUOUS
 62
6
 10
253.1816052311
 20
84.0992534622
 11
255.6816052311
 21
80.0992534622
  0
POINT
  8
1
  6
CONTINUOUS
 62
6
 10
253.1816052311
 20
82.0992534622
  0
ENDBLK
  8
0
  0
BLOCK
  8
1
  2
S6
 70
     0
 10
190.5228789977
 20
243.0011148382
  3
S6
  0
LINE
  8
1
  6
CONTINUOUS
 62
6
 10
193.0228789977
 20
241.0011148382
 11
188.0228789977
 21
241.0011148382
  0
TEXT
  8
1
  6
CONTINUOUS
 62
6
 10
189.427279
 20
240.622787
 40
3.300000
  1
C
 41
1.328000
 50
0.000000
 51
0.000000
 72
   5
 73
   0
 11
191.618479
 21
240.622787
  0
LINE
  8
1
  6
CONTINUOUS
 62
6
 10
190.5228789977
 20
245.0011148382
 11
188.0228789977
 21
241.0011148382
  0
LINE
  8
1
  6
CONTINUOUS
 62
6
 10
190.5228789977
 20
245.0011148382
 11
193.0228789977
 21
241.0011148382
  0
POINT
  8
1
  6
CONTINUOUS
 62
6
 10
190.5228789977
 20
243.0011148382
  0
ENDBLK
  8
0
  0
BLOCK
  8
1
  2
S7
 70
     0
 10
50.8206929311
 20
-99.6945918643
  3
S7
  0
LINE
  8
1
  6
CONTINUOUS
 62
6
 10
53.3206929311
 20
-101.6945918643
 11
48.3206929311
 21
-101.6945918643
  0
TEXT
  8
1
  6
CONTINUOUS
 62
6
 10
49.725093
 20
-102.072919
 40
3.300000
  1
C
 41
1.328000
 50
0.000000
 51
0.000000
 72
   5
 73
   0
 11
51.916293
 21
-102.072919
  0
LINE
  8
1
  6
CONTINUOUS
 62
6
 10
50.8206929311
 20
-97.6945918643
 11
48.3206929311
 21
-101.6945918643
  0
LINE
  8
1
  6
CONTINUOUS
 62
6
 10
50.8206929311
 20
-97.6945918643
 11
53.3206929311
 21
-101.6945918643
  0
POINT
  8
1
  6
CONTINUOUS
 62
6
 10
50.8206929311
 20
-99.6945918643
  0
ENDBLK
  8
0
  0
BLOCK
  8
1
  2
S8
 70
     0
 10
69.4956447311
 20
-276.0900865152
  3
S8
  0
CIRCLE
  8
1
  6
HIDDEN
 62
5
 10
69.4956447311
 20
-276.0900865152
 40
4.5000000000
  0
LINE
  8
1
  6
HIDDEN
 62
5
 10
72.8706447313
 20
-276.0900865152
 11
66.1206447313
 21
-276.0900865152
  0
LINE
  8
1
  6
HIDDEN
 62
5
 10
71.7456447313
 20
-277.7775865152
 11
67.2456447313
 21
-277.7775865152
  0
LINE
  8
1
  6
HIDDEN
 62
5
 10
70.6206447313
 20
-279.4650865152
 11
68.3706447313
 21
-279.4650865152
  0
LINE
  8
1
  6
HIDDEN
 62
5
 10
69.4956447311
 20
-276.0900865152
 11
69.4956447313
 21
-272.7150865152
  0
ENDBLK
  8
0
  0
BLOCK
  8
1
  2
S9
 70
     0
 10
109.5167317295
 20
-295.3433545055
  3
S9
  0
LINE
  8
1
  6
CONTINUOUS
 62
6
 10
112.0167317295
 20
-297.3433545055
 11
107.0167317295
 21
-297.3433545055
  0
TEXT
  8
1
  6
CONTINUOUS
 62
6
 10
108.421132
 20
-297.721682
 40
3.300000
  1
C
 41
1.328000
 50
0.000000
 51
0.000000
 72
   5
 73
   0
 11
110.612332
 21
-297.721682
  0
LINE
  8
1
  6
CONTINUOUS
 62
6
 10
109.5167317295
 20
-293.3433545055
 11
107.0167317295
 21
-297.3433545055
  0
LINE
  8
1
  6
CONTINUOUS
 62
6
 10
109.5167317295
 20
-293.3433545055
 11
112.0167317295
 21
-297.3433545055
  0
POINT
  8
1
  6
CONTINUOUS
 62
6
 10
109.5167317295
 20
-295.3433545055
  0
ENDBLK
  8
0
  0
BLOCK
  8
1
  2
LTEX3
 70
     0
 10
73.4956447311
 20
-286.0900865151
  3
LTEX3
  0
SOLID
  8
1
  6
CONTINUOUS
 62
5
 10
75.4880485966
 20
-286.2642325371
 11
75.1340440822
 21
-287.2371033268
 12
73.4956447311
 22
-286.0900865151
 13
73.4956447311
 23
-286.0900865151
  0
TEXT
  8
1
  6
CONTINUOUS
 62
7
 10
109.649461
 20
-298.245599
 40
3.500000
  1
  M4ｱｰｽﾎﾞｽ
 41
0.765697
 50
0.000000
 51
0.000000
 72
   5
 73
   0
 11
127.149461
 21
-298.245599
  0
LINE
  8
1
  6
BYBLOCK
 62
5
 10
73.4956447311
 20
-286.0900865151
 11
109.6494611481
 21
-299.2455994125
  0
LINE
  8
1
  6
BYBLOCK
 62
5
 10
109.6494611481
 20
-299.2455994125
 11
127.1494611481
 21
-299.2455994125
  0
ENDBLK
  8
0
  0
BLOCK
  8
1
  2
S10
 70
     0
 10
137.2868002249
 20
38.5097255163
  3
S10
  0
LINE
  8
1
  6
CONTINUOUS
 62
6
 10
139.7868002249
 20
36.5097255163
 11
134.7868002249
 21
36.5097255163
  0
TEXT
  8
1
  6
CONTINUOUS
 62
6
 10
136.191200
 20
36.131398
 40
3.300000
  1
C
 41
1.328000
 50
0.000000
 51
0.000000
 72
   5
 73
   0
 11
138.382400
 21
36.131398
  0
LINE
  8
1
  6
CONTINUOUS
 62
6
 10
137.2868002249
 20
40.5097255163
 11
134.7868002249
 21
36.5097255163
  0
LINE
  8
1
  6
CONTINUOUS
 62
6
 10
137.2868002249
 20
40.5097255163
 11
139.7868002249
 21
36.5097255163
  0
POINT
  8
1
  6
CONTINUOUS
 62
6
 10
137.2868002249
 20
38.5097255163
  0
ENDBLK
  8
0
  0
BLOCK
  8
3
  2
LTEX4
 70
     0
 10
134.5962334454
 20
86.7605564293
  3
LTEX4
  0
SOLID
  8
3
  6
CONTINUOUS
 62
5
 10
135.0708243304
 20
84.8176813710
 11
134.0358036791
 21
84.8406818299
 12
134.5962334454
 22
86.7605564293
 13
134.5962334454
 23
86.7605564293
  0
TEXT
  8
3
  6
CONTINUOUS
 62
7
 10
133.340636
 20
31.258654
 40
3.500000
  1
 PBT品はｱｰｽ部(2箇所) 
 41
0.804598
 50
0.000000
 51
0.000000
 72
   5
 73
   0
 11
170.090636
 21
31.258654
  0
TEXT
  8
3
  6
CONTINUOUS
 62
7
 10
133.340636
 20
26.258654
 40
3.500000
  1
%%uは無いです%%u
 41
0.880282
 50
0.000000
 51
0.000000
 72
   5
 73
   0
 11
150.840636
 21
26.258654
  0
LINE
  8
3
  6
BYBLOCK
 62
5
 10
134.5962334454
 20
86.7605564293
 11
133.3406356149
 21
30.2586540591
  0
LINE
  8
3
  6
BYBLOCK
 62
5
 10
133.3406356149
 20
30.2586540591
 11
170.0906356149
 21
30.2586540591
  0
ENDBLK
  8
0
  0
BLOCK
  8
3
  2
LTEX5
 70
     0
 10
88.2645106558
 20
17.3439335173
  3
LTEX5
  0
SOLID
  8
3
  6
CONTINUOUS
 62
5
 10
89.9790701192
 20
18.3736353414
 11
90.2642136195
 21
17.3784017236
 12
88.2645106558
 22
17.3439335173
 13
88.2645106558
 23
17.3439335173
  0
TEXT
  8
3
  6
CONTINUOUS
 62
7
 10
133.340636
 20
31.258654
 40
3.500000
  1
 
 41
1.000000
 50
0.000000
 51
0.000000
 72
   5
 73
   0
 11
135.090636
 21
31.258654
  0
LINE
  8
3
  6
BYBLOCK
 62
5
 10
88.2645106558
 20
17.3439335173
 11
133.3406356149
 21
30.2586540591
  0
LINE
  8
3
  6
BYBLOCK
 62
5
 10
133.3406356149
 20
30.2586540591
 11
135.0906356149
 21
30.2586540591
  0
ENDBLK
  8
0
  0
BLOCK
  8
3
  2
LTEX6
 70
     0
 10
39.2645106558
 20
18.7789024664
  3
LTEX6
  0
SOLID
  8
3
  6
CONTINUOUS
 62
5
 10
41.1194376375
 20
19.5267299150
 11
41.2448382684
 21
18.4990765437
 12
39.2645106558
 22
18.7789024664
 13
39.2645106558
 23
18.7789024664
  0
TEXT
  8
3
  6
CONTINUOUS
 62
7
 10
133.340636
 20
31.258654
 40
3.500000
  1
 
 41
1.000000
 50
0.000000
 51
0.000000
 72
   5
 73
   0
 11
135.090636
 21
31.258654
  0
LINE
  8
3
  6
BYBLOCK
 62
5
 10
39.2645106558
 20
18.7789024664
 11
133.3406356149
 21
30.2586540591
  0
LINE
  8
3
  6
BYBLOCK
 62
5
 10
133.3406356149
 20
30.2586540591
 11
135.0906356149
 21
30.2586540591
  0
ENDBLK
  8
0
  0
BLOCK
  8
1
  2
S11
 70
     0
 10
309.3313851285
 20
266.8545250502
  3
S11
  0
LINE
  8
1
  6
CONTINUOUS
 62
6
 10
311.8313851285
 20
264.8545250502
 11
306.8313851285
 21
264.8545250502
  0
TEXT
  8
1
  6
CONTINUOUS
 62
6
 10
308.235785
 20
264.476198
 40
3.300000
  1
C
 41
1.328000
 50
0.000000
 51
0.000000
 72
   5
 73
   0
 11
310.426985
 21
264.476198
  0
LINE
  8
1
  6
CONTINUOUS
 62
6
 10
309.3313851285
 20
268.8545250502
 11
306.8313851285
 21
264.8545250502
  0
LINE
  8
1
  6
CONTINUOUS
 62
6
 10
309.3313851285
 20
268.8545250502
 11
311.8313851285
 21
264.8545250502
  0
POINT
  8
1
  6
CONTINUOUS
 62
6
 10
309.3313851285
 20
266.8545250502
  0
ENDBLK
  8
0
  0
BLOCK
  8
1
  2
S12
 70
     0
 10
309.3313851285
 20
234.1415523070
  3
S12
  0
LINE
  8
1
  6
CONTINUOUS
 62
6
 10
311.8313851285
 20
232.1415523070
 11
306.8313851285
 21
232.1415523070
  0
TEXT
  8
1
  6
CONTINUOUS
 62
6
 10
308.235785
 20
231.763225
 40
3.300000
  1
C
 41
1.328000
 50
0.000000
 51
0.000000
 72
   5
 73
   0
 11
310.426985
 21
231.763225
  0
LINE
  8
1
  6
CONTINUOUS
 62
6
 10
309.3313851285
 20
236.1415523070
 11
306.8313851285
 21
232.1415523070
  0
LINE
  8
1
  6
CONTINUOUS
 62
6
 10
309.3313851285
 20
236.1415523070
 11
311.8313851285
 21
232.1415523070
  0
POINT
  8
1
  6
CONTINUOUS
 62
6
 10
309.3313851285
 20
234.1415523070
  0
ENDBLK
  8
0
  0
ENDSEC
  0
SECTION
  2
ENTITIES
  0
LINE
  8
1
  6
CONTINUOUS
 62
7
 10
95.7645106558
 20
65.6025214537
 11
95.7645106558
 21
209.4775214537
  0
LINE
  8
1
  6
CONTINUOUS
 62
7
 10
28.7645106558
 20
209.4775214537
 11
28.7645106558
 21
65.6025214537
  0
LINE
  8
1
  6
CONTINUOUS
 62
7
 10
96.7645106558
 20
64.6025214537
 11
96.7645106558
 21
220.1025214537
  0
LINE
  8
1
  6
CONTINUOUS
 62
7
 10
27.7645106558
 20
220.1025214537
 11
27.7645106558
 21
64.6025214537
  0
LINE
  8
1
  6
DASHDOT
 62
1
 10
101.7645106558
 20
213.1025214537
 11
22.7645106558
 21
213.1025214537
  0
LINE
  8
1
  6
CONTINUOUS
 62
7
 10
96.7645106558
 20
64.6025214537
 11
76.7270138153
 21
64.6025214537
  0
LINE
  8
1
  6
CONTINUOUS
 62
7
 10
47.8020074964
 20
64.6025214537
 11
27.7645106558
 21
64.6025214537
  0
LINE
  8
1
  6
CONTINUOUS
 62
7
 10
28.7645106558
 20
65.6025214537
 11
45.5659395189
 21
65.6025214537
  0
LINE
  8
1
  6
CONTINUOUS
 62
7
 10
78.9630817928
 20
65.6025214537
 11
95.7645106558
 21
65.6025214537
  0
LINE
  8
1
  6
CONTINUOUS
 62
7
 10
124.4661466639
 20
207.1025214537
 11
124.4661466639
 21
65.6025214537
  0
CIRCLE
  8
1
  6
CONTINUOUS
 62
7
 10
121.4661466639
 20
213.1025214537
 40
2.0000000000
  0
ARC
  8
1
  6
CONTINUOUS
 62
7
 10
121.4661466639
 20
213.1025214537
 40
6.0000000000
 50
90.0000000000
 51
270.0000000000
  0
LINE
  8
1
  6
CONTINUOUS
 62
7
 10
124.4661466639
 20
207.1025214537
 11
121.4661466639
 21
207.1025214537
  0
LINE
  8
1
  6
CONTINUOUS
 62
7
 10
124.4661466639
 20
219.1025214537
 11
121.4661466639
 21
219.1025214537
  0
LINE
  8
1
  6
CONTINUOUS
 62
7
 10
133.4661466639
 20
220.1025214537
 11
133.4661466639
 21
64.6025214537
  0
LINE
  8
1
  6
CONTINUOUS
 62
7
 10
28.7645106558
 20
207.1025214537
 11
28.7645106558
 21
219.1025214537
  0
LINE
  8
1
  6
CONTINUOUS
 62
7
 10
28.7645106558
 20
219.1025214537
 11
33.7645106558
 21
219.1025214537
  0
LINE
  8
1
  6
CONTINUOUS
 62
7
 10
33.7645106558
 20
219.1025214537
 11
33.7645106558
 21
207.1025214537
  0
LINE
  8
1
  6
CONTINUOUS
 62
7
 10
33.7645106558
 20
207.1025214537
 11
28.7645106558
 21
207.1025214537
  0
LINE
  8
1
  6
CONTINUOUS
 62
7
 10
95.7645106558
 20
219.1025214537
 11
90.7645106558
 21
219.1025214537
  0
LINE
  8
1
  6
CONTINUOUS
 62
7
 10
90.7645106558
 20
219.1025214537
 11
90.7645106558
 21
207.1025214537
  0
LINE
  8
1
  6
CONTINUOUS
 62
7
 10
90.7645106558
 20
207.1025214537
 11
95.7645106558
 21
207.1025214537
  0
LINE
  8
1
  6
CONTINUOUS
 62
7
 10
95.7645106558
 20
207.1025214537
 11
95.7645106558
 21
219.1025214537
  0
LINE
  8
1
  6
CONTINUOUS
 62
7
 10
90.7645106558
 20
207.1025214537
 11
90.7645106558
 21
206.1025214537
  0
LINE
  8
1
  6
CONTINUOUS
 62
7
 10
33.7645106558
 20
206.1025214537
 11
33.7645106558
 21
207.1025214537
  0
LINE
  8
1
  6
CONTINUOUS
 62
7
 10
96.7645106558
 20
220.1025214537
 11
27.7645106558
 21
220.1025214537
  0
LINE
  8
1
  6
CONTINUOUS
 62
7
 10
96.7645106558
 20
27.5484212565
 11
27.7645106558
 21
27.5484212565
  0
LINE
  8
1
  6
CONTINUOUS
 62
7
 10
28.7645106558
 20
36.5484212565
 11
95.7645106558
 21
36.5484212565
  0
LINE
  8
1
  6
CONTINUOUS
 62
7
 10
133.4661466639
 20
64.6025214537
 11
124.4661466639
 21
65.6025214537
  0
LINE
  8
1
  6
CONTINUOUS
 62
7
 10
133.4661466639
 20
220.1025214537
 11
124.4661466639
 21
219.1025214537
  0
LINE
  8
1
  6
CONTINUOUS
 62
7
 10
28.7645106558
 20
36.5484212565
 11
27.7645106558
 21
27.5484212565
  0
LINE
  8
1
  6
CONTINUOUS
 62
7
 10
95.7645106558
 20
36.5484212565
 11
96.7645106558
 21
27.5484212565
  0
LINE
  8
1
  6
HIDDEN
 62
7
 10
124.4661466639
 20
206.1025214537
 11
127.9661466639
 21
206.1025214537
  0
LINE
  8
1
  6
HIDDEN
 62
7
 10
127.9661466639
 20
206.1025214537
 11
127.9661466639
 21
219.4914103426
  0
LINE
  8
1
  6
HIDDEN
 62
7
 10
34.7645106558
 20
33.5484212565
 11
34.7645106558
 21
36.5484212565
  0
LINE
  8
1
  6
HIDDEN
 62
7
 10
89.7645106558
 20
33.5484212565
 11
34.7645106558
 21
33.5484212565
  0
LINE
  8
1
  6
HIDDEN
 62
7
 10
89.7645106558
 20
33.5484212565
 11
89.7645106558
 21
36.5484212565
  0
LINE
  8
1
  6
HIDDEN
 62
7
 10
85.5145106558
 20
33.5484212565
 11
85.5145106558
 21
29.5484212565
  0
LINE
  8
1
  6
HIDDEN
 62
7
 10
85.5145106558
 20
29.5484212565
 11
84.0145106559
 21
29.5484212565
  0
LINE
  8
1
  6
HIDDEN
 62
7
 10
80.5145106559
 20
29.5484212565
 11
79.0145106558
 21
29.5484212565
  0
LINE
  8
1
  6
HIDDEN
 62
7
 10
79.0145106558
 20
29.5484212565
 11
79.0145106558
 21
33.5484212565
  0
LINE
  8
1
  6
HIDDEN
 62
7
 10
80.5145106559
 20
29.5484212565
 11
80.5145106556
 21
27.5484212565
  0
LINE
  8
1
  6
HIDDEN
 62
7
 10
84.0145106559
 20
29.5484212565
 11
84.0145106558
 21
27.5484212565
  0
LINE
  8
1
  6
HIDDEN
 62
7
 10
39.0145106558
 20
33.5484212565
 11
39.0145106558
 21
29.5484212565
  0
LINE
  8
1
  6
HIDDEN
 62
7
 10
39.0145106558
 20
29.5484212565
 11
40.5145106558
 21
29.5484212565
  0
LINE
  8
1
  6
HIDDEN
 62
7
 10
44.0145106558
 20
29.5484212565
 11
45.5145106558
 21
29.5484212565
  0
LINE
  8
1
  6
HIDDEN
 62
7
 10
45.5145106558
 20
29.5484212565
 11
45.5145106558
 21
33.5484212565
  0
LINE
  8
1
  6
HIDDEN
 62
7
 10
44.0145106558
 20
29.5484212565
 11
44.0145106561
 21
27.5484212565
  0
LINE
  8
1
  6
HIDDEN
 62
7
 10
40.5145106558
 20
29.5484212565
 11
40.5145106559
 21
27.5484212565
  0
LINE
  8
1
  6
HIDDEN
 62
7
 10
60.2645106558
 20
33.5484212565
 11
60.2645106558
 21
27.5484212565
  0
LINE
  8
1
  6
HIDDEN
 62
7
 10
64.2645106558
 20
33.5484212565
 11
64.2645106558
 21
27.5484212565
  0
LINE
  8
1
  6
HIDDEN
 62
7
 10
63.9145106558
 20
33.5484212565
 11
63.9145106558
 21
27.5484212565
  0
LINE
  8
1
  6
HIDDEN
 62
7
 10
60.6145106558
 20
33.5484212565
 11
60.6145106558
 21
27.5484212565
  0
LINE
  8
1
  6
HIDDEN
 62
7
 10
124.4661466639
 20
201.1025214537
 11
127.9661466639
 21
201.1025214537
  0
LINE
  8
1
  6
HIDDEN
 62
7
 10
127.9661466639
 20
200.4775214537
 11
127.9661466639
 21
76.6025214537
  0
LINE
  8
1
  6
HIDDEN
 62
7
 10
127.9661466639
 20
76.6025214537
 11
124.4661466639
 21
76.6025214537
  0
LINE
  8
1
  6
HIDDEN
 62
7
 10
127.9661466639
 20
85.3525214537
 11
133.4661466639
 21
85.3525214537
  0
LINE
  8
1
  6
HIDDEN
 62
7
 10
127.9661466639
 20
192.3525214537
 11
133.4661466639
 21
192.3525214537
  0
LINE
  8
1
  6
HIDDEN
 62
7
 10
127.9661466639
 20
83.6025214537
 11
131.9661466639
 21
83.6025214537
  0
LINE
  8
1
  6
HIDDEN
 62
7
 10
131.9661466639
 20
83.6025214537
 11
131.9661466639
 21
82.1025214537
  0
LINE
  8
1
  6
HIDDEN
 62
7
 10
131.9661466639
 20
78.6025214537
 11
131.9661466639
 21
77.1025214537
  0
LINE
  8
1
  6
HIDDEN
 62
7
 10
131.9661466639
 20
77.1025214537
 11
127.9661466639
 21
77.1025214537
  0
LINE
  8
1
  6
HIDDEN
 62
7
 10
131.9661466639
 20
78.6025214537
 11
133.4661466639
 21
78.6025214535
  0
LINE
  8
1
  6
HIDDEN
 62
7
 10
131.9661466639
 20
82.1025214537
 11
133.4661466639
 21
82.1025214648
  0
LINE
  8
1
  6
HIDDEN
 62
7
 10
127.9661466639
 20
194.1025214537
 11
131.9661466639
 21
194.1025214537
  0
LINE
  8
1
  6
HIDDEN
 62
7
 10
131.9661466639
 20
194.1025214537
 11
131.9661466639
 21
195.6025214537
  0
LINE
  8
1
  6
HIDDEN
 62
7
 10
131.9661466639
 20
199.1025214537
 11
131.9661466639
 21
200.6025214537
  0
LINE
  8
1
  6
HIDDEN
 62
7
 10
131.9661466639
 20
200.6025214537
 11
127.9661466639
 21
200.6025214537
  0
LINE
  8
1
  6
HIDDEN
 62
7
 10
131.9661466639
 20
199.1025214537
 11
133.4661466639
 21
199.1025214539
  0
LINE
  8
1
  6
HIDDEN
 62
7
 10
131.9661466639
 20
195.6025214537
 11
133.4661466639
 21
195.6025214425
  0
ARC
  8
2
  6
HIDDEN
 62
5
 10
121.4661466639
 20
213.1025214537
 40
6.0000000000
 50
294.6243183522
 51
164.1092389898
  0
LINE
  8
2
  6
HIDDEN
 62
5
 10
123.9661466639
 20
207.6481653964
 11
123.9661466639
 21
207.1025214537
  0
LINE
  8
2
  6
CONTINUOUS
 62
5
 10
123.9661466639
 20
207.1025214537
 11
123.9661466639
 21
65.6025214537
  0
LINE
  8
2
  6
CONTINUOUS
 62
5
 10
115.8202125868
 20
65.6025214537
 11
123.9661466639
 21
65.6025214537
  0
LINE
  8
2
  6
CONTINUOUS
 62
5
 10
109.4661466639
 20
61.6025214537
 11
109.4661466639
 21
192.4775214537
  0
LINE
  8
2
  6
CONTINUOUS
 62
5
 10
123.9661466639
 20
206.1025214537
 11
113.2892089437
 21
206.1025214537
  0
CIRCLE
  8
2
  6
CONTINUOUS
 62
5
 10
121.4661466639
 20
213.1025214537
 40
2.0000000000
  0
LINE
  8
2
  6
CONTINUOUS
 62
5
 10
29.7645106558
 20
206.1025214537
 11
33.9645106558
 21
206.1025214537
  0
LINE
  8
2
  6
CONTINUOUS
 62
5
 10
33.9645106558
 20
206.1025214537
 11
33.9645106558
 21
219.1025214537
  0
LINE
  8
2
  6
CONTINUOUS
 62
5
 10
33.9645106558
 20
219.1025214537
 11
90.5645106558
 21
219.1025214537
  0
LINE
  8
2
  6
CONTINUOUS
 62
5
 10
90.5645106558
 20
219.1025214537
 11
90.5645106558
 21
206.1025214537
  0
LINE
  8
2
  6
CONTINUOUS
 62
5
 10
90.5645106558
 20
206.1025214537
 11
94.7645106558
 21
206.1025214537
  0
LINE
  8
2
  6
CONTINUOUS
 62
5
 10
94.7645106558
 20
206.1025214537
 11
94.7645106558
 21
65.6025214537
  0
LINE
  8
2
  6
CONTINUOUS
 62
5
 10
78.9630817928
 20
65.6025214537
 11
94.7645106558
 21
65.6025214537
  0
LINE
  8
2
  6
CONTINUOUS
 62
5
 10
45.5659395189
 20
65.6025214537
 11
29.7645106558
 21
65.6025214537
  0
LINE
  8
2
  6
CONTINUOUS
 62
5
 10
29.7645106558
 20
65.6025214537
 11
29.7645106558
 21
206.1025214537
  0
LINE
  8
2
  6
CONTINUOUS
 62
5
 10
49.3906030156
 20
62.0590341874
 11
48.1384182961
 21
64.1460087200
  0
LINE
  8
2
  6
CONTINUOUS
 62
5
 10
72.5659395189
 20
60.6025214537
 11
51.9630817928
 21
60.6025214537
  0
ARC
  8
2
  6
CONTINUOUS
 62
5
 10
45.5659395189
 20
62.6025214537
 40
3.0000000000
 50
30.9637565321
 51
90.0000000000
  0
ARC
  8
2
  6
CONTINUOUS
 62
5
 10
51.9630817928
 20
63.6025214537
 40
3.0000000000
 50
210.9637565321
 51
270.0000000000
  0
LINE
  8
2
  6
CONTINUOUS
 62
5
 10
75.1384182961
 20
62.0590341874
 11
76.3906030156
 21
64.1460087200
  0
ARC
  8
2
  6
CONTINUOUS
 62
5
 10
78.9630817928
 20
62.6025214537
 40
3.0000000000
 50
90.0000000000
 51
149.0362434679
  0
ARC
  8
2
  6
CONTINUOUS
 62
5
 10
72.5659395189
 20
63.6025214537
 40
3.0000000000
 50
270.0000000000
 51
329.0362434679
  0
LINE
  8
2
  6
HIDDEN
 62
5
 10
109.4661466639
 20
70.7525214537
 11
111.4661466639
 21
70.7525214537
  0
LINE
  8
2
  6
HIDDEN
 62
5
 10
111.4661466639
 20
71.1025214537
 11
109.4661466639
 21
71.1025214537
  0
LINE
  8
2
  6
HIDDEN
 62
5
 10
111.4661466639
 20
71.3525214537
 11
123.9661466639
 21
71.3525214537
  0
LINE
  8
2
  6
HIDDEN
 62
5
 10
109.4661466639
 20
67.4525214537
 11
111.4661466639
 21
67.4525214537
  0
LINE
  8
2
  6
HIDDEN
 62
5
 10
111.4661466639
 20
67.1025214537
 11
109.4661466639
 21
67.1025214537
  0
LINE
  8
2
  6
HIDDEN
 62
5
 10
111.4661466639
 20
66.8525214537
 11
123.9661466639
 21
66.8525214537
  0
LINE
  8
2
  6
HIDDEN
 62
5
 10
111.4661466639
 20
71.3525214537
 11
111.4661466639
 21
66.8525214537
  0
LINE
  8
1
  6
HIDDEN
 62
7
 10
124.4661466639
 20
71.1025214537
 11
133.4661466639
 21
71.1025214537
  0
LINE
  8
1
  6
HIDDEN
 62
7
 10
124.4661466639
 20
70.7525214537
 11
133.4661466639
 21
70.7525214537
  0
LINE
  8
1
  6
HIDDEN
 62
7
 10
124.4661466639
 20
67.4525214537
 11
133.4661466639
 21
67.4525214537
  0
LINE
  8
1
  6
HIDDEN
 62
7
 10
124.4661466639
 20
67.1025214537
 11
133.4661466639
 21
67.1025214537
  0
LINE
  8
2
  6
CONTINUOUS
 62
5
 10
113.9632592050
 20
64.3453028064
 11
112.7175903934
 21
61.2311307773
  0
LINE
  8
2
  6
CONTINUOUS
 62
5
 10
111.7891137025
 20
60.6025214537
 11
110.4661466639
 21
60.6025214537
  0
LINE
  8
2
  6
CONTINUOUS
 62
5
 10
36.2645106558
 20
51.5484212565
 11
88.2645106558
 21
51.5484212565
  0
LINE
  8
2
  6
CONTINUOUS
 62
5
 10
94.7645106558
 20
43.5484212565
 11
94.7645106558
 21
37.0484212565
  0
LINE
  8
2
  6
CONTINUOUS
 62
5
 10
94.7645106558
 20
37.0484212565
 11
29.7645106558
 21
37.0484212565
  0
LINE
  8
2
  6
CONTINUOUS
 62
5
 10
29.7645106558
 20
37.0484212565
 11
29.7645106558
 21
43.5484212565
  0
LINE
  8
2
  6
CONTINUOUS
 62
5
 10
94.7645106558
 20
43.5484212565
 11
88.2645106558
 21
51.5484212565
  0
LINE
  8
2
  6
CONTINUOUS
 62
5
 10
36.2645106558
 20
51.5484212565
 11
29.7645106558
 21
43.5484212565
  0
LINE
  8
2
  6
CONTINUOUS
 62
5
 10
33.8539337328
 20
206.1025214537
 11
36.2645106558
 21
192.4775214537
  0
LINE
  8
2
  6
CONTINUOUS
 62
5
 10
36.2645106558
 20
192.4775214537
 11
88.2645106558
 21
192.4775214537
  0
LINE
  8
2
  6
CONTINUOUS
 62
5
 10
88.2645106558
 20
192.4775214537
 11
90.6750875789
 21
206.1025214537
  0
LINE
  8
2
  6
CONTINUOUS
 62
5
 10
88.2645106558
 20
192.4775214537
 11
88.2645106558
 21
65.6025214537
  0
LINE
  8
2
  6
CONTINUOUS
 62
5
 10
36.2645106558
 20
65.6025214537
 11
36.2645106558
 21
192.4775214537
  0
LINE
  8
2
  6
CONTINUOUS
 62
5
 10
45.5659395189
 20
51.5484212565
 11
45.5659395189
 21
46.5484212565
  0
LINE
  8
2
  6
CONTINUOUS
 62
5
 10
45.5659395189
 20
46.5484212565
 11
51.9630817928
 21
48.5484212565
  0
LINE
  8
2
  6
CONTINUOUS
 62
5
 10
51.9630817928
 20
48.5484212565
 11
72.5659395189
 21
48.5484212565
  0
LINE
  8
2
  6
CONTINUOUS
 62
5
 10
72.5659395189
 20
48.5484212565
 11
78.9630817928
 21
46.5484212565
  0
LINE
  8
2
  6
CONTINUOUS
 62
5
 10
78.9630817928
 20
46.5484212565
 11
78.9630817928
 21
51.5484212565
  0
LINE
  8
2
  6
CONTINUOUS
 62
5
 10
51.9630817928
 20
51.5484212565
 11
51.9630817928
 21
48.5484212565
  0
LINE
  8
2
  6
CONTINUOUS
 62
5
 10
72.5659395189
 20
51.5484212565
 11
72.5659395189
 21
48.5484212565
  0
LINE
  8
2
  6
CONTINUOUS
 62
5
 10
45.5659395189
 20
46.5484212565
 11
78.9630817928
 21
46.5484212565
  0
ARC
  8
2
  6
CONTINUOUS
 62
5
 10
110.4661466639
 20
61.6025214537
 40
1.0000000000
 50
180.0000000000
 51
270.0000000000
  0
ARC
  8
2
  6
CONTINUOUS
 62
5
 10
111.7891137025
 20
61.6025214537
 40
1.0000000000
 50
270.0000000000
 51
338.1985905136
  0
ARC
  8
2
  6
CONTINUOUS
 62
5
 10
115.8202125868
 20
63.6025214537
 40
2.0000000000
 50
90.0000000000
 51
158.1985905136
  0
LINE
  8
1
  6
CONTINUOUS
 62
7
 10
96.7645106558
 20
27.5484212565
 11
27.7645106558
 21
27.5484212565
  0
LINE
  8
2
  6
CONTINUOUS
 62
5
 10
124.9661466639
 20
204.3525214537
 11
123.9661466639
 21
204.3525214537
  0
LINE
  8
2
  6
CONTINUOUS
 62
5
 10
124.9661466639
 20
204.3525214537
 11
124.9661466639
 21
203.8525214537
  0
LINE
  8
2
  6
CONTINUOUS
 62
5
 10
124.9661466639
 20
203.8525214537
 11
123.9661466639
 21
203.8525214537
  0
LINE
  8
2
  6
HIDDEN
 62
5
 10
123.9661466639
 20
203.8525214537
 11
114.7351177630
 21
203.8525214537
  0
LINE
  8
2
  6
CONTINUOUS
 62
5
 10
123.9661466639
 20
73.3525214537
 11
124.9661466639
 21
73.3525214537
  0
LINE
  8
2
  6
CONTINUOUS
 62
5
 10
124.9661466639
 20
73.3525214537
 11
124.9661466639
 21
73.8525214537
  0
LINE
  8
2
  6
CONTINUOUS
 62
5
 10
124.9661466639
 20
73.8525214537
 11
123.9661466639
 21
73.8525214537
  0
LINE
  8
2
  6
HIDDEN
 62
5
 10
123.9661466639
 20
73.8525214537
 11
111.4661466639
 21
73.8525214537
  0
LINE
  8
1
  6
CONTINUOUS
 62
7
 10
219.9105182328
 20
201.1025214537
 11
167.9105182328
 21
201.1025214537
  0
LINE
  8
1
  6
CONTINUOUS
 62
7
 10
221.4105182328
 20
78.1025214537
 11
221.4105182328
 21
199.6025214537
  0
LINE
  8
1
  6
CONTINUOUS
 62
7
 10
167.9105182328
 20
76.6025214537
 11
219.9105182328
 21
76.6025214537
  0
LINE
  8
1
  6
CONTINUOUS
 62
7
 10
166.4105182328
 20
78.1025214537
 11
166.4105182328
 21
199.6025214537
  0
LINE
  8
1
  6
CONTINUOUS
 62
7
 10
223.4105182328
 20
75.6025214537
 11
223.4105182328
 21
202.1025214537
  0
LINE
  8
1
  6
CONTINUOUS
 62
7
 10
222.4105182328
 20
203.1025214537
 11
165.4105182328
 21
203.1025214537
  0
LINE
  8
1
  6
CONTINUOUS
 62
7
 10
164.4105182328
 20
75.6025214537
 11
164.4105182328
 21
202.1025214537
  0
LINE
  8
1
  6
CONTINUOUS
 62
7
 10
165.4105182328
 20
74.6025214537
 11
222.4105182328
 21
74.6025214537
  0
ARC
  8
1
  6
CONTINUOUS
 62
7
 10
167.9105182328
 20
199.6025214537
 40
1.5000000000
 50
90.0000000000
 51
180.0000000000
  0
ARC
  8
1
  6
CONTINUOUS
 62
7
 10
219.9105182328
 20
199.6025214537
 40
1.5000000000
 50
0.0000000000
 51
90.0000000000
  0
ARC
  8
1
  6
CONTINUOUS
 62
7
 10
219.9105182328
 20
78.1025214537
 40
1.5000000000
 50
270.0000000000
 51
0.0000000000
  0
ARC
  8
1
  6
CONTINUOUS
 62
7
 10
167.9105182328
 20
78.1025214537
 40
1.5000000000
 50
180.0000000000
 51
270.0000000000
  0
CIRCLE
  8
1
  6
HIDDEN
 62
3
 10
173.9105182328
 20
197.3525214537
 40
1.7500000000
  0
CIRCLE
  8
1
  6
HIDDEN
 62
3
 10
173.9105182328
 20
197.3525214537
 40
3.2500000000
  0
CIRCLE
  8
1
  6
HIDDEN
 62
3
 10
213.9105182328
 20
197.3525214537
 40
1.7500000000
  0
CIRCLE
  8
1
  6
HIDDEN
 62
3
 10
213.9105182328
 20
197.3525214537
 40
3.2500000000
  0
LINE
  8
1
  6
HIDDEN
 62
3
 10
216.9105182328
 20
192.3525214537
 11
219.9105182328
 21
192.3525214537
  0
LINE
  8
1
  6
HIDDEN
 62
3
 10
168.9105182328
 20
192.3525214537
 11
216.9105182328
 21
192.3525214537
  0
CIRCLE
  8
1
  6
HIDDEN
 62
3
 10
173.9105182328
 20
80.3525214537
 40
1.7500000000
  0
CIRCLE
  8
1
  6
HIDDEN
 62
3
 10
173.9105182328
 20
80.3525214537
 40
3.2500000000
  0
CIRCLE
  8
1
  6
HIDDEN
 62
3
 10
213.9105182328
 20
80.3525214537
 40
1.7500000000
  0
CIRCLE
  8
1
  6
HIDDEN
 62
3
 10
213.9105182328
 20
80.3525214537
 40
3.2500000000
  0
CIRCLE
  8
1
  6
HIDDEN
 62
3
 10
193.9105182328
 20
197.3525214537
 40
2.0000000000
  0
LINE
  8
1
  6
CONTINUOUS
 62
7
 10
225.4105182328
 20
75.6025214537
 11
225.4105182328
 21
202.1025214537
  0
LINE
  8
1
  6
CONTINUOUS
 62
7
 10
222.4105182328
 20
205.1025214537
 11
165.4105182328
 21
205.1025214537
  0
LINE
  8
1
  6
CONTINUOUS
 62
7
 10
162.4105182328
 20
75.6025214537
 11
162.4105182328
 21
202.1025214537
  0
LINE
  8
1
  6
CONTINUOUS
 62
7
 10
165.4105182328
 20
72.6025214537
 11
222.4105182328
 21
72.6025214537
  0
LINE
  8
1
  6
CONTINUOUS
 62
7
 10
227.4105182328
 20
65.6025214537
 11
227.4105182328
 21
209.4775214537
  0
LINE
  8
1
  6
CONTINUOUS
 62
7
 10
160.4105182328
 20
209.4775214537
 11
160.4105182328
 21
65.6025214537
  0
LINE
  8
1
  6
CONTINUOUS
 62
7
 10
228.4105182328
 20
64.6025214537
 11
228.4105182328
 21
220.1025214537
  0
LINE
  8
1
  6
CONTINUOUS
 62
7
 10
159.4105182328
 20
220.1025214537
 11
159.4105182328
 21
64.6025214537
  0
ARC
  8
1
  6
CONTINUOUS
 62
7
 10
165.4105182328
 20
202.1025214537
 40
1.0000000000
 50
90.0000000000
 51
180.0000000000
  0
ARC
  8
1
  6
CONTINUOUS
 62
7
 10
222.4105182328
 20
202.1025214537
 40
1.0000000000
 50
0.0000000000
 51
90.0000000000
  0
ARC
  8
1
  6
CONTINUOUS
 62
7
 10
222.4105182328
 20
75.6025214537
 40
1.0000000000
 50
270.0000000000
 51
0.0000000000
  0
ARC
  8
1
  6
CONTINUOUS
 62
7
 10
165.4105182328
 20
75.6025214537
 40
1.0000000000
 50
180.0000000000
 51
270.0000000000
  0
LINE
  8
1
  6
HIDDEN
 62
3
 10
219.9105182328
 20
182.3525214537
 11
219.9105182328
 21
192.3525214537
  0
ARC
  8
1
  6
CONTINUOUS
 62
7
 10
165.4105182328
 20
202.1025214537
 40
3.0000000000
 50
90.0000000000
 51
180.0000000000
  0
ARC
  8
1
  6
CONTINUOUS
 62
7
 10
222.4105182328
 20
202.1025214537
 40
3.0000000000
 50
0.0000000000
 51
90.0000000000
  0
ARC
  8
1
  6
CONTINUOUS
 62
7
 10
222.4105182328
 20
75.6025214537
 40
3.0000000000
 50
270.0000000000
 51
0.0000000000
  0
ARC
  8
1
  6
CONTINUOUS
 62
7
 10
165.4105182328
 20
75.6025214537
 40
3.0000000000
 50
180.0000000000
 51
270.0000000000
  0
LINE
  8
1
  6
DASHDOT
 62
1
 10
230.4105182328
 20
213.1025214537
 11
157.4105182328
 21
213.1025214537
  0
LINE
  8
1
  6
CONTINUOUS
 62
7
 10
228.4105182328
 20
64.6025214537
 11
159.4105182328
 21
64.6025214537
  0
LINE
  8
1
  6
CONTINUOUS
 62
7
 10
160.4105182328
 20
65.6025214537
 11
227.4105182328
 21
65.6025214537
  0
LINE
  8
1
  6
CONTINUOUS
 62
7
 10
160.4105182328
 20
207.1025214537
 11
160.4105182328
 21
219.1025214537
  0
LINE
  8
1
  6
CONTINUOUS
 62
7
 10
160.4105182328
 20
219.1025214537
 11
165.4105182328
 21
219.1025214537
  0
LINE
  8
1
  6
CONTINUOUS
 62
7
 10
165.4105182328
 20
219.1025214537
 11
165.4105182328
 21
207.1025214537
  0
LINE
  8
1
  6
CONTINUOUS
 62
7
 10
165.4105182328
 20
207.1025214537
 11
160.4105182328
 21
207.1025214537
  0
LINE
  8
1
  6
CONTINUOUS
 62
7
 10
227.4105182328
 20
219.1025214537
 11
222.4105182328
 21
219.1025214537
  0
LINE
  8
1
  6
CONTINUOUS
 62
7
 10
222.4105182328
 20
219.1025214537
 11
222.4105182328
 21
207.1025214537
  0
LINE
  8
1
  6
CONTINUOUS
 62
7
 10
222.4105182328
 20
207.1025214537
 11
227.4105182328
 21
207.1025214537
  0
LINE
  8
1
  6
CONTINUOUS
 62
7
 10
227.4105182328
 20
207.1025214537
 11
227.4105182328
 21
219.1025214537
  0
LINE
  8
1
  6
CONTINUOUS
 62
7
 10
222.4105182328
 20
207.1025214537
 11
222.4105182328
 21
206.1025214537
  0
LINE
  8
1
  6
CONTINUOUS
 62
7
 10
222.4105182328
 20
206.1025214537
 11
165.4105182328
 21
206.1025214537
  0
LINE
  8
1
  6
CONTINUOUS
 62
7
 10
165.4105182328
 20
206.1025214537
 11
165.4105182328
 21
207.1025214537
  0
LINE
  8
1
  6
CONTINUOUS
 62
7
 10
228.4105182328
 20
220.1025214537
 11
159.4105182328
 21
220.1025214537
  0
CIRCLE
  8
1
  6
HIDDEN
 62
3
 10
193.9105182328
 20
197.3525214537
 40
1.6500000000
  0
CIRCLE
  8
1
  6
HIDDEN
 62
3
 10
193.9105182328
 20
80.3525214537
 40
2.0000000000
  0
CIRCLE
  8
1
  6
HIDDEN
 62
3
 10
193.9105182328
 20
80.3525214537
 40
1.6500000000
  0
CIRCLE
  8
1
  6
HIDDEN
 62
7
 10
193.9105182328
 20
69.1025214537
 40
2.0000000000
  0
CIRCLE
  8
1
  6
CONTINUOUS
 62
7
 10
193.9105182328
 20
69.1025214537
 40
1.6500000000
  0
INSERT
  8
5
  6
CONTINUOUS
 62
7
  2
S0
 10
0.0000000000
 20
0.0000000000
  0
TEXT
  8
5
  6
CONTINUOUS
 62
7
 10
349.684277
 20
5.000000
 40
6.000000
  1
M0051A068C
 41
0.765697
 50
0.000000
 51
0.000000
 72
   5
 73
   0
 11
379.684277
 21
5.000000
  0
TEXT
  8
5
  6
CONTINUOUS
 62
7
 10
293.500000
 20
10.750000
 40
3.000000
  1
Yamada
 41
0.779221
 50
0.000000
 51
0.000000
 72
   5
 73
   0
 11
302.500000
 21
10.750000
  0
TEXT
  8
5
  6
CONTINUOUS
 62
7
 10
304.500000
 20
10.750000
 40
3.000000
  1
Yamada
 41
0.779221
 50
0.000000
 51
0.000000
 72
   5
 73
   0
 11
313.500000
 21
10.750000
  0
TEXT
  8
1
  6
CONTINUOUS
 62
7
 10
178.408984
 20
56.344007
 40
4.000000
  1
内 部 図
 41
0.854701
 50
0.000000
 51
0.000000
 72
   5
 73
   0
 11
194.408984
 21
56.344007
  0
DIMENSION
  8
1
  6
CONTINUOUS
 62
5
  2
*D0
 10
111.4661466639
 20
98.7193009011
 11
119.7161466639
 21
101.4693009011
  70
0
 13
127.9661466639
 23
93.8244525436
 14
111.4661466639
 24
93.8244525436
 50
0.000000
  0
CIRCLE
  8
1
  6
CONTINUOUS
 62
5
 10
137.4661466639
 20
187.3525214537
 40
2.0000000000
  0
LINE
  8
1
  6
CONTINUOUS
 62
5
 10
135.9661466638
 20
187.3525214537
 11
138.9661466638
 21
187.3525214537
  0
LINE
  8
1
  6
CONTINUOUS
 62
5
 10
136.4661466638
 20
186.6025214537
 11
138.4661466638
 21
186.6025214537
  0
LINE
  8
1
  6
CONTINUOUS
 62
5
 10
136.9661466638
 20
185.8525214537
 11
137.9661466638
 21
185.8525214537
  0
LINE
  8
1
  6
CONTINUOUS
 62
5
 10
137.4661466639
 20
187.3525214537
 11
137.4661466638
 21
188.8525214537
  0
LINE
  8
1
  6
HIDDEN
 62
3
 10
219.9105182328
 20
182.3525214537
 11
216.9105182328
 21
182.3525214537
  0
LINE
  8
1
  6
HIDDEN
 62
3
 10
216.9105182328
 20
182.3525214537
 11
216.9105182328
 21
192.3525214537
  0
LINE
  8
1
  6
CONTINUOUS
 62
7
 10
133.4661466639
 20
192.3525214537
 11
148.4661466639
 21
192.3525214537
  0
LINE
  8
1
  6
CONTINUOUS
 62
7
 10
148.4661466639
 20
192.3525214537
 11
148.4661466639
 21
182.3525214537
  0
LINE
  8
1
  6
CONTINUOUS
 62
7
 10
148.4661466639
 20
182.3525214537
 11
133.4661466639
 21
182.3525214537
  0
CIRCLE
  8
1
  6
CONTINUOUS
 62
7
 10
143.4661466639
 20
187.3525214537
 40
2.0000000000
  0
CIRCLE
  8
1
  6
HIDDEN
 62
7
 10
143.4661466639
 20
187.3525214537
 40
2.5000000000
  0
CIRCLE
  8
1
  6
HIDDEN
 62
5
 10
137.4661466639
 20
90.3525214537
 40
2.0000000000
  0
LINE
  8
1
  6
HIDDEN
 62
5
 10
135.9661466638
 20
90.3525214537
 11
138.9661466638
 21
90.3525214537
  0
LINE
  8
1
  6
HIDDEN
 62
5
 10
136.4661466638
 20
89.6025214537
 11
138.4661466638
 21
89.6025214537
  0
LINE
  8
1
  6
HIDDEN
 62
5
 10
136.9661466638
 20
88.8525214537
 11
137.9661466638
 21
88.8525214537
  0
LINE
  8
1
  6
HIDDEN
 62
5
 10
137.4661466639
 20
90.3525214537
 11
137.4661466638
 21
91.8525214537
  0
LINE
  8
1
  6
CONTINUOUS
 62
7
 10
133.4661466639
 20
95.3525214537
 11
148.4661466639
 21
95.3525214537
  0
LINE
  8
1
  6
CONTINUOUS
 62
7
 10
148.4661466639
 20
95.3525214537
 11
148.4661466639
 21
85.3525214537
  0
LINE
  8
1
  6
CONTINUOUS
 62
7
 10
148.4661466639
 20
85.3525214537
 11
133.4661466639
 21
85.3525214537
  0
CIRCLE
  8
1
  6
CONTINUOUS
 62
7
 10
143.4661466639
 20
90.3525214537
 40
2.0000000000
  0
CIRCLE
  8
1
  6
HIDDEN
 62
7
 10
143.4661466639
 20
90.3525214537
 40
2.5000000000
  0
DIMENSION
  8
1
  6
CONTINUOUS
 62
5
  2
*D1
 10
20.9779016700
 20
36.5484212565
 11
18.2279016700
 21
32.0484212565
  70
0
 13
27.7645106558
 23
27.5484212565
 14
28.7645106558
 24
36.5484212565
 50
90.000000
  0
DIMENSION
  8
1
  6
CONTINUOUS
 62
5
  2
*D2
 10
20.7383253733
 20
51.5484212565
 11
17.9883253733
 21
44.2984212565
  70
0
 13
29.7645106558
 23
37.0484212565
 14
36.2645106558
 24
51.5484212565
 50
90.000000
  0
DIMENSION
  8
1
  6
CONTINUOUS
 62
5
  2
*D3
 10
13.2316014101
 20
51.5484212565
 11
10.4816014101
 21
39.5484212565
  70
0
 13
27.7645106558
 23
27.5484212565
 14
36.2645106558
 24
51.5484212565
 50
90.000000
  0
LINE
  8
1
  6
CONTINUOUS
 62
7
 10
36.2645106558
 20
27.5484212565
 11
36.2645106558
 21
12.5484212565
  0
LINE
  8
1
  6
CONTINUOUS
 62
7
 10
36.2645106558
 20
12.5484212565
 11
39.2645106558
 21
12.5484212565
  0
LINE
  8
1
  6
CONTINUOUS
 62
7
 10
39.2645106558
 20
12.5484212565
 11
39.2645106558
 21
27.5484212565
  0
LINE
  8
1
  6
CONTINUOUS
 62
7
 10
88.2645106558
 20
27.5484212565
 11
88.2645106558
 21
12.5484212565
  0
LINE
  8
1
  6
CONTINUOUS
 62
7
 10
88.2645106558
 20
12.5484212565
 11
85.2645106558
 21
12.5484212565
  0
LINE
  8
1
  6
CONTINUOUS
 62
7
 10
85.2645106558
 20
12.5484212565
 11
85.2645106558
 21
27.5484212565
  0
LINE
  8
1
  6
HIDDEN
 62
3
 10
167.9105182328
 20
85.3525214537
 11
170.9105182328
 21
85.3525214537
  0
LINE
  8
1
  6
HIDDEN
 62
3
 10
218.9105182328
 20
85.3525214537
 11
170.9105182328
 21
85.3525214537
  0
LINE
  8
1
  6
HIDDEN
 62
3
 10
167.9105182328
 20
95.3525214537
 11
170.9105182328
 21
95.3525214537
  0
LINE
  8
3
  6
HIDDEN
 62
3
 10
170.9105182328
 20
95.3525214537
 11
170.9105182328
 21
85.3525214537
  0
LINE
  8
1
  6
HIDDEN
 62
3
 10
167.9105182328
 20
95.3525214537
 11
167.9105182328
 21
85.3525214537
  0
LINE
  8
1
  6
HIDDEN
 62
3
 10
219.9105182328
 20
86.3525214537
 11
219.9105182328
 21
182.3525214537
  0
LINE
  8
1
  6
HIDDEN
 62
3
 10
167.9105182328
 20
191.3525214537
 11
167.9105182328
 21
95.3525214537
  0
LINE
  8
2
  6
CONTINUOUS
 62
5
 10
115.6954338248
 20
214.7453462552
 11
109.4661466639
 21
192.4775214537
  0
LINE
  8
2
  6
HIDDEN
 62
5
 10
114.7351177630
 20
203.8525214537
 11
111.4661466639
 21
192.2022453229
  0
LINE
  8
2
  6
HIDDEN
 62
5
 10
111.4661466639
 20
192.2022453229
 11
111.4661466639
 21
73.8525214537
  0
DIMENSION
  8
1
  6
CONTINUOUS
 62
5
  2
*D4
 10
17.2916228022
 20
64.6025214537
 11
13.7916228022
 21
142.3525214537
  70
0
 13
27.7645106558
 23
220.1025214537
 14
27.7645106558
 24
64.6025214537
 50
90.000000
  0
DIMENSION
  8
1
  6
CONTINUOUS
 62
5
  2
*D5
 10
96.7645106558
 20
224.0648547044
 11
62.2645106558
 21
227.5648547044
  70
0
 13
27.7645106558
 23
220.1025214537
 14
96.7645106558
 24
220.1025214537
 50
0.000000
  0
LINE
  8
2
  6
CONTINUOUS
 62
5
 10
31.5145106558
 20
37.0484212565
 11
31.5145106558
 21
36.0484212565
  0
LINE
  8
2
  6
CONTINUOUS
 62
5
 10
31.5145106558
 20
36.0484212565
 11
32.0145106558
 21
36.0484212565
  0
LINE
  8
2
  6
CONTINUOUS
 62
5
 10
32.0145106558
 20
36.0484212565
 11
32.0145106558
 21
37.0484212565
  0
LINE
  8
2
  6
CONTINUOUS
 62
5
 10
93.0145106558
 20
37.0484212565
 11
93.0145106558
 21
36.0484212565
  0
LINE
  8
2
  6
CONTINUOUS
 62
5
 10
93.0145106558
 20
36.0484212565
 11
92.5145106558
 21
36.0484212565
  0
LINE
  8
2
  6
CONTINUOUS
 62
5
 10
92.5145106558
 20
36.0484212565
 11
92.5145106558
 21
37.0484212565
  0
ARC
  8
1
  6
HIDDEN
 62
3
 10
168.9105182328
 20
191.3525214537
 40
1.0000000000
 50
90.0000000000
 51
180.0000000000
  0
ARC
  8
1
  6
HIDDEN
 62
3
 10
218.9105182328
 20
86.3525214537
 40
1.0000000000
 50
270.0000000000
 51
0.0000000000
  0
CIRCLE
  8
1
  6
CONTINUOUS
 62
7
 10
62.2645106558
 20
69.1025214537
 40
4.0000000000
  0
LINE
  8
1
  6
CONTINUOUS
 62
7
 10
60.4967437029
 20
70.8702884066
 11
64.0322776088
 21
67.3347545007
  0
LINE
  8
1
  6
CONTINUOUS
 62
7
 10
60.4967437029
 20
67.3347545007
 11
64.0322776088
 21
70.8702884066
  0
CIRCLE
  8
1
  6
CONTINUOUS
 62
7
 10
62.2645106558
 20
69.1025214537
 40
3.5000000000
  0
POINT
  8
1
  6
CONTINUOUS
 62
7
 10
62.2645106558
 20
51.5484212565
  0
LINE
  8
1
  6
CONTINUOUS
 62
7
 10
58.7645106558
 20
51.5484212586
 11
65.7645106558
 21
51.5484212543
  0
LINE
  8
1
  6
CONTINUOUS
 62
7
 10
61.4478439892
 20
54.2317545903
 11
63.0811773225
 21
54.2317545893
  0
ARC
  8
1
  6
CONTINUOUS
 62
7
 10
61.4478439892
 20
51.5484212570
 40
2.6833333333
 50
90.0000000000
 51
179.9999999648
  0
ARC
  8
1
  6
CONTINUOUS
 62
7
 10
63.0811773225
 20
51.5484212560
 40
2.6833333333
 50
359.9999999648
 51
90.0000000000
  0
POINT
  8
1
  6
CONTINUOUS
 62
7
 10
62.2645106558
 20
51.5484212565
  0
POINT
  8
1
  6
CONTINUOUS
 62
7
 10
62.2645106558
 20
51.5484212565
  0
POINT
  8
1
  6
CONTINUOUS
 62
7
 10
109.4661466639
 20
69.1025214537
  0
LINE
  8
1
  6
CONTINUOUS
 62
7
 10
109.4690741866
 20
65.5995939289
 11
109.4690741909
 21
72.5995939289
  0
LINE
  8
1
  6
CONTINUOUS
 62
7
 10
106.7857408549
 20
68.2829272622
 11
106.7857408559
 21
69.9162605955
  0
ARC
  8
1
  6
CONTINUOUS
 62
7
 10
109.4690741882
 20
68.2829272622
 40
2.6833333333
 50
180.0000000000
 51
269.9999999648
  0
ARC
  8
1
  6
CONTINUOUS
 62
7
 10
109.4690741892
 20
69.9162605955
 40
2.6833333333
 50
89.9999999648
 51
180.0000000000
  0
POINT
  8
1
  6
CONTINUOUS
 62
7
 10
109.4661466639
 20
69.1025214537
  0
POINT
  8
1
  6
CONTINUOUS
 62
7
 10
109.4661466639
 20
69.1025214537
  0
LINE
  8
3
  6
CONTINUOUS
 62
7
 10
221.1605182328
 20
77.8525214539
 11
221.1605182328
 21
199.8525214535
  0
LINE
  8
3
  6
CONTINUOUS
 62
7
 10
220.1605182328
 20
200.8525214535
 11
167.6605182328
 21
200.8525214539
  0
LINE
  8
3
  6
CONTINUOUS
 62
7
 10
166.6605182328
 20
77.8525214535
 11
166.6605182328
 21
199.8525214539
  0
LINE
  8
3
  6
CONTINUOUS
 62
7
 10
220.1605182328
 20
76.8525214539
 11
167.6605182328
 21
76.8525214535
  0
LINE
  8
3
  6
CONTINUOUS
 62
7
 10
167.6605182328
 20
200.8525214539
 11
166.6605182328
 21
199.8525214539
  0
LINE
  8
3
  6
CONTINUOUS
 62
7
 10
221.1605182328
 20
199.8525214535
 11
220.1605182328
 21
200.8525214535
  0
LINE
  8
3
  6
CONTINUOUS
 62
7
 10
221.1605182328
 20
77.8525214539
 11
220.1605182328
 21
76.8525214539
  0
LINE
  8
3
  6
CONTINUOUS
 62
7
 10
167.6605182328
 20
76.8525214535
 11
166.6605182328
 21
77.8525214535
  0
CIRCLE
  8
3
  6
CONTINUOUS
 62
6
 10
193.9105182328
 20
197.3525214536
 40
3.9000000000
  0
LINE
  8
3
  6
CONTINUOUS
 62
6
 10
192.1869454536
 20
199.0760942328
 11
195.6340910119
 21
195.6289486745
  0
LINE
  8
3
  6
CONTINUOUS
 62
6
 10
192.1869454536
 20
195.6289486745
 11
195.6340910119
 21
199.0760942328
  0
CIRCLE
  8
3
  6
CONTINUOUS
 62
6
 10
193.9105182328
 20
197.3525214536
 40
3.4125000000
  0
CIRCLE
  8
3
  6
CONTINUOUS
 62
6
 10
193.9105182328
 20
80.3525214537
 40
3.9000000000
  0
LINE
  8
3
  6
CONTINUOUS
 62
6
 10
192.1869454536
 20
82.0760942328
 11
195.6340910119
 21
78.6289486745
  0
LINE
  8
3
  6
CONTINUOUS
 62
6
 10
192.1869454536
 20
78.6289486745
 11
195.6340910119
 21
82.0760942328
  0
CIRCLE
  8
3
  6
CONTINUOUS
 62
6
 10
193.9105182328
 20
80.3525214537
 40
3.4125000000
  0
INSERT
  8
5
  6
CONTINUOUS
 62
7
  2
S1
 10
312.9235759729
 20
221.9463679840
  0
LINE
  8
5
  6
CONTINUOUS
 62
6
 10
13.5000000000
 20
254.5000000000
 11
13.5000000000
 21
279.5000000000
  0
LINE
  8
5
  6
CONTINUOUS
 62
6
 10
25.5000000000
 20
254.5000000000
 11
25.5000000000
 21
279.5000000000
  0
LINE
  8
5
  6
CONTINUOUS
 62
6
 10
90.0000000000
 20
254.5000000000
 11
90.0000000000
 21
279.5000000000
  0
LINE
  8
5
  6
CONTINUOUS
 62
6
 10
99.0000000000
 20
279.5000000000
 11
99.0000000000
 21
254.5000000000
  0
TEXT
  8
5
  6
CONTINUOUS
 62
6
 10
16.534500
 20
255.500000
 40
3.000000
  1
Date
 41
0.787649
 50
0.000000
 51
0.000000
 72
   5
 73
   0
 11
22.465500
 21
255.500000
  0
TEXT
  8
5
  6
CONTINUOUS
 62
6
 10
6.292500
 20
255.500000
 40
3.000000
  1
Rev.
 41
0.719124
 50
0.000000
 51
0.000000
 72
   5
 73
   0
 11
11.707500
 21
255.500000
  0
TEXT
  8
5
  6
CONTINUOUS
 62
6
 10
27.000000
 20
255.500000
 40
3.000000
  1
Content
 41
0.746681
 50
0.000000
 51
0.000000
 72
   5
 73
   0
 11
37.125000
 21
255.500000
  0
TEXT
  8
5
  6
CONTINUOUS
 62
6
 10
90.972000
 20
255.500000
 40
3.000000
  1
Name
 41
0.937052
 50
0.000000
 51
0.000000
 72
   5
 73
   0
 11
98.028000
 21
255.500000
  0
LINE
  8
5
  6
CONTINUOUS
 62
6
 10
4.5000000000
 20
259.5000000000
 11
99.0000000000
 21
259.5000000000
  0
LINE
  8
5
  6
CONTINUOUS
 62
6
 10
4.5000000000
 20
264.5000000000
 11
99.0000000000
 21
264.5000000000
  0
LINE
  8
5
  6
CONTINUOUS
 62
6
 10
4.5000000000
 20
269.5000000000
 11
99.0000000000
 21
269.5000000000
  0
LINE
  8
5
  6
CONTINUOUS
 62
6
 10
4.5000000000
 20
274.5000000000
 11
99.0000000000
 21
274.5000000000
  0
LINE
  8
5
  6
CONTINUOUS
 62
6
 10
4.5000000000
 20
254.5000000000
 11
99.0000000000
 21
254.5000000000
  0
POINT
  8
5
  6
CONTINUOUS
 62
6
 10
9.0000000000
 20
262.0000000000
  0
POINT
  8
5
  6
CONTINUOUS
 62
6
 10
9.0000000000
 20
267.0000000000
  0
POINT
  8
5
  6
CONTINUOUS
 62
6
 10
9.0000000000
 20
272.0000000000
  0
POINT
  8
5
  6
CONTINUOUS
 62
6
 10
9.0000000000
 20
277.0000000000
  0
POINT
  8
5
  6
CONTINUOUS
 62
6
 10
19.5000000000
 20
277.0000000000
  0
POINT
  8
5
  6
CONTINUOUS
 62
6
 10
19.5000000000
 20
272.0000000000
  0
POINT
  8
5
  6
CONTINUOUS
 62
6
 10
19.5000000000
 20
267.0000000000
  0
POINT
  8
5
  6
CONTINUOUS
 62
6
 10
19.5000000000
 20
262.0000000000
  0
POINT
  8
5
  6
CONTINUOUS
 62
6
 10
94.5000000000
 20
262.0000000000
  0
POINT
  8
5
  6
CONTINUOUS
 62
6
 10
94.5000000000
 20
267.0000000000
  0
POINT
  8
5
  6
CONTINUOUS
 62
6
 10
94.5000000000
 20
272.0000000000
  0
POINT
  8
5
  6
CONTINUOUS
 62
6
 10
94.5000000000
 20
277.0000000000
  0
POINT
  8
5
  6
CONTINUOUS
 62
6
 10
25.5000000000
 20
277.0000000000
  0
POINT
  8
5
  6
CONTINUOUS
 62
6
 10
25.5000000000
 20
272.0000000000
  0
POINT
  8
5
  6
CONTINUOUS
 62
6
 10
25.5000000000
 20
267.0000000000
  0
POINT
  8
5
  6
CONTINUOUS
 62
6
 10
25.5000000000
 20
262.0000000000
  0
INSERT
  8
1
  6
CONTINUOUS
 62
5
  2
BALN0
 10
65.1092980532
 20
67.0636039311
  0
TEXT
  8
5
  6
CONTINUOUS
 62
7
 10
338.923576
 20
247.946368
 40
3.000000
  1
M4×8小ワｾﾑｽ(ﾊﾟﾈﾙ固定用)
 41
0.833177
 50
0.000000
 51
0.000000
 72
   5
 73
   0
 11
376.141576
 21
247.946368
  0
TEXT
  8
5
  6
CONTINUOUS
 62
7
 10
318.923576
 20
247.946368
 40
3.000000
  1
添付品ﾋﾞｽ
 41
0.822804
 50
0.000000
 51
0.000000
 72
   5
 73
   0
 11
332.129576
 21
247.946368
  0
TEXT
  8
5
  6
CONTINUOUS
 62
7
 10
394.548576
 20
247.696368
 40
3.500000
  1
2
 41
1.000000
 50
0.000000
 51
0.000000
 72
   5
 73
   0
 11
396.298576
 21
247.696368
  0
LINE
  8
5
  6
CONTINUOUS
 62
6
 10
377.9235759729
 20
256.9463679840
 11
377.9235759729
 21
251.9463679840
  0
LINE
  8
3
  6
CONTINUOUS
 62
7
 10
221.1605182328
 20
77.8525214539
 11
221.1605182328
 21
199.8525214535
  0
LINE
  8
3
  6
CONTINUOUS
 62
7
 10
221.1605182328
 20
199.8525214535
 11
220.1605182328
 21
200.8525214535
  0
LINE
  8
3
  6
CONTINUOUS
 62
7
 10
220.1605182328
 20
200.8525214535
 11
167.6605182328
 21
200.8525214539
  0
LINE
  8
3
  6
CONTINUOUS
 62
7
 10
167.6605182328
 20
200.8525214539
 11
166.6605182328
 21
199.8525214539
  0
LINE
  8
3
  6
CONTINUOUS
 62
7
 10
166.6605182328
 20
77.8525214535
 11
166.6605182328
 21
199.8525214539
  0
LINE
  8
3
  6
CONTINUOUS
 62
7
 10
167.6605182328
 20
76.8525214535
 11
166.6605182328
 21
77.8525214535
  0
LINE
  8
3
  6
CONTINUOUS
 62
7
 10
220.1605182328
 20
76.8525214539
 11
167.6605182328
 21
76.8525214535
  0
LINE
  8
3
  6
CONTINUOUS
 62
7
 10
221.1605182328
 20
77.8525214539
 11
220.1605182328
 21
76.8525214539
  0
DIMENSION
  8
1
  6
CONTINUOUS
 62
5
  2
*D6
 10
142.4822443727
 20
88.0542751045
 11
140.9380756799
 21
91.4348139740
  70
3
 15
144.4500489552
 25
92.6507678028
  0
LINE
  8
5
  6
CONTINUOUS
 62
6
 10
377.9235759729
 20
226.9463679840
 11
337.9235759729
 21
226.9463679840
  0
TEXT
  8
5
  6
CONTINUOUS
 62
7
 10
313.673576
 20
222.696368
 40
3.500000
  1
10
 41
0.854701
 50
0.000000
 51
0.000000
 72
   5
 73
   0
 11
317.173576
 21
222.696368
  0
LINE
  8
5
  6
CONTINUOUS
 62
6
 10
312.9235759729
 20
216.9463679840
 11
312.9235759729
 21
221.9463679840
  0
LINE
  8
5
  6
CONTINUOUS
 62
6
 10
317.9235759729
 20
216.9463679840
 11
312.9235759729
 21
216.9463679840
  0
LINE
  8
5
  6
CONTINUOUS
 62
6
 10
317.9235759729
 20
221.9463679840
 11
317.9235759729
 21
216.9463679840
  0
LINE
  8
5
  6
CONTINUOUS
 62
6
 10
337.9235759729
 20
216.9463679840
 11
317.9235759729
 21
216.9463679840
  0
LINE
  8
5
  6
CONTINUOUS
 62
6
 10
337.9235759729
 20
221.9463679840
 11
337.9235759729
 21
216.9463679840
  0
LINE
  8
5
  6
CONTINUOUS
 62
6
 10
377.9235759729
 20
221.9463679840
 11
377.9235759729
 21
216.9463679840
  0
LINE
  8
5
  6
CONTINUOUS
 62
6
 10
392.9235759729
 20
221.9463679840
 11
392.9235759729
 21
216.9463679840
  0
LINE
  8
5
  6
CONTINUOUS
 62
6
 10
397.9235759729
 20
221.9463679840
 11
397.9235759729
 21
216.9463679840
  0
LINE
  8
5
  6
CONTINUOUS
 62
6
 10
397.9235759729
 20
216.9463679840
 11
392.9235759729
 21
216.9463679840
  0
LINE
  8
5
  6
CONTINUOUS
 62
6
 10
392.9235759729
 20
216.9463679840
 11
377.9235759729
 21
216.9463679840
  0
LINE
  8
5
  6
CONTINUOUS
 62
6
 10
312.9235759728
 20
211.9463679840
 11
312.9235759728
 21
216.9463679840
  0
LINE
  8
5
  6
CONTINUOUS
 62
6
 10
317.9235759728
 20
211.9463679840
 11
312.9235759728
 21
211.9463679840
  0
LINE
  8
5
  6
CONTINUOUS
 62
6
 10
317.9235759728
 20
216.9463679840
 11
317.9235759728
 21
211.9463679840
  0
LINE
  8
5
  6
CONTINUOUS
 62
6
 10
337.9235759728
 20
211.9463679840
 11
317.9235759728
 21
211.9463679840
  0
LINE
  8
5
  6
CONTINUOUS
 62
6
 10
337.9235759728
 20
216.9463679840
 11
337.9235759728
 21
211.9463679840
  0
LINE
  8
5
  6
CONTINUOUS
 62
6
 10
377.9235759728
 20
216.9463679840
 11
377.9235759728
 21
211.9463679840
  0
LINE
  8
5
  6
CONTINUOUS
 62
6
 10
392.9235759728
 20
216.9463679840
 11
392.9235759728
 21
211.9463679840
  0
LINE
  8
5
  6
CONTINUOUS
 62
6
 10
397.9235759728
 20
216.9463679840
 11
397.9235759728
 21
211.9463679840
  0
LINE
  8
5
  6
CONTINUOUS
 62
6
 10
397.9235759728
 20
211.9463679840
 11
392.9235759728
 21
211.9463679840
  0
LINE
  8
5
  6
CONTINUOUS
 62
6
 10
392.9235759728
 20
211.9463679840
 11
377.9235759728
 21
211.9463679840
  0
LINE
  8
5
  6
CONTINUOUS
 62
6
 10
377.9235759728
 20
211.9463679840
 11
337.9235759728
 21
211.9463679840
  0
LINE
  8
5
  6
CONTINUOUS
 62
6
 10
312.9235759727
 20
206.9463679840
 11
312.9235759727
 21
211.9463679840
  0
LINE
  8
5
  6
CONTINUOUS
 62
6
 10
317.9235759727
 20
206.9463679840
 11
312.9235759727
 21
206.9463679840
  0
LINE
  8
5
  6
CONTINUOUS
 62
6
 10
317.9235759727
 20
211.9463679840
 11
317.9235759727
 21
206.9463679840
  0
LINE
  8
5
  6
CONTINUOUS
 62
6
 10
337.9235759727
 20
206.9463679840
 11
317.9235759727
 21
206.9463679840
  0
LINE
  8
5
  6
CONTINUOUS
 62
6
 10
337.9235759727
 20
211.9463679840
 11
337.9235759727
 21
206.9463679840
  0
LINE
  8
5
  6
CONTINUOUS
 62
6
 10
377.9235759727
 20
211.9463679840
 11
377.9235759727
 21
206.9463679840
  0
LINE
  8
5
  6
CONTINUOUS
 62
6
 10
392.9235759727
 20
211.9463679840
 11
392.9235759727
 21
206.9463679840
  0
LINE
  8
5
  6
CONTINUOUS
 62
6
 10
397.9235759727
 20
211.9463679840
 11
397.9235759727
 21
206.9463679840
  0
LINE
  8
5
  6
CONTINUOUS
 62
6
 10
397.9235759727
 20
206.9463679840
 11
392.9235759727
 21
206.9463679840
  0
LINE
  8
5
  6
CONTINUOUS
 62
6
 10
392.9235759727
 20
206.9463679840
 11
377.9235759727
 21
206.9463679840
  0
LINE
  8
5
  6
CONTINUOUS
 62
6
 10
377.9235759727
 20
206.9463679840
 11
337.9235759727
 21
206.9463679840
  0
TEXT
  8
5
  6
CONTINUOUS
 62
7
 10
313.673576
 20
217.696368
 40
3.500000
  1
11
 41
0.854701
 50
0.000000
 51
0.000000
 72
   5
 73
   0
 11
317.173576
 21
217.696368
  0
TEXT
  8
5
  6
CONTINUOUS
 62
7
 10
313.673576
 20
212.696368
 40
3.500000
  1
12
 41
0.854701
 50
0.000000
 51
0.000000
 72
   5
 73
   0
 11
317.173576
 21
212.696368
  0
TEXT
  8
5
  6
CONTINUOUS
 62
7
 10
313.673576
 20
207.696368
 40
3.500000
  1
13
 41
0.854701
 50
0.000000
 51
0.000000
 72
   5
 73
   0
 11
317.173576
 21
207.696368
  0
TEXT
  8
5
  6
CONTINUOUS
 62
7
 10
318.923576
 20
232.946368
 40
3.000000
  1
パネル
 41
0.877246
 50
0.000000
 51
0.000000
 72
   5
 73
   0
 11
327.713576
 21
232.946368
  0
TEXT
  8
5
  6
CONTINUOUS
 62
7
 10
338.923576
 20
232.696368
 40
3.500000
  1
M0051B068B (SPCCt=1.6)
 41
0.757104
 50
0.000000
 51
0.000000
 72
   5
 73
   0
 11
377.532076
 21
232.696368
  0
TEXT
  8
5
  6
CONTINUOUS
 62
7
 10
394.548576
 20
232.696368
 40
3.500000
  1
1
 41
1.000000
 50
0.000000
 51
0.000000
 72
   5
 73
   0
 11
396.298576
 21
232.696368
  0
TEXT
  8
5
  6
CONTINUOUS
 62
7
 10
378.923576
 20
267.946368
 40
3.000000
  1
MADOKA
 41
1.028831
 50
0.000000
 51
0.000000
 72
   5
 73
   0
 11
390.806576
 21
267.946368
  0
TEXT
  8
5
  6
CONTINUOUS
 62
7
 10
378.923576
 20
262.946368
 40
3.000000
  1
MADOKA
 41
1.028831
 50
0.000000
 51
0.000000
 72
   5
 73
   0
 11
390.806576
 21
262.946368
  0
TEXT
  8
5
  6
CONTINUOUS
 62
7
 10
378.923576
 20
232.946368
 40
3.000000
  1
MADOKA
 41
1.028831
 50
0.000000
 51
0.000000
 72
   5
 73
   0
 11
390.806576
 21
232.946368
  0
TEXT
  8
5
  6
CONTINUOUS
 62
7
 10
378.923576
 20
237.946368
 40
3.000000
  1
--
 41
0.854701
 50
0.000000
 51
0.000000
 72
   5
 73
   0
 11
381.923576
 21
237.946368
  0
TEXT
  8
5
  6
CONTINUOUS
 62
7
 10
378.923576
 20
242.946368
 40
3.000000
  1
--
 41
0.854701
 50
0.000000
 51
0.000000
 72
   5
 73
   0
 11
381.923576
 21
242.946368
  0
TEXT
  8
5
  6
CONTINUOUS
 62
7
 10
378.923576
 20
247.946368
 40
3.000000
  1
--
 41
0.854701
 50
0.000000
 51
0.000000
 72
   5
 73
   0
 11
381.923576
 21
247.946368
  0
TEXT
  8
5
  6
CONTINUOUS
 62
7
 10
378.923576
 20
252.946368
 40
3.000000
  1
--
 41
0.854701
 50
0.000000
 51
0.000000
 72
   5
 73
   0
 11
381.923576
 21
252.946368
  0
TEXT
  8
5
  6
CONTINUOUS
 62
7
 10
378.923576
 20
257.946368
 40
3.000000
  1
--
 41
0.854701
 50
0.000000
 51
0.000000
 72
   5
 73
   0
 11
381.923576
 21
257.946368
  0
TEXT
  8
5
  6
CONTINUOUS
 62
7
 10
393.673576
 20
217.696368
 40
3.500000
  1
--
 41
0.854701
 50
0.000000
 51
0.000000
 72
   5
 73
   0
 11
397.173576
 21
217.696368
  0
LINE
  8
3
  6
CONTINUOUS
 62
7
 10
221.1605182328
 20
77.8525214539
 11
221.1605182328
 21
199.8525214535
  0
LINE
  8
3
  6
CONTINUOUS
 62
7
 10
220.1605182328
 20
200.8525214535
 11
167.6605182328
 21
200.8525214539
  0
LINE
  8
3
  6
CONTINUOUS
 62
7
 10
166.6605182328
 20
77.8525214535
 11
166.6605182328
 21
199.8525214539
  0
LINE
  8
3
  6
CONTINUOUS
 62
7
 10
220.1605182328
 20
76.8525214539
 11
167.6605182328
 21
76.8525214535
  0
LINE
  8
3
  6
CONTINUOUS
 62
7
 10
167.6605182328
 20
200.8525214539
 11
166.6605182328
 21
199.8525214539
  0
LINE
  8
3
  6
CONTINUOUS
 62
7
 10
221.1605182328
 20
199.8525214535
 11
220.1605182328
 21
200.8525214535
  0
LINE
  8
3
  6
CONTINUOUS
 62
7
 10
221.1605182328
 20
77.8525214539
 11
220.1605182328
 21
76.8525214539
  0
LINE
  8
3
  6
CONTINUOUS
 62
7
 10
167.6605182328
 20
76.8525214535
 11
166.6605182328
 21
77.8525214535
  0
LINE
  8
5
  6
CONTINUOUS
 62
6
 10
377.9235759729
 20
216.9463679840
 11
337.9235759729
 21
216.9463679840
  0
TEXT
  8
5
  6
CONTINUOUS
 62
7
 10
378.923576
 20
217.946368
 40
3.000000
  1
--
 41
0.854701
 50
0.000000
 51
0.000000
 72
   5
 73
   0
 11
381.923576
 21
217.946368
  0
TEXT
  8
5
  6
CONTINUOUS
 62
7
 10
378.923576
 20
212.946368
 40
3.000000
  1
--
 41
0.854701
 50
0.000000
 51
0.000000
 72
   5
 73
   0
 11
381.923576
 21
212.946368
  0
TEXT
  8
5
  6
CONTINUOUS
 62
7
 10
393.673576
 20
212.696368
 40
3.500000
  1
--
 41
0.854701
 50
0.000000
 51
0.000000
 72
   5
 73
   0
 11
397.173576
 21
212.696368
  0
TEXT
  8
5
  6
CONTINUOUS
 62
7
 10
318.923576
 20
207.696368
 40
3.500000
  1
--
 41
0.854701
 50
0.000000
 51
0.000000
 72
   5
 73
   0
 11
322.423576
 21
207.696368
  0
TEXT
  8
5
  6
CONTINUOUS
 62
7
 10
338.923576
 20
207.946368
 40
3.000000
  1
--
 41
0.854701
 50
0.000000
 51
0.000000
 72
   5
 73
   0
 11
341.923576
 21
207.946368
  0
TEXT
  8
5
  6
CONTINUOUS
 62
7
 10
378.923576
 20
207.946368
 40
3.000000
  1
--
 41
0.854701
 50
0.000000
 51
0.000000
 72
   5
 73
   0
 11
381.923576
 21
207.946368
  0
TEXT
  8
5
  6
CONTINUOUS
 62
7
 10
393.673576
 20
207.696368
 40
3.500000
  1
--
 41
0.854701
 50
0.000000
 51
0.000000
 72
   5
 73
   0
 11
397.173576
 21
207.696368
  0
INSERT
  8
3
  6
CONTINUOUS
 62
5
  2
LTEX0
 10
143.4661466639
 20
87.8525214537
  0
LINE
  8
5
  6
CONTINUOUS
 62
6
 10
312.9235759729
 20
231.9463679840
 11
312.9235759729
 21
236.9463679840
  0
INSERT
  8
5
  6
CONTINUOUS
 62
7
  2
S2
 10
0.0000000000
 20
-320.7245888453
  0
TEXT
  8
5
  6
CONTINUOUS
 62
7
 10
348.653069
 20
-297.982032
 40
4.200000
  1
Panel Interface
 41
0.641296
 50
0.000000
 51
0.000000
 72
   5
 73
   0
 11
375.264269
 21
-297.982032
  0
TEXT
  8
5
  6
CONTINUOUS
 62
7
 10
348.653069
 20
-302.182032
 40
4.200000
  1
Type:MCON-001-068*****
 41
0.790666
 50
0.000000
 51
0.000000
 72
   5
 73
   0
 11
397.037069
 21
-302.182032
  0
TEXT
  8
5
  6
CONTINUOUS
 62
7
 10
348.653069
 20
-306.382032
 40
4.200000
  1
                      仕様図　2/2
 41
0.558184
 50
0.000000
 51
0.000000
 72
   5
 73
   0
 11
398.494469
 21
-306.382032
  0
TEXT
  8
5
  6
CONTINUOUS
 62
7
 10
293.125000
 20
-309.974589
 40
3.000000
  1
Yamada
 41
0.844156
 50
0.000000
 51
0.000000
 72
   5
 73
   0
 11
302.875000
 21
-309.974589
  0
TEXT
  8
5
  6
CONTINUOUS
 62
7
 10
304.125000
 20
-309.974589
 40
3.000000
  1
Yamada
 41
0.844156
 50
0.000000
 51
0.000000
 72
   5
 73
   0
 11
313.875000
 21
-309.974589
  0
LINE
  8
5
  6
CONTINUOUS
 62
6
 10
13.5000000000
 20
-66.2245888453
 11
13.5000000000
 21
-41.2245888453
  0
LINE
  8
5
  6
CONTINUOUS
 62
6
 10
25.5000000000
 20
-66.2245888453
 11
25.5000000000
 21
-41.2245888453
  0
LINE
  8
5
  6
CONTINUOUS
 62
6
 10
90.0000000000
 20
-66.2245888453
 11
90.0000000000
 21
-41.2245888453
  0
LINE
  8
5
  6
CONTINUOUS
 62
6
 10
99.0000000000
 20
-41.2245888453
 11
99.0000000000
 21
-66.2245888453
  0
TEXT
  8
5
  6
CONTINUOUS
 62
6
 10
16.534500
 20
-65.224589
 40
3.000000
  1
Date
 41
0.787649
 50
0.000000
 51
0.000000
 72
   5
 73
   0
 11
22.465500
 21
-65.224589
  0
TEXT
  8
5
  6
CONTINUOUS
 62
6
 10
6.292500
 20
-65.224589
 40
3.000000
  1
Rev.
 41
0.719124
 50
0.000000
 51
0.000000
 72
   5
 73
   0
 11
11.707500
 21
-65.224589
  0
TEXT
  8
5
  6
CONTINUOUS
 62
6
 10
27.000000
 20
-65.224589
 40
3.000000
  1
Content
 41
0.746681
 50
0.000000
 51
0.000000
 72
   5
 73
   0
 11
37.125000
 21
-65.224589
  0
TEXT
  8
5
  6
CONTINUOUS
 62
6
 10
90.972000
 20
-65.224589
 40
3.000000
  1
Name
 41
0.937052
 50
0.000000
 51
0.000000
 72
   5
 73
   0
 11
98.028000
 21
-65.224589
  0
LINE
  8
5
  6
CONTINUOUS
 62
6
 10
4.5000000000
 20
-61.2245888453
 11
99.0000000000
 21
-61.2245888453
  0
LINE
  8
5
  6
CONTINUOUS
 62
6
 10
4.5000000000
 20
-56.2245888453
 11
99.0000000000
 21
-56.2245888453
  0
LINE
  8
5
  6
CONTINUOUS
 62
6
 10
4.5000000000
 20
-51.2245888453
 11
99.0000000000
 21
-51.2245888453
  0
LINE
  8
5
  6
CONTINUOUS
 62
6
 10
4.5000000000
 20
-46.2245888453
 11
99.0000000000
 21
-46.2245888453
  0
LINE
  8
5
  6
CONTINUOUS
 62
6
 10
4.5000000000
 20
-66.2245888453
 11
99.0000000000
 21
-66.2245888453
  0
POINT
  8
5
  6
CONTINUOUS
 62
6
 10
9.0000000000
 20
-58.7245888453
  0
POINT
  8
5
  6
CONTINUOUS
 62
6
 10
9.0000000000
 20
-53.7245888453
  0
POINT
  8
5
  6
CONTINUOUS
 62
6
 10
9.0000000000
 20
-48.7245888453
  0
POINT
  8
5
  6
CONTINUOUS
 62
6
 10
9.0000000000
 20
-43.7245888453
  0
POINT
  8
5
  6
CONTINUOUS
 62
6
 10
19.5000000000
 20
-43.7245888453
  0
POINT
  8
5
  6
CONTINUOUS
 62
6
 10
19.5000000000
 20
-48.7245888453
  0
POINT
  8
5
  6
CONTINUOUS
 62
6
 10
19.5000000000
 20
-53.7245888453
  0
POINT
  8
5
  6
CONTINUOUS
 62
6
 10
19.5000000000
 20
-58.7245888453
  0
POINT
  8
5
  6
CONTINUOUS
 62
6
 10
94.5000000000
 20
-58.7245888453
  0
POINT
  8
5
  6
CONTINUOUS
 62
6
 10
94.5000000000
 20
-53.7245888453
  0
POINT
  8
5
  6
CONTINUOUS
 62
6
 10
94.5000000000
 20
-48.7245888453
  0
POINT
  8
5
  6
CONTINUOUS
 62
6
 10
94.5000000000
 20
-43.7245888453
  0
POINT
  8
5
  6
CONTINUOUS
 62
6
 10
25.5000000000
 20
-43.7245888453
  0
POINT
  8
5
  6
CONTINUOUS
 62
6
 10
25.5000000000
 20
-48.7245888453
  0
POINT
  8
5
  6
CONTINUOUS
 62
6
 10
25.5000000000
 20
-53.7245888453
  0
POINT
  8
5
  6
CONTINUOUS
 62
6
 10
25.5000000000
 20
-58.7245888453
  0
INSERT
  8
3
  6
CONTINUOUS
 62
5
  2
BALN1
 10
110.9395553908
 20
197.7445137344
  0
INSERT
  8
3
  6
CONTINUOUS
 62
5
  2
BALN2
 10
130.9399894366
 20
211.8393700363
  0
INSERT
  8
3
  6
CONTINUOUS
 62
5
  2
BALN3
 10
173.9105182328
 20
197.3525214537
  0
INSERT
  8
3
  6
CONTINUOUS
 62
5
  2
BALN4
 10
193.9105182328
 20
197.3525214537
  0
INSERT
  8
3
  6
CONTINUOUS
 62
5
  2
BALN5
 10
205.2240678788
 20
195.9771255586
  0
TEXT
  8
5
  6
CONTINUOUS
 62
7
 10
348.653069
 20
22.742557
 40
4.200000
  1
Panel Interface
 41
0.641296
 50
0.000000
 51
0.000000
 72
   5
 73
   0
 11
375.264269
 21
22.742557
  0
TEXT
  8
5
  6
CONTINUOUS
 62
7
 10
348.653069
 20
18.542557
 40
4.200000
  1
Type:MCON-001-068*****
 41
0.790666
 50
0.000000
 51
0.000000
 72
   5
 73
   0
 11
397.037069
 21
18.542557
  0
TEXT
  8
5
  6
CONTINUOUS
 62
7
 10
348.653069
 20
14.342557
 40
4.200000
  1
                      仕様図　1/2
 41
0.558184
 50
0.000000
 51
0.000000
 72
   5
 73
   0
 11
398.494469
 21
14.342557
  0
TEXT
  8
5
  6
CONTINUOUS
 62
7
 10
349.684277
 20
-315.724589
 40
6.000000
  1
M0051A068C
 41
0.765697
 50
0.000000
 51
0.000000
 72
   5
 73
   0
 11
379.684277
 21
-315.724589
  0
LINE
  8
5
  6
CONTINUOUS
 62
6
 10
310.9077307347
 20
-53.5697931239
 11
310.9077307347
 21
-48.5697931239
  0
LINE
  8
5
  6
CONTINUOUS
 62
6
 10
310.9077307347
 20
-48.5697931239
 11
315.9077307347
 21
-48.5697931239
  0
LINE
  8
5
  6
CONTINUOUS
 62
6
 10
315.9077307347
 20
-48.5697931239
 11
335.9077307347
 21
-48.5697931239
  0
LINE
  8
5
  6
CONTINUOUS
 62
6
 10
335.9077307347
 20
-48.5697931239
 11
375.9077307347
 21
-48.5697931239
  0
LINE
  8
5
  6
CONTINUOUS
 62
6
 10
375.9077307347
 20
-48.5697931239
 11
390.9077307347
 21
-48.5697931239
  0
LINE
  8
5
  6
CONTINUOUS
 62
6
 10
390.9077307347
 20
-48.5697931239
 11
395.9077307347
 21
-48.5697931239
  0
LINE
  8
5
  6
CONTINUOUS
 62
6
 10
395.9077307347
 20
-48.5697931239
 11
395.9077307347
 21
-53.5697931239
  0
LINE
  8
5
  6
CONTINUOUS
 62
6
 10
395.9077307347
 20
-53.5697931239
 11
390.9077307347
 21
-53.5697931239
  0
LINE
  8
5
  6
CONTINUOUS
 62
6
 10
390.9077307347
 20
-53.5697931239
 11
375.9077307347
 21
-53.5697931239
  0
LINE
  8
5
  6
CONTINUOUS
 62
6
 10
375.9077307347
 20
-53.5697931239
 11
335.9077307347
 21
-53.5697931239
  0
LINE
  8
5
  6
CONTINUOUS
 62
6
 10
335.9077307347
 20
-53.5697931239
 11
315.9077307347
 21
-53.5697931239
  0
LINE
  8
5
  6
CONTINUOUS
 62
6
 10
315.9077307347
 20
-53.5697931239
 11
310.9077307347
 21
-53.5697931239
  0
LINE
  8
5
  6
CONTINUOUS
 62
6
 10
315.9077307347
 20
-48.5697931239
 11
315.9077307347
 21
-53.5697931239
  0
LINE
  8
5
  6
CONTINUOUS
 62
6
 10
335.9077307347
 20
-48.5697931239
 11
335.9077307347
 21
-53.5697931239
  0
LINE
  8
5
  6
CONTINUOUS
 62
6
 10
375.9077307347
 20
-48.5697931239
 11
375.9077307347
 21
-53.5697931239
  0
LINE
  8
5
  6
CONTINUOUS
 62
6
 10
390.9077307347
 20
-48.5697931239
 11
390.9077307347
 21
-53.5697931239
  0
TEXT
  8
5
  6
CONTINUOUS
 62
7
 10
311.107731
 20
-52.219793
 40
2.300000
  1
項番
 41
0.921659
 50
0.000000
 51
0.000000
 72
   5
 73
   0
 11
315.707731
 21
-52.219793
  0
TEXT
  8
5
  6
CONTINUOUS
 62
7
 10
319.907731
 20
-52.569793
 40
3.000000
  1
品　　名
 41
0.886918
 50
0.000000
 51
0.000000
 72
   5
 73
   0
 11
331.907731
 21
-52.569793
  0
TEXT
  8
5
  6
CONTINUOUS
 62
7
 10
337.907731
 20
-52.569793
 40
3.000000
  1
定  格 / 型  番 / 材　質
 41
0.815217
 50
0.000000
 51
0.000000
 72
   5
 73
   0
 11
373.907731
 21
-52.569793
  0
TEXT
  8
5
  6
CONTINUOUS
 62
7
 10
377.407731
 20
-52.569793
 40
3.000000
  1
メーカー
 41
0.886918
 50
0.000000
 51
0.000000
 72
   5
 73
   0
 11
389.407731
 21
-52.569793
  0
TEXT
  8
5
  6
CONTINUOUS
 62
7
 10
391.107731
 20
-52.219793
 40
2.300000
  1
数量
 41
0.921659
 50
0.000000
 51
0.000000
 72
   5
 73
   0
 11
395.707731
 21
-52.219793
  0
LINE
  8
5
  6
CONTINUOUS
 62
6
 10
310.9077307347
 20
-58.5697931239
 11
310.9077307347
 21
-53.5697931239
  0
LINE
  8
5
  6
CONTINUOUS
 62
6
 10
310.9077307347
 20
-53.5697931239
 11
315.9077307347
 21
-53.5697931239
  0
LINE
  8
5
  6
CONTINUOUS
 62
6
 10
315.9077307347
 20
-53.5697931239
 11
335.9077307347
 21
-53.5697931239
  0
LINE
  8
5
  6
CONTINUOUS
 62
6
 10
335.9077307347
 20
-53.5697931239
 11
375.9077307347
 21
-53.5697931239
  0
LINE
  8
5
  6
CONTINUOUS
 62
6
 10
375.9077307347
 20
-53.5697931239
 11
390.9077307347
 21
-53.5697931239
  0
LINE
  8
5
  6
CONTINUOUS
 62
6
 10
390.9077307347
 20
-53.5697931239
 11
395.9077307347
 21
-53.5697931239
  0
LINE
  8
5
  6
CONTINUOUS
 62
6
 10
395.9077307347
 20
-53.5697931239
 11
395.9077307347
 21
-58.5697931239
  0
LINE
  8
5
  6
CONTINUOUS
 62
6
 10
395.9077307347
 20
-58.5697931239
 11
390.9077307347
 21
-58.5697931239
  0
LINE
  8
5
  6
CONTINUOUS
 62
6
 10
390.9077307347
 20
-58.5697931239
 11
375.9077307347
 21
-58.5697931239
  0
LINE
  8
5
  6
CONTINUOUS
 62
6
 10
375.9077307347
 20
-58.5697931239
 11
335.9077307347
 21
-58.5697931239
  0
LINE
  8
5
  6
CONTINUOUS
 62
6
 10
335.9077307347
 20
-58.5697931239
 11
315.9077307347
 21
-58.5697931239
  0
LINE
  8
5
  6
CONTINUOUS
 62
6
 10
315.9077307347
 20
-58.5697931239
 11
300.9077307347
 21
-58.5697931239
  0
LINE
  8
5
  6
CONTINUOUS
 62
6
 10
315.9077307347
 20
-53.5697931239
 11
315.9077307347
 21
-58.5697931239
  0
LINE
  8
5
  6
CONTINUOUS
 62
6
 10
335.9077307347
 20
-53.5697931239
 11
335.9077307347
 21
-58.5697931239
  0
LINE
  8
5
  6
CONTINUOUS
 62
6
 10
375.9077307347
 20
-53.5697931239
 11
375.9077307347
 21
-58.5697931239
  0
LINE
  8
5
  6
CONTINUOUS
 62
6
 10
390.9077307347
 20
-53.5697931239
 11
390.9077307347
 21
-58.5697931239
  0
TEXT
  8
5
  6
CONTINUOUS
 62
7
 10
312.657731
 20
-57.569793
 40
3.000000
  1
8
 41
1.000000
 50
0.000000
 51
0.000000
 72
   5
 73
   0
 11
314.157731
 21
-57.569793
  0
TEXT
  8
5
  6
CONTINUOUS
 62
7
 10
316.907731
 20
-57.569793
 40
3.000000
  1
ﾊﾟﾈﾙ
 41
0.796813
 50
0.000000
 51
0.000000
 72
   5
 73
   0
 11
322.907731
 21
-57.569793
  0
TEXT
  8
5
  6
CONTINUOUS
 62
7
 10
336.907731
 20
-58.069793
 40
4.000000
  1
M0051B068A
 41
0.765697
 50
0.000000
 51
0.000000
 72
   5
 73
   0
 11
356.907731
 21
-58.069793
  0
TEXT
  8
5
  6
CONTINUOUS
 62
7
 10
392.532731
 20
-57.819793
 40
3.500000
  1
1
 41
1.000000
 50
0.000000
 51
0.000000
 72
   5
 73
   0
 11
394.282731
 21
-57.819793
  0
LINE
  8
5
  6
CONTINUOUS
 62
6
 10
395.9077307347
 20
-63.5697931239
 11
390.9077307347
 21
-63.5697931239
  0
LINE
  8
5
  6
CONTINUOUS
 62
6
 10
390.9077307347
 20
-63.5697931239
 11
375.9077307347
 21
-63.5697931239
  0
LINE
  8
5
  6
CONTINUOUS
 62
6
 10
375.9077307347
 20
-63.5697931239
 11
335.9077307347
 21
-63.5697931239
  0
LINE
  8
5
  6
CONTINUOUS
 62
6
 10
335.9077307347
 20
-63.5697931239
 11
315.9077307347
 21
-63.5697931239
  0
LINE
  8
5
  6
CONTINUOUS
 62
6
 10
300.9077307347
 20
-63.5697931239
 11
315.9077307347
 21
-63.5697931239
  0
TEXT
  8
5
  6
CONTINUOUS
 62
7
 10
311.907731
 20
-62.569793
 40
3.000000
  1
--
 41
0.854701
 50
0.000000
 51
0.000000
 72
   5
 73
   0
 11
314.907731
 21
-62.569793
  0
TEXT
  8
5
  6
CONTINUOUS
 62
7
 10
311.907731
 20
-67.569793
 40
3.000000
  1
--
 41
0.854701
 50
0.000000
 51
0.000000
 72
   5
 73
   0
 11
314.907731
 21
-67.569793
  0
TEXT
  8
5
  6
CONTINUOUS
 62
7
 10
316.907731
 20
-62.569793
 40
3.000000
  1
USB3.0 A
 41
0.770713
 50
0.000000
 51
0.000000
 72
   5
 73
   0
 11
328.907731
 21
-62.569793
  0
TEXT
  8
5
  6
CONTINUOUS
 62
7
 10
316.907731
 20
-67.569793
 40
3.000000
  1
USB2.0 B
 41
0.770713
 50
0.000000
 51
0.000000
 72
   5
 73
   0
 11
328.907731
 21
-67.569793
  0
TEXT
  8
5
  6
CONTINUOUS
 62
7
 10
336.907731
 20
-67.819793
 40
3.500000
  1
8741194 (8741248)
 41
0.757576
 50
0.000000
 51
0.000000
 72
   5
 73
   0
 11
366.657731
 21
-67.819793
  0
TEXT
  8
5
  6
CONTINUOUS
 62
7
 10
391.657731
 20
-62.819793
 40
3.500000
  1
--
 41
0.854701
 50
0.000000
 51
0.000000
 72
   5
 73
   0
 11
395.157731
 21
-62.819793
  0
LINE
  8
5
  6
CONTINUOUS
 62
6
 10
310.9077307347
 20
-63.5697931239
 11
310.9077307347
 21
-58.5697931239
  0
LINE
  8
5
  6
CONTINUOUS
 62
6
 10
310.9077307347
 20
-68.5697931239
 11
310.9077307347
 21
-63.5697931239
  0
LINE
  8
5
  6
CONTINUOUS
 62
6
 10
315.9077307347
 20
-58.5697931239
 11
315.9077307347
 21
-63.5697931239
  0
LINE
  8
5
  6
CONTINUOUS
 62
6
 10
315.9077307347
 20
-63.5697931239
 11
315.9077307347
 21
-68.5697931239
  0
LINE
  8
5
  6
CONTINUOUS
 62
6
 10
335.9077307347
 20
-58.5697931239
 11
335.9077307347
 21
-63.5697931239
  0
LINE
  8
5
  6
CONTINUOUS
 62
6
 10
335.9077307347
 20
-63.5697931239
 11
335.9077307347
 21
-68.5697931239
  0
LINE
  8
5
  6
CONTINUOUS
 62
6
 10
375.9077307347
 20
-58.5697931239
 11
375.9077307347
 21
-63.5697931239
  0
LINE
  8
5
  6
CONTINUOUS
 62
6
 10
375.9077307347
 20
-63.5697931239
 11
375.9077307347
 21
-68.5697931239
  0
LINE
  8
5
  6
CONTINUOUS
 62
6
 10
390.9077307347
 20
-58.5697931239
 11
390.9077307347
 21
-63.5697931239
  0
LINE
  8
5
  6
CONTINUOUS
 62
6
 10
390.9077307347
 20
-63.5697931239
 11
390.9077307347
 21
-68.5697931239
  0
LINE
  8
5
  6
CONTINUOUS
 62
6
 10
395.9077307347
 20
-58.5697931239
 11
395.9077307347
 21
-63.5697931239
  0
LINE
  8
5
  6
CONTINUOUS
 62
6
 10
395.9077307347
 20
-63.5697931239
 11
395.9077307347
 21
-68.5697931239
  0
TEXT
  8
5
  6
CONTINUOUS
 62
7
 10
336.907731
 20
-62.819793
 40
3.500000
  1
8741197 (8741235)
 41
0.757576
 50
0.000000
 51
0.000000
 72
   5
 73
   0
 11
366.657731
 21
-62.819793
  0
LINE
  8
5
  6
CONTINUOUS
 62
6
 10
300.9077307347
 20
-53.5697931239
 11
300.9077307347
 21
-48.5697931239
  0
LINE
  8
5
  6
CONTINUOUS
 62
6
 10
300.9077307347
 20
-48.5697931239
 11
310.9077307347
 21
-48.5697931239
  0
LINE
  8
5
  6
CONTINUOUS
 62
6
 10
310.9077307347
 20
-53.5697931239
 11
305.9077307347
 21
-53.5697931239
  0
LINE
  8
5
  6
CONTINUOUS
 62
6
 10
310.9077307347
 20
-48.5697931239
 11
310.9077307347
 21
-53.5697931239
  0
TEXT
  8
5
  6
CONTINUOUS
 62
7
 10
303.445950
 20
-52.569793
 40
3.000000
  1
型番
 41
0.921659
 50
0.000000
 51
0.000000
 72
   5
 73
   0
 11
309.445950
 21
-52.569793
  0
LINE
  8
5
  6
CONTINUOUS
 62
6
 10
300.9077307347
 20
-58.5697931239
 11
300.9077307347
 21
-53.5697931239
  0
LINE
  8
5
  6
CONTINUOUS
 62
6
 10
300.9077307347
 20
-53.5697931239
 11
310.9077307347
 21
-53.5697931239
  0
LINE
  8
5
  6
CONTINUOUS
 62
6
 10
310.9077307347
 20
-53.5697931239
 11
310.9077307347
 21
-58.5697931239
  0
TEXT
  8
5
  6
CONTINUOUS
 62
7
 10
304.445950
 20
-58.069793
 40
4.000000
  1
--
 41
0.854701
 50
0.000000
 51
0.000000
 72
   5
 73
   0
 11
308.445950
 21
-58.069793
  0
LINE
  8
5
  6
CONTINUOUS
 62
6
 10
300.9077307347
 20
-63.5697931239
 11
300.9077307347
 21
-58.5697931239
  0
LINE
  8
5
  6
CONTINUOUS
 62
6
 10
300.9077307347
 20
-68.5697931239
 11
300.9077307347
 21
-63.5697931239
  0
LINE
  8
5
  6
CONTINUOUS
 62
6
 10
310.9077307347
 20
-58.5697931239
 11
310.9077307347
 21
-63.5697931239
  0
LINE
  8
5
  6
CONTINUOUS
 62
6
 10
310.9077307347
 20
-63.5697931239
 11
310.9077307347
 21
-68.5697931239
  0
LINE
  8
5
  6
CONTINUOUS
 62
6
 10
395.9077307347
 20
-68.5697931239
 11
390.9077307347
 21
-68.5697931239
  0
LINE
  8
5
  6
CONTINUOUS
 62
6
 10
390.9077307347
 20
-68.5697931239
 11
375.9077307347
 21
-68.5697931239
  0
LINE
  8
5
  6
CONTINUOUS
 62
6
 10
375.9077307347
 20
-68.5697931239
 11
335.9077307347
 21
-68.5697931239
  0
LINE
  8
5
  6
CONTINUOUS
 62
6
 10
335.9077307347
 20
-68.5697931239
 11
315.9077307347
 21
-68.5697931239
  0
LINE
  8
5
  6
CONTINUOUS
 62
6
 10
315.9077307347
 20
-68.5697931239
 11
310.9077307347
 21
-68.5697931239
  0
LINE
  8
5
  6
CONTINUOUS
 62
6
 10
310.9077307347
 20
-68.5697931239
 11
300.9077307347
 21
-68.5697931239
  0
TEXT
  8
5
  6
CONTINUOUS
 62
7
 10
376.907731
 20
-57.569793
 40
3.000000
  1
MADOKA
 41
0.779221
 50
0.000000
 51
0.000000
 72
   5
 73
   0
 11
385.907731
 21
-57.569793
  0
TEXT
  8
5
  6
CONTINUOUS
 62
7
 10
376.907731
 20
-67.569793
 40
3.000000
  1
RS-Pro
 41
0.779221
 50
0.000000
 51
0.000000
 72
   5
 73
   0
 11
385.907731
 21
-67.569793
  0
TEXT
  8
5
  6
CONTINUOUS
 62
7
 10
318.923576
 20
227.946368
 40
3.000000
  1
XLR規格
 41
0.837321
 50
0.000000
 51
0.000000
 72
   5
 73
   0
 11
329.423576
 21
227.946368
  0
TEXT
  8
5
  6
CONTINUOUS
 62
7
 10
338.923576
 20
227.946368
 40
3.000000
  1
選択部品 仕様図2/2参照
 41
0.828604
 50
0.000000
 51
0.000000
 72
   5
 73
   0
 11
371.338576
 21
227.946368
  0
TEXT
  8
5
  6
CONTINUOUS
 62
7
 10
378.923576
 20
227.946368
 40
3.000000
  1
--
 41
0.854701
 50
0.000000
 51
0.000000
 72
   5
 73
   0
 11
381.923576
 21
227.946368
  0
TEXT
  8
5
  6
CONTINUOUS
 62
7
 10
378.923576
 20
222.946368
 40
3.000000
  1
--
 41
0.854701
 50
0.000000
 51
0.000000
 72
   5
 73
   0
 11
381.923576
 21
222.946368
  0
TEXT
  8
5
  6
CONTINUOUS
 62
7
 10
393.673576
 20
222.696368
 40
3.500000
  1
--
 41
0.854701
 50
0.000000
 51
0.000000
 72
   5
 73
   0
 11
397.173576
 21
222.696368
  0
TEXT
  8
5
  6
CONTINUOUS
 62
7
 10
393.673576
 20
227.696368
 40
3.500000
  1
--
 41
0.854701
 50
0.000000
 51
0.000000
 72
   5
 73
   0
 11
397.173576
 21
227.696368
  0
LINE
  8
4
  6
CONTINUOUS
 62
3
 10
319.0572849682
 20
172.6619743881
 11
372.0572849682
 21
172.6619743881
  0
LINE
  8
4
  6
CONTINUOUS
 62
3
 10
372.0572849682
 20
172.6619743881
 11
372.0572849682
 21
64.6619743881
  0
LINE
  8
4
  6
CONTINUOUS
 62
3
 10
319.0572849682
 20
64.6619743881
 11
319.0572849682
 21
172.6619743881
  0
LINE
  8
4
  6
CONTINUOUS
 62
3
 10
372.0572849682
 20
64.6619743881
 11
319.0572849682
 21
64.6619743881
  0
CIRCLE
  8
4
  6
CONTINUOUS
 62
3
 10
325.5572849682
 20
177.1619743881
 40
1.5000000000
  0
CIRCLE
  8
4
  6
CONTINUOUS
 62
3
 10
365.5572849682
 20
177.1619743881
 40
1.5000000000
  0
CIRCLE
  8
4
  6
CONTINUOUS
 62
3
 10
325.5572849682
 20
60.1619743881
 40
1.5000000000
  0
CIRCLE
  8
4
  6
CONTINUOUS
 62
3
 10
365.5572849682
 20
60.1619743881
 40
1.5000000000
  0
CIRCLE
  8
4
  6
CONTINUOUS
 62
3
 10
345.5572849682
 20
177.1619743881
 40
2.2500000000
  0
CIRCLE
  8
4
  6
CONTINUOUS
 62
3
 10
345.5572849682
 20
60.1619743881
 40
2.2500000000
  0
DIMENSION
  8
4
  6
CONTINUOUS
 62
5
  2
*D7
 10
325.5572849682
 20
183.8554232121
 11
322.3072849682
 21
186.6054232121
  70
0
 13
319.0572849682
 23
172.6619743881
 14
325.5572849682
 24
175.6619743881
 50
0.000000
  0
DIMENSION
  8
4
  6
CONTINUOUS
 62
5
  2
*D8
 10
345.5572849682
 20
183.8554232121
 11
335.5572849682
 21
186.6054232121
  70
0
 13
325.5572849682
 23
175.6619743881
 14
345.5572849682
 24
174.9119743881
 50
0.000000
  0
DIMENSION
  8
4
  6
CONTINUOUS
 62
5
  2
*D9
 10
365.5572849682
 20
183.8554232121
 11
355.5572849682
 21
186.6054232121
  70
0
 13
345.5572849682
 23
174.9119743881
 14
365.5572849682
 24
175.6619743881
 50
0.000000
  0
DIMENSION
  8
4
  6
CONTINUOUS
 62
5
  2
*D10
 10
372.0572849682
 20
183.8554232121
 11
368.8072849682
 21
186.6054232121
  70
0
 13
365.5572849682
 23
175.6619743881
 14
372.0572849682
 24
172.6619743881
 50
0.000000
  0
DIMENSION
  8
4
  6
CONTINUOUS
 62
5
  2
*D11
 10
372.0572849682
 20
190.8554232121
 11
345.5572849682
 21
193.6054232121
  70
0
 13
319.0572849682
 23
172.6619743881
 14
372.0572849682
 24
172.6619743881
 50
0.000000
  0
DIMENSION
  8
4
  6
CONTINUOUS
 62
5
  2
*D12
 10
324.7064153436
 20
178.3972965655
 11
327.8220422934
 21
178.7219020332
  70
3
 15
326.4081545928
 25
175.9266522108
  0
DIMENSION
  8
4
  6
CONTINUOUS
 62
5
  2
*D13
 10
344.1560871308
 20
178.9224131461
 11
347.7089323390
 21
178.8745495228
  70
3
 15
346.9584828056
 25
175.4015356302
  0
TEXT
  8
4
  6
CONTINUOUS
 62
7
 10
322.885309
 20
36.456062
 40
5.000000
  1
パネルカット図
 41
0.872818
 50
0.000000
 51
0.000000
 72
   5
 73
   0
 11
357.885309
 21
36.456062
  0
TEXT
  8
4
  6
CONTINUOUS
 62
7
 10
322.885309
 20
31.456062
 40
5.000000
  1
推奨板厚 t=1.6以上
 41
0.827967
 50
0.000000
 51
0.000000
 72
   5
 73
   0
 11
367.885309
 21
31.456062
  0
LINE
  8
1
  6
HIDDEN
 62
1
 10
380.0572849682
 20
44.4119743881
 11
380.0572849682
 21
199.9119743881
  0
LINE
  8
1
  6
HIDDEN
 62
1
 10
380.0572849682
 20
199.9119743881
 11
311.0572849682
 21
199.9119743881
  0
LINE
  8
1
  6
HIDDEN
 62
1
 10
311.0572849682
 20
199.9119743881
 11
311.0572849682
 21
44.4119743881
  0
LINE
  8
1
  6
HIDDEN
 62
1
 10
380.0572849682
 20
44.4119743881
 11
311.0572849682
 21
44.4119743881
  0
DIMENSION
  8
1
  6
CONTINUOUS
 62
5
  2
*D14
 10
306.8614186851
 20
64.6619743881
 11
304.3614186851
 21
62.4119743881
  70
0
 13
367.0572849682
 23
60.1619743881
 14
319.0572849682
 24
64.6619743881
 50
90.000000
  0
DIMENSION
  8
1
  6
CONTINUOUS
 62
5
  2
*D15
 10
306.8614186851
 20
172.6619743881
 11
304.1114186851
 21
118.6619743881
  70
0
 13
319.0572849682
 23
64.6619743881
 14
319.0572849682
 24
172.6619743881
 50
90.000000
  0
DIMENSION
  8
1
  6
CONTINUOUS
 62
5
  2
*D16
 10
306.8614186851
 20
177.1619743881
 11
304.3614186851
 21
174.9119743881
  70
0
 13
319.0572849682
 23
172.6619743881
 14
367.0572849682
 24
177.1619743881
 50
90.000000
  0
DIMENSION
  8
1
  6
CONTINUOUS
 62
5
  2
*D17
 10
299.8614186851
 20
177.1619743881
 11
297.1114186851
 21
118.6619743881
  70
0
 13
367.0572849682
 23
60.1619743881
 14
367.0572849682
 24
177.1619743881
 50
90.000000
  0
DIMENSION
  8
1
  6
CONTINUOUS
 62
5
  2
*D18
 10
387.7005190311
 20
64.6619743881
 11
384.9505190311
 21
54.5369743881
  70
0
 13
380.0572849682
 23
44.4119743881
 14
372.0572849682
 24
64.6619743881
 50
90.000000
  0
DIMENSION
  8
1
  6
CONTINUOUS
 62
5
  2
*D19
 10
387.7005190311
 20
172.6619743881
 11
384.9505190311
 21
118.6619743881
  70
0
 13
372.0572849682
 23
64.6619743881
 14
372.0572849682
 24
172.6619743881
 50
90.000000
  0
DIMENSION
  8
1
  6
CONTINUOUS
 62
5
  2
*D20
 10
387.7005190311
 20
199.9119743881
 11
384.9505190311
 21
186.2869743881
  70
0
 13
372.0572849682
 23
172.6619743881
 14
380.0572849682
 24
199.9119743881
 50
90.000000
  0
INSERT
  8
1
  6
CONTINUOUS
 62
5
  2
LTEX1
 10
323.9116262976
 20
44.4119743881
  0
LINE
  8
1
  6
CONTINUOUS
 62
7
 10
76.2456447311
 20
-176.3400865140
 11
24.2456447311
 21
-176.3400865140
  0
LINE
  8
1
  6
CONTINUOUS
 62
7
 10
77.7456447311
 20
-299.3400865140
 11
77.7456447311
 21
-177.8400865140
  0
LINE
  8
1
  6
CONTINUOUS
 62
7
 10
24.2456447311
 20
-300.8400865140
 11
76.2456447311
 21
-300.8400865140
  0
LINE
  8
1
  6
CONTINUOUS
 62
7
 10
22.7456447311
 20
-299.3400865140
 11
22.7456447311
 21
-177.8400865140
  0
LINE
  8
1
  6
CONTINUOUS
 62
7
 10
79.7456447311
 20
-301.8400865140
 11
79.7456447311
 21
-175.3400865140
  0
LINE
  8
1
  6
CONTINUOUS
 62
7
 10
78.7456447311
 20
-174.3400865140
 11
21.7456447311
 21
-174.3400865140
  0
LINE
  8
1
  6
CONTINUOUS
 62
7
 10
20.7456447311
 20
-301.8400865140
 11
20.7456447311
 21
-175.3400865140
  0
LINE
  8
1
  6
CONTINUOUS
 62
7
 10
21.7456447311
 20
-302.8400865140
 11
78.7456447311
 21
-302.8400865140
  0
ARC
  8
1
  6
CONTINUOUS
 62
7
 10
24.2456447311
 20
-177.8400865140
 40
1.5000000000
 50
90.0000000000
 51
180.0000000000
  0
ARC
  8
1
  6
CONTINUOUS
 62
7
 10
76.2456447311
 20
-177.8400865140
 40
1.5000000000
 50
0.0000000000
 51
90.0000000000
  0
ARC
  8
1
  6
CONTINUOUS
 62
7
 10
76.2456447311
 20
-299.3400865140
 40
1.5000000000
 50
270.0000000000
 51
0.0000000000
  0
ARC
  8
1
  6
CONTINUOUS
 62
7
 10
24.2456447311
 20
-299.3400865140
 40
1.5000000000
 50
180.0000000000
 51
270.0000000000
  0
CIRCLE
  8
1
  6
HIDDEN
 62
3
 10
30.2456447311
 20
-180.0900865140
 40
1.7500000000
  0
CIRCLE
  8
1
  6
HIDDEN
 62
3
 10
30.2456447311
 20
-180.0900865140
 40
3.2500000000
  0
CIRCLE
  8
1
  6
HIDDEN
 62
3
 10
70.2456447311
 20
-180.0900865140
 40
1.7500000000
  0
CIRCLE
  8
1
  6
HIDDEN
 62
3
 10
70.2456447311
 20
-180.0900865140
 40
3.2500000000
  0
LINE
  8
1
  6
HIDDEN
 62
3
 10
73.2456447311
 20
-185.0900865140
 11
76.2456447311
 21
-185.0900865140
  0
LINE
  8
1
  6
HIDDEN
 62
3
 10
25.2456447311
 20
-185.0900865140
 11
73.2456447311
 21
-185.0900865140
  0
CIRCLE
  8
1
  6
HIDDEN
 62
3
 10
30.2456447311
 20
-297.0900865140
 40
1.7500000000
  0
CIRCLE
  8
1
  6
HIDDEN
 62
3
 10
30.2456447311
 20
-297.0900865140
 40
3.2500000000
  0
CIRCLE
  8
1
  6
HIDDEN
 62
3
 10
70.2456447311
 20
-297.0900865140
 40
1.7500000000
  0
CIRCLE
  8
1
  6
HIDDEN
 62
3
 10
70.2456447311
 20
-297.0900865140
 40
3.2500000000
  0
CIRCLE
  8
1
  6
HIDDEN
 62
3
 10
50.2456447311
 20
-180.0900865140
 40
2.0000000000
  0
LINE
  8
1
  6
CONTINUOUS
 62
7
 10
81.7456447311
 20
-301.8400865140
 11
81.7456447311
 21
-175.3400865140
  0
LINE
  8
1
  6
CONTINUOUS
 62
7
 10
78.7456447311
 20
-172.3400865140
 11
21.7456447311
 21
-172.3400865140
  0
LINE
  8
1
  6
CONTINUOUS
 62
7
 10
18.7456447311
 20
-301.8400865140
 11
18.7456447311
 21
-175.3400865140
  0
LINE
  8
1
  6
CONTINUOUS
 62
7
 10
21.7456447311
 20
-304.8400865140
 11
78.7456447311
 21
-304.8400865140
  0
LINE
  8
1
  6
CONTINUOUS
 62
7
 10
83.7456447311
 20
-311.8400865140
 11
83.7456447311
 21
-167.9650865140
  0
LINE
  8
1
  6
CONTINUOUS
 62
7
 10
16.7456447311
 20
-167.9650865140
 11
16.7456447311
 21
-311.8400865140
  0
LINE
  8
1
  6
CONTINUOUS
 62
7
 10
84.7456447311
 20
-312.8400865140
 11
84.7456447311
 21
-157.3400865140
  0
LINE
  8
1
  6
CONTINUOUS
 62
7
 10
15.7456447311
 20
-157.3400865140
 11
15.7456447311
 21
-312.8400865140
  0
ARC
  8
1
  6
CONTINUOUS
 62
7
 10
21.7456447311
 20
-175.3400865140
 40
1.0000000000
 50
90.0000000000
 51
180.0000000000
  0
ARC
  8
1
  6
CONTINUOUS
 62
7
 10
78.7456447311
 20
-175.3400865140
 40
1.0000000000
 50
0.0000000000
 51
90.0000000000
  0
ARC
  8
1
  6
CONTINUOUS
 62
7
 10
78.7456447311
 20
-301.8400865140
 40
1.0000000000
 50
270.0000000000
 51
0.0000000000
  0
ARC
  8
1
  6
CONTINUOUS
 62
7
 10
21.7456447311
 20
-301.8400865140
 40
1.0000000000
 50
180.0000000000
 51
270.0000000000
  0
LINE
  8
1
  6
HIDDEN
 62
3
 10
76.2456447311
 20
-195.0900865140
 11
76.2456447311
 21
-185.0900865140
  0
ARC
  8
1
  6
CONTINUOUS
 62
7
 10
21.7456447311
 20
-175.3400865140
 40
3.0000000000
 50
90.0000000000
 51
180.0000000000
  0
ARC
  8
1
  6
CONTINUOUS
 62
7
 10
78.7456447311
 20
-175.3400865140
 40
3.0000000000
 50
0.0000000000
 51
90.0000000000
  0
ARC
  8
1
  6
CONTINUOUS
 62
7
 10
78.7456447311
 20
-301.8400865140
 40
3.0000000000
 50
270.0000000000
 51
0.0000000000
  0
ARC
  8
1
  6
CONTINUOUS
 62
7
 10
21.7456447311
 20
-301.8400865140
 40
3.0000000000
 50
180.0000000000
 51
270.0000000000
  0
LINE
  8
1
  6
DASHDOT
 62
1
 10
86.7456447311
 20
-164.3400865140
 11
13.7456447311
 21
-164.3400865140
  0
LINE
  8
1
  6
CONTINUOUS
 62
7
 10
84.7456447311
 20
-312.8400865140
 11
15.7456447311
 21
-312.8400865140
  0
LINE
  8
1
  6
CONTINUOUS
 62
7
 10
16.7456447311
 20
-311.8400865140
 11
83.7456447311
 21
-311.8400865140
  0
LINE
  8
1
  6
CONTINUOUS
 62
7
 10
16.7456447311
 20
-170.3400865140
 11
16.7456447311
 21
-158.3400865140
  0
LINE
  8
1
  6
CONTINUOUS
 62
7
 10
16.7456447311
 20
-158.3400865140
 11
21.7456447311
 21
-158.3400865140
  0
LINE
  8
1
  6
CONTINUOUS
 62
7
 10
21.7456447311
 20
-158.3400865140
 11
21.7456447311
 21
-170.3400865140
  0
LINE
  8
1
  6
CONTINUOUS
 62
7
 10
21.7456447311
 20
-170.3400865140
 11
16.7456447311
 21
-170.3400865140
  0
LINE
  8
1
  6
CONTINUOUS
 62
7
 10
83.7456447311
 20
-158.3400865140
 11
78.7456447311
 21
-158.3400865140
  0
LINE
  8
1
  6
CONTINUOUS
 62
7
 10
78.7456447311
 20
-158.3400865140
 11
78.7456447311
 21
-170.3400865140
  0
LINE
  8
1
  6
CONTINUOUS
 62
7
 10
78.7456447311
 20
-170.3400865140
 11
83.7456447311
 21
-170.3400865140
  0
LINE
  8
1
  6
CONTINUOUS
 62
7
 10
83.7456447311
 20
-170.3400865140
 11
83.7456447311
 21
-158.3400865140
  0
LINE
  8
1
  6
CONTINUOUS
 62
7
 10
78.7456447311
 20
-170.3400865140
 11
78.7456447311
 21
-171.3400865140
  0
LINE
  8
1
  6
CONTINUOUS
 62
7
 10
78.7456447311
 20
-171.3400865140
 11
21.7456447311
 21
-171.3400865140
  0
LINE
  8
1
  6
CONTINUOUS
 62
7
 10
21.7456447311
 20
-171.3400865140
 11
21.7456447311
 21
-170.3400865140
  0
LINE
  8
1
  6
CONTINUOUS
 62
7
 10
84.7456447311
 20
-157.3400865140
 11
15.7456447311
 21
-157.3400865140
  0
CIRCLE
  8
1
  6
HIDDEN
 62
3
 10
50.2456447311
 20
-180.0900865140
 40
1.6500000000
  0
CIRCLE
  8
1
  6
HIDDEN
 62
3
 10
50.2456447311
 20
-297.0900865140
 40
2.0000000000
  0
CIRCLE
  8
1
  6
HIDDEN
 62
3
 10
50.2456447311
 20
-297.0900865140
 40
1.6500000000
  0
CIRCLE
  8
1
  6
HIDDEN
 62
7
 10
50.2456447311
 20
-308.3400865140
 40
2.0000000000
  0
CIRCLE
  8
1
  6
CONTINUOUS
 62
7
 10
50.2456447311
 20
-308.3400865140
 40
1.6500000000
  0
LINE
  8
1
  6
HIDDEN
 62
3
 10
76.2456447311
 20
-195.0900865140
 11
73.2456447311
 21
-195.0900865140
  0
LINE
  8
1
  6
HIDDEN
 62
3
 10
73.2456447311
 20
-195.0900865140
 11
73.2456447311
 21
-185.0900865140
  0
LINE
  8
1
  6
HIDDEN
 62
3
 10
24.2456447311
 20
-292.0900865140
 11
27.2456447311
 21
-292.0900865140
  0
LINE
  8
1
  6
HIDDEN
 62
3
 10
75.2456447311
 20
-292.0900865140
 11
27.2456447311
 21
-292.0900865140
  0
LINE
  8
1
  6
HIDDEN
 62
3
 10
24.2456447311
 20
-282.0900865140
 11
27.2456447311
 21
-282.0900865140
  0
LINE
  8
3
  6
HIDDEN
 62
3
 10
27.2456447311
 20
-282.0900865140
 11
27.2456447311
 21
-292.0900865140
  0
LINE
  8
1
  6
HIDDEN
 62
3
 10
24.2456447311
 20
-282.0900865140
 11
24.2456447311
 21
-292.0900865140
  0
LINE
  8
1
  6
HIDDEN
 62
3
 10
76.2456447311
 20
-291.0900865140
 11
76.2456447311
 21
-195.0900865140
  0
LINE
  8
1
  6
HIDDEN
 62
3
 10
24.2456447311
 20
-186.0900865140
 11
24.2456447311
 21
-282.0900865140
  0
ARC
  8
1
  6
HIDDEN
 62
3
 10
25.2456447311
 20
-186.0900865140
 40
1.0000000000
 50
90.0000000000
 51
180.0000000000
  0
ARC
  8
1
  6
HIDDEN
 62
3
 10
75.2456447311
 20
-291.0900865140
 40
1.0000000000
 50
270.0000000000
 51
0.0000000000
  0
LINE
  8
3
  6
CONTINUOUS
 62
7
 10
77.4956447311
 20
-299.5900865138
 11
77.4956447311
 21
-177.5900865142
  0
LINE
  8
3
  6
CONTINUOUS
 62
7
 10
76.4956447311
 20
-176.5900865142
 11
23.9956447311
 21
-176.5900865139
  0
LINE
  8
3
  6
CONTINUOUS
 62
7
 10
22.9956447311
 20
-299.5900865142
 11
22.9956447311
 21
-177.5900865138
  0
LINE
  8
3
  6
CONTINUOUS
 62
7
 10
76.4956447311
 20
-300.5900865138
 11
23.9956447311
 21
-300.5900865142
  0
LINE
  8
3
  6
CONTINUOUS
 62
7
 10
23.9956447311
 20
-176.5900865139
 11
22.9956447311
 21
-177.5900865138
  0
LINE
  8
3
  6
CONTINUOUS
 62
7
 10
77.4956447311
 20
-177.5900865142
 11
76.4956447311
 21
-176.5900865142
  0
LINE
  8
3
  6
CONTINUOUS
 62
7
 10
77.4956447311
 20
-299.5900865138
 11
76.4956447311
 21
-300.5900865138
  0
LINE
  8
3
  6
CONTINUOUS
 62
7
 10
23.9956447311
 20
-300.5900865142
 11
22.9956447311
 21
-299.5900865142
  0
CIRCLE
  8
3
  6
CONTINUOUS
 62
6
 10
50.2456447311
 20
-180.0900865141
 40
3.9000000000
  0
LINE
  8
3
  6
CONTINUOUS
 62
6
 10
48.5220719520
 20
-178.3665137350
 11
51.9692175103
 21
-181.8136592932
  0
LINE
  8
3
  6
CONTINUOUS
 62
6
 10
48.5220719520
 20
-181.8136592932
 11
51.9692175103
 21
-178.3665137350
  0
CIRCLE
  8
3
  6
CONTINUOUS
 62
6
 10
50.2456447311
 20
-180.0900865141
 40
3.4125000000
  0
CIRCLE
  8
3
  6
CONTINUOUS
 62
6
 10
50.2456447311
 20
-297.0900865140
 40
3.9000000000
  0
LINE
  8
3
  6
CONTINUOUS
 62
6
 10
48.5220719520
 20
-295.3665137349
 11
51.9692175103
 21
-298.8136592932
  0
LINE
  8
3
  6
CONTINUOUS
 62
6
 10
48.5220719520
 20
-298.8136592932
 11
51.9692175103
 21
-295.3665137349
  0
CIRCLE
  8
3
  6
CONTINUOUS
 62
6
 10
50.2456447311
 20
-297.0900865140
 40
3.4125000000
  0
LINE
  8
3
  6
CONTINUOUS
 62
7
 10
77.4956447311
 20
-299.5900865138
 11
77.4956447311
 21
-177.5900865142
  0
LINE
  8
3
  6
CONTINUOUS
 62
7
 10
77.4956447311
 20
-177.5900865142
 11
76.4956447311
 21
-176.5900865142
  0
LINE
  8
3
  6
CONTINUOUS
 62
7
 10
76.4956447311
 20
-176.5900865142
 11
23.9956447311
 21
-176.5900865139
  0
LINE
  8
3
  6
CONTINUOUS
 62
7
 10
23.9956447311
 20
-176.5900865139
 11
22.9956447311
 21
-177.5900865138
  0
LINE
  8
3
  6
CONTINUOUS
 62
7
 10
22.9956447311
 20
-299.5900865142
 11
22.9956447311
 21
-177.5900865138
  0
LINE
  8
3
  6
CONTINUOUS
 62
7
 10
23.9956447311
 20
-300.5900865142
 11
22.9956447311
 21
-299.5900865142
  0
LINE
  8
3
  6
CONTINUOUS
 62
7
 10
76.4956447311
 20
-300.5900865138
 11
23.9956447311
 21
-300.5900865142
  0
LINE
  8
3
  6
CONTINUOUS
 62
7
 10
77.4956447311
 20
-299.5900865138
 11
76.4956447311
 21
-300.5900865138
  0
LINE
  8
3
  6
CONTINUOUS
 62
7
 10
77.4956447311
 20
-299.5900865138
 11
77.4956447311
 21
-177.5900865142
  0
LINE
  8
3
  6
CONTINUOUS
 62
7
 10
76.4956447311
 20
-176.5900865142
 11
23.9956447311
 21
-176.5900865139
  0
LINE
  8
3
  6
CONTINUOUS
 62
7
 10
22.9956447311
 20
-299.5900865142
 11
22.9956447311
 21
-177.5900865138
  0
LINE
  8
3
  6
CONTINUOUS
 62
7
 10
76.4956447311
 20
-300.5900865138
 11
23.9956447311
 21
-300.5900865142
  0
LINE
  8
3
  6
CONTINUOUS
 62
7
 10
23.9956447311
 20
-176.5900865139
 11
22.9956447311
 21
-177.5900865138
  0
LINE
  8
3
  6
CONTINUOUS
 62
7
 10
77.4956447311
 20
-177.5900865142
 11
76.4956447311
 21
-176.5900865142
  0
LINE
  8
3
  6
CONTINUOUS
 62
7
 10
77.4956447311
 20
-299.5900865138
 11
76.4956447311
 21
-300.5900865138
  0
LINE
  8
3
  6
CONTINUOUS
 62
7
 10
23.9956447311
 20
-300.5900865142
 11
22.9956447311
 21
-299.5900865142
  0
INSERT
  8
3
  6
CONTINUOUS
 62
7
  2
S3
 10
9.0000000000
 20
-58.7245888453
  0
LINE
  8
3
  6
CONTINUOUS
 62
4
 10
178.4105182328
 20
188.1525214537
 11
178.4105182328
 21
168.1525214537
  0
LINE
  8
3
  6
CONTINUOUS
 62
4
 10
209.4105182328
 20
168.1525214537
 11
209.4105182328
 21
188.1525214537
  0
LINE
  8
3
  6
CONTINUOUS
 62
4
 10
206.4105182328
 20
165.1525214537
 11
181.4105182328
 21
165.1525214537
  0
POINT
  8
3
  6
CONTINUOUS
 62
4
 10
193.9105182328
 20
178.1525214537
  0
CIRCLE
  8
3
  6
CONTINUOUS
 62
4
 10
193.9105182328
 20
178.1525214537
 40
12.0000000000
  0
CIRCLE
  8
3
  6
CONTINUOUS
 62
4
 10
181.9105182328
 20
168.6525214537
 40
1.5000000000
  0
CIRCLE
  8
3
  6
CONTINUOUS
 62
4
 10
205.9105182328
 20
187.6525214537
 40
1.5000000000
  0
ARC
  8
3
  6
CONTINUOUS
 62
4
 10
181.4105182328
 20
168.1525214537
 40
3.0000000000
 50
180.0000000000
 51
270.0000000000
  0
ARC
  8
3
  6
CONTINUOUS
 62
4
 10
181.4105182328
 20
188.1525214537
 40
3.0000000000
 50
90.0000000000
 51
180.0000000000
  0
ARC
  8
3
  6
CONTINUOUS
 62
4
 10
206.4105182328
 20
188.1525214537
 40
3.0000000000
 50
0.0000000000
 51
90.0000000000
  0
ARC
  8
3
  6
CONTINUOUS
 62
4
 10
206.4105182328
 20
168.1525214537
 40
3.0000000000
 50
270.0000000000
 51
0.0000000000
  0
LINE
  8
3
  6
CONTINUOUS
 62
4
 10
206.4105182328
 20
191.1525214537
 11
181.4105182328
 21
191.1525214537
  0
LINE
  8
3
  6
CONTINUOUS
 62
4
 10
178.4105182328
 20
161.9525214537
 11
178.4105182328
 21
141.9525214537
  0
LINE
  8
3
  6
CONTINUOUS
 62
4
 10
178.4105182328
 20
135.7525214537
 11
178.4105182328
 21
115.7525214537
  0
LINE
  8
3
  6
CONTINUOUS
 62
4
 10
178.4105182328
 20
109.5525214537
 11
178.4105182328
 21
89.5525214537
  0
LINE
  8
3
  6
CONTINUOUS
 62
4
 10
209.4105182328
 20
141.9525214537
 11
209.4105182328
 21
161.9525214537
  0
LINE
  8
3
  6
CONTINUOUS
 62
4
 10
209.4105182328
 20
115.7525214537
 11
209.4105182328
 21
135.7525214537
  0
LINE
  8
3
  6
CONTINUOUS
 62
4
 10
209.4105182328
 20
89.5525214537
 11
209.4105182328
 21
109.5525214537
  0
LINE
  8
3
  6
CONTINUOUS
 62
4
 10
206.4105182328
 20
138.9525214537
 11
181.4105182328
 21
138.9525214537
  0
LINE
  8
3
  6
CONTINUOUS
 62
4
 10
206.4105182328
 20
112.7525214537
 11
181.4105182328
 21
112.7525214537
  0
LINE
  8
3
  6
CONTINUOUS
 62
4
 10
206.4105182328
 20
86.5525214537
 11
181.4105182328
 21
86.5525214537
  0
POINT
  8
3
  6
CONTINUOUS
 62
4
 10
193.9105182328
 20
151.9525214537
  0
POINT
  8
3
  6
CONTINUOUS
 62
4
 10
193.9105182328
 20
125.7525214537
  0
POINT
  8
3
  6
CONTINUOUS
 62
4
 10
193.9105182328
 20
99.5525214537
  0
CIRCLE
  8
3
  6
CONTINUOUS
 62
4
 10
193.9105182328
 20
151.9525214537
 40
12.0000000000
  0
CIRCLE
  8
3
  6
CONTINUOUS
 62
4
 10
193.9105182328
 20
125.7525214537
 40
12.0000000000
  0
CIRCLE
  8
3
  6
CONTINUOUS
 62
4
 10
193.9105182328
 20
99.5525214537
 40
12.0000000000
  0
CIRCLE
  8
3
  6
CONTINUOUS
 62
4
 10
181.9105182328
 20
142.4525214537
 40
1.5000000000
  0
CIRCLE
  8
3
  6
CONTINUOUS
 62
4
 10
181.9105182328
 20
116.2525214537
 40
1.5000000000
  0
CIRCLE
  8
3
  6
CONTINUOUS
 62
4
 10
181.9105182328
 20
90.0525214537
 40
1.5000000000
  0
CIRCLE
  8
3
  6
CONTINUOUS
 62
4
 10
205.9105182328
 20
161.4525214537
 40
1.5000000000
  0
CIRCLE
  8
3
  6
CONTINUOUS
 62
4
 10
205.9105182328
 20
135.2525214537
 40
1.5000000000
  0
CIRCLE
  8
3
  6
CONTINUOUS
 62
4
 10
205.9105182328
 20
109.0525214537
 40
1.5000000000
  0
ARC
  8
3
  6
CONTINUOUS
 62
4
 10
181.4105182328
 20
141.9525214537
 40
3.0000000000
 50
180.0000000000
 51
270.0000000000
  0
ARC
  8
3
  6
CONTINUOUS
 62
4
 10
181.4105182328
 20
115.7525214537
 40
3.0000000000
 50
180.0000000000
 51
270.0000000000
  0
ARC
  8
3
  6
CONTINUOUS
 62
4
 10
181.4105182328
 20
89.5525214537
 40
3.0000000000
 50
180.0000000000
 51
270.0000000000
  0
ARC
  8
3
  6
CONTINUOUS
 62
4
 10
181.4105182328
 20
161.9525214537
 40
3.0000000000
 50
90.0000000000
 51
180.0000000000
  0
ARC
  8
3
  6
CONTINUOUS
 62
4
 10
181.4105182328
 20
135.7525214537
 40
3.0000000000
 50
90.0000000000
 51
180.0000000000
  0
ARC
  8
3
  6
CONTINUOUS
 62
4
 10
181.4105182328
 20
109.5525214537
 40
3.0000000000
 50
90.0000000000
 51
180.0000000000
  0
ARC
  8
3
  6
CONTINUOUS
 62
4
 10
206.4105182328
 20
161.9525214537
 40
3.0000000000
 50
0.0000000000
 51
90.0000000000
  0
ARC
  8
3
  6
CONTINUOUS
 62
4
 10
206.4105182328
 20
135.7525214537
 40
3.0000000000
 50
0.0000000000
 51
90.0000000000
  0
ARC
  8
3
  6
CONTINUOUS
 62
4
 10
206.4105182328
 20
109.5525214537
 40
3.0000000000
 50
0.0000000000
 51
90.0000000000
  0
ARC
  8
3
  6
CONTINUOUS
 62
4
 10
206.4105182328
 20
141.9525214537
 40
3.0000000000
 50
270.0000000000
 51
0.0000000000
  0
ARC
  8
3
  6
CONTINUOUS
 62
4
 10
206.4105182328
 20
115.7525214537
 40
3.0000000000
 50
270.0000000000
 51
0.0000000000
  0
ARC
  8
3
  6
CONTINUOUS
 62
4
 10
206.4105182328
 20
89.5525214537
 40
3.0000000000
 50
270.0000000000
 51
0.0000000000
  0
LINE
  8
3
  6
CONTINUOUS
 62
4
 10
206.4105182328
 20
164.9525214537
 11
181.4105182328
 21
164.9525214537
  0
LINE
  8
3
  6
CONTINUOUS
 62
4
 10
206.4105182328
 20
138.7525214537
 11
181.4105182328
 21
138.7525214537
  0
LINE
  8
3
  6
CONTINUOUS
 62
4
 10
206.4105182328
 20
112.5525214537
 11
181.4105182328
 21
112.5525214537
  0
TEXT
  8
5
  6
CONTINUOUS
 62
7
 10
318.923576
 20
222.946368
 40
3.000000
  1
XLR規格
 41
0.837321
 50
0.000000
 51
0.000000
 72
   5
 73
   0
 11
329.423576
 21
222.946368
  0
TEXT
  8
5
  6
CONTINUOUS
 62
7
 10
338.923576
 20
222.946368
 40
3.000000
  1
選択部品 仕様図2/2参照
 41
0.828604
 50
0.000000
 51
0.000000
 72
   5
 73
   0
 11
371.338576
 21
222.946368
  0
TEXT
  8
5
  6
CONTINUOUS
 62
7
 10
318.923576
 20
217.946368
 40
3.000000
  1
XLR規格
 41
0.837321
 50
0.000000
 51
0.000000
 72
   5
 73
   0
 11
329.423576
 21
217.946368
  0
TEXT
  8
5
  6
CONTINUOUS
 62
7
 10
338.923576
 20
217.946368
 40
3.000000
  1
選択部品 仕様図2/2参照
 41
0.828604
 50
0.000000
 51
0.000000
 72
   5
 73
   0
 11
371.338576
 21
217.946368
  0
TEXT
  8
3
  6
CONTINUOUS
 62
7
 10
190.910518
 20
175.152521
 40
6.000000
  1
⑨
 41
1.000000
 50
0.000000
 51
0.000000
 72
   5
 73
   0
 11
196.910518
 21
175.152521
  0
TEXT
  8
3
  6
CONTINUOUS
 62
7
 10
190.910518
 20
148.952521
 40
6.000000
  1
⑩
 41
1.000000
 50
0.000000
 51
0.000000
 72
   5
 73
   0
 11
196.910518
 21
148.952521
  0
TEXT
  8
3
  6
CONTINUOUS
 62
7
 10
190.910518
 20
122.752521
 40
6.000000
  1
⑪
 41
1.000000
 50
0.000000
 51
0.000000
 72
   5
 73
   0
 11
196.910518
 21
122.752521
  0
TEXT
  8
3
  6
CONTINUOUS
 62
7
 10
190.910518
 20
96.552521
 40
6.000000
  1
⑫
 41
1.000000
 50
0.000000
 51
0.000000
 72
   5
 73
   0
 11
196.910518
 21
96.552521
  0
LINE
  8
3
  6
CONTINUOUS
 62
7
 10
204.0784975347
 20
-55.4457295069
 11
204.0784975347
 21
-75.4457295069
  0
LINE
  8
3
  6
CONTINUOUS
 62
7
 10
232.0784975347
 20
-52.4457295069
 11
207.0784975347
 21
-52.4457295069
  0
LINE
  8
3
  6
CONTINUOUS
 62
7
 10
235.0784975347
 20
-75.4457295069
 11
235.0784975347
 21
-55.4457295069
  0
LINE
  8
3
  6
CONTINUOUS
 62
7
 10
232.0784975347
 20
-78.4457295069
 11
207.0784975347
 21
-78.4457295069
  0
POINT
  8
3
  6
CONTINUOUS
 62
7
 10
219.5784975347
 20
-65.4457295069
  0
ARC
  8
3
  6
CONTINUOUS
 62
7
 10
207.0784975347
 20
-75.4457295069
 40
3.0000000000
 50
180.0000000000
 51
270.0000000000
  0
ARC
  8
3
  6
CONTINUOUS
 62
7
 10
207.0784975347
 20
-55.4457295069
 40
3.0000000000
 50
90.0000000000
 51
180.0000000000
  0
ARC
  8
3
  6
CONTINUOUS
 62
7
 10
232.0784975347
 20
-55.4457295069
 40
3.0000000000
 50
0.0000000000
 51
90.0000000000
  0
ARC
  8
3
  6
CONTINUOUS
 62
7
 10
232.0784975347
 20
-75.4457295069
 40
3.0000000000
 50
270.0000000000
 51
0.0000000000
  0
LINE
  8
3
  6
DASHDOT
 62
1
 10
202.0784975347
 20
-65.4457295069
 11
237.0784975347
 21
-65.4457295069
  0
LINE
  8
3
  6
DASHDOT
 62
1
 10
219.5784975347
 20
-80.4457295069
 11
219.5784975347
 21
-50.4457295069
  0
LINE
  8
3
  6
CONTINUOUS
 62
4
 10
34.7456447311
 20
-189.2900865140
 11
34.7456447311
 21
-209.2900865140
  0
LINE
  8
3
  6
CONTINUOUS
 62
4
 10
65.7456447311
 20
-209.2900865140
 11
65.7456447311
 21
-189.2900865140
  0
LINE
  8
3
  6
CONTINUOUS
 62
4
 10
62.7456447311
 20
-212.2900865140
 11
37.7456447311
 21
-212.2900865140
  0
POINT
  8
3
  6
CONTINUOUS
 62
4
 10
50.2456447311
 20
-199.2900865140
  0
CIRCLE
  8
3
  6
CONTINUOUS
 62
4
 10
50.2456447311
 20
-199.2900865140
 40
12.0000000000
  0
CIRCLE
  8
3
  6
CONTINUOUS
 62
4
 10
38.2456447311
 20
-208.7900865140
 40
1.5000000000
  0
CIRCLE
  8
3
  6
CONTINUOUS
 62
4
 10
62.2456447311
 20
-189.7900865140
 40
1.5000000000
  0
ARC
  8
3
  6
CONTINUOUS
 62
4
 10
37.7456447311
 20
-209.2900865140
 40
3.0000000000
 50
180.0000000000
 51
270.0000000000
  0
ARC
  8
3
  6
CONTINUOUS
 62
4
 10
37.7456447311
 20
-189.2900865140
 40
3.0000000000
 50
90.0000000000
 51
180.0000000000
  0
ARC
  8
3
  6
CONTINUOUS
 62
4
 10
62.7456447311
 20
-189.2900865140
 40
3.0000000000
 50
0.0000000000
 51
90.0000000000
  0
ARC
  8
3
  6
CONTINUOUS
 62
4
 10
62.7456447311
 20
-209.2900865140
 40
3.0000000000
 50
270.0000000000
 51
0.0000000000
  0
LINE
  8
3
  6
CONTINUOUS
 62
4
 10
62.7456447311
 20
-186.2900865140
 11
37.7456447311
 21
-186.2900865140
  0
LINE
  8
3
  6
CONTINUOUS
 62
4
 10
34.7456447311
 20
-215.4900865140
 11
34.7456447311
 21
-235.4900865140
  0
LINE
  8
3
  6
CONTINUOUS
 62
4
 10
34.7456447311
 20
-241.6900865140
 11
34.7456447311
 21
-261.6900865140
  0
LINE
  8
3
  6
CONTINUOUS
 62
4
 10
34.7456447311
 20
-267.8900865140
 11
34.7456447311
 21
-287.8900865140
  0
LINE
  8
3
  6
CONTINUOUS
 62
4
 10
65.7456447311
 20
-235.4900865140
 11
65.7456447311
 21
-215.4900865140
  0
LINE
  8
3
  6
CONTINUOUS
 62
4
 10
65.7456447311
 20
-261.6900865140
 11
65.7456447311
 21
-241.6900865140
  0
LINE
  8
3
  6
CONTINUOUS
 62
4
 10
65.7456447311
 20
-287.8900865140
 11
65.7456447311
 21
-267.8900865140
  0
LINE
  8
3
  6
CONTINUOUS
 62
4
 10
62.7456447311
 20
-238.4900865140
 11
37.7456447311
 21
-238.4900865140
  0
LINE
  8
3
  6
CONTINUOUS
 62
4
 10
62.7456447311
 20
-264.6900865140
 11
37.7456447311
 21
-264.6900865140
  0
LINE
  8
3
  6
CONTINUOUS
 62
4
 10
62.7456447311
 20
-290.8900865140
 11
37.7456447311
 21
-290.8900865140
  0
POINT
  8
3
  6
CONTINUOUS
 62
4
 10
50.2456447311
 20
-225.4900865140
  0
POINT
  8
3
  6
CONTINUOUS
 62
4
 10
50.2456447311
 20
-251.6900865140
  0
POINT
  8
3
  6
CONTINUOUS
 62
4
 10
50.2456447311
 20
-277.8900865140
  0
CIRCLE
  8
3
  6
CONTINUOUS
 62
4
 10
50.2456447311
 20
-225.4900865140
 40
12.0000000000
  0
CIRCLE
  8
3
  6
CONTINUOUS
 62
4
 10
50.2456447311
 20
-251.6900865140
 40
12.0000000000
  0
CIRCLE
  8
3
  6
CONTINUOUS
 62
4
 10
50.2456447311
 20
-277.8900865140
 40
12.0000000000
  0
CIRCLE
  8
3
  6
CONTINUOUS
 62
4
 10
38.2456447311
 20
-234.9900865140
 40
1.5000000000
  0
CIRCLE
  8
3
  6
CONTINUOUS
 62
4
 10
38.2456447311
 20
-261.1900865140
 40
1.5000000000
  0
CIRCLE
  8
3
  6
CONTINUOUS
 62
4
 10
38.2456447311
 20
-287.3900865140
 40
1.5000000000
  0
CIRCLE
  8
3
  6
CONTINUOUS
 62
4
 10
62.2456447311
 20
-215.9900865140
 40
1.5000000000
  0
CIRCLE
  8
3
  6
CONTINUOUS
 62
4
 10
62.2456447311
 20
-242.1900865140
 40
1.5000000000
  0
CIRCLE
  8
3
  6
CONTINUOUS
 62
4
 10
62.2456447311
 20
-268.3900865140
 40
1.5000000000
  0
ARC
  8
3
  6
CONTINUOUS
 62
4
 10
37.7456447311
 20
-235.4900865140
 40
3.0000000000
 50
180.0000000000
 51
270.0000000000
  0
ARC
  8
3
  6
CONTINUOUS
 62
4
 10
37.7456447311
 20
-261.6900865140
 40
3.0000000000
 50
180.0000000000
 51
270.0000000000
  0
ARC
  8
3
  6
CONTINUOUS
 62
4
 10
37.7456447311
 20
-287.8900865140
 40
3.0000000000
 50
180.0000000000
 51
270.0000000000
  0
ARC
  8
3
  6
CONTINUOUS
 62
4
 10
37.7456447311
 20
-215.4900865140
 40
3.0000000000
 50
90.0000000000
 51
180.0000000000
  0
ARC
  8
3
  6
CONTINUOUS
 62
4
 10
37.7456447311
 20
-241.6900865140
 40
3.0000000000
 50
90.0000000000
 51
180.0000000000
  0
ARC
  8
3
  6
CONTINUOUS
 62
4
 10
37.7456447311
 20
-267.8900865140
 40
3.0000000000
 50
90.0000000000
 51
180.0000000000
  0
ARC
  8
3
  6
CONTINUOUS
 62
4
 10
62.7456447311
 20
-215.4900865140
 40
3.0000000000
 50
0.0000000000
 51
90.0000000000
  0
ARC
  8
3
  6
CONTINUOUS
 62
4
 10
62.7456447311
 20
-241.6900865140
 40
3.0000000000
 50
0.0000000000
 51
90.0000000000
  0
ARC
  8
3
  6
CONTINUOUS
 62
4
 10
62.7456447311
 20
-267.8900865140
 40
3.0000000000
 50
0.0000000000
 51
90.0000000000
  0
ARC
  8
3
  6
CONTINUOUS
 62
4
 10
62.7456447311
 20
-235.4900865140
 40
3.0000000000
 50
270.0000000000
 51
0.0000000000
  0
ARC
  8
3
  6
CONTINUOUS
 62
4
 10
62.7456447311
 20
-261.6900865140
 40
3.0000000000
 50
270.0000000000
 51
0.0000000000
  0
ARC
  8
3
  6
CONTINUOUS
 62
4
 10
62.7456447311
 20
-287.8900865140
 40
3.0000000000
 50
270.0000000000
 51
0.0000000000
  0
LINE
  8
3
  6
CONTINUOUS
 62
4
 10
62.7456447311
 20
-212.4900865140
 11
37.7456447311
 21
-212.4900865140
  0
LINE
  8
3
  6
CONTINUOUS
 62
4
 10
62.7456447311
 20
-238.6900865140
 11
37.7456447311
 21
-238.6900865140
  0
LINE
  8
3
  6
CONTINUOUS
 62
4
 10
62.7456447311
 20
-264.8900865140
 11
37.7456447311
 21
-264.8900865140
  0
TEXT
  8
3
  6
CONTINUOUS
 62
7
 10
47.245645
 20
-202.290087
 40
6.000000
  1
⑨
 41
1.000000
 50
0.000000
 51
0.000000
 72
   5
 73
   0
 11
53.245645
 21
-202.290087
  0
TEXT
  8
3
  6
CONTINUOUS
 62
7
 10
47.245645
 20
-228.490087
 40
6.000000
  1
⑩
 41
1.000000
 50
0.000000
 51
0.000000
 72
   5
 73
   0
 11
53.245645
 21
-228.490087
  0
TEXT
  8
3
  6
CONTINUOUS
 62
7
 10
47.245645
 20
-254.690087
 40
6.000000
  1
⑪
 41
1.000000
 50
0.000000
 51
0.000000
 72
   5
 73
   0
 11
53.245645
 21
-254.690087
  0
TEXT
  8
3
  6
CONTINUOUS
 62
7
 10
47.245645
 20
-280.890087
 40
6.000000
  1
⑫
 41
1.000000
 50
0.000000
 51
0.000000
 72
   5
 73
   0
 11
53.245645
 21
-280.890087
  0
TEXT
  8
5
  6
CONTINUOUS
 62
7
 10
318.923576
 20
212.946368
 40
3.000000
  1
XLR規格
 41
0.837321
 50
0.000000
 51
0.000000
 72
   5
 73
   0
 11
329.423576
 21
212.946368
  0
TEXT
  8
5
  6
CONTINUOUS
 62
7
 10
338.923576
 20
212.946368
 40
3.000000
  1
選択部品 仕様図2/2参照
 41
0.828604
 50
0.000000
 51
0.000000
 72
   5
 73
   0
 11
371.338576
 21
212.946368
  0
TEXT
  8
5
  6
CONTINUOUS
 62
7
 10
311.907731
 20
-77.569793
 40
3.000000
  1
--
 41
0.854701
 50
0.000000
 51
0.000000
 72
   5
 73
   0
 11
314.907731
 21
-77.569793
  0
TEXT
  8
5
  6
CONTINUOUS
 62
7
 10
316.907731
 20
-77.469793
 40
2.800000
  1
RJ45 CAT6 STP
 41
0.761124
 50
0.000000
 51
0.000000
 72
   5
 73
   0
 11
335.107731
 21
-77.469793
  0
TEXT
  8
5
  6
CONTINUOUS
 62
7
 10
336.907731
 20
-77.819793
 40
3.500000
  1
8741229 (8741267)
 41
0.757576
 50
0.000000
 51
0.000000
 72
   5
 73
   0
 11
366.657731
 21
-77.819793
  0
LINE
  8
5
  6
CONTINUOUS
 62
6
 10
310.9077307347
 20
-73.5697931240
 11
310.9077307347
 21
-68.5697931240
  0
LINE
  8
5
  6
CONTINUOUS
 62
6
 10
315.9077307347
 20
-68.5697931240
 11
315.9077307347
 21
-73.5697931240
  0
LINE
  8
5
  6
CONTINUOUS
 62
6
 10
335.9077307347
 20
-68.5697931240
 11
335.9077307347
 21
-73.5697931240
  0
LINE
  8
5
  6
CONTINUOUS
 62
6
 10
375.9077307347
 20
-68.5697931240
 11
375.9077307347
 21
-73.5697931240
  0
LINE
  8
5
  6
CONTINUOUS
 62
6
 10
390.9077307347
 20
-68.5697931240
 11
390.9077307347
 21
-73.5697931240
  0
LINE
  8
5
  6
CONTINUOUS
 62
6
 10
395.9077307347
 20
-68.5697931240
 11
395.9077307347
 21
-73.5697931240
  0
LINE
  8
5
  6
CONTINUOUS
 62
6
 10
300.9077307347
 20
-73.5697931240
 11
300.9077307347
 21
-68.5697931239
  0
LINE
  8
5
  6
CONTINUOUS
 62
6
 10
310.9077307347
 20
-68.5697931240
 11
310.9077307347
 21
-73.5697931240
  0
LINE
  8
5
  6
CONTINUOUS
 62
6
 10
395.9077307347
 20
-73.5697931240
 11
390.9077307347
 21
-73.5697931240
  0
LINE
  8
5
  6
CONTINUOUS
 62
6
 10
390.9077307347
 20
-73.5697931240
 11
375.9077307347
 21
-73.5697931240
  0
LINE
  8
5
  6
CONTINUOUS
 62
6
 10
375.9077307347
 20
-73.5697931240
 11
335.9077307347
 21
-73.5697931240
  0
LINE
  8
5
  6
CONTINUOUS
 62
6
 10
335.9077307347
 20
-73.5697931240
 11
315.9077307347
 21
-73.5697931240
  0
LINE
  8
5
  6
CONTINUOUS
 62
6
 10
315.9077307347
 20
-73.5697931240
 11
310.9077307347
 21
-73.5697931240
  0
LINE
  8
5
  6
CONTINUOUS
 62
6
 10
310.9077307347
 20
-73.5697931240
 11
300.9077307347
 21
-73.5697931240
  0
TEXT
  8
5
  6
CONTINUOUS
 62
7
 10
376.907731
 20
-77.569793
 40
3.000000
  1
RS-Pro
 41
0.779221
 50
0.000000
 51
0.000000
 72
   5
 73
   0
 11
385.907731
 21
-77.569793
  0
TEXT
  8
5
  6
CONTINUOUS
 62
7
 10
311.907731
 20
-82.569793
 40
3.000000
  1
--
 41
0.854701
 50
0.000000
 51
0.000000
 72
   5
 73
   0
 11
314.907731
 21
-82.569793
  0
TEXT
  8
5
  6
CONTINUOUS
 62
7
 10
316.907731
 20
-82.569793
 40
3.000000
  1
HDMI
 41
0.796813
 50
0.000000
 51
0.000000
 72
   5
 73
   0
 11
322.907731
 21
-82.569793
  0
TEXT
  8
5
  6
CONTINUOUS
 62
7
 10
336.907731
 20
-82.819793
 40
3.500000
  1
8741188 (8741232)
 41
0.757576
 50
0.000000
 51
0.000000
 72
   5
 73
   0
 11
366.657731
 21
-82.819793
  0
LINE
  8
5
  6
CONTINUOUS
 62
6
 10
310.9077307347
 20
-78.5697931240
 11
310.9077307347
 21
-73.5697931240
  0
LINE
  8
5
  6
CONTINUOUS
 62
6
 10
315.9077307347
 20
-73.5697931240
 11
315.9077307347
 21
-78.5697931240
  0
LINE
  8
5
  6
CONTINUOUS
 62
6
 10
335.9077307347
 20
-73.5697931240
 11
335.9077307347
 21
-78.5697931240
  0
LINE
  8
5
  6
CONTINUOUS
 62
6
 10
375.9077307347
 20
-73.5697931240
 11
375.9077307347
 21
-78.5697931240
  0
LINE
  8
5
  6
CONTINUOUS
 62
6
 10
390.9077307347
 20
-73.5697931240
 11
390.9077307347
 21
-78.5697931240
  0
LINE
  8
5
  6
CONTINUOUS
 62
6
 10
395.9077307347
 20
-73.5697931240
 11
395.9077307347
 21
-78.5697931240
  0
LINE
  8
5
  6
CONTINUOUS
 62
6
 10
300.9077307347
 20
-78.5697931240
 11
300.9077307347
 21
-73.5697931240
  0
LINE
  8
5
  6
CONTINUOUS
 62
6
 10
310.9077307347
 20
-73.5697931240
 11
310.9077307347
 21
-78.5697931240
  0
LINE
  8
5
  6
CONTINUOUS
 62
6
 10
395.9077307347
 20
-78.5697931240
 11
390.9077307347
 21
-78.5697931240
  0
LINE
  8
5
  6
CONTINUOUS
 62
6
 10
390.9077307347
 20
-78.5697931240
 11
375.9077307347
 21
-78.5697931240
  0
LINE
  8
5
  6
CONTINUOUS
 62
6
 10
375.9077307347
 20
-78.5697931240
 11
335.9077307347
 21
-78.5697931240
  0
LINE
  8
5
  6
CONTINUOUS
 62
6
 10
335.9077307347
 20
-78.5697931240
 11
315.9077307347
 21
-78.5697931240
  0
LINE
  8
5
  6
CONTINUOUS
 62
6
 10
315.9077307347
 20
-78.5697931240
 11
310.9077307347
 21
-78.5697931240
  0
LINE
  8
5
  6
CONTINUOUS
 62
6
 10
310.9077307347
 20
-78.5697931240
 11
300.9077307347
 21
-78.5697931240
  0
TEXT
  8
5
  6
CONTINUOUS
 62
7
 10
376.907731
 20
-82.569793
 40
3.000000
  1
RS-Pro
 41
0.779221
 50
0.000000
 51
0.000000
 72
   5
 73
   0
 11
385.907731
 21
-82.569793
  0
TEXT
  8
5
  6
CONTINUOUS
 62
7
 10
311.907731
 20
-87.569793
 40
3.000000
  1
--
 41
0.854701
 50
0.000000
 51
0.000000
 72
   5
 73
   0
 11
314.907731
 21
-87.569793
  0
TEXT
  8
5
  6
CONTINUOUS
 62
7
 10
316.907731
 20
-87.569793
 40
3.000000
  1
ﾌﾞﾗﾝｸﾊﾟﾈﾙ
 41
0.767918
 50
0.000000
 51
0.000000
 72
   5
 73
   0
 11
330.407731
 21
-87.569793
  0
LINE
  8
5
  6
CONTINUOUS
 62
6
 10
310.9077307347
 20
-83.5697931241
 11
310.9077307347
 21
-78.5697931241
  0
LINE
  8
5
  6
CONTINUOUS
 62
6
 10
315.9077307347
 20
-78.5697931241
 11
315.9077307347
 21
-83.5697931241
  0
LINE
  8
5
  6
CONTINUOUS
 62
6
 10
335.9077307347
 20
-78.5697931241
 11
335.9077307347
 21
-83.5697931241
  0
LINE
  8
5
  6
CONTINUOUS
 62
6
 10
375.9077307347
 20
-78.5697931241
 11
375.9077307347
 21
-83.5697931241
  0
LINE
  8
5
  6
CONTINUOUS
 62
6
 10
390.9077307347
 20
-78.5697931241
 11
390.9077307347
 21
-83.5697931241
  0
LINE
  8
5
  6
CONTINUOUS
 62
6
 10
395.9077307347
 20
-78.5697931241
 11
395.9077307347
 21
-83.5697931241
  0
LINE
  8
5
  6
CONTINUOUS
 62
6
 10
300.9077307347
 20
-83.5697931241
 11
300.9077307347
 21
-78.5697931240
  0
LINE
  8
5
  6
CONTINUOUS
 62
6
 10
310.9077307347
 20
-78.5697931241
 11
310.9077307347
 21
-83.5697931241
  0
LINE
  8
5
  6
CONTINUOUS
 62
6
 10
395.9077307347
 20
-83.5697931241
 11
390.9077307347
 21
-83.5697931241
  0
LINE
  8
5
  6
CONTINUOUS
 62
6
 10
390.9077307347
 20
-83.5697931241
 11
375.9077307347
 21
-83.5697931241
  0
LINE
  8
5
  6
CONTINUOUS
 62
6
 10
375.9077307347
 20
-83.5697931241
 11
335.9077307347
 21
-83.5697931241
  0
LINE
  8
5
  6
CONTINUOUS
 62
6
 10
335.9077307347
 20
-83.5697931241
 11
315.9077307347
 21
-83.5697931241
  0
LINE
  8
5
  6
CONTINUOUS
 62
6
 10
315.9077307347
 20
-83.5697931241
 11
310.9077307347
 21
-83.5697931241
  0
LINE
  8
5
  6
CONTINUOUS
 62
6
 10
310.9077307347
 20
-83.5697931241
 11
300.9077307347
 21
-83.5697931241
  0
TEXT
  8
5
  6
CONTINUOUS
 62
7
 10
376.907731
 20
-87.569793
 40
3.000000
  1
ｶﾅﾚ電気
 41
0.837321
 50
0.000000
 51
0.000000
 72
   5
 73
   0
 11
387.407731
 21
-87.569793
  0
TEXT
  8
5
  6
CONTINUOUS
 62
7
 10
311.907731
 20
-92.569793
 40
3.000000
  1
13
 41
0.854701
 50
0.000000
 51
0.000000
 72
   5
 73
   0
 11
314.907731
 21
-92.569793
  0
TEXT
  8
5
  6
CONTINUOUS
 62
7
 10
316.907731
 20
-92.569793
 40
3.000000
  1
ﾋﾞｽ
 41
0.815217
 50
0.000000
 51
0.000000
 72
   5
 73
   0
 11
321.407731
 21
-92.569793
  0
TEXT
  8
5
  6
CONTINUOUS
 62
7
 10
336.907731
 20
-92.769793
 40
3.400000
  1
M3×8 ｻﾗ (M3×8 小ﾜｾﾑｽ)
 41
0.780720
 50
0.000000
 51
0.000000
 72
   5
 73
   0
 11
376.007731
 21
-92.769793
  0
LINE
  8
5
  6
CONTINUOUS
 62
6
 10
310.9077307347
 20
-88.5697931241
 11
310.9077307347
 21
-83.5697931241
  0
LINE
  8
5
  6
CONTINUOUS
 62
6
 10
315.9077307347
 20
-83.5697931241
 11
315.9077307347
 21
-88.5697931241
  0
LINE
  8
5
  6
CONTINUOUS
 62
6
 10
335.9077307347
 20
-83.5697931241
 11
335.9077307347
 21
-88.5697931241
  0
LINE
  8
5
  6
CONTINUOUS
 62
6
 10
375.9077307347
 20
-83.5697931241
 11
375.9077307347
 21
-88.5697931241
  0
LINE
  8
5
  6
CONTINUOUS
 62
6
 10
390.9077307347
 20
-83.5697931241
 11
390.9077307347
 21
-88.5697931241
  0
LINE
  8
5
  6
CONTINUOUS
 62
6
 10
395.9077307347
 20
-83.5697931241
 11
395.9077307347
 21
-88.5697931241
  0
LINE
  8
5
  6
CONTINUOUS
 62
6
 10
300.9077307347
 20
-88.5697931241
 11
300.9077307347
 21
-83.5697931241
  0
LINE
  8
5
  6
CONTINUOUS
 62
6
 10
310.9077307347
 20
-83.5697931241
 11
310.9077307347
 21
-88.5697931241
  0
LINE
  8
5
  6
CONTINUOUS
 62
6
 10
395.9077307347
 20
-88.5697931241
 11
390.9077307347
 21
-88.5697931241
  0
LINE
  8
5
  6
CONTINUOUS
 62
6
 10
390.9077307347
 20
-88.5697931241
 11
375.9077307347
 21
-88.5697931241
  0
LINE
  8
5
  6
CONTINUOUS
 62
6
 10
375.9077307347
 20
-88.5697931241
 11
335.9077307347
 21
-88.5697931241
  0
LINE
  8
5
  6
CONTINUOUS
 62
6
 10
335.9077307347
 20
-88.5697931241
 11
315.9077307347
 21
-88.5697931241
  0
LINE
  8
5
  6
CONTINUOUS
 62
6
 10
315.9077307347
 20
-88.5697931241
 11
310.9077307347
 21
-88.5697931241
  0
LINE
  8
5
  6
CONTINUOUS
 62
6
 10
310.9077307347
 20
-88.5697931241
 11
300.9077307347
 21
-88.5697931241
  0
TEXT
  8
5
  6
CONTINUOUS
 62
7
 10
376.907731
 20
-92.569793
 40
3.000000
  1
--
 41
0.854701
 50
0.000000
 51
0.000000
 72
   5
 73
   0
 11
379.907731
 21
-92.569793
  0
LINE
  8
5
  6
CONTINUOUS
 62
6
 10
310.9077307347
 20
-93.5697931242
 11
310.9077307347
 21
-88.5697931242
  0
LINE
  8
5
  6
CONTINUOUS
 62
6
 10
315.9077307347
 20
-88.5697931242
 11
315.9077307347
 21
-93.5697931242
  0
LINE
  8
5
  6
CONTINUOUS
 62
6
 10
335.9077307347
 20
-88.5697931242
 11
335.9077307347
 21
-93.5697931242
  0
LINE
  8
5
  6
CONTINUOUS
 62
6
 10
375.9077307347
 20
-88.5697931242
 11
375.9077307347
 21
-93.5697931242
  0
LINE
  8
5
  6
CONTINUOUS
 62
6
 10
390.9077307347
 20
-88.5697931242
 11
390.9077307347
 21
-93.5697931242
  0
LINE
  8
5
  6
CONTINUOUS
 62
6
 10
395.9077307347
 20
-88.5697931242
 11
395.9077307347
 21
-93.5697931242
  0
LINE
  8
5
  6
CONTINUOUS
 62
6
 10
300.9077307347
 20
-93.5697931242
 11
300.9077307347
 21
-88.5697931241
  0
LINE
  8
5
  6
CONTINUOUS
 62
6
 10
310.9077307347
 20
-88.5697931242
 11
310.9077307347
 21
-93.5697931242
  0
LINE
  8
5
  6
CONTINUOUS
 62
6
 10
395.9077307347
 20
-93.5697931242
 11
390.9077307347
 21
-93.5697931242
  0
LINE
  8
5
  6
CONTINUOUS
 62
6
 10
390.9077307347
 20
-93.5697931242
 11
375.9077307347
 21
-93.5697931242
  0
LINE
  8
5
  6
CONTINUOUS
 62
6
 10
375.9077307347
 20
-93.5697931242
 11
335.9077307347
 21
-93.5697931242
  0
LINE
  8
5
  6
CONTINUOUS
 62
6
 10
335.9077307347
 20
-93.5697931242
 11
315.9077307347
 21
-93.5697931242
  0
LINE
  8
5
  6
CONTINUOUS
 62
6
 10
315.9077307347
 20
-93.5697931242
 11
310.9077307347
 21
-93.5697931242
  0
LINE
  8
5
  6
CONTINUOUS
 62
6
 10
310.9077307347
 20
-93.5697931242
 11
300.9077307347
 21
-93.5697931242
  0
TEXT
  8
5
  6
CONTINUOUS
 62
7
 10
304.445950
 20
-63.069793
 40
4.000000
  1
UA
 41
0.854701
 50
0.000000
 51
0.000000
 72
   5
 73
   0
 11
308.445950
 21
-63.069793
  0
TEXT
  8
5
  6
CONTINUOUS
 62
7
 10
303.445950
 20
-68.069793
 40
4.000000
  1
UB2
 41
0.815217
 50
0.000000
 51
0.000000
 72
   5
 73
   0
 11
309.445950
 21
-68.069793
  0
INSERT
  8
3
  6
CONTINUOUS
 62
5
  2
BALN6
 10
61.5591943771
 20
-181.4654824090
  0
TEXT
  8
5
  6
CONTINUOUS
 62
7
 10
304.445950
 20
-78.069793
 40
4.000000
  1
RJ
 41
0.854701
 50
0.000000
 51
0.000000
 72
   5
 73
   0
 11
308.445950
 21
-78.069793
  0
TEXT
  8
5
  6
CONTINUOUS
 62
7
 10
304.445950
 20
-83.069793
 40
4.000000
  1
HD
 41
0.854701
 50
0.000000
 51
0.000000
 72
   5
 73
   0
 11
308.445950
 21
-83.069793
  0
TEXT
  8
5
  6
CONTINUOUS
 62
7
 10
304.445950
 20
-88.069793
 40
4.000000
  1
BL
 41
0.854701
 50
0.000000
 51
0.000000
 72
   5
 73
   0
 11
308.445950
 21
-88.069793
  0
TEXT
  8
5
  6
CONTINUOUS
 62
7
 10
376.907731
 20
-62.569793
 40
3.000000
  1
RS-Pro
 41
0.779221
 50
0.000000
 51
0.000000
 72
   5
 73
   0
 11
385.907731
 21
-62.569793
  0
TEXT
  8
3
  6
CONTINUOUS
 62
3
 10
179.901830
 20
268.999231
 40
5.000000
  1
型番仕様
 41
0.886918
 50
0.000000
 51
0.000000
 72
   5
 73
   0
 11
199.901830
 21
268.999231
  0
TEXT
  8
3
  6
CONTINUOUS
 62
3
 10
179.901830
 20
262.999231
 40
5.000000
  1
MCON-001-068 %%uPB%%u %%u**%%u %%u**%%u %%u**%%u %%u**
 41
0.753348
 50
0.000000
 51
0.000000
 72
   5
 73
   0
 11
247.401830
 21
262.999231
  0
TEXT
  8
1
  6
CONTINUOUS
 62
3
 10
249.431309
 20
258.290076
 40
4.000000
  1
⑨ UA:USB3.0 A
 41
0.774336
 50
0.000000
 51
0.000000
 72
   5
 73
   0
 11
277.431309
 21
258.290076
  0
TEXT
  8
1
  6
CONTINUOUS
 62
3
 10
249.431309
 20
253.290076
 40
4.000000
  1
   UB2:USB2.0 B
 41
0.759109
 50
0.000000
 51
0.000000
 72
   5
 73
   0
 11
279.431309
 21
253.290076
  0
TEXT
  8
1
  6
CONTINUOUS
 62
3
 10
249.431309
 20
248.290076
 40
4.000000
  1
   UB3:USB3.0 B
 41
0.759109
 50
0.000000
 51
0.000000
 72
   5
 73
   0
 11
279.431309
 21
248.290076
  0
TEXT
  8
1
  6
CONTINUOUS
 62
3
 10
249.431309
 20
243.290076
 40
4.000000
  1
   RJ:PJ45 CAT6 STP
 41
0.756369
 50
0.000000
 51
0.000000
 72
   5
 73
   0
 11
287.431309
 21
243.290076
  0
TEXT
  8
1
  6
CONTINUOUS
 62
3
 10
249.431309
 20
238.290076
 40
4.000000
  1
   HD:HDMI
 41
0.765697
 50
0.000000
 51
0.000000
 72
   5
 73
   0
 11
269.431309
 21
238.290076
  0
TEXT
  8
1
  6
CONTINUOUS
 62
3
 10
249.431309
 20
233.290076
 40
4.000000
  1
   BL:ﾌﾞﾗﾝｸ(部品無)
 41
0.788382
 50
0.000000
 51
0.000000
 72
   5
 73
   0
 11
287.431309
 21
233.290076
  0
LINE
  8
3
  6
CONTINUOUS
 62
3
 10
248.2527101719
 20
260.1813370759
 11
222.8235822139
 21
260.1813370759
  0
LINE
  8
3
  6
CONTINUOUS
 62
3
 10
222.8235822139
 20
260.1813370759
 11
222.8235822139
 21
263.0186290952
  0
LINE
  8
3
  6
CONTINUOUS
 62
3
 10
230.3483269556
 20
263.0186290952
 11
230.3483269556
 21
229.8829816235
  0
LINE
  8
3
  6
CONTINUOUS
 62
3
 10
248.2527101719
 20
229.8829816235
 11
230.3483269556
 21
229.8829816235
  0
LINE
  8
3
  6
CONTINUOUS
 62
3
 10
237.9379401865
 20
263.0186290952
 11
237.9379401865
 21
199.5846261712
  0
LINE
  8
3
  6
CONTINUOUS
 62
3
 10
245.3978164391
 20
263.0186290952
 11
245.3978164391
 21
169.2862707189
  0
LINE
  8
3
  6
CONTINUOUS
 62
3
 10
248.2527101719
 20
199.5846261712
 11
237.9379401865
 21
199.5846261712
  0
LINE
  8
3
  6
CONTINUOUS
 62
3
 10
248.2527101719
 20
169.2862707189
 11
245.3978164391
 21
169.2862707189
  0
TEXT
  8
1
  6
CONTINUOUS
 62
3
 10
249.431309
 20
227.991721
 40
4.000000
  1
⑩ UA:USB3.0 A
 41
0.774336
 50
0.000000
 51
0.000000
 72
   5
 73
   0
 11
277.431309
 21
227.991721
  0
TEXT
  8
1
  6
CONTINUOUS
 62
3
 10
249.431309
 20
222.991721
 40
4.000000
  1
   UB2:USB2.0 B
 41
0.759109
 50
0.000000
 51
0.000000
 72
   5
 73
   0
 11
279.431309
 21
222.991721
  0
TEXT
  8
1
  6
CONTINUOUS
 62
3
 10
249.431309
 20
217.991721
 40
4.000000
  1
   UB3:USB3.0 B
 41
0.759109
 50
0.000000
 51
0.000000
 72
   5
 73
   0
 11
279.431309
 21
217.991721
  0
TEXT
  8
1
  6
CONTINUOUS
 62
3
 10
249.431309
 20
212.991721
 40
4.000000
  1
   RJ:PJ45 CAT6 STP
 41
0.756369
 50
0.000000
 51
0.000000
 72
   5
 73
   0
 11
287.431309
 21
212.991721
  0
TEXT
  8
1
  6
CONTINUOUS
 62
3
 10
249.431309
 20
207.991721
 40
4.000000
  1
   HD:HDMI
 41
0.765697
 50
0.000000
 51
0.000000
 72
   5
 73
   0
 11
269.431309
 21
207.991721
  0
TEXT
  8
1
  6
CONTINUOUS
 62
3
 10
249.431309
 20
202.991721
 40
4.000000
  1
   BL:ﾌﾞﾗﾝｸ(部品無)
 41
0.788382
 50
0.000000
 51
0.000000
 72
   5
 73
   0
 11
287.431309
 21
202.991721
  0
TEXT
  8
1
  6
CONTINUOUS
 62
3
 10
249.431309
 20
197.693365
 40
4.000000
  1
⑪ UA:USB3.0 A
 41
0.774336
 50
0.000000
 51
0.000000
 72
   5
 73
   0
 11
277.431309
 21
197.693365
  0
TEXT
  8
1
  6
CONTINUOUS
 62
3
 10
249.431309
 20
192.693365
 40
4.000000
  1
   UB2:USB2.0 B
 41
0.759109
 50
0.000000
 51
0.000000
 72
   5
 73
   0
 11
279.431309
 21
192.693365
  0
TEXT
  8
1
  6
CONTINUOUS
 62
3
 10
249.431309
 20
187.693365
 40
4.000000
  1
   UB3:USB3.0 B
 41
0.759109
 50
0.000000
 51
0.000000
 72
   5
 73
   0
 11
279.431309
 21
187.693365
  0
TEXT
  8
1
  6
CONTINUOUS
 62
3
 10
249.431309
 20
182.693365
 40
4.000000
  1
   RJ:PJ45 CAT6 STP
 41
0.756369
 50
0.000000
 51
0.000000
 72
   5
 73
   0
 11
287.431309
 21
182.693365
  0
TEXT
  8
1
  6
CONTINUOUS
 62
3
 10
249.431309
 20
177.693365
 40
4.000000
  1
   HD:HDMI
 41
0.765697
 50
0.000000
 51
0.000000
 72
   5
 73
   0
 11
269.431309
 21
177.693365
  0
TEXT
  8
1
  6
CONTINUOUS
 62
3
 10
249.431309
 20
172.693365
 40
4.000000
  1
   BL:ﾌﾞﾗﾝｸ(部品無)
 41
0.788382
 50
0.000000
 51
0.000000
 72
   5
 73
   0
 11
287.431309
 21
172.693365
  0
TEXT
  8
1
  6
CONTINUOUS
 62
3
 10
249.431309
 20
167.395010
 40
4.000000
  1
⑫ UA:USB3.0 A
 41
0.774336
 50
0.000000
 51
0.000000
 72
   5
 73
   0
 11
277.431309
 21
167.395010
  0
TEXT
  8
1
  6
CONTINUOUS
 62
3
 10
249.431309
 20
162.395010
 40
4.000000
  1
   UB2:USB2.0 B
 41
0.759109
 50
0.000000
 51
0.000000
 72
   5
 73
   0
 11
279.431309
 21
162.395010
  0
TEXT
  8
1
  6
CONTINUOUS
 62
3
 10
249.431309
 20
157.395010
 40
4.000000
  1
   UB3:USB3.0 B
 41
0.759109
 50
0.000000
 51
0.000000
 72
   5
 73
   0
 11
279.431309
 21
157.395010
  0
TEXT
  8
1
  6
CONTINUOUS
 62
3
 10
249.431309
 20
152.395010
 40
4.000000
  1
   RJ:PJ45 CAT6 STP
 41
0.756369
 50
0.000000
 51
0.000000
 72
   5
 73
   0
 11
287.431309
 21
152.395010
  0
TEXT
  8
1
  6
CONTINUOUS
 62
3
 10
249.431309
 20
147.395010
 40
4.000000
  1
   HD:HDMI
 41
0.765697
 50
0.000000
 51
0.000000
 72
   5
 73
   0
 11
269.431309
 21
147.395010
  0
TEXT
  8
1
  6
CONTINUOUS
 62
3
 10
249.431309
 20
142.395010
 40
4.000000
  1
   BL:ﾌﾞﾗﾝｸ(部品無)
 41
0.788382
 50
0.000000
 51
0.000000
 72
   5
 73
   0
 11
287.431309
 21
142.395010
  0
LINE
  8
5
  6
CONTINUOUS
 62
6
 10
310.9077307347
 20
-98.5697931242
 11
310.9077307347
 21
-93.5697931242
  0
LINE
  8
5
  6
CONTINUOUS
 62
6
 10
315.9077307347
 20
-93.5697931242
 11
315.9077307347
 21
-98.5697931242
  0
LINE
  8
5
  6
CONTINUOUS
 62
6
 10
335.9077307347
 20
-93.5697931242
 11
335.9077307347
 21
-98.5697931242
  0
LINE
  8
5
  6
CONTINUOUS
 62
6
 10
375.9077307347
 20
-93.5697931242
 11
375.9077307347
 21
-98.5697931242
  0
LINE
  8
5
  6
CONTINUOUS
 62
6
 10
390.9077307347
 20
-93.5697931242
 11
390.9077307347
 21
-98.5697931242
  0
LINE
  8
5
  6
CONTINUOUS
 62
6
 10
395.9077307347
 20
-93.5697931242
 11
395.9077307347
 21
-98.5697931242
  0
LINE
  8
5
  6
CONTINUOUS
 62
6
 10
300.9077307347
 20
-98.5697931242
 11
300.9077307347
 21
-93.5697931242
  0
LINE
  8
5
  6
CONTINUOUS
 62
6
 10
310.9077307347
 20
-93.5697931242
 11
310.9077307347
 21
-98.5697931242
  0
LINE
  8
5
  6
CONTINUOUS
 62
6
 10
395.9077307347
 20
-98.5697931242
 11
390.9077307347
 21
-98.5697931242
  0
LINE
  8
5
  6
CONTINUOUS
 62
6
 10
390.9077307347
 20
-98.5697931242
 11
375.9077307347
 21
-98.5697931242
  0
LINE
  8
5
  6
CONTINUOUS
 62
6
 10
375.9077307347
 20
-98.5697931242
 11
335.9077307347
 21
-98.5697931242
  0
LINE
  8
5
  6
CONTINUOUS
 62
6
 10
335.9077307347
 20
-98.5697931242
 11
315.9077307347
 21
-98.5697931242
  0
LINE
  8
5
  6
CONTINUOUS
 62
6
 10
315.9077307347
 20
-98.5697931242
 11
310.9077307347
 21
-98.5697931242
  0
LINE
  8
5
  6
CONTINUOUS
 62
6
 10
310.9077307347
 20
-98.5697931242
 11
300.9077307347
 21
-98.5697931242
  0
LINE
  8
5
  6
CONTINUOUS
 62
6
 10
310.9077307347
 20
-103.5697931243
 11
310.9077307347
 21
-98.5697931243
  0
LINE
  8
5
  6
CONTINUOUS
 62
6
 10
315.9077307347
 20
-98.5697931243
 11
315.9077307347
 21
-103.5697931243
  0
LINE
  8
5
  6
CONTINUOUS
 62
6
 10
335.9077307347
 20
-98.5697931243
 11
335.9077307347
 21
-103.5697931243
  0
LINE
  8
5
  6
CONTINUOUS
 62
6
 10
375.9077307347
 20
-98.5697931243
 11
375.9077307347
 21
-103.5697931243
  0
LINE
  8
5
  6
CONTINUOUS
 62
6
 10
390.9077307347
 20
-98.5697931243
 11
390.9077307347
 21
-103.5697931243
  0
LINE
  8
5
  6
CONTINUOUS
 62
6
 10
395.9077307347
 20
-98.5697931243
 11
395.9077307347
 21
-103.5697931243
  0
LINE
  8
5
  6
CONTINUOUS
 62
6
 10
300.9077307347
 20
-103.5697931243
 11
300.9077307347
 21
-98.5697931242
  0
LINE
  8
5
  6
CONTINUOUS
 62
6
 10
310.9077307347
 20
-98.5697931243
 11
310.9077307347
 21
-103.5697931243
  0
LINE
  8
5
  6
CONTINUOUS
 62
6
 10
395.9077307347
 20
-103.5697931243
 11
390.9077307347
 21
-103.5697931243
  0
LINE
  8
5
  6
CONTINUOUS
 62
6
 10
390.9077307347
 20
-103.5697931243
 11
375.9077307347
 21
-103.5697931243
  0
LINE
  8
5
  6
CONTINUOUS
 62
6
 10
375.9077307347
 20
-103.5697931243
 11
335.9077307347
 21
-103.5697931243
  0
LINE
  8
5
  6
CONTINUOUS
 62
6
 10
335.9077307347
 20
-103.5697931243
 11
315.9077307347
 21
-103.5697931243
  0
LINE
  8
5
  6
CONTINUOUS
 62
6
 10
315.9077307347
 20
-103.5697931243
 11
310.9077307347
 21
-103.5697931243
  0
LINE
  8
5
  6
CONTINUOUS
 62
6
 10
310.9077307347
 20
-103.5697931243
 11
300.9077307347
 21
-103.5697931243
  0
LINE
  8
5
  6
CONTINUOUS
 62
6
 10
310.9077307347
 20
-108.5697931243
 11
310.9077307347
 21
-103.5697931243
  0
LINE
  8
5
  6
CONTINUOUS
 62
6
 10
315.9077307347
 20
-103.5697931243
 11
315.9077307347
 21
-108.5697931243
  0
LINE
  8
5
  6
CONTINUOUS
 62
6
 10
335.9077307347
 20
-103.5697931243
 11
335.9077307347
 21
-108.5697931243
  0
LINE
  8
5
  6
CONTINUOUS
 62
6
 10
375.9077307347
 20
-103.5697931243
 11
375.9077307347
 21
-108.5697931243
  0
LINE
  8
5
  6
CONTINUOUS
 62
6
 10
390.9077307347
 20
-103.5697931243
 11
390.9077307347
 21
-108.5697931243
  0
LINE
  8
5
  6
CONTINUOUS
 62
6
 10
395.9077307347
 20
-103.5697931243
 11
395.9077307347
 21
-108.5697931243
  0
LINE
  8
5
  6
CONTINUOUS
 62
6
 10
300.9077307347
 20
-108.5697931243
 11
300.9077307347
 21
-103.5697931243
  0
LINE
  8
5
  6
CONTINUOUS
 62
6
 10
310.9077307347
 20
-103.5697931243
 11
310.9077307347
 21
-108.5697931243
  0
LINE
  8
5
  6
CONTINUOUS
 62
6
 10
395.9077307347
 20
-108.5697931243
 11
390.9077307347
 21
-108.5697931243
  0
LINE
  8
5
  6
CONTINUOUS
 62
6
 10
390.9077307347
 20
-108.5697931243
 11
375.9077307347
 21
-108.5697931243
  0
LINE
  8
5
  6
CONTINUOUS
 62
6
 10
375.9077307347
 20
-108.5697931243
 11
335.9077307347
 21
-108.5697931243
  0
LINE
  8
5
  6
CONTINUOUS
 62
6
 10
335.9077307347
 20
-108.5697931243
 11
315.9077307347
 21
-108.5697931243
  0
LINE
  8
5
  6
CONTINUOUS
 62
6
 10
315.9077307347
 20
-108.5697931243
 11
310.9077307347
 21
-108.5697931243
  0
LINE
  8
5
  6
CONTINUOUS
 62
6
 10
310.9077307347
 20
-108.5697931243
 11
300.9077307347
 21
-108.5697931243
  0
LINE
  8
5
  6
CONTINUOUS
 62
6
 10
310.9077307347
 20
-113.5697931244
 11
310.9077307347
 21
-108.5697931244
  0
LINE
  8
5
  6
CONTINUOUS
 62
6
 10
315.9077307347
 20
-108.5697931244
 11
315.9077307347
 21
-113.5697931244
  0
LINE
  8
5
  6
CONTINUOUS
 62
6
 10
335.9077307347
 20
-108.5697931244
 11
335.9077307347
 21
-113.5697931244
  0
LINE
  8
5
  6
CONTINUOUS
 62
6
 10
375.9077307347
 20
-108.5697931244
 11
375.9077307347
 21
-113.5697931244
  0
LINE
  8
5
  6
CONTINUOUS
 62
6
 10
390.9077307347
 20
-108.5697931244
 11
390.9077307347
 21
-113.5697931244
  0
LINE
  8
5
  6
CONTINUOUS
 62
6
 10
395.9077307347
 20
-108.5697931244
 11
395.9077307347
 21
-113.5697931244
  0
LINE
  8
5
  6
CONTINUOUS
 62
6
 10
300.9077307347
 20
-113.5697931244
 11
300.9077307347
 21
-108.5697931243
  0
LINE
  8
5
  6
CONTINUOUS
 62
6
 10
310.9077307347
 20
-108.5697931244
 11
310.9077307347
 21
-113.5697931244
  0
LINE
  8
5
  6
CONTINUOUS
 62
6
 10
395.9077307347
 20
-113.5697931244
 11
390.9077307347
 21
-113.5697931244
  0
LINE
  8
5
  6
CONTINUOUS
 62
6
 10
390.9077307347
 20
-113.5697931244
 11
375.9077307347
 21
-113.5697931244
  0
LINE
  8
5
  6
CONTINUOUS
 62
6
 10
375.9077307347
 20
-113.5697931244
 11
335.9077307347
 21
-113.5697931244
  0
LINE
  8
5
  6
CONTINUOUS
 62
6
 10
335.9077307347
 20
-113.5697931244
 11
315.9077307347
 21
-113.5697931244
  0
LINE
  8
5
  6
CONTINUOUS
 62
6
 10
315.9077307347
 20
-113.5697931244
 11
310.9077307347
 21
-113.5697931244
  0
LINE
  8
5
  6
CONTINUOUS
 62
6
 10
310.9077307347
 20
-113.5697931244
 11
300.9077307347
 21
-113.5697931244
  0
LINE
  8
5
  6
CONTINUOUS
 62
6
 10
310.9077307347
 20
-118.5697931244
 11
310.9077307347
 21
-113.5697931244
  0
LINE
  8
5
  6
CONTINUOUS
 62
6
 10
315.9077307347
 20
-113.5697931244
 11
315.9077307347
 21
-118.5697931244
  0
LINE
  8
5
  6
CONTINUOUS
 62
6
 10
335.9077307347
 20
-113.5697931244
 11
335.9077307347
 21
-118.5697931244
  0
LINE
  8
5
  6
CONTINUOUS
 62
6
 10
375.9077307347
 20
-113.5697931244
 11
375.9077307347
 21
-118.5697931244
  0
LINE
  8
5
  6
CONTINUOUS
 62
6
 10
390.9077307347
 20
-113.5697931244
 11
390.9077307347
 21
-118.5697931244
  0
LINE
  8
5
  6
CONTINUOUS
 62
6
 10
395.9077307347
 20
-113.5697931244
 11
395.9077307347
 21
-118.5697931244
  0
LINE
  8
5
  6
CONTINUOUS
 62
6
 10
300.9077307347
 20
-118.5697931244
 11
300.9077307347
 21
-113.5697931244
  0
LINE
  8
5
  6
CONTINUOUS
 62
6
 10
310.9077307347
 20
-113.5697931244
 11
310.9077307347
 21
-118.5697931244
  0
LINE
  8
5
  6
CONTINUOUS
 62
6
 10
395.9077307347
 20
-118.5697931244
 11
390.9077307347
 21
-118.5697931244
  0
LINE
  8
5
  6
CONTINUOUS
 62
6
 10
390.9077307347
 20
-118.5697931244
 11
375.9077307347
 21
-118.5697931244
  0
LINE
  8
5
  6
CONTINUOUS
 62
6
 10
375.9077307347
 20
-118.5697931244
 11
335.9077307347
 21
-118.5697931244
  0
LINE
  8
5
  6
CONTINUOUS
 62
6
 10
335.9077307347
 20
-118.5697931244
 11
315.9077307347
 21
-118.5697931244
  0
LINE
  8
5
  6
CONTINUOUS
 62
6
 10
315.9077307347
 20
-118.5697931244
 11
310.9077307347
 21
-118.5697931244
  0
LINE
  8
5
  6
CONTINUOUS
 62
6
 10
310.9077307347
 20
-118.5697931244
 11
300.9077307347
 21
-118.5697931244
  0
LINE
  8
5
  6
CONTINUOUS
 62
6
 10
310.9077307347
 20
-123.5697931245
 11
310.9077307347
 21
-118.5697931245
  0
LINE
  8
5
  6
CONTINUOUS
 62
6
 10
315.9077307347
 20
-118.5697931245
 11
315.9077307347
 21
-123.5697931245
  0
LINE
  8
5
  6
CONTINUOUS
 62
6
 10
335.9077307347
 20
-118.5697931245
 11
335.9077307347
 21
-123.5697931245
  0
LINE
  8
5
  6
CONTINUOUS
 62
6
 10
375.9077307347
 20
-118.5697931245
 11
375.9077307347
 21
-123.5697931245
  0
LINE
  8
5
  6
CONTINUOUS
 62
6
 10
390.9077307347
 20
-118.5697931245
 11
390.9077307347
 21
-123.5697931245
  0
LINE
  8
5
  6
CONTINUOUS
 62
6
 10
395.9077307347
 20
-118.5697931245
 11
395.9077307347
 21
-123.5697931245
  0
LINE
  8
5
  6
CONTINUOUS
 62
6
 10
300.9077307347
 20
-123.5697931245
 11
300.9077307347
 21
-118.5697931244
  0
LINE
  8
5
  6
CONTINUOUS
 62
6
 10
310.9077307347
 20
-118.5697931245
 11
310.9077307347
 21
-123.5697931245
  0
LINE
  8
5
  6
CONTINUOUS
 62
6
 10
395.9077307347
 20
-123.5697931245
 11
390.9077307347
 21
-123.5697931245
  0
LINE
  8
5
  6
CONTINUOUS
 62
6
 10
390.9077307347
 20
-123.5697931245
 11
375.9077307347
 21
-123.5697931245
  0
LINE
  8
5
  6
CONTINUOUS
 62
6
 10
375.9077307347
 20
-123.5697931245
 11
335.9077307347
 21
-123.5697931245
  0
LINE
  8
5
  6
CONTINUOUS
 62
6
 10
335.9077307347
 20
-123.5697931245
 11
315.9077307347
 21
-123.5697931245
  0
LINE
  8
5
  6
CONTINUOUS
 62
6
 10
315.9077307347
 20
-123.5697931245
 11
310.9077307347
 21
-123.5697931245
  0
LINE
  8
5
  6
CONTINUOUS
 62
6
 10
310.9077307347
 20
-123.5697931245
 11
300.9077307347
 21
-123.5697931245
  0
TEXT
  8
5
  6
CONTINUOUS
 62
7
 10
303.445950
 20
-73.069793
 40
4.000000
  1
UB3
 41
0.815217
 50
0.000000
 51
0.000000
 72
   5
 73
   0
 11
309.445950
 21
-73.069793
  0
TEXT
  8
5
  6
CONTINUOUS
 62
7
 10
311.907731
 20
-72.569793
 40
3.000000
  1
--
 41
0.854701
 50
0.000000
 51
0.000000
 72
   5
 73
   0
 11
314.907731
 21
-72.569793
  0
TEXT
  8
5
  6
CONTINUOUS
 62
7
 10
316.907731
 20
-72.569793
 40
3.000000
  1
USB3.0 B
 41
0.770713
 50
0.000000
 51
0.000000
 72
   5
 73
   0
 11
328.907731
 21
-72.569793
  0
TEXT
  8
5
  6
CONTINUOUS
 62
7
 10
336.907731
 20
-72.819793
 40
3.500000
  1
8741190 (8741239)
 41
0.757576
 50
0.000000
 51
0.000000
 72
   5
 73
   0
 11
366.657731
 21
-72.819793
  0
TEXT
  8
5
  6
CONTINUOUS
 62
7
 10
376.907731
 20
-72.569793
 40
3.000000
  1
RS-Pro
 41
0.779221
 50
0.000000
 51
0.000000
 72
   5
 73
   0
 11
385.907731
 21
-72.569793
  0
TEXT
  8
5
  6
CONTINUOUS
 62
7
 10
391.657731
 20
-67.819793
 40
3.500000
  1
--
 41
0.854701
 50
0.000000
 51
0.000000
 72
   5
 73
   0
 11
395.157731
 21
-67.819793
  0
TEXT
  8
5
  6
CONTINUOUS
 62
7
 10
391.657731
 20
-72.819793
 40
3.500000
  1
--
 41
0.854701
 50
0.000000
 51
0.000000
 72
   5
 73
   0
 11
395.157731
 21
-72.819793
  0
TEXT
  8
5
  6
CONTINUOUS
 62
7
 10
391.657731
 20
-77.819793
 40
3.500000
  1
--
 41
0.854701
 50
0.000000
 51
0.000000
 72
   5
 73
   0
 11
395.157731
 21
-77.819793
  0
TEXT
  8
5
  6
CONTINUOUS
 62
7
 10
391.657731
 20
-82.819793
 40
3.500000
  1
--
 41
0.854701
 50
0.000000
 51
0.000000
 72
   5
 73
   0
 11
395.157731
 21
-82.819793
  0
TEXT
  8
5
  6
CONTINUOUS
 62
7
 10
391.657731
 20
-87.819793
 40
3.500000
  1
--
 41
0.854701
 50
0.000000
 51
0.000000
 72
   5
 73
   0
 11
395.157731
 21
-87.819793
  0
TEXT
  8
5
  6
CONTINUOUS
 62
7
 10
391.657731
 20
-92.819793
 40
3.500000
  1
--
 41
0.854701
 50
0.000000
 51
0.000000
 72
   5
 73
   0
 11
395.157731
 21
-92.819793
  0
TEXT
  8
3
  6
CONTINUOUS
 62
7
 10
335.776362
 20
-130.701672
 40
3.500000
  1
( )内の型式は、代替部品型式です
 41
0.850714
 50
0.000000
 51
0.000000
 72
   5
 73
   0
 11
390.026362
 21
-130.701672
  0
TEXT
  8
3
  6
CONTINUOUS
 62
7
 10
335.776362
 20
-134.201672
 40
3.500000
  1
取付ビスが「ナベビス」となります
 41
0.862534
 50
0.000000
 51
0.000000
 72
   5
 73
   0
 11
391.776362
 21
-134.201672
  0
TEXT
  8
5
  6
CONTINUOUS
 62
7
 10
336.907731
 20
-87.819793
 40
3.500000
  1
BP-D  SPCC t=1.0 黒
 41
0.766747
 50
0.000000
 51
0.000000
 72
   5
 73
   0
 11
370.157731
 21
-87.819793
  0
TEXT
  8
5
  6
CONTINUOUS
 62
7
 10
311.907731
 20
-97.569793
 40
3.000000
  1
14
 41
0.854701
 50
0.000000
 51
0.000000
 72
   5
 73
   0
 11
314.907731
 21
-97.569793
  0
TEXT
  8
5
  6
CONTINUOUS
 62
7
 10
316.907731
 20
-97.569793
 40
3.000000
  1
ﾋﾞｽ
 41
0.815217
 50
0.000000
 51
0.000000
 72
   5
 73
   0
 11
321.407731
 21
-97.569793
  0
TEXT
  8
5
  6
CONTINUOUS
 62
7
 10
336.907731
 20
-97.569793
 40
3.000000
  1
M3×6 黒ﾊﾞｲﾝﾄﾞ(BP-D付属)
 41
0.787919
 50
0.000000
 51
0.000000
 72
   5
 73
   0
 11
372.907731
 21
-97.569793
  0
CIRCLE
  8
3
  6
CONTINUOUS
 62
7
 10
219.5784975347
 20
-65.4457295069
 40
11.8500000000
  0
CIRCLE
  8
3
  6
CONTINUOUS
 62
7
 10
231.5784975347
 20
-55.9457295069
 40
3.0000000000
  0
CIRCLE
  8
3
  6
CONTINUOUS
 62
7
 10
207.5784975347
 20
-74.9457295069
 40
3.0000000000
  0
LINE
  8
3
  6
CONTINUOUS
 62
6
 10
230.2400454132
 20
-54.6072773854
 11
232.9169496562
 21
-57.2841816284
  0
LINE
  8
3
  6
CONTINUOUS
 62
6
 10
230.2400454132
 20
-57.2841816284
 11
232.9169496562
 21
-54.6072773854
  0
CIRCLE
  8
3
  6
CONTINUOUS
 62
6
 10
231.5784975347
 20
-55.9457295069
 40
2.6500000000
  0
LINE
  8
3
  6
CONTINUOUS
 62
6
 10
206.2400454132
 20
-73.6072773854
 11
208.9169496562
 21
-76.2841816284
  0
LINE
  8
3
  6
CONTINUOUS
 62
6
 10
206.2400454132
 20
-76.2841816284
 11
208.9169496562
 21
-73.6072773854
  0
CIRCLE
  8
3
  6
CONTINUOUS
 62
6
 10
207.5784975347
 20
-74.9457295069
 40
2.6500000000
  0
LINE
  8
3
  6
CONTINUOUS
 62
7
 10
211.0784975347
 20
-57.9457295069
 11
228.0784975347
 21
-57.9457295069
  0
LINE
  8
3
  6
CONTINUOUS
 62
7
 10
228.0784975347
 20
-57.9457295069
 11
228.0784975347
 21
-62.0457295069
  0
LINE
  8
3
  6
CONTINUOUS
 62
7
 10
228.0784975347
 20
-68.8457295069
 11
228.0784975347
 21
-72.9457295069
  0
LINE
  8
3
  6
CONTINUOUS
 62
7
 10
228.0784975347
 20
-72.9457295069
 11
211.0784975347
 21
-72.9457295069
  0
LINE
  8
3
  6
CONTINUOUS
 62
7
 10
211.0784975347
 20
-72.9457295069
 11
211.0784975347
 21
-57.9457295069
  0
LINE
  8
3
  6
CONTINUOUS
 62
7
 10
217.4784975347
 20
-57.9457295069
 11
217.4784975347
 21
-59.7457295069
  0
LINE
  8
3
  6
CONTINUOUS
 62
7
 10
217.4784975347
 20
-59.7457295069
 11
221.6784975347
 21
-59.7457295069
  0
LINE
  8
3
  6
CONTINUOUS
 62
7
 10
221.6784975347
 20
-59.7457295069
 11
221.6784975347
 21
-57.9457295069
  0
LINE
  8
3
  6
CONTINUOUS
 62
7
 10
217.4784975347
 20
-72.9457295069
 11
217.4784975347
 21
-71.1457295069
  0
LINE
  8
3
  6
CONTINUOUS
 62
7
 10
217.4784975347
 20
-71.1457295069
 11
221.6784975347
 21
-71.1457295069
  0
LINE
  8
3
  6
CONTINUOUS
 62
7
 10
221.6784975347
 20
-71.1457295069
 11
221.6784975347
 21
-72.9457295069
  0
LINE
  8
3
  6
CONTINUOUS
 62
7
 10
228.0784975347
 20
-62.0457295069
 11
229.8784975347
 21
-62.0457295069
  0
LINE
  8
3
  6
CONTINUOUS
 62
7
 10
229.8784975347
 20
-62.0457295069
 11
229.8784975347
 21
-68.8457295069
  0
LINE
  8
3
  6
CONTINUOUS
 62
7
 10
229.8784975347
 20
-68.8457295069
 11
228.0784975347
 21
-68.8457295069
  0
LINE
  8
2
  6
CONTINUOUS
 62
5
 10
214.6684960347
 20
-63.7057295069
 11
219.5784980347
 21
-63.7057295069
  0
LINE
  8
2
  6
CONTINUOUS
 62
5
 10
214.0285010347
 20
-64.3457295069
 11
214.0285010347
 21
-65.5457295069
  0
LINE
  8
2
  6
CONTINUOUS
 62
5
 10
214.5285010347
 20
-65.1657305069
 11
224.6284950347
 21
-65.1657305069
  0
LINE
  8
2
  6
CONTINUOUS
 62
5
 10
214.0285010347
 20
-65.5457295069
 11
219.5784980347
 21
-65.5457295069
  0
LINE
  8
2
  6
CONTINUOUS
 62
5
 10
213.3784950347
 20
-63.6257295069
 11
213.3784950347
 21
-64.5857285069
  0
LINE
  8
2
  6
CONTINUOUS
 62
5
 10
214.5285010347
 20
-65.1657305069
 11
214.5285010347
 21
-64.2057295069
  0
LINE
  8
2
  6
CONTINUOUS
 62
5
 10
213.8784950347
 20
-63.5257285069
 11
215.8689700347
 21
-63.5257285069
  0
LINE
  8
2
  6
CONTINUOUS
 62
5
 10
213.8784950347
 20
-63.5257285069
 11
213.8784950347
 21
-64.6357325069
  0
LINE
  8
2
  6
CONTINUOUS
 62
5
 10
215.9504750347
 20
-63.6757285069
 11
215.8614480347
 21
-63.5867015069
  0
LINE
  8
2
  6
CONTINUOUS
 62
5
 10
213.9784920347
 20
-64.7357285069
 11
213.8284920347
 21
-64.5857285069
  0
LINE
  8
2
  6
CONTINUOUS
 62
5
 10
213.8284960347
 20
-64.5857285069
 11
213.3284960347
 21
-64.5857285069
  0
LINE
  8
2
  6
CONTINUOUS
 62
5
 10
213.8284960347
 20
-66.5857295069
 11
213.3284960347
 21
-66.5857295069
  0
LINE
  8
2
  6
CONTINUOUS
 62
5
 10
213.9784970347
 20
-66.4357285069
 11
213.9784970347
 21
-64.7357285069
  0
LINE
  8
2
  6
CONTINUOUS
 62
5
 10
213.9784950347
 20
-66.4357295069
 11
213.8284950347
 21
-66.5857295069
  0
LINE
  8
2
  6
CONTINUOUS
 62
5
 10
216.5784900347
 20
-63.6757305069
 11
217.2065110347
 21
-63.6757305069
  0
LINE
  8
2
  6
CONTINUOUS
 62
5
 10
217.2065090347
 20
-63.6757315069
 11
217.2955390347
 21
-63.5867015069
  0
LINE
  8
2
  6
CONTINUOUS
 62
5
 10
216.5784980347
 20
-63.6757305069
 11
215.9504750347
 21
-63.6757305069
  0
LINE
  8
2
  6
CONTINUOUS
 62
5
 10
215.9504810347
 20
-63.6757285069
 11
215.8614500347
 21
-63.5866985069
  0
LINE
  8
2
  6
CONTINUOUS
 62
5
 10
215.3889660347
 20
-63.0480225069
 11
215.6065570347
 21
-63.1152685069
  0
LINE
  8
2
  6
CONTINUOUS
 62
5
 10
215.8120150347
 20
-63.3423965069
 11
215.8614470347
 21
-63.5866995069
  0
LINE
  8
2
  6
CONTINUOUS
 62
5
 10
215.8766190347
 20
-63.1574495069
 11
215.9000670347
 21
-63.2733315069
  0
LINE
  8
2
  6
CONTINUOUS
 62
5
 10
217.7680250347
 20
-63.0480205069
 11
217.5504360347
 21
-63.1152665069
  0
LINE
  8
2
  6
CONTINUOUS
 62
5
 10
217.3449720347
 20
-63.3423965069
 11
217.2955390347
 21
-63.5866995069
  0
LINE
  8
2
  6
CONTINUOUS
 62
5
 10
217.2803670347
 20
-63.1574485069
 11
217.2569200347
 21
-63.2733305069
  0
LINE
  8
2
  6
CONTINUOUS
 62
5
 10
217.2955410347
 20
-63.5867015069
 11
217.2288727923
 21
-63.0457295069
  0
LINE
  8
2
  6
CONTINUOUS
 62
5
 10
215.8614520347
 20
-63.5867015069
 11
215.9281194316
 21
-63.0457295069
  0
LINE
  8
2
  6
CONTINUOUS
 62
5
 10
216.5784980347
 20
-67.4957295069
 11
215.9504750347
 21
-67.4957295069
  0
LINE
  8
2
  6
CONTINUOUS
 62
5
 10
215.9504790347
 20
-67.4957305069
 11
215.8614500347
 21
-67.5847595069
  0
LINE
  8
2
  6
CONTINUOUS
 62
5
 10
216.5784900347
 20
-67.4957295069
 11
217.2065110347
 21
-67.4957295069
  0
LINE
  8
2
  6
CONTINUOUS
 62
5
 10
217.2065130347
 20
-67.4957275069
 11
217.2955420347
 21
-67.5847565069
  0
LINE
  8
2
  6
CONTINUOUS
 62
5
 10
217.7680240347
 20
-68.1234355069
 11
217.5504350347
 21
-68.0561895069
  0
LINE
  8
2
  6
CONTINUOUS
 62
5
 10
217.2803690347
 20
-68.0140115069
 11
217.2569220347
 21
-67.8981295069
  0
LINE
  8
2
  6
CONTINUOUS
 62
5
 10
215.3889700347
 20
-68.1234345069
 11
215.6065610347
 21
-68.0561885069
  0
LINE
  8
2
  6
CONTINUOUS
 62
5
 10
215.8120180347
 20
-67.8290655069
 11
215.8614510347
 21
-67.5847605069
  0
LINE
  8
2
  6
CONTINUOUS
 62
5
 10
215.8766220347
 20
-68.0140125069
 11
215.9000700347
 21
-67.8981305069
  0
LINE
  8
2
  6
CONTINUOUS
 62
5
 10
215.8614490347
 20
-67.5847565069
 11
215.9305810347
 21
-68.1457285069
  0
LINE
  8
2
  6
CONTINUOUS
 62
5
 10
217.2955470347
 20
-67.5847575069
 11
217.2264150347
 21
-68.1457275069
  0
LINE
  8
2
  6
CONTINUOUS
 62
5
 10
217.3449720347
 20
-67.8290645069
 11
217.2955390347
 21
-67.5847595069
  0
LINE
  8
2
  6
CONTINUOUS
 62
5
 10
217.2880240347
 20
-63.5257285069
 11
219.5784980347
 21
-63.5257285069
  0
LINE
  8
2
  6
CONTINUOUS
 62
5
 10
213.3784950347
 20
-66.5857295069
 11
213.3784950347
 21
-67.9974875069
  0
LINE
  8
2
  6
CONTINUOUS
 62
5
 10
213.8784950347
 20
-66.5357295069
 11
213.8784950347
 21
-68.1457295069
  0
LINE
  8
2
  6
CONTINUOUS
 62
5
 10
218.3285000347
 20
-66.0457295069
 11
218.0784980347
 21
-66.0457295069
  0
LINE
  8
2
  6
CONTINUOUS
 62
5
 10
218.0784980347
 20
-65.6779565069
 11
218.0784980347
 21
-66.0457295069
  0
LINE
  8
2
  6
CONTINUOUS
 62
5
 10
218.3285000347
 20
-65.9988815069
 11
218.3285000347
 21
-66.0457295069
  0
LINE
  8
2
  6
CONTINUOUS
 62
5
 10
218.8285000347
 20
-66.0457295069
 11
219.0785000347
 21
-66.0457295069
  0
LINE
  8
2
  6
CONTINUOUS
 62
5
 10
218.8285000347
 20
-65.9988815069
 11
218.8285000347
 21
-66.0457295069
  0
LINE
  8
2
  6
CONTINUOUS
 62
5
 10
219.0785000347
 20
-65.6779565069
 11
219.0785000347
 21
-66.0457295069
  0
LINE
  8
2
  6
CONTINUOUS
 62
5
 10
218.9847480347
 20
-65.5457295069
 11
219.0324880347
 21
-65.6491795069
  0
LINE
  8
2
  6
CONTINUOUS
 62
5
 10
218.1722500347
 20
-65.5457285069
 11
218.1245090347
 21
-65.6491795069
  0
LINE
  8
2
  6
CONTINUOUS
 62
5
 10
215.8285000347
 20
-66.0457295069
 11
215.5784960347
 21
-66.0457295069
  0
LINE
  8
2
  6
CONTINUOUS
 62
5
 10
215.5784960347
 20
-65.6779565069
 11
215.5784960347
 21
-66.0457295069
  0
LINE
  8
2
  6
CONTINUOUS
 62
5
 10
215.8284960347
 20
-65.9988815069
 11
215.8284960347
 21
-66.0457295069
  0
LINE
  8
2
  6
CONTINUOUS
 62
5
 10
216.3285000347
 20
-66.0457295069
 11
216.5785000347
 21
-66.0457295069
  0
LINE
  8
2
  6
CONTINUOUS
 62
5
 10
216.3285000347
 20
-65.9988815069
 11
216.3285000347
 21
-66.0457295069
  0
LINE
  8
2
  6
CONTINUOUS
 62
5
 10
216.5785000347
 20
-65.6779565069
 11
216.5785000347
 21
-66.0457295069
  0
LINE
  8
2
  6
CONTINUOUS
 62
5
 10
216.4847470347
 20
-65.5457295069
 11
216.5324870347
 21
-65.6491805069
  0
LINE
  8
2
  6
CONTINUOUS
 62
5
 10
215.6722480347
 20
-65.5457305069
 11
215.6245090347
 21
-65.6491795069
  0
LINE
  8
2
  6
CONTINUOUS
 62
5
 10
224.4885000347
 20
-63.7057295069
 11
219.5784980347
 21
-63.7057295069
  0
LINE
  8
2
  6
CONTINUOUS
 62
5
 10
225.1284950347
 20
-64.3457295069
 11
225.1284950347
 21
-65.5457295069
  0
LINE
  8
2
  6
CONTINUOUS
 62
5
 10
224.6284950347
 20
-64.2057295069
 11
214.5285010347
 21
-64.2057295069
  0
LINE
  8
2
  6
CONTINUOUS
 62
5
 10
225.1284950347
 20
-65.5457295069
 11
219.5784980347
 21
-65.5457295069
  0
LINE
  8
2
  6
CONTINUOUS
 62
5
 10
225.7784990347
 20
-63.6257295069
 11
225.7784990347
 21
-64.5857285069
  0
LINE
  8
2
  6
CONTINUOUS
 62
5
 10
224.6284950347
 20
-65.1657305069
 11
224.6284950347
 21
-64.2057295069
  0
LINE
  8
2
  6
CONTINUOUS
 62
5
 10
225.2784990347
 20
-63.5257285069
 11
223.2880260347
 21
-63.5257285069
  0
LINE
  8
2
  6
CONTINUOUS
 62
5
 10
225.2784990347
 20
-63.5257285069
 11
225.2784990347
 21
-64.6357325069
  0
LINE
  8
2
  6
CONTINUOUS
 62
5
 10
223.2065190347
 20
-63.6757295069
 11
223.2955480347
 21
-63.5867005069
  0
LINE
  8
2
  6
CONTINUOUS
 62
5
 10
225.1785020347
 20
-64.7357295069
 11
225.3285020347
 21
-64.5857295069
  0
LINE
  8
2
  6
CONTINUOUS
 62
5
 10
225.3284980347
 20
-64.5857285069
 11
225.8284980347
 21
-64.5857285069
  0
LINE
  8
2
  6
CONTINUOUS
 62
5
 10
225.3284980347
 20
-66.5857295069
 11
225.8284980347
 21
-66.5857295069
  0
LINE
  8
2
  6
CONTINUOUS
 62
5
 10
225.1784980347
 20
-66.4357285069
 11
225.1784980347
 21
-64.7357285069
  0
LINE
  8
2
  6
CONTINUOUS
 62
5
 10
225.1785010347
 20
-66.4357295069
 11
225.3285010347
 21
-66.5857295069
  0
LINE
  8
2
  6
CONTINUOUS
 62
5
 10
222.5785040347
 20
-63.6757305069
 11
221.9504820347
 21
-63.6757305069
  0
LINE
  8
2
  6
CONTINUOUS
 62
5
 10
221.9504850347
 20
-63.6757295069
 11
221.8614550347
 21
-63.5867005069
  0
LINE
  8
2
  6
CONTINUOUS
 62
5
 10
222.5784980347
 20
-63.6757305069
 11
223.2065190347
 21
-63.6757305069
  0
LINE
  8
2
  6
CONTINUOUS
 62
5
 10
223.2065140347
 20
-63.6757275069
 11
223.2955430347
 21
-63.5866985069
  0
LINE
  8
2
  6
CONTINUOUS
 62
5
 10
223.7680280347
 20
-63.0480225069
 11
223.5504390347
 21
-63.1152675069
  0
LINE
  8
2
  6
CONTINUOUS
 62
5
 10
223.3449820347
 20
-63.3423965069
 11
223.2955500347
 21
-63.5866985069
  0
LINE
  8
2
  6
CONTINUOUS
 62
5
 10
223.2803780347
 20
-63.1574485069
 11
223.2569300347
 21
-63.2733315069
  0
LINE
  8
2
  6
CONTINUOUS
 62
5
 10
221.3889720347
 20
-63.0480205069
 11
221.6065610347
 21
-63.1152655069
  0
LINE
  8
2
  6
CONTINUOUS
 62
5
 10
221.8120250347
 20
-63.3423955069
 11
221.8614580347
 21
-63.5866985069
  0
LINE
  8
2
  6
CONTINUOUS
 62
5
 10
221.8766280347
 20
-63.1574485069
 11
221.9000760347
 21
-63.2733305069
  0
LINE
  8
2
  6
CONTINUOUS
 62
5
 10
221.8614560347
 20
-63.5867015069
 11
221.9281233127
 21
-63.0457295069
  0
LINE
  8
2
  6
CONTINUOUS
 62
5
 10
223.2955450347
 20
-63.5867015069
 11
223.2288767923
 21
-63.0457295069
  0
LINE
  8
2
  6
CONTINUOUS
 62
5
 10
222.5784980347
 20
-67.4957295069
 11
223.2065190347
 21
-67.4957295069
  0
LINE
  8
2
  6
CONTINUOUS
 62
5
 10
223.2065170347
 20
-67.4957315069
 11
223.2955460347
 21
-67.5847605069
  0
LINE
  8
2
  6
CONTINUOUS
 62
5
 10
222.5785040347
 20
-67.4957295069
 11
221.9504820347
 21
-67.4957295069
  0
LINE
  8
2
  6
CONTINUOUS
 62
5
 10
221.9504830347
 20
-67.4957305069
 11
221.8614540347
 21
-67.5847595069
  0
LINE
  8
2
  6
CONTINUOUS
 62
5
 10
221.3889710347
 20
-68.1234365069
 11
221.6065620347
 21
-68.0561905069
  0
LINE
  8
2
  6
CONTINUOUS
 62
5
 10
221.8766270347
 20
-68.0140125069
 11
221.9000750347
 21
-67.8981305069
  0
LINE
  8
2
  6
CONTINUOUS
 62
5
 10
223.7680240347
 20
-68.1234355069
 11
223.5504330347
 21
-68.0561895069
  0
LINE
  8
2
  6
CONTINUOUS
 62
5
 10
223.3449790347
 20
-67.8290635069
 11
223.2955460347
 21
-67.5847595069
  0
LINE
  8
2
  6
CONTINUOUS
 62
5
 10
223.2803760347
 20
-68.0140095069
 11
223.2569280347
 21
-67.8981285069
  0
LINE
  8
2
  6
CONTINUOUS
 62
5
 10
223.2955440347
 20
-67.5847555069
 11
223.2264110347
 21
-68.1457275069
  0
LINE
  8
2
  6
CONTINUOUS
 62
5
 10
221.8614470347
 20
-67.5847575069
 11
221.9305800347
 21
-68.1457295069
  0
LINE
  8
2
  6
CONTINUOUS
 62
5
 10
221.8120230347
 20
-67.8290645069
 11
221.8614560347
 21
-67.5847605069
  0
LINE
  8
2
  6
CONTINUOUS
 62
5
 10
221.8689720347
 20
-63.5257285069
 11
219.5784980347
 21
-63.5257285069
  0
LINE
  8
2
  6
CONTINUOUS
 62
5
 10
225.7784990347
 20
-66.5857295069
 11
225.7784990347
 21
-67.9974875069
  0
LINE
  8
2
  6
CONTINUOUS
 62
5
 10
225.2784990347
 20
-66.5357295069
 11
225.2784990347
 21
-68.1457295069
  0
LINE
  8
2
  6
CONTINUOUS
 62
5
 10
220.8284960347
 20
-66.0457295069
 11
221.0784960347
 21
-66.0457295069
  0
LINE
  8
2
  6
CONTINUOUS
 62
5
 10
221.0784960347
 20
-65.6779565069
 11
221.0784960347
 21
-66.0457295069
  0
LINE
  8
2
  6
CONTINUOUS
 62
5
 10
220.8284960347
 20
-65.9988815069
 11
220.8284960347
 21
-66.0457295069
  0
LINE
  8
2
  6
CONTINUOUS
 62
5
 10
220.3284960347
 20
-66.0457295069
 11
220.0784960347
 21
-66.0457295069
  0
LINE
  8
2
  6
CONTINUOUS
 62
5
 10
220.3284960347
 20
-65.9988815069
 11
220.3284960347
 21
-66.0457295069
  0
LINE
  8
2
  6
CONTINUOUS
 62
5
 10
220.0784960347
 20
-65.6779565069
 11
220.0784960347
 21
-66.0457295069
  0
LINE
  8
2
  6
CONTINUOUS
 62
5
 10
220.1722480347
 20
-65.5457305069
 11
220.1245080347
 21
-65.6491795069
  0
LINE
  8
2
  6
CONTINUOUS
 62
5
 10
220.9847470347
 20
-65.5457305069
 11
221.0324870347
 21
-65.6491805069
  0
LINE
  8
2
  6
CONTINUOUS
 62
5
 10
223.3284960347
 20
-66.0457295069
 11
223.5784960347
 21
-66.0457295069
  0
LINE
  8
2
  6
CONTINUOUS
 62
5
 10
223.5784960347
 20
-65.6779565069
 11
223.5784960347
 21
-66.0457295069
  0
LINE
  8
2
  6
CONTINUOUS
 62
5
 10
223.3284960347
 20
-65.9988815069
 11
223.3284960347
 21
-66.0457295069
  0
LINE
  8
2
  6
CONTINUOUS
 62
5
 10
222.8284960347
 20
-66.0457295069
 11
222.5784960347
 21
-66.0457295069
  0
LINE
  8
2
  6
CONTINUOUS
 62
5
 10
222.8284960347
 20
-65.9988815069
 11
222.8284960347
 21
-66.0457295069
  0
LINE
  8
2
  6
CONTINUOUS
 62
5
 10
222.5784960347
 20
-65.6779565069
 11
222.5784960347
 21
-66.0457295069
  0
LINE
  8
2
  6
CONTINUOUS
 62
5
 10
222.6722470347
 20
-65.5457295069
 11
222.6245070347
 21
-65.6491795069
  0
LINE
  8
2
  6
CONTINUOUS
 62
5
 10
223.4847460347
 20
-65.5457315069
 11
223.5324860347
 21
-65.6491805069
  0
ARC
  8
2
  6
CONTINUOUS
 62
5
 10
214.6684960347
 20
-64.3457295069
 40
0.6400000000
 50
89.9999960000
 51
180.0000050000
  0
ARC
  8
2
  6
CONTINUOUS
 62
5
 10
213.9784970347
 20
-63.6257295069
 40
0.6000000000
 50
104.8351115820
 51
180.0000050000
  0
ARC
  8
2
  6
CONTINUOUS
 62
5
 10
213.6484960347
 20
-67.8257285069
 40
0.3200000000
 50
180.0000090000
 51
269.9999970000
  0
ARC
  8
2
  6
CONTINUOUS
 62
5
 10
215.3865540347
 20
-63.2566095069
 40
0.5000000000
 50
11.4389220000
 51
24.9457536051
  0
ARC
  8
2
  6
CONTINUOUS
 62
5
 10
215.5179740347
 20
-63.4018915069
 40
0.3000000000
 50
11.4389220000
 51
72.8263110000
  0
ARC
  8
2
  6
CONTINUOUS
 62
5
 10
217.7704380347
 20
-63.2566095069
 40
0.5000000000
 50
155.0542463949
 51
168.5610770000
  0
ARC
  8
2
  6
CONTINUOUS
 62
5
 10
217.6390140347
 20
-63.4018915069
 40
0.3000000000
 50
107.1736870000
 51
168.5610770000
  0
ARC
  8
2
  6
CONTINUOUS
 62
5
 10
217.7704400347
 20
-67.9148495069
 40
0.5000000000
 50
191.4389230000
 51
207.5006860000
  0
ARC
  8
2
  6
CONTINUOUS
 62
5
 10
217.9156560347
 20
-67.6457285069
 40
0.5000000000
 50
252.8263130000
 51
270.0000040000
  0
ARC
  8
2
  6
CONTINUOUS
 62
5
 10
217.6390140347
 20
-67.7695675069
 40
0.3000000000
 50
191.4389230000
 51
252.8263130000
  0
ARC
  8
2
  6
CONTINUOUS
 62
5
 10
215.3865540347
 20
-67.9148495069
 40
0.5000000000
 50
332.4993140000
 51
348.5610780000
  0
ARC
  8
2
  6
CONTINUOUS
 62
5
 10
215.2413320347
 20
-67.6457285069
 40
0.5000000000
 50
270.0000040000
 51
287.1736890000
  0
ARC
  8
2
  6
CONTINUOUS
 62
5
 10
215.5179740347
 20
-67.7695675069
 40
0.3000000000
 50
287.1736890000
 51
348.5610780000
  0
ARC
  8
2
  6
CONTINUOUS
 62
5
 10
218.5785000347
 20
-65.9988815069
 40
0.2500000000
 50
0.0000090000
 51
90.0000030000
  0
ARC
  8
2
  6
CONTINUOUS
 62
5
 10
218.5785000347
 20
-65.6779565069
 40
0.5000000000
 50
164.6655340000
 51
179.9999910000
  0
ARC
  8
2
  6
CONTINUOUS
 62
5
 10
218.5785000347
 20
-65.4457285069
 40
0.6500000000
 50
247.3801390000
 51
270.0000040000
  0
ARC
  8
2
  6
CONTINUOUS
 62
5
 10
218.5785000347
 20
-65.9988815069
 40
0.2500000000
 50
89.9999960000
 51
179.9999910000
  0
ARC
  8
2
  6
CONTINUOUS
 62
5
 10
218.5785000347
 20
-65.8586875069
 40
0.5000000000
 50
0.0000090000
 51
24.7724080000
  0
ARC
  8
2
  6
CONTINUOUS
 62
5
 10
218.5785000347
 20
-65.6779565069
 40
0.5000000000
 50
0.0000090000
 51
15.3344680000
  0
ARC
  8
2
  6
CONTINUOUS
 62
5
 10
218.5785000347
 20
-65.4457285069
 40
0.6500000000
 50
270.0000040000
 51
292.6198700000
  0
ARC
  8
2
  6
CONTINUOUS
 62
5
 10
218.5785000347
 20
-65.8586875069
 40
0.5000000000
 50
155.2275920000
 51
179.9999910000
  0
ARC
  8
2
  6
CONTINUOUS
 62
5
 10
216.0785000347
 20
-65.8586875069
 40
0.5000000000
 50
155.2275920000
 51
179.9999910000
  0
ARC
  8
2
  6
CONTINUOUS
 62
5
 10
216.0785000347
 20
-65.9988815069
 40
0.2500000000
 50
0.0000090000
 51
90.0000030000
  0
ARC
  8
2
  6
CONTINUOUS
 62
5
 10
216.0785000347
 20
-65.6779565069
 40
0.5000000000
 50
164.6655340000
 51
179.9999910000
  0
ARC
  8
2
  6
CONTINUOUS
 62
5
 10
216.0785000347
 20
-65.4457285069
 40
0.6500000000
 50
247.3801390000
 51
270.0000040000
  0
ARC
  8
2
  6
CONTINUOUS
 62
5
 10
216.0785000347
 20
-65.9988815069
 40
0.2500000000
 50
89.9999960000
 51
179.9999910000
  0
ARC
  8
2
  6
CONTINUOUS
 62
5
 10
216.0785000347
 20
-65.8586875069
 40
0.5000000000
 50
0.0000090000
 51
24.7724080000
  0
ARC
  8
2
  6
CONTINUOUS
 62
5
 10
216.0785000347
 20
-65.6779565069
 40
0.5000000000
 50
0.0000090000
 51
15.3344680000
  0
ARC
  8
2
  6
CONTINUOUS
 62
5
 10
216.0785000347
 20
-65.4457285069
 40
0.6500000000
 50
270.0000040000
 51
292.6198700000
  0
ARC
  8
2
  6
CONTINUOUS
 62
5
 10
223.0784960347
 20
-65.4457285069
 40
0.6500000000
 50
247.3801320000
 51
269.9999970000
  0
ARC
  8
2
  6
CONTINUOUS
 62
5
 10
223.0784960347
 20
-65.6779565069
 40
0.5000000000
 50
164.6655340000
 51
179.9999910000
  0
ARC
  8
2
  6
CONTINUOUS
 62
5
 10
224.4885000347
 20
-64.3457295069
 40
0.6400000000
 50
0.0000000000
 51
90.0000030000
  0
ARC
  8
2
  6
CONTINUOUS
 62
5
 10
225.1784980347
 20
-63.6257295069
 40
0.6000000000
 50
0.0000000000
 51
75.1648884180
  0
ARC
  8
2
  6
CONTINUOUS
 62
5
 10
225.5085000347
 20
-67.8257285069
 40
0.3200000000
 50
269.9999970000
 51
0.0000000000
  0
ARC
  8
2
  6
CONTINUOUS
 62
5
 10
223.7704420347
 20
-63.2566095069
 40
0.5000000000
 50
155.0542463949
 51
168.5610770000
  0
ARC
  8
2
  6
CONTINUOUS
 62
5
 10
223.6390200347
 20
-63.4018915069
 40
0.3000000000
 50
107.1736870000
 51
168.5610770000
  0
ARC
  8
2
  6
CONTINUOUS
 62
5
 10
221.3865580347
 20
-63.2566095069
 40
0.5000000000
 50
11.4389220000
 51
24.9457536051
  0
ARC
  8
2
  6
CONTINUOUS
 62
5
 10
221.5179820347
 20
-63.4018915069
 40
0.3000000000
 50
11.4389220000
 51
72.8263110000
  0
ARC
  8
2
  6
CONTINUOUS
 62
5
 10
221.3865540347
 20
-67.9148495069
 40
0.5000000000
 50
332.4993140000
 51
348.5610780000
  0
ARC
  8
2
  6
CONTINUOUS
 62
5
 10
221.2413400347
 20
-67.6457285069
 40
0.5000000000
 50
269.9999970000
 51
287.1736890000
  0
ARC
  8
2
  6
CONTINUOUS
 62
5
 10
221.5179820347
 20
-67.7695675069
 40
0.3000000000
 50
287.1736890000
 51
348.5610780000
  0
ARC
  8
2
  6
CONTINUOUS
 62
5
 10
223.7704420347
 20
-67.9148495069
 40
0.5000000000
 50
191.4389230000
 51
207.5006860000
  0
ARC
  8
2
  6
CONTINUOUS
 62
5
 10
223.9156620347
 20
-67.6457285069
 40
0.5000000000
 50
252.8263130000
 51
269.9999970000
  0
ARC
  8
2
  6
CONTINUOUS
 62
5
 10
223.6390200347
 20
-67.7695675069
 40
0.3000000000
 50
191.4389230000
 51
252.8263130000
  0
ARC
  8
2
  6
CONTINUOUS
 62
5
 10
220.5784960347
 20
-65.9988815069
 40
0.2500000000
 50
89.9999960000
 51
179.9999910000
  0
ARC
  8
2
  6
CONTINUOUS
 62
5
 10
220.5784960347
 20
-65.6779565069
 40
0.5000000000
 50
0.0000030000
 51
15.3344680000
  0
ARC
  8
2
  6
CONTINUOUS
 62
5
 10
220.5784960347
 20
-65.4457285069
 40
0.6500000000
 50
269.9999970000
 51
292.6198630000
  0
ARC
  8
2
  6
CONTINUOUS
 62
5
 10
220.5784960347
 20
-65.9988815069
 40
0.2500000000
 50
0.0000030000
 51
90.0000030000
  0
ARC
  8
2
  6
CONTINUOUS
 62
5
 10
220.5784960347
 20
-65.8586875069
 40
0.5000000000
 50
155.2275920000
 51
179.9999910000
  0
ARC
  8
2
  6
CONTINUOUS
 62
5
 10
220.5784960347
 20
-65.6779565069
 40
0.5000000000
 50
164.6655340000
 51
179.9999910000
  0
ARC
  8
2
  6
CONTINUOUS
 62
5
 10
220.5784960347
 20
-65.4457285069
 40
0.6500000000
 50
247.3801320000
 51
269.9999970000
  0
ARC
  8
2
  6
CONTINUOUS
 62
5
 10
220.5784960347
 20
-65.8586875069
 40
0.5000000000
 50
0.0000090000
 51
24.7724080000
  0
ARC
  8
2
  6
CONTINUOUS
 62
5
 10
223.0784960347
 20
-65.8586875069
 40
0.5000000000
 50
0.0000090000
 51
24.7724080000
  0
ARC
  8
2
  6
CONTINUOUS
 62
5
 10
223.0784960347
 20
-65.9988815069
 40
0.2500000000
 50
89.9999960000
 51
179.9999910000
  0
ARC
  8
2
  6
CONTINUOUS
 62
5
 10
223.0784960347
 20
-65.6779565069
 40
0.5000000000
 50
0.0000030000
 51
15.3344680000
  0
ARC
  8
2
  6
CONTINUOUS
 62
5
 10
223.0784960347
 20
-65.4457285069
 40
0.6500000000
 50
269.9999970000
 51
292.6198630000
  0
ARC
  8
2
  6
CONTINUOUS
 62
5
 10
223.0784960347
 20
-65.9988815069
 40
0.2500000000
 50
0.0000030000
 51
90.0000030000
  0
ARC
  8
2
  6
CONTINUOUS
 62
5
 10
223.0784960347
 20
-65.8586875069
 40
0.5000000000
 50
155.2275920000
 51
179.9999910000
  0
LINE
  8
2
  6
CONTINUOUS
 62
5
 10
225.5085000179
 20
-68.1457285069
 11
213.6484960347
 21
-68.1457285069
  0
LINE
  8
1
  6
CONTINUOUS
 62
5
 10
213.3284975347
 20
-63.0457295069
 11
225.8284975347
 21
-63.0457295069
  0
LINE
  8
1
  6
CONTINUOUS
 62
5
 10
225.8284975347
 20
-63.0457295069
 11
225.8284975347
 21
-68.4457295069
  0
LINE
  8
1
  6
CONTINUOUS
 62
5
 10
225.8284975347
 20
-68.4457295069
 11
213.3284975347
 21
-68.4457295069
  0
LINE
  8
1
  6
CONTINUOUS
 62
5
 10
213.3284975347
 20
-68.4457295069
 11
213.3284975347
 21
-63.0457295069
  0
POINT
  8
3
  6
CONTINUOUS
 62
5
 10
219.5784975347
 20
-65.4457295069
  0
LINE
  8
3
  6
CONTINUOUS
 62
5
 10
215.0667208394
 20
-107.9575062022
 11
216.7502742300
 21
-106.2739528116
  0
LINE
  8
3
  6
CONTINUOUS
 62
5
 10
215.4647969578
 20
-108.0844300838
 11
216.8421981116
 21
-106.7070289300
  0
LINE
  8
3
  6
CONTINUOUS
 62
5
 10
214.9934975347
 20
-114.4407295069
 11
214.9934975347
 21
-113.5457295069
  0
LINE
  8
3
  6
CONTINUOUS
 62
5
 10
214.9934975347
 20
-109.0457295069
 11
214.9934975347
 21
-108.1342828975
  0
LINE
  8
3
  6
CONTINUOUS
 62
5
 10
215.1984975347
 20
-109.5457295069
 11
215.1984975347
 21
-113.0457295069
  0
LINE
  8
3
  6
CONTINUOUS
 62
5
 10
215.2593141908
 20
-109.5457295069
 11
215.2593141908
 21
-113.0457295069
  0
LINE
  8
3
  6
CONTINUOUS
 62
5
 10
215.3534975347
 20
-114.0157295069
 11
215.3534975347
 21
-113.5457295069
  0
LINE
  8
3
  6
CONTINUOUS
 62
5
 10
215.3534975347
 20
-109.0457295069
 11
215.3534975347
 21
-108.3531306606
  0
LINE
  8
3
  6
CONTINUOUS
 62
5
 10
216.7784975347
 20
-111.7857295069
 11
216.7784975347
 21
-109.2057295069
  0
LINE
  8
3
  6
CONTINUOUS
 62
5
 10
223.9134975347
 20
-114.6907295069
 11
215.2434975347
 21
-114.6907295069
  0
LINE
  8
3
  6
CONTINUOUS
 62
5
 10
217.2784975347
 20
-111.5857295069
 11
217.2784975347
 21
-109.4057295069
  0
LINE
  8
3
  6
CONTINUOUS
 62
5
 10
223.4234975347
 20
-114.3957295069
 11
215.7334975347
 21
-114.3957295069
  0
LINE
  8
3
  6
CONTINUOUS
 62
5
 10
217.8284975347
 20
-113.0956196440
 11
217.8284975347
 21
-112.0857295069
  0
LINE
  8
3
  6
CONTINUOUS
 62
5
 10
217.8284975347
 20
-108.9057295069
 11
217.8284975347
 21
-107.8958393698
  0
LINE
  8
3
  6
CONTINUOUS
 62
5
 10
218.8284975347
 20
-113.0956196440
 11
218.8284975347
 21
-112.0857295069
  0
LINE
  8
3
  6
CONTINUOUS
 62
5
 10
218.8284975347
 20
-108.9057295069
 11
218.8284975347
 21
-107.8958393698
  0
LINE
  8
3
  6
CONTINUOUS
 62
5
 10
221.3284975347
 20
-113.0957295069
 11
220.3284975347
 21
-113.0957295069
  0
LINE
  8
3
  6
CONTINUOUS
 62
5
 10
218.8284975347
 20
-113.0957295069
 11
217.8284975347
 21
-113.0957295069
  0
LINE
  8
3
  6
CONTINUOUS
 62
5
 10
222.0784975347
 20
-112.0857295069
 11
217.0784975347
 21
-112.0857295069
  0
LINE
  8
3
  6
CONTINUOUS
 62
5
 10
221.8784975347
 20
-111.5857295069
 11
217.2784975347
 21
-111.5857295069
  0
LINE
  8
3
  6
CONTINUOUS
 62
5
 10
220.3284975347
 20
-113.0956196440
 11
220.3284975347
 21
-112.0857295069
  0
LINE
  8
3
  6
CONTINUOUS
 62
5
 10
220.3284975347
 20
-108.9057295069
 11
220.3284975347
 21
-107.8958393698
  0
LINE
  8
3
  6
CONTINUOUS
 62
5
 10
221.3284975347
 20
-113.0956196440
 11
221.3284975347
 21
-112.0857295069
  0
LINE
  8
3
  6
CONTINUOUS
 62
5
 10
221.3284975347
 20
-108.9057295069
 11
221.3284975347
 21
-107.8958393698
  0
LINE
  8
3
  6
CONTINUOUS
 62
5
 10
221.8784975347
 20
-109.4057295069
 11
221.8784975347
 21
-111.5857295069
  0
LINE
  8
3
  6
CONTINUOUS
 62
5
 10
222.3784975347
 20
-111.7857295069
 11
222.3784975347
 21
-109.2057295069
  0
LINE
  8
3
  6
CONTINUOUS
 62
5
 10
217.2784975347
 20
-109.4057295069
 11
221.8784975347
 21
-109.4057295069
  0
LINE
  8
3
  6
CONTINUOUS
 62
5
 10
217.0784975347
 20
-108.9057295069
 11
222.0784975347
 21
-108.9057295069
  0
LINE
  8
3
  6
CONTINUOUS
 62
5
 10
223.5034655792
 20
-109.5457295069
 11
223.5034655792
 21
-113.0457295069
  0
LINE
  8
3
  6
CONTINUOUS
 62
5
 10
223.5589160598
 20
-109.5457295069
 11
223.5589160598
 21
-113.0457295069
  0
LINE
  8
3
  6
CONTINUOUS
 62
5
 10
223.8034975347
 20
-108.3531306606
 11
223.8034975347
 21
-109.0457295069
  0
LINE
  8
3
  6
CONTINUOUS
 62
5
 10
223.8034975347
 20
-113.5457295069
 11
223.8034975347
 21
-114.0157295069
  0
LINE
  8
3
  6
CONTINUOUS
 62
5
 10
223.8976808786
 20
-109.5457295069
 11
223.8976808786
 21
-113.0457295069
  0
LINE
  8
3
  6
CONTINUOUS
 62
5
 10
223.9584975347
 20
-109.5457295069
 11
223.9584975347
 21
-113.0457295069
  0
LINE
  8
3
  6
CONTINUOUS
 62
5
 10
224.1634975347
 20
-108.1342828975
 11
224.1634975347
 21
-109.0457295069
  0
LINE
  8
3
  6
CONTINUOUS
 62
5
 10
224.1634975347
 20
-113.5457295069
 11
224.1634975347
 21
-114.4407295069
  0
LINE
  8
3
  6
CONTINUOUS
 62
5
 10
221.3284975347
 20
-107.8957295069
 11
220.3284975347
 21
-107.8957295069
  0
LINE
  8
3
  6
CONTINUOUS
 62
5
 10
218.8284975347
 20
-107.8957295069
 11
217.8284975347
 21
-107.8957295069
  0
LINE
  8
3
  6
CONTINUOUS
 62
5
 10
217.1108986884
 20
-106.5957295069
 11
222.0460963810
 21
-106.5957295069
  0
LINE
  8
3
  6
CONTINUOUS
 62
5
 10
222.3147969578
 20
-106.7070289300
 11
223.6921981116
 21
-108.0844300838
  0
LINE
  8
3
  6
CONTINUOUS
 62
5
 10
216.9270509253
 20
-106.2007295069
 11
222.2299441441
 21
-106.2007295069
  0
LINE
  8
3
  6
CONTINUOUS
 62
5
 10
222.4067208394
 20
-106.2739528116
 11
224.0902742300
 21
-107.9575062022
  0
ARC
  8
3
  6
CONTINUOUS
 62
5
 10
223.9134975347
 20
-114.4407295069
 40
0.2500000000
 50
270.0000000000
 51
0.0000000000
  0
ARC
  8
3
  6
CONTINUOUS
 62
5
 10
215.2434975347
 20
-114.4407295069
 40
0.2500000000
 50
180.0000000000
 51
270.0000000000
  0
ARC
  8
3
  6
CONTINUOUS
 62
5
 10
223.9134975347
 20
-108.1342828975
 40
0.2500000000
 50
0.0000000000
 51
45.0000000000
  0
ARC
  8
3
  6
CONTINUOUS
 62
5
 10
222.2299441441
 20
-106.4507295069
 40
0.2500000000
 50
45.0000000000
 51
90.0000000000
  0
ARC
  8
3
  6
CONTINUOUS
 62
5
 10
215.2434975347
 20
-108.1342828975
 40
0.2500000000
 50
135.0000000000
 51
180.0000000000
  0
ARC
  8
3
  6
CONTINUOUS
 62
5
 10
216.9270509253
 20
-106.4507295069
 40
0.2500000000
 50
90.0000000000
 51
135.0000000000
  0
ARC
  8
3
  6
CONTINUOUS
 62
5
 10
222.0784975347
 20
-111.7857295069
 40
0.3000000000
 50
270.0000000000
 51
0.0000000000
  0
ARC
  8
3
  6
CONTINUOUS
 62
5
 10
217.0784975347
 20
-111.7857295069
 40
0.3000000000
 50
180.0000000000
 51
270.0000000000
  0
ARC
  8
3
  6
CONTINUOUS
 62
5
 10
217.0784975347
 20
-109.2057295069
 40
0.3000000000
 50
90.0000000000
 51
180.0000000000
  0
ARC
  8
3
  6
CONTINUOUS
 62
5
 10
222.0784975347
 20
-109.2057295069
 40
0.3000000000
 50
0.0000000000
 51
90.0000000000
  0
ARC
  8
3
  6
CONTINUOUS
 62
5
 10
223.4234975347
 20
-108.3531306606
 40
0.3800000000
 50
0.0000000000
 51
45.0000000000
  0
ARC
  8
3
  6
CONTINUOUS
 62
5
 10
222.0460963810
 20
-106.9757295069
 40
0.3800000000
 50
45.0000000000
 51
90.0000000000
  0
ARC
  8
3
  6
CONTINUOUS
 62
5
 10
217.1108986884
 20
-106.9757295069
 40
0.3800000000
 50
90.0000000000
 51
135.0000000000
  0
ARC
  8
3
  6
CONTINUOUS
 62
5
 10
215.7334975347
 20
-108.3531306606
 40
0.3800000000
 50
135.0000000000
 51
180.0000000000
  0
ARC
  8
3
  6
CONTINUOUS
 62
5
 10
223.4234975347
 20
-114.0157295069
 40
0.3800000000
 50
270.0000000000
 51
0.0000000000
  0
ARC
  8
3
  6
CONTINUOUS
 62
5
 10
215.7334975347
 20
-114.0157295069
 40
0.3800000000
 50
180.0000000000
 51
270.0000000000
  0
LINE
  8
3
  6
CONTINUOUS
 62
5
 10
215.6535294902
 20
-109.5457295069
 11
215.6535294902
 21
-113.0457295069
  0
LINE
  8
3
  6
CONTINUOUS
 62
5
 10
215.5980790096
 20
-109.5457295069
 11
215.5980790096
 21
-113.0457295069
  0
LINE
  8
3
  6
CONTINUOUS
 62
5
 10
223.8034975347
 20
-109.0457295069
 11
224.1634975347
 21
-109.0457295069
  0
LINE
  8
3
  6
CONTINUOUS
 62
5
 10
223.5034975347
 20
-109.5457295069
 11
224.1634975347
 21
-109.5457295068
  0
LINE
  8
3
  6
CONTINUOUS
 62
5
 10
224.1634975347
 20
-113.0457295068
 11
223.5034975347
 21
-113.0457295069
  0
LINE
  8
3
  6
CONTINUOUS
 62
5
 10
215.6535294902
 20
-113.0457295069
 11
214.9934975347
 21
-113.0457295069
  0
LINE
  8
3
  6
CONTINUOUS
 62
5
 10
214.9934975347
 20
-113.5457295069
 11
215.3534975347
 21
-113.5457295069
  0
LINE
  8
3
  6
CONTINUOUS
 62
5
 10
214.9934975347
 20
-109.5457295069
 11
215.6535294902
 21
-109.5457295069
  0
LINE
  8
3
  6
CONTINUOUS
 62
5
 10
214.9934975347
 20
-109.0457295069
 11
215.3534975347
 21
-109.0457295069
  0
LINE
  8
1
  6
CONTINUOUS
 62
5
 10
214.9934975347
 20
-108.0307295069
 11
216.8234975347
 21
-106.2007295069
  0
LINE
  8
1
  6
CONTINUOUS
 62
5
 10
216.8234975347
 20
-106.2007295069
 11
222.3334975347
 21
-106.2007295069
  0
LINE
  8
1
  6
CONTINUOUS
 62
5
 10
222.3334975347
 20
-106.2007295069
 11
224.1634975347
 21
-108.0307295069
  0
LINE
  8
1
  6
CONTINUOUS
 62
5
 10
224.1634975347
 20
-108.0307295069
 11
224.1634975347
 21
-114.6907295069
  0
LINE
  8
1
  6
CONTINUOUS
 62
5
 10
224.1634975347
 20
-114.6907295069
 11
214.9934975347
 21
-114.6907295069
  0
LINE
  8
1
  6
CONTINUOUS
 62
5
 10
214.9934975347
 20
-114.6907295069
 11
214.9934975347
 21
-108.0307295069
  0
LINE
  8
3
  6
CONTINUOUS
 62
7
 10
204.0784975347
 20
-100.4457295069
 11
204.0784975347
 21
-120.4457295069
  0
LINE
  8
3
  6
CONTINUOUS
 62
7
 10
232.0784975347
 20
-97.4457295069
 11
207.0784975347
 21
-97.4457295069
  0
LINE
  8
3
  6
CONTINUOUS
 62
7
 10
235.0784975347
 20
-120.4457295069
 11
235.0784975347
 21
-100.4457295069
  0
LINE
  8
3
  6
CONTINUOUS
 62
7
 10
232.0784975347
 20
-123.4457295069
 11
207.0784975347
 21
-123.4457295069
  0
POINT
  8
3
  6
CONTINUOUS
 62
7
 10
219.5784975347
 20
-110.4457295069
  0
ARC
  8
3
  6
CONTINUOUS
 62
7
 10
207.0784975347
 20
-120.4457295069
 40
3.0000000000
 50
180.0000000000
 51
270.0000000000
  0
ARC
  8
3
  6
CONTINUOUS
 62
7
 10
207.0784975347
 20
-100.4457295069
 40
3.0000000000
 50
90.0000000000
 51
180.0000000000
  0
ARC
  8
3
  6
CONTINUOUS
 62
7
 10
232.0784975347
 20
-100.4457295069
 40
3.0000000000
 50
0.0000000000
 51
90.0000000000
  0
ARC
  8
3
  6
CONTINUOUS
 62
7
 10
232.0784975347
 20
-120.4457295069
 40
3.0000000000
 50
270.0000000000
 51
0.0000000000
  0
LINE
  8
3
  6
DASHDOT
 62
1
 10
202.0784975347
 20
-110.4457295069
 11
237.0784975347
 21
-110.4457295069
  0
LINE
  8
3
  6
DASHDOT
 62
1
 10
219.5784975347
 20
-125.4457295069
 11
219.5784975347
 21
-95.4457295069
  0
CIRCLE
  8
3
  6
CONTINUOUS
 62
7
 10
219.5784975347
 20
-110.4457295069
 40
11.8500000000
  0
CIRCLE
  8
3
  6
CONTINUOUS
 62
7
 10
231.5784975347
 20
-100.9457295069
 40
3.0000000000
  0
CIRCLE
  8
3
  6
CONTINUOUS
 62
7
 10
207.5784975347
 20
-119.9457295069
 40
3.0000000000
  0
LINE
  8
3
  6
CONTINUOUS
 62
6
 10
230.2400454132
 20
-99.6072773854
 11
232.9169496562
 21
-102.2841816284
  0
LINE
  8
3
  6
CONTINUOUS
 62
6
 10
230.2400454132
 20
-102.2841816284
 11
232.9169496562
 21
-99.6072773854
  0
CIRCLE
  8
3
  6
CONTINUOUS
 62
6
 10
231.5784975347
 20
-100.9457295069
 40
2.6500000000
  0
LINE
  8
3
  6
CONTINUOUS
 62
6
 10
206.2400454132
 20
-118.6072773854
 11
208.9169496562
 21
-121.2841816284
  0
LINE
  8
3
  6
CONTINUOUS
 62
6
 10
206.2400454132
 20
-121.2841816284
 11
208.9169496562
 21
-118.6072773854
  0
CIRCLE
  8
3
  6
CONTINUOUS
 62
6
 10
207.5784975347
 20
-119.9457295069
 40
2.6500000000
  0
LINE
  8
3
  6
CONTINUOUS
 62
7
 10
211.0784975347
 20
-102.9457295069
 11
228.0784975347
 21
-102.9457295069
  0
LINE
  8
3
  6
CONTINUOUS
 62
7
 10
228.0784975347
 20
-102.9457295069
 11
228.0784975347
 21
-117.9457295069
  0
LINE
  8
3
  6
CONTINUOUS
 62
7
 10
228.0784975347
 20
-117.9457295069
 11
211.0784975347
 21
-117.9457295069
  0
LINE
  8
3
  6
CONTINUOUS
 62
7
 10
211.0784975347
 20
-117.9457295069
 11
211.0784975347
 21
-113.8457295069
  0
LINE
  8
3
  6
CONTINUOUS
 62
7
 10
211.0784975347
 20
-107.0457295069
 11
211.0784975347
 21
-102.9457295069
  0
LINE
  8
3
  6
CONTINUOUS
 62
7
 10
217.4784975347
 20
-102.9457295069
 11
217.4784975347
 21
-104.7457295069
  0
LINE
  8
3
  6
CONTINUOUS
 62
7
 10
217.4784975347
 20
-104.7457295069
 11
221.6784975347
 21
-104.7457295069
  0
LINE
  8
3
  6
CONTINUOUS
 62
7
 10
221.6784975347
 20
-104.7457295069
 11
221.6784975347
 21
-102.9457295069
  0
LINE
  8
3
  6
CONTINUOUS
 62
7
 10
217.4784975347
 20
-117.9457295069
 11
217.4784975347
 21
-116.1457295069
  0
LINE
  8
3
  6
CONTINUOUS
 62
7
 10
217.4784975347
 20
-116.1457295069
 11
221.6784975347
 21
-116.1457295069
  0
LINE
  8
3
  6
CONTINUOUS
 62
7
 10
221.6784975347
 20
-116.1457295069
 11
221.6784975347
 21
-117.9457295069
  0
LINE
  8
3
  6
CONTINUOUS
 62
7
 10
211.0784975347
 20
-107.0457295069
 11
209.2784975347
 21
-107.0457295069
  0
LINE
  8
3
  6
CONTINUOUS
 62
7
 10
209.2784975347
 20
-107.0457295069
 11
209.2784975347
 21
-113.8457295069
  0
LINE
  8
3
  6
CONTINUOUS
 62
7
 10
209.2784975347
 20
-113.8457295069
 11
211.0784975347
 21
-113.8457295069
  0
POINT
  8
3
  6
CONTINUOUS
 62
5
 10
219.5784975347
 20
-110.4457295069
  0
TEXT
  8
3
  6
CONTINUOUS
 62
7
 10
237.078498
 20
-67.195730
 40
3.500000
  1
裏面:USB 3.0 A
 41
0.789177
 50
0.000000
 51
0.000000
 72
   5
 73
   0
 11
261.578498
 21
-67.195730
  0
TEXT
  8
3
  6
CONTINUOUS
 62
7
 10
237.078498
 20
-112.195730
 40
3.500000
  1
裏面:USB 2.0 A
 41
0.789177
 50
0.000000
 51
0.000000
 72
   5
 73
   0
 11
261.578498
 21
-112.195730
  0
LINE
  8
3
  6
CONTINUOUS
 62
7
 10
204.0784975347
 20
-145.4457295069
 11
204.0784975347
 21
-165.4457295069
  0
LINE
  8
3
  6
CONTINUOUS
 62
7
 10
232.0784975347
 20
-142.4457295069
 11
207.0784975347
 21
-142.4457295069
  0
LINE
  8
3
  6
CONTINUOUS
 62
7
 10
235.0784975347
 20
-165.4457295069
 11
235.0784975347
 21
-145.4457295069
  0
LINE
  8
3
  6
CONTINUOUS
 62
7
 10
232.0784975347
 20
-168.4457295069
 11
207.0784975347
 21
-168.4457295069
  0
POINT
  8
3
  6
CONTINUOUS
 62
7
 10
219.5784975347
 20
-155.4457295069
  0
ARC
  8
3
  6
CONTINUOUS
 62
7
 10
207.0784975347
 20
-165.4457295069
 40
3.0000000000
 50
180.0000000000
 51
270.0000000000
  0
ARC
  8
3
  6
CONTINUOUS
 62
7
 10
207.0784975347
 20
-145.4457295069
 40
3.0000000000
 50
90.0000000000
 51
180.0000000000
  0
ARC
  8
3
  6
CONTINUOUS
 62
7
 10
232.0784975347
 20
-145.4457295069
 40
3.0000000000
 50
0.0000000000
 51
90.0000000000
  0
ARC
  8
3
  6
CONTINUOUS
 62
7
 10
232.0784975347
 20
-165.4457295069
 40
3.0000000000
 50
270.0000000000
 51
0.0000000000
  0
LINE
  8
3
  6
DASHDOT
 62
1
 10
202.0784975347
 20
-155.4457295069
 11
237.0784975347
 21
-155.4457295069
  0
LINE
  8
3
  6
DASHDOT
 62
1
 10
219.5784975347
 20
-170.4457295069
 11
219.5784975347
 21
-140.4457295069
  0
CIRCLE
  8
3
  6
CONTINUOUS
 62
7
 10
219.5784975347
 20
-155.4457295069
 40
11.8500000000
  0
CIRCLE
  8
3
  6
CONTINUOUS
 62
7
 10
231.5784975347
 20
-145.9457295069
 40
3.0000000000
  0
CIRCLE
  8
3
  6
CONTINUOUS
 62
7
 10
207.5784975347
 20
-164.9457295069
 40
3.0000000000
  0
LINE
  8
3
  6
CONTINUOUS
 62
6
 10
230.2400454132
 20
-144.6072773854
 11
232.9169496562
 21
-147.2841816284
  0
LINE
  8
3
  6
CONTINUOUS
 62
6
 10
230.2400454132
 20
-147.2841816284
 11
232.9169496562
 21
-144.6072773854
  0
CIRCLE
  8
3
  6
CONTINUOUS
 62
6
 10
231.5784975347
 20
-145.9457295069
 40
2.6500000000
  0
LINE
  8
3
  6
CONTINUOUS
 62
6
 10
206.2400454132
 20
-163.6072773854
 11
208.9169496562
 21
-166.2841816284
  0
LINE
  8
3
  6
CONTINUOUS
 62
6
 10
206.2400454132
 20
-166.2841816284
 11
208.9169496562
 21
-163.6072773854
  0
CIRCLE
  8
3
  6
CONTINUOUS
 62
6
 10
207.5784975347
 20
-164.9457295069
 40
2.6500000000
  0
LINE
  8
3
  6
CONTINUOUS
 62
7
 10
211.0784975347
 20
-147.9457295069
 11
228.0784975347
 21
-147.9457295069
  0
LINE
  8
3
  6
CONTINUOUS
 62
7
 10
228.0784975347
 20
-147.9457295069
 11
228.0784975347
 21
-152.0457295069
  0
LINE
  8
3
  6
CONTINUOUS
 62
7
 10
228.0784975347
 20
-158.8457295069
 11
228.0784975347
 21
-162.9457295069
  0
LINE
  8
3
  6
CONTINUOUS
 62
7
 10
228.0784975347
 20
-162.9457295069
 11
211.0784975347
 21
-162.9457295069
  0
LINE
  8
3
  6
CONTINUOUS
 62
7
 10
211.0784975347
 20
-162.9457295069
 11
211.0784975347
 21
-147.9457295069
  0
LINE
  8
3
  6
CONTINUOUS
 62
7
 10
217.4784975347
 20
-147.9457295069
 11
217.4784975347
 21
-149.4457295069
  0
LINE
  8
3
  6
CONTINUOUS
 62
7
 10
221.6784975347
 20
-149.4457295069
 11
221.6784975347
 21
-147.9457295069
  0
LINE
  8
3
  6
CONTINUOUS
 62
7
 10
217.4784975347
 20
-162.9457295069
 11
217.4784975347
 21
-161.4457295069
  0
LINE
  8
3
  6
CONTINUOUS
 62
7
 10
221.6784975347
 20
-161.4457295069
 11
221.6784975347
 21
-162.9457295069
  0
LINE
  8
3
  6
CONTINUOUS
 62
7
 10
228.0784975347
 20
-152.0457295069
 11
229.8784975347
 21
-152.0457295069
  0
LINE
  8
3
  6
CONTINUOUS
 62
7
 10
229.8784975347
 20
-152.0457295069
 11
229.8784975347
 21
-158.8457295069
  0
LINE
  8
3
  6
CONTINUOUS
 62
7
 10
229.8784975347
 20
-158.8457295069
 11
228.0784975347
 21
-158.8457295069
  0
TEXT
  8
3
  6
CONTINUOUS
 62
7
 10
237.078498
 20
-157.195730
 40
3.500000
  1
裏面:USB 3.0 A
 41
0.789177
 50
0.000000
 51
0.000000
 72
   5
 73
   0
 11
261.578498
 21
-157.195730
  0
LINE
  8
3
  6
CONTINUOUS
 62
5
 10
211.8784975347
 20
-149.4457295069
 11
224.3784975347
 21
-149.4457295069
  0
LINE
  8
3
  6
CONTINUOUS
 62
5
 10
224.3784975347
 20
-149.4457295069
 11
224.3784975347
 21
-161.4457295069
  0
LINE
  8
3
  6
CONTINUOUS
 62
5
 10
224.3784975347
 20
-161.4457295069
 11
211.8784975347
 21
-161.4457295069
  0
LINE
  8
3
  6
CONTINUOUS
 62
5
 10
211.8784975347
 20
-161.4457295069
 11
211.8784975347
 21
-149.4457295069
  0
LINE
  8
3
  6
CONTINUOUS
 62
5
 10
215.7512274137
 20
-152.1457295068
 11
212.3784975347
 21
-152.1457295069
  0
LINE
  8
3
  6
CONTINUOUS
 62
5
 10
212.3784975347
 20
-152.1457295069
 11
212.3784975347
 21
-158.7457295069
  0
LINE
  8
3
  6
CONTINUOUS
 62
5
 10
212.3784975347
 20
-158.7457295069
 11
215.7512274137
 21
-158.7457295069
  0
LINE
  8
3
  6
CONTINUOUS
 62
5
 10
215.7628935465
 20
-158.7568123330
 11
216.7628935465
 21
-159.7068123330
  0
LINE
  8
3
  6
CONTINUOUS
 62
5
 10
216.7512274137
 20
-159.6957295069
 11
223.0784975347
 21
-159.6957295069
  0
LINE
  8
3
  6
CONTINUOUS
 62
5
 10
223.0784975347
 20
-159.6957295069
 11
223.0784975347
 21
-151.1957295069
  0
LINE
  8
3
  6
CONTINUOUS
 62
5
 10
212.8784975347
 20
-152.6457295069
 11
214.0784975347
 21
-152.6457295069
  0
LINE
  8
3
  6
CONTINUOUS
 62
5
 10
214.0784975347
 20
-152.6457295069
 11
214.0784975347
 21
-158.2457295069
  0
LINE
  8
3
  6
CONTINUOUS
 62
5
 10
214.0784975347
 20
-158.2457295069
 11
212.8784975347
 21
-158.2457295069
  0
LINE
  8
3
  6
CONTINUOUS
 62
5
 10
212.8784975347
 20
-158.2457295069
 11
212.8784975347
 21
-152.6457295069
  0
LINE
  8
3
  6
CONTINUOUS
 62
5
 10
217.4784975347
 20
-152.6457295069
 11
220.5784975347
 21
-152.6457295069
  0
LINE
  8
3
  6
CONTINUOUS
 62
5
 10
220.5784975347
 20
-152.6457295069
 11
220.5784975347
 21
-158.2457295069
  0
LINE
  8
3
  6
CONTINUOUS
 62
5
 10
220.5784975347
 20
-158.2457295069
 11
217.4784975347
 21
-158.2457295069
  0
LINE
  8
3
  6
CONTINUOUS
 62
5
 10
217.4784975347
 20
-158.2457295069
 11
217.4784975347
 21
-152.6457295069
  0
POINT
  8
3
  6
CONTINUOUS
 62
5
 10
220.0534975347
 20
-200.4457295069
  0
LINE
  8
3
  6
CONTINUOUS
 62
5
 10
221.8784975347
 20
-194.4457295069
 11
214.8784975347
 21
-194.4457295069
  0
LINE
  8
3
  6
CONTINUOUS
 62
5
 10
214.8784975347
 20
-194.4457295069
 11
214.8784975347
 21
-197.2457295069
  0
LINE
  8
3
  6
CONTINUOUS
 62
5
 10
214.8784975347
 20
-197.2457295069
 11
213.3784975347
 21
-197.2457295069
  0
LINE
  8
3
  6
CONTINUOUS
 62
5
 10
213.3784975347
 20
-197.2457295069
 11
213.3784975347
 21
-198.2957295069
  0
LINE
  8
3
  6
CONTINUOUS
 62
5
 10
213.3784975347
 20
-198.2957295069
 11
211.6784975347
 21
-198.2957295069
  0
LINE
  8
3
  6
CONTINUOUS
 62
5
 10
211.6784975347
 20
-202.5957295069
 11
213.3784975347
 21
-202.5957295069
  0
LINE
  8
3
  6
CONTINUOUS
 62
5
 10
213.3784975347
 20
-202.5957295069
 11
213.3784975347
 21
-203.6457295069
  0
LINE
  8
3
  6
CONTINUOUS
 62
5
 10
213.3784975347
 20
-203.6457295069
 11
214.8784975347
 21
-203.6457295069
  0
LINE
  8
3
  6
CONTINUOUS
 62
5
 10
214.8784975347
 20
-203.6457295069
 11
214.8784975347
 21
-206.4457295069
  0
LINE
  8
3
  6
CONTINUOUS
 62
5
 10
214.8784975347
 20
-206.4457295069
 11
221.8784975347
 21
-206.4457295069
  0
LINE
  8
3
  6
CONTINUOUS
 62
5
 10
221.8784975347
 20
-206.4457295069
 11
221.8784975347
 21
-194.4457295069
  0
LINE
  8
3
  6
CONTINUOUS
 62
7
 10
204.0784975347
 20
-190.4457295069
 11
204.0784975347
 21
-210.4457295069
  0
LINE
  8
3
  6
CONTINUOUS
 62
7
 10
232.0784975347
 20
-187.4457295069
 11
207.0784975347
 21
-187.4457295069
  0
LINE
  8
3
  6
CONTINUOUS
 62
7
 10
235.0784975347
 20
-210.4457295069
 11
235.0784975347
 21
-190.4457295069
  0
LINE
  8
3
  6
CONTINUOUS
 62
7
 10
232.0784975347
 20
-213.4457295069
 11
207.0784975347
 21
-213.4457295069
  0
POINT
  8
3
  6
CONTINUOUS
 62
7
 10
219.5784975347
 20
-200.4457295069
  0
ARC
  8
3
  6
CONTINUOUS
 62
7
 10
207.0784975347
 20
-210.4457295069
 40
3.0000000000
 50
180.0000000000
 51
270.0000000000
  0
ARC
  8
3
  6
CONTINUOUS
 62
7
 10
207.0784975347
 20
-190.4457295069
 40
3.0000000000
 50
90.0000000000
 51
180.0000000000
  0
ARC
  8
3
  6
CONTINUOUS
 62
7
 10
232.0784975347
 20
-190.4457295069
 40
3.0000000000
 50
0.0000000000
 51
90.0000000000
  0
ARC
  8
3
  6
CONTINUOUS
 62
7
 10
232.0784975347
 20
-210.4457295069
 40
3.0000000000
 50
270.0000000000
 51
0.0000000000
  0
LINE
  8
3
  6
DASHDOT
 62
1
 10
202.0784975347
 20
-200.4457295069
 11
237.0784975347
 21
-200.4457295069
  0
LINE
  8
3
  6
DASHDOT
 62
1
 10
219.5784975347
 20
-215.4457295069
 11
219.5784975347
 21
-185.4457295069
  0
CIRCLE
  8
3
  6
CONTINUOUS
 62
7
 10
219.5784975347
 20
-200.4457295069
 40
11.8500000000
  0
CIRCLE
  8
3
  6
CONTINUOUS
 62
7
 10
231.5784975347
 20
-190.9457295069
 40
3.0000000000
  0
CIRCLE
  8
3
  6
CONTINUOUS
 62
7
 10
207.5784975347
 20
-209.9457295069
 40
3.0000000000
  0
LINE
  8
3
  6
CONTINUOUS
 62
6
 10
230.2400454132
 20
-189.6072773854
 11
232.9169496562
 21
-192.2841816284
  0
LINE
  8
3
  6
CONTINUOUS
 62
6
 10
230.2400454132
 20
-192.2841816284
 11
232.9169496562
 21
-189.6072773854
  0
CIRCLE
  8
3
  6
CONTINUOUS
 62
6
 10
231.5784975347
 20
-190.9457295069
 40
2.6500000000
  0
LINE
  8
3
  6
CONTINUOUS
 62
6
 10
206.2400454132
 20
-208.6072773854
 11
208.9169496562
 21
-211.2841816284
  0
LINE
  8
3
  6
CONTINUOUS
 62
6
 10
206.2400454132
 20
-211.2841816284
 11
208.9169496562
 21
-208.6072773854
  0
CIRCLE
  8
3
  6
CONTINUOUS
 62
6
 10
207.5784975347
 20
-209.9457295069
 40
2.6500000000
  0
LINE
  8
3
  6
CONTINUOUS
 62
7
 10
211.1784975347
 20
-192.9457295069
 11
227.9784975347
 21
-192.9457295069
  0
LINE
  8
3
  6
CONTINUOUS
 62
7
 10
227.9784975347
 20
-207.9457295069
 11
211.1784975347
 21
-207.9457295069
  0
LINE
  8
3
  6
CONTINUOUS
 62
7
 10
211.1784975347
 20
-197.0457295069
 11
209.4784975347
 21
-197.0457295069
  0
LINE
  8
3
  6
CONTINUOUS
 62
7
 10
209.4784975347
 20
-197.0457295069
 11
209.4784975347
 21
-203.8457295069
  0
LINE
  8
3
  6
CONTINUOUS
 62
7
 10
209.4784975347
 20
-203.8457295069
 11
211.1784975347
 21
-203.8457295069
  0
TEXT
  8
3
  6
CONTINUOUS
 62
7
 10
237.078498
 20
-202.195730
 40
3.500000
  1
裏面:RJ45 CAT6
 41
0.789177
 50
0.000000
 51
0.000000
 72
   5
 73
   0
 11
261.578498
 21
-202.195730
  0
LINE
  8
3
  6
CONTINUOUS
 62
5
 10
215.7628935465
 20
-152.1346466807
 11
216.7512274137
 21
-151.1957295069
  0
CIRCLE
  8
3
  6
CONTINUOUS
 62
7
 10
219.5784975347
 20
-155.4457295069
 40
11.8500000000
  0
LINE
  8
3
  6
CONTINUOUS
 62
5
 10
216.7512274137
 20
-151.1957295069
 11
223.0784975347
 21
-151.1957295069
  0
LINE
  8
3
  6
CONTINUOUS
 62
7
 10
227.9784975347
 20
-192.9457295069
 11
227.9784975347
 21
-207.9457295069
  0
LINE
  8
3
  6
CONTINUOUS
 62
7
 10
211.1784975347
 20
-192.9457295069
 11
211.1784975347
 21
-197.0457295066
  0
LINE
  8
3
  6
CONTINUOUS
 62
7
 10
211.1784975347
 20
-203.8457295073
 11
211.1784975347
 21
-207.9457295069
  0
LINE
  8
3
  6
CONTINUOUS
 62
5
 10
211.6784975347
 20
-198.2957295069
 11
211.6784975347
 21
-202.5957295069
  0
TEXT
  8
3
  6
CONTINUOUS
 62
5
 10
223.628498
 20
-197.945730
 40
2.500000
  1
CAT6
 41
0.796813
 50
270.000000
 51
0.000000
 72
   5
 73
   0
 11
223.628498
 21
-202.945730
  0
LINE
  8
3
  6
CONTINUOUS
 62
7
 10
204.0784975347
 20
-235.4457295069
 11
204.0784975347
 21
-255.4457295069
  0
LINE
  8
3
  6
CONTINUOUS
 62
7
 10
232.0784975347
 20
-232.4457295069
 11
207.0784975347
 21
-232.4457295069
  0
LINE
  8
3
  6
CONTINUOUS
 62
7
 10
235.0784975347
 20
-255.4457295069
 11
235.0784975347
 21
-235.4457295069
  0
LINE
  8
3
  6
CONTINUOUS
 62
7
 10
232.0784975347
 20
-258.4457295069
 11
207.0784975347
 21
-258.4457295069
  0
POINT
  8
3
  6
CONTINUOUS
 62
7
 10
219.5784975347
 20
-245.4457295069
  0
ARC
  8
3
  6
CONTINUOUS
 62
7
 10
207.0784975347
 20
-255.4457295069
 40
3.0000000000
 50
180.0000000000
 51
270.0000000000
  0
ARC
  8
3
  6
CONTINUOUS
 62
7
 10
207.0784975347
 20
-235.4457295069
 40
3.0000000000
 50
90.0000000000
 51
180.0000000000
  0
ARC
  8
3
  6
CONTINUOUS
 62
7
 10
232.0784975347
 20
-235.4457295069
 40
3.0000000000
 50
0.0000000000
 51
90.0000000000
  0
ARC
  8
3
  6
CONTINUOUS
 62
7
 10
232.0784975347
 20
-255.4457295069
 40
3.0000000000
 50
270.0000000000
 51
0.0000000000
  0
LINE
  8
3
  6
DASHDOT
 62
1
 10
202.0784975347
 20
-245.4457295069
 11
237.0784975347
 21
-245.4457295069
  0
LINE
  8
3
  6
DASHDOT
 62
1
 10
219.5784975347
 20
-260.4457295069
 11
219.5784975347
 21
-230.4457295069
  0
CIRCLE
  8
3
  6
CONTINUOUS
 62
7
 10
219.5784975347
 20
-245.4457295069
 40
11.8500000000
  0
CIRCLE
  8
3
  6
CONTINUOUS
 62
7
 10
231.5784975347
 20
-235.9457295069
 40
3.0000000000
  0
CIRCLE
  8
3
  6
CONTINUOUS
 62
7
 10
207.5784975347
 20
-254.9457295069
 40
3.0000000000
  0
LINE
  8
3
  6
CONTINUOUS
 62
6
 10
230.2400454132
 20
-234.6072773854
 11
232.9169496562
 21
-237.2841816284
  0
LINE
  8
3
  6
CONTINUOUS
 62
6
 10
230.2400454132
 20
-237.2841816284
 11
232.9169496562
 21
-234.6072773854
  0
CIRCLE
  8
3
  6
CONTINUOUS
 62
6
 10
231.5784975347
 20
-235.9457295069
 40
2.6500000000
  0
LINE
  8
3
  6
CONTINUOUS
 62
6
 10
206.2400454132
 20
-253.6072773854
 11
208.9169496562
 21
-256.2841816284
  0
LINE
  8
3
  6
CONTINUOUS
 62
6
 10
206.2400454132
 20
-256.2841816284
 11
208.9169496562
 21
-253.6072773854
  0
CIRCLE
  8
3
  6
CONTINUOUS
 62
6
 10
207.5784975347
 20
-254.9457295069
 40
2.6500000000
  0
LINE
  8
3
  6
CONTINUOUS
 62
7
 10
227.9784975347
 20
-237.9457295069
 11
211.1784975347
 21
-237.9457295069
  0
LINE
  8
3
  6
CONTINUOUS
 62
7
 10
211.1784975347
 20
-252.9457295069
 11
227.9784975347
 21
-252.9457295069
  0
LINE
  8
3
  6
CONTINUOUS
 62
7
 10
227.9784975347
 20
-242.0457295069
 11
229.6784975347
 21
-242.0457295069
  0
LINE
  8
3
  6
CONTINUOUS
 62
7
 10
229.6784975347
 20
-242.0457295069
 11
229.6784975347
 21
-248.8457295069
  0
LINE
  8
3
  6
CONTINUOUS
 62
7
 10
229.6784975347
 20
-248.8457295069
 11
227.9784975347
 21
-248.8457295069
  0
TEXT
  8
3
  6
CONTINUOUS
 62
7
 10
237.078498
 20
-247.195730
 40
3.500000
  1
裏面:HDMI
 41
0.815217
 50
0.000000
 51
0.000000
 72
   5
 73
   0
 11
252.828498
 21
-247.195730
  0
LINE
  8
3
  6
CONTINUOUS
 62
7
 10
211.1784975347
 20
-237.9457295069
 11
211.1784975347
 21
-252.9457295069
  0
LINE
  8
3
  6
CONTINUOUS
 62
7
 10
227.9784975347
 20
-237.9457295069
 11
227.9784975347
 21
-242.0457295066
  0
LINE
  8
3
  6
CONTINUOUS
 62
7
 10
227.9784975347
 20
-248.8457295073
 11
227.9784975347
 21
-252.9457295069
  0
LINE
  8
2
  6
CONTINUOUS
 62
5
 10
212.0784975347
 20
-243.6707295069
 11
212.0784975347
 21
-245.7658379075
  0
LINE
  8
2
  6
CONTINUOUS
 62
5
 10
212.2784975347
 20
-245.7658379075
 11
212.2784975347
 21
-243.6707295069
  0
LINE
  8
2
  6
CONTINUOUS
 62
5
 10
214.1784975347
 20
-245.2632295069
 11
214.1784975347
 21
-245.4791583084
  0
LINE
  8
2
  6
CONTINUOUS
 62
5
 10
213.5033728472
 20
-247.1175719469
 11
214.0884240885
 21
-247.8466110242
  0
LINE
  8
2
  6
CONTINUOUS
 62
5
 10
214.2444077192
 20
-247.7214347207
 11
213.6593564779
 21
-246.9923956435
  0
LINE
  8
2
  6
CONTINUOUS
 62
5
 10
215.3534975347
 20
-245.8282295069
 11
215.3534975347
 21
-245.8957295069
  0
LINE
  8
2
  6
CONTINUOUS
 62
5
 10
215.8034975347
 20
-245.8957295069
 11
215.8034975347
 21
-245.8282295069
  0
LINE
  8
2
  6
CONTINUOUS
 62
5
 10
215.8534975347
 20
-244.9957295069
 11
215.8534975347
 21
-245.0632295069
  0
LINE
  8
2
  6
CONTINUOUS
 62
5
 10
216.3034975347
 20
-245.0632295069
 11
216.3034975347
 21
-244.9957295069
  0
LINE
  8
2
  6
CONTINUOUS
 62
5
 10
216.3534975347
 20
-245.8282295069
 11
216.3534975347
 21
-245.8957295069
  0
LINE
  8
2
  6
CONTINUOUS
 62
5
 10
216.8034975347
 20
-245.8957295069
 11
216.8034975347
 21
-245.8282295069
  0
LINE
  8
2
  6
CONTINUOUS
 62
5
 10
216.8534975347
 20
-244.9957295069
 11
216.8534975347
 21
-245.0632295069
  0
LINE
  8
2
  6
CONTINUOUS
 62
5
 10
217.3034975347
 20
-245.0632295069
 11
217.3034975347
 21
-244.9957295069
  0
LINE
  8
2
  6
CONTINUOUS
 62
5
 10
217.3534975347
 20
-245.8282295069
 11
217.3534975347
 21
-245.8957295069
  0
LINE
  8
2
  6
CONTINUOUS
 62
5
 10
212.6634137704
 20
-246.6756211062
 11
213.3209556525
 21
-246.9756211062
  0
LINE
  8
2
  6
CONTINUOUS
 62
5
 10
213.4039724054
 20
-246.7936644665
 11
212.7464305233
 21
-246.4936644665
  0
LINE
  8
2
  6
CONTINUOUS
 62
5
 10
217.8034975347
 20
-245.8957295069
 11
217.8034975347
 21
-245.8282295069
  0
LINE
  8
2
  6
CONTINUOUS
 62
5
 10
217.8534975347
 20
-244.9957295069
 11
217.8534975347
 21
-245.0632295069
  0
LINE
  8
2
  6
CONTINUOUS
 62
5
 10
218.3034975347
 20
-245.0632295069
 11
218.3034975347
 21
-244.9957295069
  0
LINE
  8
2
  6
CONTINUOUS
 62
5
 10
218.3534975347
 20
-245.8282295069
 11
218.3534975347
 21
-245.8957295069
  0
LINE
  8
2
  6
CONTINUOUS
 62
5
 10
214.8683422421
 20
-248.2207295069
 11
224.2886528273
 21
-248.2207295069
  0
LINE
  8
2
  6
CONTINUOUS
 62
5
 10
224.2886528273
 20
-248.0207295069
 11
214.8683422421
 21
-248.0207295069
  0
LINE
  8
2
  6
CONTINUOUS
 62
5
 10
218.8034975347
 20
-245.8957295069
 11
218.8034975347
 21
-245.8282295069
  0
LINE
  8
2
  6
CONTINUOUS
 62
5
 10
218.8534975347
 20
-244.9957295069
 11
218.8534975347
 21
-245.0632295069
  0
LINE
  8
2
  6
CONTINUOUS
 62
5
 10
219.3034975347
 20
-245.0632295069
 11
219.3034975347
 21
-244.9957295069
  0
LINE
  8
2
  6
CONTINUOUS
 62
5
 10
219.3534975347
 20
-245.8282295069
 11
219.3534975347
 21
-245.8957295069
  0
LINE
  8
2
  6
CONTINUOUS
 62
5
 10
214.3213546775
 20
-245.6708212779
 11
214.8213546775
 21
-245.8198924764
  0
LINE
  8
2
  6
CONTINUOUS
 62
5
 10
214.3784975347
 20
-245.4791583084
 11
214.8784975347
 21
-245.6282295069
  0
LINE
  8
2
  6
CONTINUOUS
 62
5
 10
219.8034975347
 20
-245.8957295069
 11
219.8034975347
 21
-245.8282295069
  0
LINE
  8
2
  6
CONTINUOUS
 62
5
 10
219.8534975347
 20
-244.9957295069
 11
219.8534975347
 21
-245.0632295069
  0
LINE
  8
2
  6
CONTINUOUS
 62
5
 10
224.2784975347
 20
-245.6282295069
 11
224.7784975347
 21
-245.4791583084
  0
LINE
  8
2
  6
CONTINUOUS
 62
5
 10
224.3356403918
 20
-245.8198924764
 11
224.8356403918
 21
-245.6708212779
  0
LINE
  8
2
  6
CONTINUOUS
 62
5
 10
224.3356403918
 20
-245.8198924764
 11
224.2784975350
 21
-245.8282295069
  0
LINE
  8
2
  6
CONTINUOUS
 62
5
 10
220.3034975347
 20
-245.0632295069
 11
220.3034975347
 21
-244.9957295069
  0
LINE
  8
2
  6
CONTINUOUS
 62
5
 10
220.3534975347
 20
-245.8282295069
 11
220.3534975347
 21
-245.8957295069
  0
LINE
  8
2
  6
CONTINUOUS
 62
5
 10
215.3534975347
 20
-245.8957295069
 11
215.8034975347
 21
-245.8957295069
  0
LINE
  8
2
  6
CONTINUOUS
 62
5
 10
216.3534975347
 20
-245.8957295069
 11
216.8034975347
 21
-245.8957295069
  0
LINE
  8
2
  6
CONTINUOUS
 62
5
 10
217.3534975347
 20
-245.8957295069
 11
217.8034975347
 21
-245.8957295069
  0
LINE
  8
2
  6
CONTINUOUS
 62
5
 10
218.3534975347
 20
-245.8957295069
 11
218.8034975347
 21
-245.8957295069
  0
LINE
  8
2
  6
CONTINUOUS
 62
5
 10
219.3534975347
 20
-245.8957295069
 11
219.8034975347
 21
-245.8957295069
  0
LINE
  8
2
  6
CONTINUOUS
 62
5
 10
220.3534975347
 20
-245.8957295069
 11
220.8034975347
 21
-245.8957295069
  0
LINE
  8
2
  6
CONTINUOUS
 62
5
 10
221.3534975347
 20
-245.8957295069
 11
221.8034975347
 21
-245.8957295069
  0
LINE
  8
2
  6
CONTINUOUS
 62
5
 10
222.3534975347
 20
-245.8957295069
 11
222.8034975347
 21
-245.8957295069
  0
LINE
  8
2
  6
CONTINUOUS
 62
5
 10
223.3534975347
 20
-245.8957295069
 11
223.8034975347
 21
-245.8957295069
  0
LINE
  8
2
  6
CONTINUOUS
 62
5
 10
214.8784975347
 20
-245.8282295069
 11
224.2784975347
 21
-245.8282295069
  0
LINE
  8
2
  6
CONTINUOUS
 62
5
 10
214.8784975347
 20
-245.6282295069
 11
224.2784975347
 21
-245.6282295069
  0
LINE
  8
2
  6
CONTINUOUS
 62
5
 10
220.8034975347
 20
-245.8957295069
 11
220.8034975347
 21
-245.8282295069
  0
LINE
  8
2
  6
CONTINUOUS
 62
5
 10
220.8534975347
 20
-244.9957295069
 11
220.8534975347
 21
-245.0632295069
  0
LINE
  8
2
  6
CONTINUOUS
 62
5
 10
221.3034975347
 20
-245.0632295069
 11
221.3034975347
 21
-244.9957295069
  0
LINE
  8
2
  6
CONTINUOUS
 62
5
 10
221.3534975347
 20
-245.8282295069
 11
221.3534975347
 21
-245.8957295069
  0
LINE
  8
2
  6
CONTINUOUS
 62
5
 10
214.1784975347
 20
-245.4791583084
 11
214.3784975347
 21
-245.4791583084
  0
LINE
  8
2
  6
CONTINUOUS
 62
5
 10
224.7784975347
 20
-245.4791583084
 11
224.9784975347
 21
-245.4791583084
  0
LINE
  8
2
  6
CONTINUOUS
 62
5
 10
214.1784975347
 20
-245.2632295069
 11
224.9784975347
 21
-245.2632295069
  0
LINE
  8
2
  6
CONTINUOUS
 62
5
 10
224.7784975347
 20
-245.0632295069
 11
214.3784975347
 21
-245.0632295069
  0
LINE
  8
2
  6
CONTINUOUS
 62
5
 10
221.8034975347
 20
-245.8957295069
 11
221.8034975347
 21
-245.8282295069
  0
LINE
  8
2
  6
CONTINUOUS
 62
5
 10
221.8534975347
 20
-244.9957295069
 11
221.8534975347
 21
-245.0632295069
  0
LINE
  8
2
  6
CONTINUOUS
 62
5
 10
224.3034975347
 20
-244.9957295069
 11
223.8534975347
 21
-244.9957295069
  0
LINE
  8
2
  6
CONTINUOUS
 62
5
 10
223.3034975347
 20
-244.9957295069
 11
222.8534975347
 21
-244.9957295069
  0
LINE
  8
2
  6
CONTINUOUS
 62
5
 10
222.3034975347
 20
-244.9957295069
 11
221.8534975347
 21
-244.9957295069
  0
LINE
  8
2
  6
CONTINUOUS
 62
5
 10
221.3034975347
 20
-244.9957295069
 11
220.8534975347
 21
-244.9957295069
  0
LINE
  8
2
  6
CONTINUOUS
 62
5
 10
220.3034975347
 20
-244.9957295069
 11
219.8534975347
 21
-244.9957295069
  0
LINE
  8
2
  6
CONTINUOUS
 62
5
 10
219.3034975347
 20
-244.9957295069
 11
218.8534975347
 21
-244.9957295069
  0
LINE
  8
2
  6
CONTINUOUS
 62
5
 10
218.3034975347
 20
-244.9957295069
 11
217.8534975347
 21
-244.9957295069
  0
LINE
  8
2
  6
CONTINUOUS
 62
5
 10
217.3034975347
 20
-244.9957295069
 11
216.8534975347
 21
-244.9957295069
  0
LINE
  8
2
  6
CONTINUOUS
 62
5
 10
216.3034975347
 20
-244.9957295069
 11
215.8534975347
 21
-244.9957295069
  0
LINE
  8
2
  6
CONTINUOUS
 62
5
 10
222.3034975347
 20
-245.0632295069
 11
222.3034975347
 21
-244.9957295069
  0
LINE
  8
2
  6
CONTINUOUS
 62
5
 10
222.3534975347
 20
-245.8282295069
 11
222.3534975347
 21
-245.8957295069
  0
LINE
  8
2
  6
CONTINUOUS
 62
5
 10
226.4105645461
 20
-246.4936644665
 11
225.7530226640
 21
-246.7936644665
  0
LINE
  8
2
  6
CONTINUOUS
 62
5
 10
225.8360394168
 20
-246.9756211062
 11
226.4935812990
 21
-246.6756211062
  0
LINE
  8
2
  6
CONTINUOUS
 62
5
 10
222.8034975347
 20
-245.8957295069
 11
222.8034975347
 21
-245.8282295069
  0
LINE
  8
2
  6
CONTINUOUS
 62
5
 10
222.8534975347
 20
-244.9957295069
 11
222.8534975347
 21
-245.0632295069
  0
LINE
  8
2
  6
CONTINUOUS
 62
5
 10
223.3034975347
 20
-245.0632295069
 11
223.3034975347
 21
-244.9957295069
  0
LINE
  8
2
  6
CONTINUOUS
 62
5
 10
223.3534975347
 20
-245.8282295069
 11
223.3534975347
 21
-245.8957295069
  0
LINE
  8
2
  6
CONTINUOUS
 62
5
 10
213.0784975347
 20
-242.8707295069
 11
226.0784975347
 21
-242.8707295069
  0
LINE
  8
2
  6
CONTINUOUS
 62
5
 10
223.8034975347
 20
-245.8957295069
 11
223.8034975347
 21
-245.8282295069
  0
LINE
  8
2
  6
CONTINUOUS
 62
5
 10
223.8534975347
 20
-244.9957295069
 11
223.8534975347
 21
-245.0632295069
  0
LINE
  8
2
  6
CONTINUOUS
 62
5
 10
224.3034975347
 20
-245.0632295069
 11
224.3034975347
 21
-244.9957295069
  0
LINE
  8
2
  6
CONTINUOUS
 62
5
 10
225.4976385915
 20
-246.9923956435
 11
224.9125873501
 21
-247.7214347207
  0
LINE
  8
2
  6
CONTINUOUS
 62
5
 10
225.0685709809
 20
-247.8466110242
 11
225.6536222222
 21
-247.1175719469
  0
LINE
  8
2
  6
CONTINUOUS
 62
5
 10
224.9784975347
 20
-245.4791583084
 11
224.9784975347
 21
-245.2632295069
  0
LINE
  8
2
  6
CONTINUOUS
 62
5
 10
226.8784975347
 20
-243.6707295069
 11
226.8784975347
 21
-245.7658379075
  0
LINE
  8
2
  6
CONTINUOUS
 62
5
 10
227.0784975347
 20
-245.7658379075
 11
227.0784975347
 21
-243.6707295069
  0
ARC
  8
2
  6
CONTINUOUS
 62
5
 10
214.8683422421
 20
-247.2207295069
 40
1.0000000000
 50
218.7469177681
 51
270.0000000000
  0
ARC
  8
2
  6
CONTINUOUS
 62
5
 10
213.0784975347
 20
-245.7658379075
 40
1.0000000000
 50
180.0000000000
 51
245.4754083710
  0
ARC
  8
2
  6
CONTINUOUS
 62
5
 10
214.8683422421
 20
-247.2207295069
 40
0.8000171506
 50
218.7469177681
 51
270.0000000000
  0
ARC
  8
2
  6
CONTINUOUS
 62
5
 10
213.0784975347
 20
-245.7658379075
 40
0.8000035842
 50
180.0000000000
 51
245.4754083710
  0
ARC
  8
2
  6
CONTINUOUS
 62
5
 10
213.1134137704
 20
-247.4305127056
 40
0.6999959507
 50
38.7469177681
 51
65.4754083710
  0
ARC
  8
2
  6
CONTINUOUS
 62
5
 10
213.1134137704
 20
-247.4305127056
 40
0.5000000000
 50
38.7469177681
 51
65.4754083710
  0
ARC
  8
2
  6
CONTINUOUS
 62
5
 10
213.0784975347
 20
-243.6707295069
 40
1.0000000000
 50
90.0000000000
 51
180.0000000000
  0
ARC
  8
2
  6
CONTINUOUS
 62
5
 10
213.0784975347
 20
-243.6707295069
 40
0.7999925726
 50
90.0000000000
 51
180.0000000000
  0
ARC
  8
2
  6
CONTINUOUS
 62
5
 10
214.8784975347
 20
-245.6282295069
 40
0.2000000000
 50
253.3984504010
 51
270.0000000000
  0
ARC
  8
2
  6
CONTINUOUS
 62
5
 10
214.3784975347
 20
-245.4791583084
 40
0.2000000000
 50
180.0000000000
 51
253.3984504010
  0
ARC
  8
2
  6
CONTINUOUS
 62
5
 10
214.3784975347
 20
-245.2632295069
 40
0.2000000000
 50
90.0000000000
 51
180.0000000000
  0
ARC
  8
2
  6
CONTINUOUS
 62
5
 10
226.0784975347
 20
-245.7658379075
 40
1.0000000000
 50
294.5245916290
 51
0.0000000000
  0
ARC
  8
2
  6
CONTINUOUS
 62
5
 10
224.2886528273
 20
-247.2207295069
 40
1.0000000000
 50
270.0000000000
 51
321.2530822319
  0
ARC
  8
2
  6
CONTINUOUS
 62
5
 10
224.2886528273
 20
-247.2207295069
 40
0.8000171506
 50
270.0000000000
 51
321.2530822319
  0
ARC
  8
2
  6
CONTINUOUS
 62
5
 10
226.0784975347
 20
-245.7658379075
 40
0.8000035842
 50
294.5245916290
 51
0.0000000000
  0
ARC
  8
2
  6
CONTINUOUS
 62
5
 10
226.0435812990
 20
-247.4305127056
 40
0.6999959507
 50
114.5245916290
 51
141.2530822319
  0
ARC
  8
2
  6
CONTINUOUS
 62
5
 10
226.0435812990
 20
-247.4305127056
 40
0.5000000000
 50
114.5245916290
 51
141.2530822319
  0
ARC
  8
2
  6
CONTINUOUS
 62
5
 10
224.7784975347
 20
-245.2632295069
 40
0.2000000000
 50
0.0000000000
 51
90.0000000000
  0
ARC
  8
2
  6
CONTINUOUS
 62
5
 10
224.7784975347
 20
-245.4791583084
 40
0.2000000000
 50
286.6015495990
 51
0.0000000000
  0
ARC
  8
2
  6
CONTINUOUS
 62
5
 10
224.2784975347
 20
-245.6282295069
 40
0.2000000000
 50
270.0000000000
 51
286.6015495990
  0
ARC
  8
2
  6
CONTINUOUS
 62
5
 10
226.0784975347
 20
-243.6707295069
 40
1.0000000000
 50
0.0000000000
 51
90.0000000000
  0
ARC
  8
2
  6
CONTINUOUS
 62
5
 10
226.0784975347
 20
-243.6707295069
 40
0.7999925726
 50
0.0000000000
 51
90.0000000000
  0
LINE
  8
3
  6
CONTINUOUS
 62
5
 10
226.0784975347
 20
-242.6707295069
 11
213.0784975347
 21
-242.6707295069
  0
POINT
  8
3
  6
CONTINUOUS
 62
5
 10
219.5784975347
 20
-245.4457295069
  0
TEXT
  8
3
  6
CONTINUOUS
 62
5
 10
217.078498
 20
-251.695730
 40
2.500000
  1
HDMI
 41
0.796813
 50
0.000000
 51
0.000000
 72
   5
 73
   0
 11
222.078498
 21
-251.695730
  0
TEXT
  8
3
  6
CONTINUOUS
 62
5
 10
217.078498
 20
-85.445730
 40
5.000000
  1
UA
 41
0.854701
 50
0.000000
 51
0.000000
 72
   5
 73
   0
 11
222.078498
 21
-85.445730
  0
TEXT
  8
3
  6
CONTINUOUS
 62
5
 10
215.828498
 20
-130.445730
 40
5.000000
  1
UB2
 41
0.815217
 50
0.000000
 51
0.000000
 72
   5
 73
   0
 11
223.328498
 21
-130.445730
  0
TEXT
  8
3
  6
CONTINUOUS
 62
5
 10
215.828498
 20
-175.445730
 40
5.000000
  1
UB3
 41
0.815217
 50
0.000000
 51
0.000000
 72
   5
 73
   0
 11
223.328498
 21
-175.445730
  0
TEXT
  8
3
  6
CONTINUOUS
 62
5
 10
217.078498
 20
-220.445730
 40
5.000000
  1
RJ
 41
0.854701
 50
0.000000
 51
0.000000
 72
   5
 73
   0
 11
222.078498
 21
-220.445730
  0
TEXT
  8
3
  6
CONTINUOUS
 62
5
 10
217.078498
 20
-265.445730
 40
5.000000
  1
HD
 41
0.854701
 50
0.000000
 51
0.000000
 72
   5
 73
   0
 11
222.078498
 21
-265.445730
  0
INSERT
  8
3
  6
CONTINUOUS
 62
5
  2
BALN7
 10
232.9169496562
 20
-54.6072773854
  0
INSERT
  8
3
  6
CONTINUOUS
 62
5
  2
BALN8
 10
232.9169496562
 20
-99.6072773854
  0
INSERT
  8
3
  6
CONTINUOUS
 62
5
  2
BALN9
 10
232.9169496562
 20
-144.6072773854
  0
INSERT
  8
3
  6
CONTINUOUS
 62
5
  2
BALN10
 10
232.9169496562
 20
-189.6072773854
  0
INSERT
  8
3
  6
CONTINUOUS
 62
5
  2
BALN11
 10
232.9169496562
 20
-234.6072773854
  0
LINE
  8
3
  6
CONTINUOUS
 62
7
 10
204.2033701990
 20
-275.9817967233
 11
204.2033701990
 21
-295.9817967233
  0
LINE
  8
3
  6
CONTINUOUS
 62
7
 10
232.2033701990
 20
-272.9817967233
 11
207.2033701990
 21
-272.9817967233
  0
LINE
  8
3
  6
CONTINUOUS
 62
7
 10
235.2033701990
 20
-295.9817967233
 11
235.2033701990
 21
-275.9817967233
  0
LINE
  8
3
  6
CONTINUOUS
 62
7
 10
232.2033701990
 20
-298.9817967233
 11
207.2033701990
 21
-298.9817967233
  0
POINT
  8
3
  6
CONTINUOUS
 62
7
 10
219.7033701990
 20
-285.9817967233
  0
ARC
  8
3
  6
CONTINUOUS
 62
7
 10
207.2033701990
 20
-295.9817967233
 40
3.0000000000
 50
180.0000000000
 51
270.0000000000
  0
ARC
  8
3
  6
CONTINUOUS
 62
7
 10
207.2033701990
 20
-275.9817967233
 40
3.0000000000
 50
90.0000000000
 51
180.0000000000
  0
ARC
  8
3
  6
CONTINUOUS
 62
7
 10
232.2033701990
 20
-275.9817967233
 40
3.0000000000
 50
0.0000000000
 51
90.0000000000
  0
ARC
  8
3
  6
CONTINUOUS
 62
7
 10
232.2033701990
 20
-295.9817967233
 40
3.0000000000
 50
270.0000000000
 51
0.0000000000
  0
LINE
  8
3
  6
DASHDOT
 62
1
 10
202.2033701990
 20
-285.9817967233
 11
237.2033701990
 21
-285.9817967233
  0
LINE
  8
3
  6
DASHDOT
 62
1
 10
219.7033701990
 20
-300.9817967233
 11
219.7033701990
 21
-270.9817967233
  0
TEXT
  8
3
  6
CONTINUOUS
 62
5
 10
217.203370
 20
-305.981797
 40
5.000000
  1
BL
 41
0.854701
 50
0.000000
 51
0.000000
 72
   5
 73
   0
 11
222.203370
 21
-305.981797
  0
LINE
  8
3
  6
CONTINUOUS
 62
6
 10
230.3649180774
 20
-275.1433446018
 11
233.0418223205
 21
-277.8202488449
  0
LINE
  8
3
  6
CONTINUOUS
 62
6
 10
230.3649180774
 20
-277.8202488449
 11
233.0418223205
 21
-275.1433446018
  0
CIRCLE
  8
3
  6
CONTINUOUS
 62
6
 10
231.7033701990
 20
-276.4817967233
 40
2.6500000000
  0
INSERT
  8
3
  6
CONTINUOUS
 62
5
  2
BALN12
 10
233.0418223205
 20
-275.1433446018
  0
LINE
  8
3
  6
CONTINUOUS
 62
6
 10
206.3649180774
 20
-294.1433446018
 11
209.0418223205
 21
-296.8202488449
  0
LINE
  8
3
  6
CONTINUOUS
 62
6
 10
206.3649180774
 20
-296.8202488449
 11
209.0418223205
 21
-294.1433446018
  0
CIRCLE
  8
3
  6
CONTINUOUS
 62
6
 10
207.7033701990
 20
-295.4817967233
 40
2.6500000000
  0
TEXT
  8
3
  6
CONTINUOUS
 62
7
 10
244.792211
 20
-56.150683
 40
3.500000
  1
⑬,⑭のﾋﾞｽには「ﾛｯｸﾀｲﾄ」塗布
 41
0.820633
 50
0.000000
 51
0.000000
 72
   5
 73
   0
 11
293.792211
 21
-56.150683
  0
TEXT
  8
5
  6
CONTINUOUS
 62
7
 10
376.907731
 20
-97.569793
 40
3.000000
  1
--
 41
0.854701
 50
0.000000
 51
0.000000
 72
   5
 73
   0
 11
379.907731
 21
-97.569793
  0
TEXT
  8
5
  6
CONTINUOUS
 62
7
 10
391.657731
 20
-97.819793
 40
3.500000
  1
--
 41
0.854701
 50
0.000000
 51
0.000000
 72
   5
 73
   0
 11
395.157731
 21
-97.819793
  0
CIRCLE
  8
1
  6
HIDDEN
 62
6
 10
213.1605182328
 20
91.3525214538
 40
2.0000000000
  0
CIRCLE
  8
1
  6
HIDDEN
 62
6
 10
213.1605182328
 20
91.3525214538
 40
4.0000000000
  0
INSERT
  8
1
  6
CONTINUOUS
 62
7
  2
S4
 10
213.1605182328
 20
101.3525214525
  0
INSERT
  8
1
  6
CONTINUOUS
 62
5
  2
LTEX2
 10
217.1605182328
 20
91.3525214526
  0
INSERT
  8
1
  6
CONTINUOUS
 62
7
  2
S5
 10
253.1816052311
 20
82.0992534622
  0
POINT
  8
5
  6
CONTINUOUS
 62
6
 10
9.0000000000
 20
262.0000000000
  0
POINT
  8
5
  6
CONTINUOUS
 62
6
 10
9.0000000000
 20
262.0000000000
  0
POINT
  8
5
  6
CONTINUOUS
 62
6
 10
9.0000000000
 20
262.0000000000
  0
POINT
  8
5
  6
CONTINUOUS
 62
6
 10
9.0000000000
 20
262.0000000000
  0
POINT
  8
5
  6
CONTINUOUS
 62
6
 10
9.0000000000
 20
262.0000000000
  0
POINT
  8
5
  6
CONTINUOUS
 62
6
 10
8.9999999999
 20
262.0000000000
  0
LINE
  8
1
  6
CONTINUOUS
 62
7
 10
11.4999999999
 20
260.0000000000
 11
6.4999999999
 21
260.0000000000
  0
TEXT
  8
1
  6
CONTINUOUS
 62
7
 10
7.904400
 20
259.621673
 40
3.300000
  1
C
 41
1.328000
 50
0.000000
 51
0.000000
 72
   5
 73
   0
 11
10.095600
 21
259.621673
  0
LINE
  8
1
  6
CONTINUOUS
 62
7
 10
8.9999999999
 20
264.0000000000
 11
6.4999999999
 21
260.0000000000
  0
LINE
  8
1
  6
CONTINUOUS
 62
7
 10
8.9999999999
 20
264.0000000000
 11
11.4999999999
 21
260.0000000000
  0
POINT
  8
1
  6
CONTINUOUS
 62
7
 10
8.9999999999
 20
262.0000000000
  0
TEXT
  8
1
  6
CONTINUOUS
 62
7
 10
14.836500
 20
260.500000
 40
3.000000
  1
'22.3.23
 41
0.599037
 50
0.000000
 51
0.000000
 72
   5
 73
   0
 11
24.163500
 21
260.500000
  0
TEXT
  8
1
  6
CONTINUOUS
 62
7
 10
28.160983
 20
260.056979
 40
4.000000
  1
PB追加に伴う変更
 41
0.854701
 50
0.000000
 51
0.000000
 72
   5
 73
   0
 11
60.160983
 21
260.056979
  0
TEXT
  8
1
  6
CONTINUOUS
 62
7
 10
91.000000
 20
260.250000
 40
3.500000
  1
山田
 41
0.921659
 50
0.000000
 51
0.000000
 72
   5
 73
   0
 11
98.000000
 21
260.250000
  0
POINT
  8
5
  6
CONTINUOUS
 62
6
 10
9.0000000000
 20
-58.7245888453
  0
POINT
  8
5
  6
CONTINUOUS
 62
6
 10
9.0000000000
 20
-58.7245888453
  0
POINT
  8
5
  6
CONTINUOUS
 62
6
 10
9.0000000000
 20
-58.7245888453
  0
POINT
  8
5
  6
CONTINUOUS
 62
6
 10
9.0000000000
 20
-58.7245888453
  0
POINT
  8
5
  6
CONTINUOUS
 62
6
 10
9.0000000000
 20
-58.7245888453
  0
POINT
  8
5
  6
CONTINUOUS
 62
6
 10
8.9999999999
 20
-58.7245888453
  0
LINE
  8
1
  6
CONTINUOUS
 62
7
 10
11.4999999999
 20
-60.7245888453
 11
6.4999999999
 21
-60.7245888453
  0
TEXT
  8
1
  6
CONTINUOUS
 62
7
 10
7.904400
 20
-61.102916
 40
3.300000
  1
C
 41
1.328000
 50
0.000000
 51
0.000000
 72
   5
 73
   0
 11
10.095600
 21
-61.102916
  0
LINE
  8
1
  6
CONTINUOUS
 62
7
 10
8.9999999999
 20
-56.7245888453
 11
6.4999999999
 21
-60.7245888453
  0
LINE
  8
1
  6
CONTINUOUS
 62
7
 10
8.9999999999
 20
-56.7245888453
 11
11.4999999999
 21
-60.7245888453
  0
POINT
  8
1
  6
CONTINUOUS
 62
7
 10
8.9999999999
 20
-58.7245888453
  0
TEXT
  8
1
  6
CONTINUOUS
 62
7
 10
14.836500
 20
-60.224589
 40
3.000000
  1
'22.3.23
 41
0.599037
 50
0.000000
 51
0.000000
 72
   5
 73
   0
 11
24.163500
 21
-60.224589
  0
TEXT
  8
1
  6
CONTINUOUS
 62
7
 10
28.160983
 20
-60.667610
 40
4.000000
  1
PB追加に伴う変更
 41
0.854701
 50
0.000000
 51
0.000000
 72
   5
 73
   0
 11
60.160983
 21
-60.667610
  0
TEXT
  8
1
  6
CONTINUOUS
 62
7
 10
91.000000
 20
-60.474589
 40
3.500000
  1
山田
 41
0.921659
 50
0.000000
 51
0.000000
 72
   5
 73
   0
 11
98.000000
 21
-60.474589
  0
POINT
  8
5
  6
CONTINUOUS
 62
6
 10
190.5228789978
 20
243.0011148382
  0
POINT
  8
5
  6
CONTINUOUS
 62
6
 10
190.5228789978
 20
243.0011148382
  0
POINT
  8
1
  6
CONTINUOUS
 62
6
 10
190.5228789978
 20
243.0011148382
  0
POINT
  8
5
  6
CONTINUOUS
 62
6
 10
190.5228789977
 20
243.0011148382
  0
INSERT
  8
1
  6
CONTINUOUS
 62
7
  2
S6
 10
190.5228789977
 20
243.0011148382
  0
TEXT
  8
1
  6
CONTINUOUS
 62
7
 10
196.280200
 20
240.480332
 40
3.500000
  1
①ﾍﾞｰｽ,②ｶﾊﾞｰ材質
 41
0.806452
 50
0.000000
 51
0.000000
 72
   5
 73
   0
 11
226.030200
 21
240.480332
  0
TEXT
  8
1
  6
CONTINUOUS
 62
7
 10
196.280200
 20
236.980332
 40
3.500000
  1
無印:ｱﾙﾐﾀﾞｲｷｬｽﾄ
 41
0.786164
 50
0.000000
 51
0.000000
 72
   5
 73
   0
 11
222.530200
 21
236.980332
  0
TEXT
  8
1
  6
CONTINUOUS
 62
7
 10
196.280200
 20
233.480332
 40
3.500000
  1
PB:PBT(UL:V-0)
 41
0.760043
 50
0.000000
 51
0.000000
 72
   5
 73
   0
 11
220.780200
 21
233.480332
  0
LINE
  8
3
  6
CONTINUOUS
 62
7
 10
214.9605361782
 20
262.9312405980
 11
214.9605361782
 21
250.6873915969
  0
LINE
  8
3
  6
CONTINUOUS
 62
7
 10
214.9605361782
 20
250.6873915969
 11
197.8865449105
 21
250.6873915969
  0
LINE
  8
3
  6
CONTINUOUS
 62
7
 10
197.8865449105
 20
250.6873915969
 11
197.8865449105
 21
244.9024537660
  0
LINE
  8
3
  6
CONTINUOUS
 62
3
 10
83.1213961472
 20
-82.5143696266
 11
83.1213961472
 21
-79.6770776073
  0
POINT
  8
5
  6
CONTINUOUS
 62
6
 10
50.8206929311
 20
-99.6945918643
  0
POINT
  8
5
  6
CONTINUOUS
 62
6
 10
50.8206929311
 20
-99.6945918643
  0
POINT
  8
1
  6
CONTINUOUS
 62
6
 10
50.8206929311
 20
-99.6945918643
  0
POINT
  8
5
  6
CONTINUOUS
 62
6
 10
50.8206929311
 20
-99.6945918643
  0
INSERT
  8
1
  6
CONTINUOUS
 62
7
  2
S7
 10
50.8206929311
 20
-99.6945918643
  0
TEXT
  8
1
  6
CONTINUOUS
 62
7
 10
56.578014
 20
-102.215374
 40
3.500000
  1
①ﾍﾞｰｽ,②ｶﾊﾞｰ材質
 41
0.806452
 50
0.000000
 51
0.000000
 72
   5
 73
   0
 11
86.328014
 21
-102.215374
  0
TEXT
  8
1
  6
CONTINUOUS
 62
7
 10
56.578014
 20
-105.715374
 40
3.500000
  1
無印:ｱﾙﾐﾀﾞｲｷｬｽﾄ
 41
0.786164
 50
0.000000
 51
0.000000
 72
   5
 73
   0
 11
82.828014
 21
-105.715374
  0
TEXT
  8
1
  6
CONTINUOUS
 62
7
 10
56.578014
 20
-109.215374
 40
3.500000
  1
PB:PBT(UL:V-0)
 41
0.760043
 50
0.000000
 51
0.000000
 72
   5
 73
   0
 11
81.078014
 21
-109.215374
  0
LINE
  8
3
  6
CONTINUOUS
 62
7
 10
75.2583501115
 20
-79.7644661044
 11
75.2583501115
 21
-92.0083151056
  0
LINE
  8
3
  6
CONTINUOUS
 62
7
 10
75.2583501115
 20
-92.0083151056
 11
58.1843588438
 21
-92.0083151056
  0
LINE
  8
3
  6
CONTINUOUS
 62
7
 10
58.1843588438
 20
-92.0083151056
 11
58.1843588438
 21
-97.7932529364
  0
TEXT
  8
3
  6
CONTINUOUS
 62
3
 10
40.199643
 20
-73.696475
 40
5.000000
  1
型番仕様
 41
0.886918
 50
0.000000
 51
0.000000
 72
   5
 73
   0
 11
60.199643
 21
-73.696475
  0
TEXT
  8
3
  6
CONTINUOUS
 62
3
 10
40.199643
 20
-79.696475
 40
5.000000
  1
MCON-001-068 %%uPB%%u %%u**%%u %%u**%%u %%u**%%u %%u**
 41
0.753348
 50
0.000000
 51
0.000000
 72
   5
 73
   0
 11
107.699643
 21
-79.696475
  0
TEXT
  8
1
  6
CONTINUOUS
 62
3
 10
109.729123
 20
-84.405631
 40
4.000000
  1
⑨ UA:USB3.0 A
 41
0.774336
 50
0.000000
 51
0.000000
 72
   5
 73
   0
 11
137.729123
 21
-84.405631
  0
TEXT
  8
1
  6
CONTINUOUS
 62
3
 10
109.729123
 20
-89.405631
 40
4.000000
  1
   UB2:USB2.0 B
 41
0.759109
 50
0.000000
 51
0.000000
 72
   5
 73
   0
 11
139.729123
 21
-89.405631
  0
TEXT
  8
1
  6
CONTINUOUS
 62
3
 10
109.729123
 20
-94.405631
 40
4.000000
  1
   UB3:USB3.0 B
 41
0.759109
 50
0.000000
 51
0.000000
 72
   5
 73
   0
 11
139.729123
 21
-94.405631
  0
TEXT
  8
1
  6
CONTINUOUS
 62
3
 10
109.729123
 20
-99.405631
 40
4.000000
  1
   RJ:PJ45 CAT6 STP
 41
0.756369
 50
0.000000
 51
0.000000
 72
   5
 73
   0
 11
147.729123
 21
-99.405631
  0
TEXT
  8
1
  6
CONTINUOUS
 62
3
 10
109.729123
 20
-104.405631
 40
4.000000
  1
   HD:HDMI
 41
0.765697
 50
0.000000
 51
0.000000
 72
   5
 73
   0
 11
129.729123
 21
-104.405631
  0
TEXT
  8
1
  6
CONTINUOUS
 62
3
 10
109.729123
 20
-109.405631
 40
4.000000
  1
   BL:ﾌﾞﾗﾝｸ(部品無)
 41
0.788382
 50
0.000000
 51
0.000000
 72
   5
 73
   0
 11
147.729123
 21
-109.405631
  0
LINE
  8
3
  6
CONTINUOUS
 62
3
 10
98.2357541199
 20
-79.6770776073
 11
98.2357541199
 21
-143.1110805312
  0
LINE
  8
3
  6
CONTINUOUS
 62
3
 10
105.6956303725
 20
-79.6770776073
 11
105.6956303725
 21
-173.4094359836
  0
LINE
  8
3
  6
CONTINUOUS
 62
3
 10
108.5505241052
 20
-143.1110805312
 11
98.2357541199
 21
-143.1110805312
  0
LINE
  8
3
  6
CONTINUOUS
 62
3
 10
108.5505241052
 20
-173.4094359836
 11
105.6956303725
 21
-173.4094359836
  0
TEXT
  8
1
  6
CONTINUOUS
 62
3
 10
109.729123
 20
-114.703986
 40
4.000000
  1
⑩ UA:USB3.0 A
 41
0.774336
 50
0.000000
 51
0.000000
 72
   5
 73
   0
 11
137.729123
 21
-114.703986
  0
TEXT
  8
1
  6
CONTINUOUS
 62
3
 10
109.729123
 20
-119.703986
 40
4.000000
  1
   UB2:USB2.0 B
 41
0.759109
 50
0.000000
 51
0.000000
 72
   5
 73
   0
 11
139.729123
 21
-119.703986
  0
TEXT
  8
1
  6
CONTINUOUS
 62
3
 10
109.729123
 20
-124.703986
 40
4.000000
  1
   UB3:USB3.0 B
 41
0.759109
 50
0.000000
 51
0.000000
 72
   5
 73
   0
 11
139.729123
 21
-124.703986
  0
TEXT
  8
1
  6
CONTINUOUS
 62
3
 10
109.729123
 20
-129.703986
 40
4.000000
  1
   RJ:PJ45 CAT6 STP
 41
0.756369
 50
0.000000
 51
0.000000
 72
   5
 73
   0
 11
147.729123
 21
-129.703986
  0
TEXT
  8
1
  6
CONTINUOUS
 62
3
 10
109.729123
 20
-134.703986
 40
4.000000
  1
   HD:HDMI
 41
0.765697
 50
0.000000
 51
0.000000
 72
   5
 73
   0
 11
129.729123
 21
-134.703986
  0
TEXT
  8
1
  6
CONTINUOUS
 62
3
 10
109.729123
 20
-139.703986
 40
4.000000
  1
   BL:ﾌﾞﾗﾝｸ(部品無)
 41
0.788382
 50
0.000000
 51
0.000000
 72
   5
 73
   0
 11
147.729123
 21
-139.703986
  0
TEXT
  8
1
  6
CONTINUOUS
 62
3
 10
109.729123
 20
-145.002342
 40
4.000000
  1
⑪ UA:USB3.0 A
 41
0.774336
 50
0.000000
 51
0.000000
 72
   5
 73
   0
 11
137.729123
 21
-145.002342
  0
TEXT
  8
1
  6
CONTINUOUS
 62
3
 10
109.729123
 20
-150.002342
 40
4.000000
  1
   UB2:USB2.0 B
 41
0.759109
 50
0.000000
 51
0.000000
 72
   5
 73
   0
 11
139.729123
 21
-150.002342
  0
TEXT
  8
1
  6
CONTINUOUS
 62
3
 10
109.729123
 20
-155.002342
 40
4.000000
  1
   UB3:USB3.0 B
 41
0.759109
 50
0.000000
 51
0.000000
 72
   5
 73
   0
 11
139.729123
 21
-155.002342
  0
TEXT
  8
1
  6
CONTINUOUS
 62
3
 10
109.729123
 20
-160.002342
 40
4.000000
  1
   RJ:PJ45 CAT6 STP
 41
0.756369
 50
0.000000
 51
0.000000
 72
   5
 73
   0
 11
147.729123
 21
-160.002342
  0
TEXT
  8
1
  6
CONTINUOUS
 62
3
 10
109.729123
 20
-165.002342
 40
4.000000
  1
   HD:HDMI
 41
0.765697
 50
0.000000
 51
0.000000
 72
   5
 73
   0
 11
129.729123
 21
-165.002342
  0
TEXT
  8
1
  6
CONTINUOUS
 62
3
 10
109.729123
 20
-170.002342
 40
4.000000
  1
   BL:ﾌﾞﾗﾝｸ(部品無)
 41
0.788382
 50
0.000000
 51
0.000000
 72
   5
 73
   0
 11
147.729123
 21
-170.002342
  0
TEXT
  8
1
  6
CONTINUOUS
 62
3
 10
109.729123
 20
-175.300697
 40
4.000000
  1
⑫ UA:USB3.0 A
 41
0.774336
 50
0.000000
 51
0.000000
 72
   5
 73
   0
 11
137.729123
 21
-175.300697
  0
TEXT
  8
1
  6
CONTINUOUS
 62
3
 10
109.729123
 20
-180.300697
 40
4.000000
  1
   UB2:USB2.0 B
 41
0.759109
 50
0.000000
 51
0.000000
 72
   5
 73
   0
 11
139.729123
 21
-180.300697
  0
TEXT
  8
1
  6
CONTINUOUS
 62
3
 10
109.729123
 20
-185.300697
 40
4.000000
  1
   UB3:USB3.0 B
 41
0.759109
 50
0.000000
 51
0.000000
 72
   5
 73
   0
 11
139.729123
 21
-185.300697
  0
TEXT
  8
1
  6
CONTINUOUS
 62
3
 10
109.729123
 20
-190.300697
 40
4.000000
  1
   RJ:PJ45 CAT6 STP
 41
0.756369
 50
0.000000
 51
0.000000
 72
   5
 73
   0
 11
147.729123
 21
-190.300697
  0
TEXT
  8
1
  6
CONTINUOUS
 62
3
 10
109.729123
 20
-195.300697
 40
4.000000
  1
   HD:HDMI
 41
0.765697
 50
0.000000
 51
0.000000
 72
   5
 73
   0
 11
129.729123
 21
-195.300697
  0
TEXT
  8
1
  6
CONTINUOUS
 62
3
 10
109.729123
 20
-200.300697
 40
4.000000
  1
   BL:ﾌﾞﾗﾝｸ(部品無)
 41
0.788382
 50
0.000000
 51
0.000000
 72
   5
 73
   0
 11
147.729123
 21
-200.300697
  0
LINE
  8
3
  6
CONTINUOUS
 62
3
 10
108.5505241052
 20
-82.5143696266
 11
83.1213961472
 21
-82.5143696266
  0
LINE
  8
3
  6
CONTINUOUS
 62
3
 10
90.6461408889
 20
-79.6770776073
 11
90.6461408889
 21
-112.8127250789
  0
LINE
  8
3
  6
CONTINUOUS
 62
3
 10
108.5505241052
 20
-112.8127250789
 11
90.6461408889
 21
-112.8127250789
  0
INSERT
  8
1
  6
CONTINUOUS
 62
7
  2
S8
 10
69.4956447311
 20
-276.0900865152
  0
CIRCLE
  8
1
  6
HIDDEN
 62
6
 10
69.4956447311
 20
-286.0900865139
 40
2.0000000000
  0
CIRCLE
  8
1
  6
HIDDEN
 62
6
 10
69.4956447311
 20
-286.0900865139
 40
4.0000000000
  0
INSERT
  8
1
  6
CONTINUOUS
 62
7
  2
S9
 10
109.5167317295
 20
-295.3433545055
  0
INSERT
  8
1
  6
CONTINUOUS
 62
5
  2
LTEX3
 10
73.4956447311
 20
-286.0900865151
  0
POINT
  8
5
  6
CONTINUOUS
 62
6
 10
137.2868002249
 20
38.5097255163
  0
POINT
  8
5
  6
CONTINUOUS
 62
6
 10
137.2868002249
 20
38.5097255163
  0
POINT
  8
1
  6
CONTINUOUS
 62
6
 10
137.2868002249
 20
38.5097255163
  0
POINT
  8
5
  6
CONTINUOUS
 62
6
 10
137.2868002249
 20
38.5097255163
  0
INSERT
  8
1
  6
CONTINUOUS
 62
7
  2
S10
 10
137.2868002249
 20
38.5097255163
  0
INSERT
  8
3
  6
CONTINUOUS
 62
5
  2
LTEX4
 10
134.5962334454
 20
86.7605564293
  0
INSERT
  8
3
  6
CONTINUOUS
 62
5
  2
LTEX5
 10
88.2645106558
 20
17.3439335173
  0
INSERT
  8
3
  6
CONTINUOUS
 62
5
  2
LTEX6
 10
39.2645106558
 20
18.7789024664
  0
TEXT
  8
5
  6
CONTINUOUS
 62
7
 10
338.753123
 20
268.474804
 40
3.000000
  1
ｱﾙﾐﾀﾞｲｷｬｽﾄ銀色塗装
 41
0.833541
 50
0.000000
 51
0.000000
 72
   5
 73
   0
 11
366.785123
 21
268.474804
  0
TEXT
  8
5
  6
CONTINUOUS
 62
7
 10
338.753123
 20
265.474804
 40
3.000000
  1
又は
 41
0.921659
 50
0.000000
 51
0.000000
 72
   5
 73
   0
 11
344.753123
 21
265.474804
  0
TEXT
  8
5
  6
CONTINUOUS
 62
7
 10
338.753123
 20
262.474804
 40
3.000000
  1
PBT 黒色(UL  V-0)
 41
0.751838
 50
0.000000
 51
0.000000
 72
   5
 73
   0
 11
363.293123
 21
262.474804
  0
POINT
  8
5
  6
CONTINUOUS
 62
6
 10
309.3313851285
 20
266.8545250502
  0
POINT
  8
5
  6
CONTINUOUS
 62
6
 10
309.3313851285
 20
266.8545250502
  0
POINT
  8
1
  6
CONTINUOUS
 62
6
 10
309.3313851285
 20
266.8545250502
  0
POINT
  8
5
  6
CONTINUOUS
 62
6
 10
309.3313851285
 20
266.8545250502
  0
INSERT
  8
1
  6
CONTINUOUS
 62
7
  2
S11
 10
309.3313851285
 20
266.8545250502
  0
POINT
  8
5
  6
CONTINUOUS
 62
6
 10
309.3313851285
 20
234.1415523070
  0
POINT
  8
5
  6
CONTINUOUS
 62
6
 10
309.3313851285
 20
234.1415523070
  0
POINT
  8
1
  6
CONTINUOUS
 62
6
 10
309.3313851285
 20
234.1415523070
  0
POINT
  8
5
  6
CONTINUOUS
 62
6
 10
309.3313851285
 20
234.1415523070
  0
INSERT
  8
1
  6
CONTINUOUS
 62
7
  2
S12
 10
309.3313851285
 20
234.1415523070
  0
ENDSEC
  0
EOF
