  0
SECTION
  2
HEADER
  9
$ACADVER
  1
AC1009
  9
$DWGCODEPAGE
  3
dos932
  9
$INSBASE
 10
203.5000000000
 20
142.0000000000
  9
$EXTMIN
 10
-51.3383277758
 20
-35.9569902164
  9
$EXTMAX
 10
595.8810442852
 20
319.9569902164
  9
$LIMMIN
 10
-51.3383277758
 20
-35.9569902164
  9
$LIMMAX
 10
595.8810442852
 20
319.9569902164
  9
$VIEWCTR
 10
0.0000000000
 20
0.0000000000
  9
$VIEWSIZE
 40
0.0000000000
  9
$SNAPMODE
 70
     0
  9
$SNAPUNIT
 10
20.0
 20
20.0
  9
$SNAPBASE
 10
0.000000
 20
0.000000
  9
$SNAPANG
 50
0.0
  9
$SNAPSTYLE
 70
     0
  9
$SNAPISOPAIR
 70
     0
  9
$GRIDMODE
 70
     0
  9
$GRIDUNIT
 10
10.000000
 20
10.000000
  9
$ORTHOMODE
 70
     0
  9
$REGENMODE
 70
     0
  9
$FILLMODE
 70
     1
  9
$QTEXTMODE
 70
     0
  9
$DRAGMODE
 70
     1
  9
$LTSCALE
 40
1.0
  9
$OSMODE
 70
     0
  9
$ATTMODE
 70
     1
  9
$TEXTSIZE
 40
4.000000
  9
$TRACEWID
 40
0.05
  9
$TEXTSTYLE
  7
STANDARD
  9
$CLAYER
  8
3
  9
$CELTYPE
  6
CONTINUOUS
  9
$CECOLOR
  62
7
  9
$DIMSCALE
 40
1.0000000000
  9
$DIMASZ
 40
2.0000000000
  9
$DIMEXO
 40
0.5000000000
  9
$DIMDLI
 40
7.000000
  9
$DIMRND
 40
0.0
  9
$DIMDLE
 40
0.0
  9
$DIMEXE
 40
1.0000000000
  9
$DIMTP
 40
0.0
  9
$DIMTM
 40
0.0
  9
$DIMTXT
 40
3.500000
  9
$DIMCEN
 40
0.09
  9
$DIMTSZ
 40
0.0
  9
$DIMTOL
 70
     0
  9
$DIMLIM
 70
     0
  9
$DIMTIH
 70
     0
  9
$DIMTOH
 70
     0
  9
$DIMSE1
 70
     0
  9
$DIMSE2
 70
     0
  9
$DIMTAD
 70
     1
  9
$DIMZIN
 70
     0
  9
$DIMBLK
  1

  9
$DIMASO
 70
     1
  9
$DIMSHO
 70
     0
  9
$DIMPOST
  1

  9
$DIMAPOST
  1

  9
$DIMALT
 70
     0
  9
$DIMALTD
 70
     3
  9
$DIMCLRD
 70
     5
  9
$DIMCLRE
 70
     5
  9
$DIMCLRT
 70
     7
  9
$DIMALTF
 40
25.4
  9
$DIMLFAC
 40
1.0
  9
$DIMTOFL
 70
     0
  9
$DIMTVP
 40
0.0
  9
$DIMTIX
 70
     0
  9
$DIMSOXD
 70
     0
  9
$DIMSAH
 70
     0
  9
$LUNITS
 70
     2
  9
$LUPREC
 70
     4
  9
$AXISMODE
 70
     0
  9
$AXISUNIT
 10
0.0
 20
0.0
  9
$SKETCHINC
 40
0.1
  9
$FILLETRAD
 40
0.0
  9
$AUNITS
 70
     0
  9
$AUPREC
 70
     0
  9
$MENU
  1
ACAD
  9
$ELEVATION
 40
0.0
  9
$THICKNESS
 40
0.0
  9
$VIEWDIR
 10
0.0
 20
0.0
 30
1.0
  9
$LIMCHECK
 70
     0
  9
$BLIPMODE
 70
     1
  9
$CHAMFERA
 40
0.0
  9
$CHAMFERB
 40
0.0
  9
$FASTZOOM
 70
     1
  9
$SKPOLY
 70
     0
  9
$TDCREATE
 40
2460019.0000000051
  9
$TDUPDATE
 40
2460019.0000000051
  9
$TDINDWG
 40
0.0000000000
  9
$TDUSRTIMER
 40
0.0000000000
  9
$USRTIMER
 70
     1
  9
$ANGBASE
 50
0.0
  9
$ANGDIR
 70
     0
  9
$PDMODE
 70
     65
  9
$PDSIZE
 40
0.2
  9
$PLINEWID
 40
0.0
  9
$COORDS
 70
     2
  9
$USERI1
 70
     0
  9
$USERI2
 70
     0
  9
$USERI3
 70
     0
  9
$USERI4
 70
     0
  9
$USERI5
 70
     0
  9
$USERR1
 40
0.0
  9
$USERR2
 40
0.0
  9
$USERR3
 40
0.0
  9
$USERR4
 40
0.0
  9
$USERR5
 40
0.0
  0
ENDSEC
  0
SECTION
  2
TABLES
  0
TABLE
  2
LTYPE
 70
     9
  0
LTYPE
  2
CONTINUOUS
 70
    64
  3
Solid line
 72
    65
 73
     0
 40
0.0
  0
LTYPE
  2
DASHED
 70
    64
  3
__ __ __ __ __ __ __ __ __ __ __ __ __ __ __
 72
    65
 73
     2
 40
3.0
 49
2.0
 49
-1.0
  0
LTYPE
  2
HIDDEN
 70
    64
  3
_ _ _ _ _ _ _ _ _ _ _ _ _ _ _ _ _ _ _ _ _ _ _
 72
    65
 73
     2
 40
1.5
 49
1.0
 49
-0.5
  0
LTYPE
  2
CENTER
 70
    64
  3
____ _ ____ _ ____ _ ____ _ ____ _ ____ _ ____
 72
    65
 73
     4
 40
24.0
 49
20.0
 49
-1.0
 49
2.0
 49
-1.0
  0
LTYPE
  2
PHANTOM
 70
    64
  3
_____ _ _ _____ _ _ _____ _ _ _____ _ _ ____
 72
    65
 73
     6
 40
27.0
 49
20.0
 49
-1.0
 49
2.0
 49
-1.0
 49
2.0
 49
-1.0
  0
LTYPE
  2
DOT
 70
    64
  3
...............................................
 72
    65
 73
     2
 40
1.5
 49
0.5
 49
-1.0
  0
LTYPE
  2
DASHDOT
 70
    64
  3
__ . __ . __ . __ . __ . __ . __ . __ . __ . __
 72
    65
 73
     4
 40
8.5
 49
6.0
 49
-1.0
 49
0.5
 49
-1.0
  0
LTYPE
  2
DIVIDE
 70
    64
  3
__ . . __ . . __ . . __ . . __ . . __ . . __
 72
    65
 73
     6
 40
10.0
 49
6.0
 49
-1.0
 49
0.5
 49
-1.0
 49
0.5
 49
-1.0
  0
LTYPE
  2
BORDER
 70
    64
  3
__ __ . __ __ . __ __ . __ __ . __ __ . __ __
 72
    65
 73
     6
 40
15.5
 49
6.0
 49
-1.0
 49
6.0
 49
-1.0
 49
0.5
 49
-1.0
  0
ENDTAB
  0
TABLE
  2
LAYER
 70
  7
  0
LAYER
  2
0
 70
    64
 62
     7
  6
CONTINUOUS
  0
LAYER
  2
1
 70
    64
 62
     7
  6
CONTINUOUS
  0
LAYER
  2
2
 70
    64
 62
     7
  6
CONTINUOUS
  0
LAYER
  2
3
 70
    64
 62
     7
  6
CONTINUOUS
  0
LAYER
  2
4
 70
    64
 62
     7
  6
CONTINUOUS
  0
LAYER
  2
5
 70
    64
 62
     7
  6
CONTINUOUS
  0
LAYER
  2
DEFPOINTS
 70
     0
 62
    -7
  6
CONTINUOUS
  0
ENDTAB
  0
TABLE
  2
STYLE
 70
     1
  0
STYLE
  2
STANDARD
 70
    64
 40
0.0
 41
1.0
 71
     0
 42
4.000000
  3
TXT
  4
EXTFONT
 50
0.0
  0
ENDTAB
  0
TABLE
  2
VIEW
 70
     0
  0
ENDTAB
  0
ENDSEC
  0
SECTION
  2
BLOCKS
  0
BLOCK
  8
0
  2
CI
 70
   0
 10
0.0
 20
0.0
  0
CIRCLE
  8
0
  62
0
 10
0.0
 20
0.0
 40
0.1666666666
  0
ENDBLK
  8
0
  0
BLOCK
  8
5
  2
S0
 70
     0
 10
0.0000000000
 20
0.0000000000
  3
S0
  0
POINT
  8
5
  6
CONTINUOUS
 62
6
 10
-6.5000000000
 20
-6.5000000000
  0
LINE
  8
5
  6
CONTINUOUS
 62
6
 10
4.5000000000
 20
4.5000000000
 11
402.5000000000
 21
4.5000000000
  0
LINE
  8
5
  6
CONTINUOUS
 62
6
 10
4.5000000000
 20
4.5000000000
 11
4.5000000000
 21
279.5000000000
  0
LINE
  8
5
  6
CONTINUOUS
 62
6
 10
44.5000000000
 20
284.0000000000
 11
44.5000000000
 21
279.5000000000
  0
LINE
  8
5
  6
CONTINUOUS
 62
6
 10
44.5000000000
 20
4.5000000000
 11
44.5000000000
 21
0.0000000000
  0
LINE
  8
5
  6
CONTINUOUS
 62
6
 10
84.5000000000
 20
284.0000000000
 11
84.5000000000
 21
279.5000000000
  0
LINE
  8
5
  6
CONTINUOUS
 62
6
 10
124.5000000000
 20
284.0000000000
 11
124.5000000000
 21
279.5000000000
  0
LINE
  8
5
  6
CONTINUOUS
 62
6
 10
164.5000000000
 20
284.0000000000
 11
164.5000000000
 21
279.5000000000
  0
LINE
  8
5
  6
CONTINUOUS
 62
6
 10
204.5000000000
 20
284.0000000000
 11
204.5000000000
 21
279.5000000000
  0
LINE
  8
5
  6
CONTINUOUS
 62
6
 10
244.5000000000
 20
284.0000000000
 11
244.5000000000
 21
279.5000000000
  0
LINE
  8
5
  6
CONTINUOUS
 62
6
 10
84.5000000000
 20
4.5000000000
 11
84.5000000000
 21
0.0000000000
  0
LINE
  8
5
  6
CONTINUOUS
 62
6
 10
124.5000000000
 20
4.5000000000
 11
124.5000000000
 21
0.0000000000
  0
LINE
  8
5
  6
CONTINUOUS
 62
6
 10
164.5000000000
 20
4.5000000000
 11
164.5000000000
 21
0.0000000000
  0
LINE
  8
5
  6
CONTINUOUS
 62
6
 10
204.5000000000
 20
4.5000000000
 11
204.5000000000
 21
0.0000000000
  0
LINE
  8
5
  6
CONTINUOUS
 62
6
 10
244.5000000000
 20
4.5000000000
 11
244.5000000000
 21
0.0000000000
  0
LINE
  8
5
  6
CONTINUOUS
 62
6
 10
0.0000000000
 20
239.5000000000
 11
4.5000000000
 21
239.5000000000
  0
LINE
  8
5
  6
CONTINUOUS
 62
6
 10
402.5000000000
 20
239.5000000000
 11
407.0000000000
 21
239.5000000000
  0
LINE
  8
5
  6
CONTINUOUS
 62
6
 10
0.0000000000
 20
199.5000000000
 11
4.5000000000
 21
199.5000000000
  0
LINE
  8
5
  6
CONTINUOUS
 62
6
 10
0.0000000000
 20
159.5000000000
 11
4.5000000000
 21
159.5000000000
  0
LINE
  8
5
  6
CONTINUOUS
 62
6
 10
0.0000000000
 20
119.5000000000
 11
4.5000000000
 21
119.5000000000
  0
LINE
  8
5
  6
CONTINUOUS
 62
6
 10
402.5000000000
 20
199.5000000000
 11
407.0000000000
 21
199.5000000000
  0
LINE
  8
5
  6
CONTINUOUS
 62
6
 10
402.5000000000
 20
159.5000000000
 11
407.0000000000
 21
159.5000000000
  0
LINE
  8
5
  6
CONTINUOUS
 62
6
 10
402.5000000000
 20
119.5000000000
 11
407.0000000000
 21
119.5000000000
  0
TEXT
  8
5
  6
CONTINUOUS
 62
6
 10
23.500000
 20
279.500000
 40
4.000000
  1
1
 41
1.000000
 50
0.000000
 51
0.000000
 72
   5
 73
   0
 11
25.500000
 21
279.500000
  0
TEXT
  8
5
  6
CONTINUOUS
 62
6
 10
23.500000
 20
0.500000
 40
4.000000
  1
1
 41
1.000000
 50
0.000000
 51
0.000000
 72
   5
 73
   0
 11
25.500000
 21
0.500000
  0
TEXT
  8
5
  6
CONTINUOUS
 62
6
 10
63.500000
 20
279.500000
 40
4.000000
  1
2
 41
1.000000
 50
0.000000
 51
0.000000
 72
   5
 73
   0
 11
65.500000
 21
279.500000
  0
TEXT
  8
5
  6
CONTINUOUS
 62
6
 10
103.500000
 20
279.500000
 40
4.000000
  1
3
 41
1.000000
 50
0.000000
 51
0.000000
 72
   5
 73
   0
 11
105.500000
 21
279.500000
  0
TEXT
  8
5
  6
CONTINUOUS
 62
6
 10
143.500000
 20
279.500000
 40
4.000000
  1
4
 41
1.000000
 50
0.000000
 51
0.000000
 72
   5
 73
   0
 11
145.500000
 21
279.500000
  0
TEXT
  8
5
  6
CONTINUOUS
 62
6
 10
183.500000
 20
279.500000
 40
4.000000
  1
5
 41
1.000000
 50
0.000000
 51
0.000000
 72
   5
 73
   0
 11
185.500000
 21
279.500000
  0
TEXT
  8
5
  6
CONTINUOUS
 62
6
 10
223.500000
 20
279.500000
 40
4.000000
  1
6
 41
1.000000
 50
0.000000
 51
0.000000
 72
   5
 73
   0
 11
225.500000
 21
279.500000
  0
TEXT
  8
5
  6
CONTINUOUS
 62
6
 10
263.500000
 20
279.500000
 40
4.000000
  1
7
 41
1.000000
 50
0.000000
 51
0.000000
 72
   5
 73
   0
 11
265.500000
 21
279.500000
  0
TEXT
  8
5
  6
CONTINUOUS
 62
6
 10
63.500000
 20
0.500000
 40
4.000000
  1
2
 41
1.000000
 50
0.000000
 51
0.000000
 72
   5
 73
   0
 11
65.500000
 21
0.500000
  0
TEXT
  8
5
  6
CONTINUOUS
 62
6
 10
103.500000
 20
0.500000
 40
4.000000
  1
3
 41
1.000000
 50
0.000000
 51
0.000000
 72
   5
 73
   0
 11
105.500000
 21
0.500000
  0
TEXT
  8
5
  6
CONTINUOUS
 62
6
 10
143.500000
 20
0.500000
 40
4.000000
  1
4
 41
1.000000
 50
0.000000
 51
0.000000
 72
   5
 73
   0
 11
145.500000
 21
0.500000
  0
TEXT
  8
5
  6
CONTINUOUS
 62
6
 10
183.500000
 20
0.500000
 40
4.000000
  1
5
 41
1.000000
 50
0.000000
 51
0.000000
 72
   5
 73
   0
 11
185.500000
 21
0.500000
  0
TEXT
  8
5
  6
CONTINUOUS
 62
6
 10
223.500000
 20
0.500000
 40
4.000000
  1
6
 41
1.000000
 50
0.000000
 51
0.000000
 72
   5
 73
   0
 11
225.500000
 21
0.500000
  0
TEXT
  8
5
  6
CONTINUOUS
 62
6
 10
263.500000
 20
0.500000
 40
4.000000
  1
7
 41
1.000000
 50
0.000000
 51
0.000000
 72
   5
 73
   0
 11
265.500000
 21
0.500000
  0
TEXT
  8
5
  6
CONTINUOUS
 62
6
 10
1.626773
 20
257.454143
 40
4.000000
  1
A
 41
1.266000
 50
0.000000
 51
0.000000
 72
   5
 73
   0
 11
4.158773
 21
257.454143
  0
TEXT
  8
5
  6
CONTINUOUS
 62
6
 10
402.786513
 20
257.492354
 40
4.000000
  1
A
 41
1.266000
 50
0.000000
 51
0.000000
 72
   5
 73
   0
 11
405.318513
 21
257.492354
  0
TEXT
  8
5
  6
CONTINUOUS
 62
6
 10
1.610773
 20
217.454143
 40
4.000000
  1
B
 41
1.274000
 50
0.000000
 51
0.000000
 72
   5
 73
   0
 11
4.158773
 21
217.454143
  0
TEXT
  8
5
  6
CONTINUOUS
 62
6
 10
1.502773
 20
177.454143
 40
4.000000
  1
C
 41
1.328000
 50
0.000000
 51
0.000000
 72
   5
 73
   0
 11
4.158773
 21
177.454143
  0
TEXT
  8
5
  6
CONTINUOUS
 62
6
 10
1.566773
 20
137.454143
 40
4.000000
  1
D
 41
1.296000
 50
0.000000
 51
0.000000
 72
   5
 73
   0
 11
4.158773
 21
137.454143
  0
TEXT
  8
5
  6
CONTINUOUS
 62
6
 10
1.894773
 20
97.454143
 40
4.000000
  1
E
 41
1.132000
 50
0.000000
 51
0.000000
 72
   5
 73
   0
 11
4.158773
 21
97.454143
  0
TEXT
  8
5
  6
CONTINUOUS
 62
6
 10
402.786513
 20
217.492354
 40
4.000000
  1
B
 41
1.274000
 50
0.000000
 51
0.000000
 72
   5
 73
   0
 11
405.334513
 21
217.492354
  0
TEXT
  8
5
  6
CONTINUOUS
 62
6
 10
402.786513
 20
177.492354
 40
4.000000
  1
C
 41
1.328000
 50
0.000000
 51
0.000000
 72
   5
 73
   0
 11
405.442513
 21
177.492354
  0
TEXT
  8
5
  6
CONTINUOUS
 62
6
 10
402.786513
 20
137.492354
 40
4.000000
  1
D
 41
1.296000
 50
0.000000
 51
0.000000
 72
   5
 73
   0
 11
405.378513
 21
137.492354
  0
TEXT
  8
5
  6
CONTINUOUS
 62
6
 10
402.786513
 20
97.492354
 40
4.000000
  1
E
 41
1.132000
 50
0.000000
 51
0.000000
 72
   5
 73
   0
 11
405.050513
 21
97.492354
  0
LINE
  8
5
  6
CONTINUOUS
 62
6
 10
347.5000000000
 20
29.5000000000
 11
347.5000000000
 21
4.5000000000
  0
LINE
  8
5
  6
CONTINUOUS
 62
6
 10
347.5000000000
 20
14.5000000000
 11
402.5000000000
 21
14.5000000000
  0
LINE
  8
5
  6
CONTINUOUS
 62
6
 10
347.5000000000
 20
7.5000000000
 11
281.5000000000
 21
7.5000000000
  0
LINE
  8
5
  6
CONTINUOUS
 62
6
 10
303.5000000000
 20
4.5000000000
 11
303.5000000000
 21
21.0000000000
  0
LINE
  8
5
  6
CONTINUOUS
 62
6
 10
336.5000000000
 20
17.0000000000
 11
336.5000000000
 21
4.5000000000
  0
LINE
  8
5
  6
CONTINUOUS
 62
6
 10
325.5000000000
 20
4.5000000000
 11
325.4999999999
 21
21.0000000000
  0
LINE
  8
5
  6
CONTINUOUS
 62
6
 10
314.5000000000
 20
17.0000000000
 11
314.5000000000
 21
4.5000000000
  0
TEXT
  8
5
  6
CONTINUOUS
 62
6
 10
294.250000
 20
4.750000
 40
2.500000
  1
Design
 41
0.779221
 50
0.000000
 51
0.000000
 72
   5
 73
   0
 11
301.750000
 21
4.750000
  0
TEXT
  8
5
  6
CONTINUOUS
 62
6
 10
305.875000
 20
4.750000
 40
2.500000
  1
Draft
 41
0.786164
 50
0.000000
 51
0.000000
 72
   5
 73
   0
 11
312.125000
 21
4.750000
  0
TEXT
  8
5
  6
CONTINUOUS
 62
6
 10
316.875000
 20
4.750000
 40
2.500000
  1
Check
 41
0.786164
 50
0.000000
 51
0.000000
 72
   5
 73
   0
 11
323.125000
 21
4.750000
  0
LINE
  8
5
  6
CONTINUOUS
 62
6
 10
281.5000000000
 20
29.5000000000
 11
402.5000000000
 21
29.5000000000
  0
LINE
  8
5
  6
CONTINUOUS
 62
6
 10
281.5000000000
 20
17.0000000000
 11
347.5000000000
 21
17.0000000000
  0
LINE
  8
5
  6
CONTINUOUS
 62
6
 10
392.5000000000
 20
14.5000000000
 11
392.5000000000
 21
4.5000000000
  0
TEXT
  8
5
  6
CONTINUOUS
 62
6
 10
395.520000
 20
5.000000
 40
2.000000
  1
SIZE
 41
0.788845
 50
0.000000
 51
0.000000
 72
   5
 73
   0
 11
399.480000
 21
5.000000
  0
LINE
  8
5
  6
CONTINUOUS
 62
6
 10
392.5000000000
 20
7.5000000000
 11
402.5000000000
 21
7.5000000000
  0
TEXT
  8
5
  6
CONTINUOUS
 62
6
 10
394.005000
 20
8.500000
 40
5.000000
  1
Ａ３
 41
0.644240
 50
0.000000
 51
0.000000
 72
   5
 73
   0
 11
400.995000
 21
8.500000
  0
TEXT
  8
5
  6
CONTINUOUS
 62
6
 10
338.875000
 20
4.750000
 40
2.500000
  1
Scale
 41
0.786164
 50
0.000000
 51
0.000000
 72
   5
 73
   0
 11
345.125000
 21
4.750000
  0
TEXT
  8
5
  6
CONTINUOUS
 62
6
 10
338.250000
 20
9.750000
 40
5.000000
  1
1/1
 41
0.815217
 50
0.000000
 51
0.000000
 72
   5
 73
   0
 11
345.750000
 21
9.750000
  0
TEXT
  8
5
  6
CONTINUOUS
 62
6
 10
326.625000
 20
4.750000
 40
2.500000
  1
Confirm
 41
0.774336
 50
0.000000
 51
0.000000
 72
   5
 73
   0
 11
335.375000
 21
4.750000
  0
TEXT
  8
5
  6
CONTINUOUS
 62
6
 10
284.500000
 20
4.750000
 40
2.500000
  1
Date
 41
0.796813
 50
0.000000
 51
0.000000
 72
   5
 73
   0
 11
289.500000
 21
4.750000
  0
TEXT
  8
5
  6
CONTINUOUS
 62
6
 10
283.250000
 20
12.462500
 40
3.000000
  1
2013/
 41
0.786164
 50
0.000000
 51
0.000000
 72
   5
 73
   0
 11
290.750000
 21
12.462500
  0
TEXT
  8
5
  6
CONTINUOUS
 62
6
 10
283.250000
 20
9.037500
 40
3.000000
  1
05/22
 41
0.786164
 50
0.000000
 51
0.000000
 72
   5
 73
   0
 11
290.750000
 21
9.037500
  0
LINE
  8
5
  6
CONTINUOUS
 62
6
 10
292.5000000000
 20
17.0000000000
 11
292.5000000000
 21
4.5000000000
  0
LINE
  8
5
  6
CONTINUOUS
 62
6
 10
281.5000000000
 20
4.5000000000
 11
281.5000000000
 21
29.5000000000
  0
TEXT
  8
5
  6
CONTINUOUS
 62
6
 10
281.755293
 20
18.213190
 40
2.000000
  1
Material
 41
0.638921
 50
0.000000
 51
0.000000
 72
   5
 73
   0
 11
288.387293
 21
18.213190
  0
LINE
  8
5
  6
CONTINUOUS
 62
6
 10
288.5000000000
 20
21.0000000000
 11
288.5000000000
 21
17.0000000000
  0
TEXT
  8
5
  6
CONTINUOUS
 62
6
 10
303.605000
 20
18.000000
 40
2.000000
  1
Process
 41
0.751106
 50
0.000000
 51
0.000000
 72
   5
 73
   0
 11
310.395000
 21
18.000000
  0
LINE
  8
5
  6
CONTINUOUS
 62
6
 10
310.5000000000
 20
21.0000000000
 11
310.5000000000
 21
17.0000000000
  0
TEXT
  8
5
  6
CONTINUOUS
 62
6
 10
325.773000
 20
18.000000
 40
2.000000
  1
Amount
 41
0.838182
 50
0.000000
 51
0.000000
 72
   5
 73
   0
 11
332.227000
 21
18.000000
  0
LINE
  8
5
  6
CONTINUOUS
 62
6
 10
332.4999999999
 20
21.0000000000
 11
332.4999999999
 21
17.0000000000
  0
LINE
  8
5
  6
CONTINUOUS
 62
6
 10
347.5000000000
 20
21.0000000000
 11
281.5000000000
 21
21.0000000000
  0
POINT
  8
5
  6
CONTINUOUS
 62
6
 10
289.5000000000
 20
19.0000000000
  0
POINT
  8
5
  6
CONTINUOUS
 62
6
 10
311.5000000000
 20
19.0000000000
  0
POINT
  8
5
  6
CONTINUOUS
 62
6
 10
339.9999999999
 20
19.0000000000
  0
POINT
  8
5
  6
CONTINUOUS
 62
6
 10
298.0000000000
 20
12.2500000000
  0
POINT
  8
5
  6
CONTINUOUS
 62
6
 10
309.0000000000
 20
12.2500000000
  0
POINT
  8
5
  6
CONTINUOUS
 62
6
 10
320.0000000000
 20
12.2500000000
  0
POINT
  8
5
  6
CONTINUOUS
 62
6
 10
331.0000000000
 20
12.2500000000
  0
POINT
  8
5
  6
CONTINUOUS
 62
6
 10
0.0000000000
 20
0.0000000000
  0
TEXT
  8
5
  6
CONTINUOUS
 62
7
 10
301.099806
 20
20.780083
 40
4.000000
  1
MADOKA SYSTEM co,.ltd
 41
0.778201
 50
0.000000
 51
0.000000
 72
   5
 73
   0
 11
344.367806
 21
20.780083
  0
LINE
  8
5
  6
CONTINUOUS
 62
6
 10
284.5000000000
 20
284.0000000000
 11
284.5000000000
 21
279.5000000000
  0
LINE
  8
5
  6
CONTINUOUS
 62
6
 10
284.5000000000
 20
4.5000000000
 11
284.5000000000
 21
0.0000000000
  0
TEXT
  8
5
  6
CONTINUOUS
 62
6
 10
303.500000
 20
279.500000
 40
4.000000
  1
8
 41
1.000000
 50
0.000000
 51
0.000000
 72
   5
 73
   0
 11
305.500000
 21
279.500000
  0
TEXT
  8
5
  6
CONTINUOUS
 62
6
 10
303.500000
 20
0.500000
 40
4.000000
  1
8
 41
1.000000
 50
0.000000
 51
0.000000
 72
   5
 73
   0
 11
305.500000
 21
0.500000
  0
LINE
  8
5
  6
CONTINUOUS
 62
6
 10
324.5000000000
 20
284.0000000000
 11
324.5000000000
 21
279.5000000000
  0
LINE
  8
5
  6
CONTINUOUS
 62
6
 10
324.5000000000
 20
4.5000000000
 11
324.5000000000
 21
0.0000000000
  0
TEXT
  8
5
  6
CONTINUOUS
 62
6
 10
343.500000
 20
279.500000
 40
4.000000
  1
9
 41
1.000000
 50
0.000000
 51
0.000000
 72
   5
 73
   0
 11
345.500000
 21
279.500000
  0
TEXT
  8
5
  6
CONTINUOUS
 62
6
 10
343.500000
 20
0.500000
 40
4.000000
  1
9
 41
1.000000
 50
0.000000
 51
0.000000
 72
   5
 73
   0
 11
345.500000
 21
0.500000
  0
LINE
  8
5
  6
CONTINUOUS
 62
6
 10
364.5000000000
 20
284.0000000000
 11
364.5000000000
 21
279.5000000000
  0
LINE
  8
5
  6
CONTINUOUS
 62
6
 10
364.5000000000
 20
4.5000000000
 11
364.5000000000
 21
0.0000000000
  0
TEXT
  8
5
  6
CONTINUOUS
 62
6
 10
382.500000
 20
279.500000
 40
4.000000
  1
10
 41
0.854701
 50
0.000000
 51
0.000000
 72
   5
 73
   0
 11
386.500000
 21
279.500000
  0
TEXT
  8
5
  6
CONTINUOUS
 62
6
 10
382.500000
 20
0.500000
 40
4.000000
  1
10
 41
0.854701
 50
0.000000
 51
0.000000
 72
   5
 73
   0
 11
386.500000
 21
0.500000
  0
LINE
  8
5
  6
CONTINUOUS
 62
6
 10
0.0000000000
 20
79.5000000000
 11
4.5000000000
 21
79.5000000000
  0
LINE
  8
5
  6
CONTINUOUS
 62
6
 10
402.5000000000
 20
79.5000000000
 11
407.0000000000
 21
79.5000000000
  0
LINE
  8
5
  6
CONTINUOUS
 62
6
 10
0.0000000000
 20
39.5000000000
 11
4.5000000000
 21
39.5000000000
  0
LINE
  8
5
  6
CONTINUOUS
 62
6
 10
402.5000000000
 20
39.5000000000
 11
407.0000000000
 21
39.5000000000
  0
TEXT
  8
5
  6
CONTINUOUS
 62
6
 10
1.954773
 20
57.454143
 40
4.000000
  1
F
 41
1.102000
 50
0.000000
 51
0.000000
 72
   5
 73
   0
 11
4.158773
 21
57.454143
  0
TEXT
  8
5
  6
CONTINUOUS
 62
6
 10
402.786513
 20
57.492354
 40
4.000000
  1
F
 41
1.102000
 50
0.000000
 51
0.000000
 72
   5
 73
   0
 11
404.990513
 21
57.492354
  0
TEXT
  8
5
  6
CONTINUOUS
 62
6
 10
1.438773
 20
17.454143
 40
4.000000
  1
G
 41
1.360000
 50
0.000000
 51
0.000000
 72
   5
 73
   0
 11
4.158773
 21
17.454143
  0
TEXT
  8
5
  6
CONTINUOUS
 62
6
 10
402.786513
 20
17.492354
 40
4.000000
  1
G
 41
1.360000
 50
0.000000
 51
0.000000
 72
   5
 73
   0
 11
405.506513
 21
17.492354
  0
LINE
  8
5
  6
CONTINUOUS
 62
6
 10
4.5000000000
 20
279.5000000000
 11
402.5000000000
 21
279.5000000000
  0
LINE
  8
5
  6
CONTINUOUS
 62
6
 10
402.5000000000
 20
279.5000000000
 11
402.5000000000
 21
4.5000000000
  0
POINT
  8
5
  6
CONTINUOUS
 62
6
 10
353.5000000000
 20
20.5000000000
  0
POINT
  8
5
  6
CONTINUOUS
 62
6
 10
353.5000000000
 20
8.0000000000
  0
LINE
  8
5
  6
CONTINUOUS
 62
6
 10
347.5000000000
 20
26.5000000000
 11
402.5000000000
 21
26.5000000000
  0
LINE
  8
5
  6
CONTINUOUS
 62
6
 10
347.5000000000
 20
11.5000000000
 11
392.5000000000
 21
11.5000000000
  0
TEXT
  8
5
  6
CONTINUOUS
 62
7
 10
362.928500
 20
26.250000
 40
3.500000
  1
Document Name
 41
0.807728
 50
0.000000
 51
0.000000
 72
   5
 73
   0
 11
387.071500
 21
26.250000
  0
TEXT
  8
5
  6
CONTINUOUS
 62
7
 10
359.678500
 20
11.250000
 40
3.500000
  1
Document No.
 41
0.749428
 50
0.000000
 51
0.000000
 72
   5
 73
   0
 11
380.321500
 21
11.250000
  0
ENDBLK
  8
0
  0
BLOCK
  8
1
  2
*D0
 70
     1
 10
0.0000000000
 20
0.0000000000
  3
*D0
  0
LINE
  8
1
  6
BYBLOCK
 62
5
 10
127.9661466639
 20
94.3244525436
 11
127.9661466639
 21
99.7193009011
  0
LINE
  8
1
  6
BYBLOCK
 62
5
 10
111.4661466639
 20
94.3244525436
 11
111.4661466639
 21
99.7193009011
  0
LINE
  8
1
  6
BYBLOCK
 62
5
 10
111.4661466639
 20
98.7193009011
 11
127.9661466639
 21
98.7193009011
  0
SOLID
  8
1
  6
CONTINUOUS
 62
5
 10
126.0342950114
 20
98.2016628109
 11
126.0342950114
 21
99.2369389913
 12
127.9661466639
 22
98.7193009011
 13
127.9661466639
 23
98.7193009011
  0
SOLID
  8
1
  6
CONTINUOUS
 62
5
 10
113.3979983165
 20
99.2369389913
 11
113.3979983165
 21
98.2016628109
 12
111.4661466639
 22
98.7193009011
 13
111.4661466639
 23
98.7193009011
  0
TEXT
  8
1
  6
CONTINUOUS
 62
7
 10
116.216147
 20
99.719301
 40
3.500000
  1
16.5
 41
0.796813
 50
0.000000
 51
0.000000
 72
   5
 73
   0
 11
123.216147
 21
99.719301
  0
POINT
  8
DEFPOINTS
  6
BYBLOCK
 62
5
 10
127.9661466639
 20
93.8244525436
  0
POINT
  8
DEFPOINTS
  6
BYBLOCK
 62
5
 10
111.4661466639
 20
93.8244525436
  0
POINT
  8
DEFPOINTS
  6
BYBLOCK
 62
5
 10
111.4661466639
 20
98.7193009011
  0
ENDBLK
  8
0
  0
BLOCK
  8
1
  2
*D1
 70
     1
 10
0.0000000000
 20
0.0000000000
  3
*D1
  0
LINE
  8
1
  6
BYBLOCK
 62
5
 10
27.2645106558
 20
27.5484212565
 11
19.9779016700
 21
27.5484212565
  0
LINE
  8
1
  6
BYBLOCK
 62
5
 10
28.2645106558
 20
36.5484212565
 11
19.9779016700
 21
36.5484212565
  0
LINE
  8
1
  6
BYBLOCK
 62
5
 10
20.9779016700
 20
36.5484212565
 11
20.9779016700
 21
27.5484212565
  0
SOLID
  8
1
  6
CONTINUOUS
 62
5
 10
20.4602635798
 20
29.4802729091
 11
21.4955397602
 21
29.4802729091
 12
20.9779016700
 22
27.5484212565
 13
20.9779016700
 23
27.5484212565
  0
SOLID
  8
1
  6
CONTINUOUS
 62
5
 10
21.4955397602
 20
34.6165696039
 11
20.4602635798
 21
34.6165696039
 12
20.9779016700
 22
36.5484212565
 13
20.9779016700
 23
36.5484212565
  0
TEXT
  8
1
  6
CONTINUOUS
 62
7
 10
19.977902
 20
31.173421
 40
3.500000
  1
9
 41
1.000000
 50
90.000000
 51
0.000000
 72
   5
 73
   0
 11
19.977902
 21
32.923421
  0
POINT
  8
DEFPOINTS
  6
BYBLOCK
 62
5
 10
27.7645106558
 20
27.5484212565
  0
POINT
  8
DEFPOINTS
  6
BYBLOCK
 62
5
 10
28.7645106558
 20
36.5484212565
  0
POINT
  8
DEFPOINTS
  6
BYBLOCK
 62
5
 10
20.9779016700
 20
36.5484212565
  0
ENDBLK
  8
0
  0
BLOCK
  8
1
  2
*D2
 70
     1
 10
0.0000000000
 20
0.0000000000
  3
*D2
  0
LINE
  8
1
  6
BYBLOCK
 62
5
 10
29.2645106558
 20
37.0484212565
 11
19.7383253733
 21
37.0484212565
  0
LINE
  8
1
  6
BYBLOCK
 62
5
 10
35.7645106558
 20
51.5484212565
 11
19.7383253733
 21
51.5484212565
  0
LINE
  8
1
  6
BYBLOCK
 62
5
 10
20.7383253733
 20
51.5484212565
 11
20.7383253733
 21
37.0484212565
  0
SOLID
  8
1
  6
CONTINUOUS
 62
5
 10
20.2206872831
 20
38.9802729091
 11
21.2559634635
 21
38.9802729091
 12
20.7383253733
 22
37.0484212565
 13
20.7383253733
 23
37.0484212565
  0
SOLID
  8
1
  6
CONTINUOUS
 62
5
 10
21.2559634635
 20
49.6165696039
 11
20.2206872831
 21
49.6165696039
 12
20.7383253733
 22
51.5484212565
 13
20.7383253733
 23
51.5484212565
  0
TEXT
  8
1
  6
CONTINUOUS
 62
7
 10
19.738325
 20
40.798421
 40
3.500000
  1
14.5
 41
0.796813
 50
90.000000
 51
0.000000
 72
   5
 73
   0
 11
19.738325
 21
47.798421
  0
POINT
  8
DEFPOINTS
  6
BYBLOCK
 62
5
 10
29.7645106558
 20
37.0484212565
  0
POINT
  8
DEFPOINTS
  6
BYBLOCK
 62
5
 10
36.2645106558
 20
51.5484212565
  0
POINT
  8
DEFPOINTS
  6
BYBLOCK
 62
5
 10
20.7383253733
 20
51.5484212565
  0
ENDBLK
  8
0
  0
BLOCK
  8
1
  2
*D3
 70
     1
 10
0.0000000000
 20
0.0000000000
  3
*D3
  0
LINE
  8
1
  6
BYBLOCK
 62
5
 10
27.2645106558
 20
27.5484212565
 11
12.2316014101
 21
27.5484212565
  0
LINE
  8
1
  6
BYBLOCK
 62
5
 10
35.7645106558
 20
51.5484212565
 11
12.2316014101
 21
51.5484212565
  0
LINE
  8
1
  6
BYBLOCK
 62
5
 10
13.2316014101
 20
51.5484212565
 11
13.2316014101
 21
27.5484212565
  0
SOLID
  8
1
  6
CONTINUOUS
 62
5
 10
12.7139633199
 20
29.4802729091
 11
13.7492395003
 21
29.4802729091
 12
13.2316014101
 22
27.5484212565
 13
13.2316014101
 23
27.5484212565
  0
SOLID
  8
1
  6
CONTINUOUS
 62
5
 10
13.7492395003
 20
49.6165696039
 11
12.7139633199
 21
49.6165696039
 12
13.2316014101
 22
51.5484212565
 13
13.2316014101
 23
51.5484212565
  0
TEXT
  8
1
  6
CONTINUOUS
 62
7
 10
12.231601
 20
37.798421
 40
3.500000
  1
24
 41
0.854701
 50
90.000000
 51
0.000000
 72
   5
 73
   0
 11
12.231601
 21
41.298421
  0
POINT
  8
DEFPOINTS
  6
BYBLOCK
 62
5
 10
27.7645106558
 20
27.5484212565
  0
POINT
  8
DEFPOINTS
  6
BYBLOCK
 62
5
 10
36.2645106558
 20
51.5484212565
  0
POINT
  8
DEFPOINTS
  6
BYBLOCK
 62
5
 10
13.2316014101
 20
51.5484212565
  0
ENDBLK
  8
0
  0
BLOCK
  8
1
  2
*D4
 70
     1
 10
0.0000000000
 20
0.0000000000
  3
*D4
  0
LINE
  8
1
  6
BYBLOCK
 62
5
 10
27.2645106558
 20
220.1025214537
 11
16.2916228022
 21
220.1025214537
  0
LINE
  8
1
  6
BYBLOCK
 62
5
 10
27.2645106558
 20
64.6025214537
 11
16.2916228022
 21
64.6025214537
  0
LINE
  8
1
  6
BYBLOCK
 62
5
 10
17.2916228022
 20
64.6025214537
 11
17.2916228022
 21
220.1025214537
  0
SOLID
  8
1
  6
CONTINUOUS
 62
5
 10
17.8092608924
 20
218.1706698011
 11
16.7739847120
 21
218.1706698011
 12
17.2916228022
 22
220.1025214537
 13
17.2916228022
 23
220.1025214537
  0
SOLID
  8
1
  6
CONTINUOUS
 62
5
 10
16.7739847120
 20
66.5343731063
 11
17.8092608924
 21
66.5343731063
 12
17.2916228022
 22
64.6025214537
 13
17.2916228022
 23
64.6025214537
  0
TEXT
  8
1
  6
CONTINUOUS
 62
7
 10
16.291623
 20
136.102521
 40
5.000000
  1
155.5
 41
0.786164
 50
90.000000
 51
0.000000
 72
   5
 73
   0
 11
16.291623
 21
148.602521
  0
POINT
  8
DEFPOINTS
  6
BYBLOCK
 62
5
 10
27.7645106558
 20
220.1025214537
  0
POINT
  8
DEFPOINTS
  6
BYBLOCK
 62
5
 10
27.7645106558
 20
64.6025214537
  0
POINT
  8
DEFPOINTS
  6
BYBLOCK
 62
5
 10
17.2916228022
 20
64.6025214537
  0
ENDBLK
  8
0
  0
BLOCK
  8
1
  2
*D5
 70
     1
 10
0.0000000000
 20
0.0000000000
  3
*D5
  0
LINE
  8
1
  6
BYBLOCK
 62
5
 10
27.7645106558
 20
220.6025214537
 11
27.7645106558
 21
225.0648547044
  0
LINE
  8
1
  6
BYBLOCK
 62
5
 10
96.7645106558
 20
220.6025214537
 11
96.7645106558
 21
225.0648547044
  0
LINE
  8
1
  6
BYBLOCK
 62
5
 10
96.7645106558
 20
224.0648547044
 11
27.7645106558
 21
224.0648547044
  0
SOLID
  8
1
  6
CONTINUOUS
 62
5
 10
29.6963623084
 20
224.5824927946
 11
29.6963623084
 21
223.5472166142
 12
27.7645106558
 22
224.0648547044
 13
27.7645106558
 23
224.0648547044
  0
SOLID
  8
1
  6
CONTINUOUS
 62
5
 10
94.8326590033
 20
223.5472166142
 11
94.8326590033
 21
224.5824927946
 12
96.7645106558
 22
224.0648547044
 13
96.7645106558
 23
224.0648547044
  0
TEXT
  8
1
  6
CONTINUOUS
 62
7
 10
59.764511
 20
225.064855
 40
5.000000
  1
69
 41
0.854701
 50
0.000000
 51
0.000000
 72
   5
 73
   0
 11
64.764511
 21
225.064855
  0
POINT
  8
DEFPOINTS
  6
BYBLOCK
 62
5
 10
27.7645106558
 20
220.1025214537
  0
POINT
  8
DEFPOINTS
  6
BYBLOCK
 62
5
 10
96.7645106558
 20
220.1025214537
  0
POINT
  8
DEFPOINTS
  6
BYBLOCK
 62
5
 10
96.7645106558
 20
224.0648547044
  0
ENDBLK
  8
0
  0
BLOCK
  8
5
  2
S1
 70
     0
 10
312.9235759729
 20
221.9463679840
  3
S1
  0
LINE
  8
5
  6
CONTINUOUS
 62
6
 10
312.9235759729
 20
271.9463679840
 11
312.9235759729
 21
276.9463679840
  0
LINE
  8
5
  6
CONTINUOUS
 62
6
 10
312.9235759729
 20
276.9463679840
 11
317.9235759729
 21
276.9463679840
  0
LINE
  8
5
  6
CONTINUOUS
 62
6
 10
317.9235759729
 20
276.9463679840
 11
337.9235759729
 21
276.9463679840
  0
LINE
  8
5
  6
CONTINUOUS
 62
6
 10
337.9235759729
 20
276.9463679840
 11
377.9235759729
 21
276.9463679840
  0
LINE
  8
5
  6
CONTINUOUS
 62
6
 10
377.9235759729
 20
276.9463679840
 11
392.9235759729
 21
276.9463679840
  0
LINE
  8
5
  6
CONTINUOUS
 62
6
 10
392.9235759729
 20
276.9463679840
 11
397.9235759729
 21
276.9463679840
  0
LINE
  8
5
  6
CONTINUOUS
 62
6
 10
397.9235759729
 20
276.9463679840
 11
397.9235759729
 21
271.9463679840
  0
LINE
  8
5
  6
CONTINUOUS
 62
6
 10
397.9235759729
 20
271.9463679840
 11
392.9235759729
 21
271.9463679840
  0
LINE
  8
5
  6
CONTINUOUS
 62
6
 10
392.9235759729
 20
271.9463679840
 11
377.9235759729
 21
271.9463679840
  0
LINE
  8
5
  6
CONTINUOUS
 62
6
 10
377.9235759729
 20
271.9463679840
 11
337.9235759729
 21
271.9463679840
  0
LINE
  8
5
  6
CONTINUOUS
 62
6
 10
337.9235759729
 20
271.9463679840
 11
317.9235759729
 21
271.9463679840
  0
LINE
  8
5
  6
CONTINUOUS
 62
6
 10
317.9235759729
 20
271.9463679840
 11
312.9235759729
 21
271.9463679840
  0
LINE
  8
5
  6
CONTINUOUS
 62
6
 10
317.9235759729
 20
276.9463679840
 11
317.9235759729
 21
271.9463679840
  0
LINE
  8
5
  6
CONTINUOUS
 62
6
 10
337.9235759729
 20
276.9463679840
 11
337.9235759729
 21
271.9463679840
  0
LINE
  8
5
  6
CONTINUOUS
 62
6
 10
377.9235759729
 20
276.9463679840
 11
377.9235759729
 21
271.9463679840
  0
LINE
  8
5
  6
CONTINUOUS
 62
6
 10
392.9235759729
 20
276.9463679840
 11
392.9235759729
 21
271.9463679840
  0
TEXT
  8
5
  6
CONTINUOUS
 62
7
 10
313.123576
 20
273.296368
 40
2.300000
  1
項番
 41
0.921659
 50
0.000000
 51
0.000000
 72
   5
 73
   0
 11
317.723576
 21
273.296368
  0
TEXT
  8
5
  6
CONTINUOUS
 62
7
 10
322.931576
 20
272.946368
 40
3.000000
  1
品　　名
 41
0.737916
 50
0.000000
 51
0.000000
 72
   5
 73
   0
 11
332.915576
 21
272.946368
  0
TEXT
  8
5
  6
CONTINUOUS
 62
7
 10
342.770576
 20
272.946368
 40
3.000000
  1
定  格 / 型  番 / 材　質
 41
0.686277
 50
0.000000
 51
0.000000
 72
   5
 73
   0
 11
373.076576
 21
272.946368
  0
TEXT
  8
5
  6
CONTINUOUS
 62
7
 10
380.226076
 20
272.946368
 40
3.000000
  1
メーカー
 41
0.768293
 50
0.000000
 51
0.000000
 72
   5
 73
   0
 11
390.621076
 21
272.946368
  0
TEXT
  8
5
  6
CONTINUOUS
 62
7
 10
393.123576
 20
273.296368
 40
2.300000
  1
数量
 41
0.921659
 50
0.000000
 51
0.000000
 72
   5
 73
   0
 11
397.723576
 21
273.296368
  0
LINE
  8
5
  6
CONTINUOUS
 62
6
 10
312.9235759729
 20
266.9463679840
 11
312.9235759729
 21
271.9463679840
  0
LINE
  8
5
  6
CONTINUOUS
 62
6
 10
312.9235759729
 20
271.9463679840
 11
317.9235759729
 21
271.9463679840
  0
LINE
  8
5
  6
CONTINUOUS
 62
6
 10
317.9235759729
 20
271.9463679840
 11
337.9235759729
 21
271.9463679840
  0
LINE
  8
5
  6
CONTINUOUS
 62
6
 10
337.9235759729
 20
271.9463679840
 11
377.9235759729
 21
271.9463679840
  0
LINE
  8
5
  6
CONTINUOUS
 62
6
 10
377.9235759729
 20
271.9463679840
 11
392.9235759729
 21
271.9463679840
  0
LINE
  8
5
  6
CONTINUOUS
 62
6
 10
392.9235759729
 20
271.9463679840
 11
397.9235759729
 21
271.9463679840
  0
LINE
  8
5
  6
CONTINUOUS
 62
6
 10
397.9235759729
 20
271.9463679840
 11
397.9235759729
 21
266.9463679840
  0
LINE
  8
5
  6
CONTINUOUS
 62
6
 10
397.9235759729
 20
266.9463679840
 11
392.9235759729
 21
266.9463679840
  0
LINE
  8
5
  6
CONTINUOUS
 62
6
 10
392.9235759729
 20
266.9463679840
 11
377.9235759729
 21
266.9463679840
  0
LINE
  8
5
  6
CONTINUOUS
 62
6
 10
337.9235759729
 20
266.9463679840
 11
317.9235759729
 21
266.9463679840
  0
LINE
  8
5
  6
CONTINUOUS
 62
6
 10
317.9235759729
 20
266.9463679840
 11
312.9235759729
 21
266.9463679840
  0
LINE
  8
5
  6
CONTINUOUS
 62
6
 10
317.9235759729
 20
271.9463679840
 11
317.9235759729
 21
266.9463679840
  0
LINE
  8
5
  6
CONTINUOUS
 62
6
 10
337.9235759729
 20
271.9463679840
 11
337.9235759729
 21
266.9463679840
  0
LINE
  8
5
  6
CONTINUOUS
 62
6
 10
377.9235759729
 20
271.9463679840
 11
377.9235759729
 21
266.9463679840
  0
LINE
  8
5
  6
CONTINUOUS
 62
6
 10
392.9235759729
 20
271.9463679840
 11
392.9235759729
 21
266.9463679840
  0
TEXT
  8
5
  6
CONTINUOUS
 62
7
 10
314.548576
 20
267.696368
 40
3.500000
  1
1
 41
1.000000
 50
0.000000
 51
0.000000
 72
   5
 73
   0
 11
316.298576
 21
267.696368
  0
TEXT
  8
5
  6
CONTINUOUS
 62
7
 10
318.923576
 20
267.946368
 40
3.000000
  1
ベース
 41
0.841018
 50
0.000000
 51
0.000000
 72
   5
 73
   0
 11
327.350576
 21
267.946368
  0
TEXT
  8
5
  6
CONTINUOUS
 62
7
 10
394.548576
 20
267.696368
 40
3.500000
  1
1
 41
1.000000
 50
0.000000
 51
0.000000
 72
   5
 73
   0
 11
396.298576
 21
267.696368
  0
LINE
  8
5
  6
CONTINUOUS
 62
6
 10
397.9235759729
 20
261.9463679840
 11
392.9235759729
 21
261.9463679840
  0
LINE
  8
5
  6
CONTINUOUS
 62
6
 10
397.9235759729
 20
256.9463679840
 11
392.9235759729
 21
256.9463679840
  0
LINE
  8
5
  6
CONTINUOUS
 62
6
 10
397.9235759729
 20
251.9463679840
 11
392.9235759729
 21
251.9463679840
  0
LINE
  8
5
  6
CONTINUOUS
 62
6
 10
397.9235759729
 20
246.9463679840
 11
392.9235759729
 21
246.9463679840
  0
LINE
  8
5
  6
CONTINUOUS
 62
6
 10
397.9235759729
 20
241.9463679840
 11
392.9235759729
 21
241.9463679840
  0
LINE
  8
5
  6
CONTINUOUS
 62
6
 10
397.9235759729
 20
236.9463679840
 11
392.9235759729
 21
236.9463679840
  0
LINE
  8
5
  6
CONTINUOUS
 62
6
 10
397.9235759729
 20
231.9463679840
 11
392.9235759729
 21
231.9463679840
  0
LINE
  8
5
  6
CONTINUOUS
 62
6
 10
397.9235759729
 20
226.9463679840
 11
392.9235759729
 21
226.9463679840
  0
LINE
  8
5
  6
CONTINUOUS
 62
6
 10
392.9235759729
 20
261.9463679840
 11
377.9235759729
 21
261.9463679840
  0
LINE
  8
5
  6
CONTINUOUS
 62
6
 10
392.9235759729
 20
256.9463679840
 11
377.9235759729
 21
256.9463679840
  0
LINE
  8
5
  6
CONTINUOUS
 62
6
 10
392.9235759729
 20
251.9463679840
 11
377.9235759729
 21
251.9463679840
  0
LINE
  8
5
  6
CONTINUOUS
 62
6
 10
392.9235759729
 20
246.9463679840
 11
377.9235759729
 21
246.9463679840
  0
LINE
  8
5
  6
CONTINUOUS
 62
6
 10
392.9235759729
 20
241.9463679840
 11
377.9235759729
 21
241.9463679840
  0
LINE
  8
5
  6
CONTINUOUS
 62
6
 10
392.9235759729
 20
236.9463679840
 11
377.9235759729
 21
236.9463679840
  0
LINE
  8
5
  6
CONTINUOUS
 62
6
 10
392.9235759729
 20
231.9463679840
 11
377.9235759729
 21
231.9463679840
  0
LINE
  8
5
  6
CONTINUOUS
 62
6
 10
392.9235759729
 20
226.9463679840
 11
377.9235759729
 21
226.9463679840
  0
LINE
  8
5
  6
CONTINUOUS
 62
6
 10
377.9235759729
 20
261.9463679840
 11
337.9235759729
 21
261.9463679840
  0
LINE
  8
5
  6
CONTINUOUS
 62
6
 10
377.9235759729
 20
256.9463679840
 11
337.9235759729
 21
256.9463679840
  0
LINE
  8
5
  6
CONTINUOUS
 62
6
 10
377.9235759729
 20
251.9463679840
 11
337.9235759729
 21
251.9463679840
  0
LINE
  8
5
  6
CONTINUOUS
 62
6
 10
377.9235759729
 20
246.9463679840
 11
337.9235759729
 21
246.9463679840
  0
LINE
  8
5
  6
CONTINUOUS
 62
6
 10
377.9235759729
 20
241.9463679840
 11
337.9235759729
 21
241.9463679840
  0
LINE
  8
5
  6
CONTINUOUS
 62
6
 10
377.9235759729
 20
236.9463679840
 11
337.9235759729
 21
236.9463679840
  0
LINE
  8
5
  6
CONTINUOUS
 62
6
 10
377.9235759729
 20
231.9463679840
 11
337.9235759729
 21
231.9463679840
  0
LINE
  8
5
  6
CONTINUOUS
 62
6
 10
337.9235759729
 20
261.9463679840
 11
317.9235759729
 21
261.9463679840
  0
LINE
  8
5
  6
CONTINUOUS
 62
6
 10
337.9235759729
 20
256.9463679840
 11
317.9235759729
 21
256.9463679840
  0
LINE
  8
5
  6
CONTINUOUS
 62
6
 10
337.9235759729
 20
251.9463679840
 11
317.9235759729
 21
251.9463679840
  0
LINE
  8
5
  6
CONTINUOUS
 62
6
 10
337.9235759729
 20
246.9463679840
 11
317.9235759729
 21
246.9463679840
  0
LINE
  8
5
  6
CONTINUOUS
 62
6
 10
337.9235759729
 20
241.9463679840
 11
317.9235759729
 21
241.9463679840
  0
LINE
  8
5
  6
CONTINUOUS
 62
6
 10
337.9235759729
 20
236.9463679840
 11
317.9235759729
 21
236.9463679840
  0
LINE
  8
5
  6
CONTINUOUS
 62
6
 10
337.9235759729
 20
231.9463679840
 11
317.9235759729
 21
231.9463679840
  0
LINE
  8
5
  6
CONTINUOUS
 62
6
 10
337.9235759729
 20
226.9463679840
 11
317.9235759729
 21
226.9463679840
  0
LINE
  8
5
  6
CONTINUOUS
 62
6
 10
317.9235759729
 20
261.9463679840
 11
312.9235759729
 21
261.9463679840
  0
LINE
  8
5
  6
CONTINUOUS
 62
6
 10
317.9235759729
 20
256.9463679840
 11
312.9235759729
 21
256.9463679840
  0
LINE
  8
5
  6
CONTINUOUS
 62
6
 10
317.9235759729
 20
251.9463679840
 11
312.9235759729
 21
251.9463679840
  0
LINE
  8
5
  6
CONTINUOUS
 62
6
 10
317.9235759729
 20
246.9463679840
 11
312.9235759729
 21
246.9463679840
  0
LINE
  8
5
  6
CONTINUOUS
 62
6
 10
317.9235759729
 20
241.9463679840
 11
312.9235759729
 21
241.9463679840
  0
LINE
  8
5
  6
CONTINUOUS
 62
6
 10
317.9235759729
 20
236.9463679840
 11
312.9235759729
 21
236.9463679840
  0
LINE
  8
5
  6
CONTINUOUS
 62
6
 10
317.9235759729
 20
231.9463679840
 11
312.9235759729
 21
231.9463679840
  0
LINE
  8
5
  6
CONTINUOUS
 62
6
 10
317.9235759729
 20
226.9463679840
 11
312.9235759729
 21
226.9463679840
  0
TEXT
  8
5
  6
CONTINUOUS
 62
7
 10
314.548576
 20
262.696368
 40
3.500000
  1
2
 41
1.000000
 50
0.000000
 51
0.000000
 72
   5
 73
   0
 11
316.298576
 21
262.696368
  0
TEXT
  8
5
  6
CONTINUOUS
 62
7
 10
314.548576
 20
257.696368
 40
3.500000
  1
3
 41
1.000000
 50
0.000000
 51
0.000000
 72
   5
 73
   0
 11
316.298576
 21
257.696368
  0
TEXT
  8
5
  6
CONTINUOUS
 62
7
 10
314.548576
 20
252.696368
 40
3.500000
  1
4
 41
1.000000
 50
0.000000
 51
0.000000
 72
   5
 73
   0
 11
316.298576
 21
252.696368
  0
TEXT
  8
5
  6
CONTINUOUS
 62
7
 10
314.548576
 20
247.696368
 40
3.500000
  1
5
 41
1.000000
 50
0.000000
 51
0.000000
 72
   5
 73
   0
 11
316.298576
 21
247.696368
  0
TEXT
  8
5
  6
CONTINUOUS
 62
7
 10
314.548576
 20
242.696368
 40
3.500000
  1
6
 41
1.000000
 50
0.000000
 51
0.000000
 72
   5
 73
   0
 11
316.298576
 21
242.696368
  0
TEXT
  8
5
  6
CONTINUOUS
 62
7
 10
314.548576
 20
237.696368
 40
3.500000
  1
7
 41
1.000000
 50
0.000000
 51
0.000000
 72
   5
 73
   0
 11
316.298576
 21
237.696368
  0
TEXT
  8
5
  6
CONTINUOUS
 62
7
 10
314.548576
 20
232.696368
 40
3.500000
  1
8
 41
1.000000
 50
0.000000
 51
0.000000
 72
   5
 73
   0
 11
316.298576
 21
232.696368
  0
TEXT
  8
5
  6
CONTINUOUS
 62
7
 10
314.548576
 20
227.696368
 40
3.500000
  1
9
 41
1.000000
 50
0.000000
 51
0.000000
 72
   5
 73
   0
 11
316.298576
 21
227.696368
  0
TEXT
  8
5
  6
CONTINUOUS
 62
7
 10
318.923576
 20
262.946368
 40
3.000000
  1
カバー
 41
0.833832
 50
0.000000
 51
0.000000
 72
   5
 73
   0
 11
327.278576
 21
262.946368
  0
TEXT
  8
5
  6
CONTINUOUS
 62
7
 10
318.923576
 20
257.946368
 40
3.000000
  1
ロック
 41
0.719162
 50
0.000000
 51
0.000000
 72
   5
 73
   0
 11
326.129576
 21
257.946368
  0
TEXT
  8
5
  6
CONTINUOUS
 62
7
 10
318.923576
 20
252.946368
 40
3.000000
  1
添付品ﾋﾞｽ
 41
0.822804
 50
0.000000
 51
0.000000
 72
   5
 73
   0
 11
332.129576
 21
252.946368
  0
TEXT
  8
5
  6
CONTINUOUS
 62
7
 10
318.923576
 20
242.946368
 40
3.000000
  1
添付品ﾋﾞｽ
 41
0.822804
 50
0.000000
 51
0.000000
 72
   5
 73
   0
 11
332.129576
 21
242.946368
  0
TEXT
  8
5
  6
CONTINUOUS
 62
7
 10
318.923576
 20
237.946368
 40
3.000000
  1
添付品ﾋﾞｽ
 41
0.822804
 50
0.000000
 51
0.000000
 72
   5
 73
   0
 11
332.129576
 21
237.946368
  0
TEXT
  8
5
  6
CONTINUOUS
 62
7
 10
338.923576
 20
257.946368
 40
3.000000
  1
M4×20 脱落防止ビス
 41
0.819085
 50
0.000000
 51
0.000000
 72
   5
 73
   0
 11
366.862576
 21
257.946368
  0
TEXT
  8
5
  6
CONTINUOUS
 62
7
 10
338.923576
 20
252.946368
 40
3.000000
  1
M3×8小ワｾﾑｽ(ﾍﾞｰｽ固定用)
 41
0.831095
 50
0.000000
 51
0.000000
 72
   5
 73
   0
 11
376.048576
 21
252.946368
  0
TEXT
  8
5
  6
CONTINUOUS
 62
7
 10
338.923576
 20
242.946368
 40
3.000000
  1
M5×10ｱﾌﾞｾｯﾄ
 41
0.813247
 50
0.000000
 51
0.000000
 72
   5
 73
   0
 11
357.709576
 21
242.946368
  0
TEXT
  8
5
  6
CONTINUOUS
 62
7
 10
338.923576
 20
237.946368
 40
3.000000
  1
M5 内歯菊座金
 41
0.851365
 50
0.000000
 51
0.000000
 72
   5
 73
   0
 11
358.564576
 21
237.946368
  0
TEXT
  8
5
  6
CONTINUOUS
 62
7
 10
394.548576
 20
262.696368
 40
3.500000
  1
1
 41
1.000000
 50
0.000000
 51
0.000000
 72
   5
 73
   0
 11
396.298576
 21
262.696368
  0
TEXT
  8
5
  6
CONTINUOUS
 62
7
 10
394.548576
 20
257.696368
 40
3.500000
  1
1
 41
1.000000
 50
0.000000
 51
0.000000
 72
   5
 73
   0
 11
396.298576
 21
257.696368
  0
TEXT
  8
5
  6
CONTINUOUS
 62
7
 10
394.548576
 20
252.696368
 40
3.500000
  1
4
 41
1.000000
 50
0.000000
 51
0.000000
 72
   5
 73
   0
 11
396.298576
 21
252.696368
  0
TEXT
  8
5
  6
CONTINUOUS
 62
7
 10
394.548576
 20
242.696368
 40
3.500000
  1
1
 41
1.000000
 50
0.000000
 51
0.000000
 72
   5
 73
   0
 11
396.298576
 21
242.696368
  0
TEXT
  8
5
  6
CONTINUOUS
 62
7
 10
394.548576
 20
237.696368
 40
3.500000
  1
1
 41
1.000000
 50
0.000000
 51
0.000000
 72
   5
 73
   0
 11
396.298576
 21
237.696368
  0
LINE
  8
5
  6
CONTINUOUS
 62
6
 10
312.9235759729
 20
261.9463679840
 11
312.9235759729
 21
266.9463679840
  0
LINE
  8
5
  6
CONTINUOUS
 62
6
 10
312.9235759729
 20
256.9463679840
 11
312.9235759729
 21
261.9463679840
  0
LINE
  8
5
  6
CONTINUOUS
 62
6
 10
312.9235759729
 20
251.9463679840
 11
312.9235759729
 21
256.9463679840
  0
LINE
  8
5
  6
CONTINUOUS
 62
6
 10
312.9235759729
 20
246.9463679840
 11
312.9235759729
 21
251.9463679840
  0
LINE
  8
5
  6
CONTINUOUS
 62
6
 10
312.9235759729
 20
241.9463679840
 11
312.9235759729
 21
246.9463679840
  0
LINE
  8
5
  6
CONTINUOUS
 62
6
 10
312.9235759729
 20
236.9463679840
 11
312.9235759729
 21
241.9463679840
  0
LINE
  8
5
  6
CONTINUOUS
 62
6
 10
312.9235759729
 20
226.9463679840
 11
312.9235759729
 21
231.9463679840
  0
LINE
  8
5
  6
CONTINUOUS
 62
6
 10
317.9235759729
 20
266.9463679840
 11
317.9235759729
 21
261.9463679840
  0
LINE
  8
5
  6
CONTINUOUS
 62
6
 10
317.9235759729
 20
261.9463679840
 11
317.9235759729
 21
256.9463679840
  0
LINE
  8
5
  6
CONTINUOUS
 62
6
 10
317.9235759729
 20
256.9463679840
 11
317.9235759729
 21
251.9463679840
  0
LINE
  8
5
  6
CONTINUOUS
 62
6
 10
317.9235759729
 20
251.9463679840
 11
317.9235759729
 21
246.9463679840
  0
LINE
  8
5
  6
CONTINUOUS
 62
6
 10
317.9235759729
 20
246.9463679840
 11
317.9235759729
 21
241.9463679840
  0
LINE
  8
5
  6
CONTINUOUS
 62
6
 10
317.9235759729
 20
241.9463679840
 11
317.9235759729
 21
236.9463679840
  0
LINE
  8
5
  6
CONTINUOUS
 62
6
 10
317.9235759729
 20
236.9463679840
 11
317.9235759729
 21
231.9463679840
  0
LINE
  8
5
  6
CONTINUOUS
 62
6
 10
317.9235759729
 20
231.9463679840
 11
317.9235759729
 21
226.9463679840
  0
LINE
  8
5
  6
CONTINUOUS
 62
6
 10
337.9235759729
 20
266.9463679840
 11
337.9235759729
 21
261.9463679840
  0
LINE
  8
5
  6
CONTINUOUS
 62
6
 10
337.9235759729
 20
261.9463679840
 11
337.9235759729
 21
256.9463679840
  0
LINE
  8
5
  6
CONTINUOUS
 62
6
 10
337.9235759729
 20
256.9463679840
 11
337.9235759729
 21
251.9463679840
  0
LINE
  8
5
  6
CONTINUOUS
 62
6
 10
337.9235759729
 20
251.9463679840
 11
337.9235759729
 21
246.9463679840
  0
LINE
  8
5
  6
CONTINUOUS
 62
6
 10
337.9235759729
 20
246.9463679840
 11
337.9235759729
 21
241.9463679840
  0
LINE
  8
5
  6
CONTINUOUS
 62
6
 10
337.9235759729
 20
241.9463679840
 11
337.9235759729
 21
236.9463679840
  0
LINE
  8
5
  6
CONTINUOUS
 62
6
 10
337.9235759729
 20
236.9463679840
 11
337.9235759729
 21
231.9463679840
  0
LINE
  8
5
  6
CONTINUOUS
 62
6
 10
337.9235759729
 20
231.9463679840
 11
337.9235759729
 21
226.9463679840
  0
LINE
  8
5
  6
CONTINUOUS
 62
6
 10
377.9235759729
 20
266.9463679840
 11
377.9235759729
 21
261.9463679840
  0
LINE
  8
5
  6
CONTINUOUS
 62
6
 10
377.9235759729
 20
261.9463679840
 11
377.9235759729
 21
256.9463679840
  0
LINE
  8
5
  6
CONTINUOUS
 62
6
 10
377.9235759729
 20
251.9463679840
 11
377.9235759729
 21
246.9463679840
  0
LINE
  8
5
  6
CONTINUOUS
 62
6
 10
377.9235759729
 20
246.9463679840
 11
377.9235759729
 21
241.9463679840
  0
LINE
  8
5
  6
CONTINUOUS
 62
6
 10
377.9235759729
 20
241.9463679840
 11
377.9235759729
 21
236.9463679840
  0
LINE
  8
5
  6
CONTINUOUS
 62
6
 10
377.9235759729
 20
236.9463679840
 11
377.9235759729
 21
231.9463679840
  0
LINE
  8
5
  6
CONTINUOUS
 62
6
 10
377.9235759729
 20
231.9463679840
 11
377.9235759729
 21
226.9463679840
  0
LINE
  8
5
  6
CONTINUOUS
 62
6
 10
392.9235759729
 20
266.9463679840
 11
392.9235759729
 21
261.9463679840
  0
LINE
  8
5
  6
CONTINUOUS
 62
6
 10
392.9235759729
 20
261.9463679840
 11
392.9235759729
 21
256.9463679840
  0
LINE
  8
5
  6
CONTINUOUS
 62
6
 10
392.9235759729
 20
256.9463679840
 11
392.9235759729
 21
251.9463679840
  0
LINE
  8
5
  6
CONTINUOUS
 62
6
 10
392.9235759729
 20
251.9463679840
 11
392.9235759729
 21
246.9463679840
  0
LINE
  8
5
  6
CONTINUOUS
 62
6
 10
392.9235759729
 20
246.9463679840
 11
392.9235759729
 21
241.9463679840
  0
LINE
  8
5
  6
CONTINUOUS
 62
6
 10
392.9235759729
 20
241.9463679840
 11
392.9235759729
 21
236.9463679840
  0
LINE
  8
5
  6
CONTINUOUS
 62
6
 10
392.9235759729
 20
236.9463679840
 11
392.9235759729
 21
231.9463679840
  0
LINE
  8
5
  6
CONTINUOUS
 62
6
 10
392.9235759729
 20
231.9463679840
 11
392.9235759729
 21
226.9463679840
  0
LINE
  8
5
  6
CONTINUOUS
 62
6
 10
397.9235759729
 20
266.9463679840
 11
397.9235759729
 21
261.9463679840
  0
LINE
  8
5
  6
CONTINUOUS
 62
6
 10
397.9235759729
 20
261.9463679840
 11
397.9235759729
 21
256.9463679840
  0
LINE
  8
5
  6
CONTINUOUS
 62
6
 10
397.9235759729
 20
256.9463679840
 11
397.9235759729
 21
251.9463679840
  0
LINE
  8
5
  6
CONTINUOUS
 62
6
 10
397.9235759729
 20
251.9463679840
 11
397.9235759729
 21
246.9463679840
  0
LINE
  8
5
  6
CONTINUOUS
 62
6
 10
397.9235759729
 20
246.9463679840
 11
397.9235759729
 21
241.9463679840
  0
LINE
  8
5
  6
CONTINUOUS
 62
6
 10
397.9235759729
 20
241.9463679840
 11
397.9235759729
 21
236.9463679840
  0
LINE
  8
5
  6
CONTINUOUS
 62
6
 10
397.9235759729
 20
236.9463679840
 11
397.9235759729
 21
231.9463679840
  0
LINE
  8
5
  6
CONTINUOUS
 62
6
 10
397.9235759729
 20
231.9463679840
 11
397.9235759729
 21
226.9463679840
  0
LINE
  8
5
  6
CONTINUOUS
 62
6
 10
397.9235759729
 20
221.9463679840
 11
392.9235759729
 21
221.9463679840
  0
LINE
  8
5
  6
CONTINUOUS
 62
6
 10
392.9235759729
 20
221.9463679840
 11
377.9235759729
 21
221.9463679840
  0
LINE
  8
5
  6
CONTINUOUS
 62
6
 10
377.9235759729
 20
221.9463679840
 11
337.9235759729
 21
221.9463679840
  0
LINE
  8
5
  6
CONTINUOUS
 62
6
 10
337.9235759729
 20
221.9463679840
 11
317.9235759729
 21
221.9463679840
  0
LINE
  8
5
  6
CONTINUOUS
 62
6
 10
317.9235759729
 20
221.9463679840
 11
312.9235759729
 21
221.9463679840
  0
LINE
  8
5
  6
CONTINUOUS
 62
6
 10
312.9235759729
 20
221.9463679840
 11
312.9235759729
 21
226.9463679840
  0
LINE
  8
5
  6
CONTINUOUS
 62
6
 10
317.9235759729
 20
226.9463679840
 11
317.9235759729
 21
221.9463679840
  0
LINE
  8
5
  6
CONTINUOUS
 62
6
 10
337.9235759729
 20
226.9463679840
 11
337.9235759729
 21
221.9463679840
  0
LINE
  8
5
  6
CONTINUOUS
 62
6
 10
377.9235759729
 20
226.9463679840
 11
377.9235759729
 21
221.9463679840
  0
LINE
  8
5
  6
CONTINUOUS
 62
6
 10
392.9235759729
 20
226.9463679840
 11
392.9235759729
 21
221.9463679840
  0
LINE
  8
5
  6
CONTINUOUS
 62
6
 10
397.9235759729
 20
226.9463679840
 11
397.9235759729
 21
221.9463679840
  0
ENDBLK
  8
0
  0
BLOCK
  8
1
  2
BALN0
 70
     0
 10
65.1092980532
 20
67.0636039311
  3
BALN0
  0
SOLID
  8
1
  6
CONTINUOUS
 62
5
 10
67.0995994495
 20
66.8668798809
 11
66.7345875985
 21
65.8980852079
 12
65.1092980532
 22
67.0636039311
 13
65.1092980532
 23
67.0636039311
  0
LINE
  8
1
  6
BYBLOCK
 62
5
 10
65.1092980532
 20
67.0636039311
 11
88.4832927053
 21
58.2570061116
  0
CIRCLE
  8
1
  6
BYBLOCK
 62
5
 10
91.2906440902
 20
57.1992829901
 40
3.0000000000
  0
TEXT
  8
1
  6
CONTINUOUS
 62
7
 10
90.415644
 20
55.449283
 40
3.500000
  1
3
 41
1.000000
 50
0.000000
 51
0.000000
 72
   5
 73
   0
 11
92.165644
 21
55.449283
  0
ENDBLK
  8
0
  0
BLOCK
  8
1
  2
*D6
 70
     1
 10
0.0000000000
 20
0.0000000000
  3
*D6
  0
LINE
  8
1
  6
BYBLOCK
 62
5
 10
142.4822443727
 20
88.0542751045
 11
141.4983420815
 21
85.7560287554
  0
LINE
  8
1
  6
BYBLOCK
 62
5
 10
144.4500489552
 20
92.6507678028
 11
145.4339512464
 21
94.9490141519
  0
SOLID
  8
1
  6
CONTINUOUS
 62
5
 10
142.1978070062
 20
86.0746045803
 11
141.2460791254
 21
86.4820488227
 12
142.4822443727
 22
88.0542751045
 13
142.4822443727
 23
88.0542751045
  0
SOLID
  8
1
  6
CONTINUOUS
 62
5
 10
144.7344863217
 20
94.6304383270
 11
145.6862142025
 21
94.2229940847
 12
144.4500489552
 22
92.6507678028
 13
144.4500489552
 23
92.6507678028
  0
TEXT
  8
1
  6
CONTINUOUS
 62
7
 10
145.999175
 20
98.810194
 40
3.500000
  1
2-M5
 41
0.796813
 50
66.823748
 51
0.000000
 72
   5
 73
   0
 11
148.754102
 21
105.245284
  0
POINT
  8
DEFPOINTS
  6
BYBLOCK
 62
5
 10
142.4822443727
 20
88.0542751045
  0
POINT
  8
DEFPOINTS
  6
BYBLOCK
 62
5
 10
144.4500489552
 20
92.6507678028
  0
LINE
  8
1
  6
BYBLOCK
 62
5
 10
142.4822443727
 20
88.0542751045
 11
149.6734002150
 21
104.8517231924
  0
ENDBLK
  8
0
  0
BLOCK
  8
3
  2
LTEX0
 70
     0
 10
143.4661466639
 20
87.8525214537
  3
LTEX0
  0
SOLID
  8
3
  6
CONTINUOUS
 62
5
 10
143.6084688299
 20
85.8575917805
 11
142.5919364386
 21
86.0537005949
 12
143.4661466639
 22
87.8525214537
 13
143.4661466639
 23
87.8525214537
  0
TEXT
  8
3
  6
CONTINUOUS
 62
7
 10
138.506017
 20
63.141631
 40
5.000000
  1
 ⑥⑦
 41
0.880282
 50
0.000000
 51
0.000000
 72
   5
 73
   0
 11
151.006017
 21
63.141631
  0
LINE
  8
3
  6
BYBLOCK
 62
5
 10
143.4661466639
 20
87.8525214537
 11
138.5060171650
 21
62.1416307173
  0
LINE
  8
3
  6
BYBLOCK
 62
5
 10
138.5060171650
 20
62.1416307173
 11
151.0060171650
 21
62.1416307173
  0
ENDBLK
  8
0
  0
BLOCK
  8
3
  2
BALN1
 70
     0
 10
110.9395553908
 20
197.7445137344
  3
BALN1
  0
SOLID
  8
3
  6
CONTINUOUS
 62
5
 10
109.9794309481
 20
199.4989826154
 11
110.9852976731
 21
199.7439905769
 12
110.9395553908
 22
197.7445137344
 13
110.9395553908
 23
197.7445137344
  0
LINE
  8
3
  6
BYBLOCK
 62
5
 10
110.9395553908
 20
197.7445137344
 11
104.2398643142
 21
225.2497273708
  0
CIRCLE
  8
3
  6
BYBLOCK
 62
5
 10
103.5298857614
 20
228.1645053134
 40
3.0000000000
  0
TEXT
  8
3
  6
CONTINUOUS
 62
7
 10
102.654886
 20
226.414505
 40
3.500000
  1
2
 41
1.000000
 50
0.000000
 51
0.000000
 72
   5
 73
   0
 11
104.404886
 21
226.414505
  0
ENDBLK
  8
0
  0
BLOCK
  8
3
  2
BALN2
 70
     0
 10
130.9399894366
 20
211.8393700363
  3
BALN2
  0
SOLID
  8
3
  6
CONTINUOUS
 62
5
 10
130.6388546845
 20
213.8165695358
 11
131.6677988411
 21
213.7022424073
 12
130.9399894366
 22
211.8393700363
 13
130.9399894366
 23
211.8393700363
  0
LINE
  8
3
  6
BYBLOCK
 62
5
 10
130.9399894366
 20
211.8393700363
 11
132.4225987781
 21
225.1828541094
  0
CIRCLE
  8
3
  6
BYBLOCK
 62
5
 10
132.7538933563
 20
228.1645053134
 40
3.0000000000
  0
TEXT
  8
3
  6
CONTINUOUS
 62
7
 10
131.878893
 20
226.414505
 40
3.500000
  1
1
 41
1.000000
 50
0.000000
 51
0.000000
 72
   5
 73
   0
 11
133.628893
 21
226.414505
  0
ENDBLK
  8
0
  0
BLOCK
  8
3
  2
BALN3
 70
     0
 10
173.9105182328
 20
197.3525214537
  3
BALN3
  0
SOLID
  8
3
  6
CONTINUOUS
 62
5
 10
172.9725529828
 20
199.1189362379
 11
173.9814238906
 21
199.3512641554
 12
173.9105182328
 22
197.3525214537
 13
173.9105182328
 23
197.3525214537
  0
LINE
  8
3
  6
BYBLOCK
 62
5
 10
173.9105182328
 20
197.3525214537
 11
167.4882126774
 21
225.2410219179
  0
CIRCLE
  8
3
  6
BYBLOCK
 62
5
 10
166.8149780704
 20
228.1645053134
 40
3.0000000000
  0
TEXT
  8
3
  6
CONTINUOUS
 62
7
 10
165.939978
 20
226.414505
 40
3.500000
  1
4
 41
1.000000
 50
0.000000
 51
0.000000
 72
   5
 73
   0
 11
167.689978
 21
226.414505
  0
ENDBLK
  8
0
  0
BLOCK
  8
3
  2
BALN4
 70
     0
 10
193.9105182328
 20
197.3525214537
  3
BALN4
  0
SOLID
  8
3
  6
CONTINUOUS
 62
5
 10
193.1296052330
 20
199.1937642097
 11
194.1548491148
 21
199.3375409549
 12
193.9105182328
 22
197.3525214537
 13
193.9105182328
 23
197.3525214537
  0
LINE
  8
3
  6
BYBLOCK
 62
5
 10
193.9105182328
 20
197.3525214537
 11
190.0061825204
 21
225.1935766822
  0
CIRCLE
  8
3
  6
BYBLOCK
 62
5
 10
189.5895495064
 20
228.1645053134
 40
3.0000000000
  0
TEXT
  8
3
  6
CONTINUOUS
 62
7
 10
188.714550
 20
226.414505
 40
3.500000
  1
5
 41
1.000000
 50
0.000000
 51
0.000000
 72
   5
 73
   0
 11
190.464550
 21
226.414505
  0
ENDBLK
  8
0
  0
BLOCK
  8
3
  2
BALN5
 70
     0
 10
205.2240678788
 20
195.9771255586
  3
BALN5
  0
SOLID
  8
3
  6
CONTINUOUS
 62
5
 10
204.9068082572
 20
197.9518018188
 11
205.9366511169
 21
197.8458751750
 12
205.2240678788
 22
195.9771255586
 13
205.2240678788
 23
195.9771255586
  0
LINE
  8
3
  6
BYBLOCK
 62
5
 10
205.2240678788
 20
195.9771255586
 11
208.2278163802
 21
225.1802498676
  0
CIRCLE
  8
3
  6
BYBLOCK
 62
5
 10
208.5347682231
 20
228.1645053134
 40
3.0000000000
  0
TEXT
  8
3
  6
CONTINUOUS
 62
7
 10
207.659768
 20
226.414505
 40
3.500000
  1
8
 41
1.000000
 50
0.000000
 51
0.000000
 72
   5
 73
   0
 11
209.409768
 21
226.414505
  0
ENDBLK
  8
0
  0
BLOCK
  8
4
  2
*D7
 70
     1
 10
0.0000000000
 20
0.0000000000
  3
*D7
  0
LINE
  8
4
  6
BYBLOCK
 62
5
 10
319.0572849682
 20
173.1619743881
 11
319.0572849682
 21
184.8554232121
  0
LINE
  8
4
  6
BYBLOCK
 62
5
 10
325.5572849682
 20
176.1619743881
 11
325.5572849682
 21
184.8554232121
  0
LINE
  8
4
  6
BYBLOCK
 62
5
 10
325.5572849682
 20
183.8554232121
 11
319.0572849682
 21
183.8554232121
  0
SOLID
  8
4
  6
CONTINUOUS
 62
5
 10
320.9891366208
 20
184.3730613023
 11
320.9891366208
 21
183.3377851219
 12
319.0572849682
 22
183.8554232121
 13
319.0572849682
 23
183.8554232121
  0
SOLID
  8
4
  6
CONTINUOUS
 62
5
 10
323.6254333156
 20
183.3377851219
 11
323.6254333156
 21
184.3730613023
 12
325.5572849682
 22
183.8554232121
 13
325.5572849682
 23
183.8554232121
  0
TEXT
  8
4
  6
CONTINUOUS
 62
7
 10
319.682285
 20
184.855423
 40
3.500000
  1
6.5
 41
0.815217
 50
0.000000
 51
0.000000
 72
   5
 73
   0
 11
324.932285
 21
184.855423
  0
POINT
  8
DEFPOINTS
  6
BYBLOCK
 62
5
 10
319.0572849682
 20
172.6619743881
  0
POINT
  8
DEFPOINTS
  6
BYBLOCK
 62
5
 10
325.5572849682
 20
175.6619743881
  0
POINT
  8
DEFPOINTS
  6
BYBLOCK
 62
5
 10
325.5572849682
 20
183.8554232121
  0
ENDBLK
  8
0
  0
BLOCK
  8
4
  2
*D8
 70
     1
 10
0.0000000000
 20
0.0000000000
  3
*D8
  0
LINE
  8
4
  6
BYBLOCK
 62
5
 10
345.5572849682
 20
175.4119743881
 11
345.5572849682
 21
184.8554232121
  0
LINE
  8
4
  6
BYBLOCK
 62
5
 10
345.5572849682
 20
183.8554232121
 11
325.5572849682
 21
183.8554232121
  0
SOLID
  8
4
  6
CONTINUOUS
 62
5
 10
327.4891366208
 20
184.3730613023
 11
327.4891366208
 21
183.3377851219
 12
325.5572849682
 22
183.8554232121
 13
325.5572849682
 23
183.8554232121
  0
SOLID
  8
4
  6
CONTINUOUS
 62
5
 10
343.6254333156
 20
183.3377851219
 11
343.6254333156
 21
184.3730613023
 12
345.5572849682
 22
183.8554232121
 13
345.5572849682
 23
183.8554232121
  0
TEXT
  8
4
  6
CONTINUOUS
 62
7
 10
333.807285
 20
184.855423
 40
3.500000
  1
20
 41
0.854701
 50
0.000000
 51
0.000000
 72
   5
 73
   0
 11
337.307285
 21
184.855423
  0
POINT
  8
DEFPOINTS
  6
BYBLOCK
 62
5
 10
325.5572849682
 20
175.6619743881
  0
POINT
  8
DEFPOINTS
  6
BYBLOCK
 62
5
 10
345.5572849682
 20
174.9119743881
  0
POINT
  8
DEFPOINTS
  6
BYBLOCK
 62
5
 10
345.5572849682
 20
183.8554232121
  0
ENDBLK
  8
0
  0
BLOCK
  8
4
  2
*D9
 70
     1
 10
0.0000000000
 20
0.0000000000
  3
*D9
  0
LINE
  8
4
  6
BYBLOCK
 62
5
 10
365.5572849682
 20
176.1619743881
 11
365.5572849682
 21
184.8554232121
  0
LINE
  8
4
  6
BYBLOCK
 62
5
 10
365.5572849682
 20
183.8554232121
 11
345.5572849682
 21
183.8554232121
  0
SOLID
  8
4
  6
CONTINUOUS
 62
5
 10
347.4891366208
 20
184.3730613023
 11
347.4891366208
 21
183.3377851219
 12
345.5572849682
 22
183.8554232121
 13
345.5572849682
 23
183.8554232121
  0
SOLID
  8
4
  6
CONTINUOUS
 62
5
 10
363.6254333156
 20
183.3377851219
 11
363.6254333156
 21
184.3730613023
 12
365.5572849682
 22
183.8554232121
 13
365.5572849682
 23
183.8554232121
  0
TEXT
  8
4
  6
CONTINUOUS
 62
7
 10
353.807285
 20
184.855423
 40
3.500000
  1
20
 41
0.854701
 50
0.000000
 51
0.000000
 72
   5
 73
   0
 11
357.307285
 21
184.855423
  0
POINT
  8
DEFPOINTS
  6
BYBLOCK
 62
5
 10
345.5572849682
 20
174.9119743881
  0
POINT
  8
DEFPOINTS
  6
BYBLOCK
 62
5
 10
365.5572849682
 20
175.6619743881
  0
POINT
  8
DEFPOINTS
  6
BYBLOCK
 62
5
 10
365.5572849682
 20
183.8554232121
  0
ENDBLK
  8
0
  0
BLOCK
  8
4
  2
*D10
 70
     1
 10
0.0000000000
 20
0.0000000000
  3
*D10
  0
LINE
  8
4
  6
BYBLOCK
 62
5
 10
372.0572849682
 20
173.1619743881
 11
372.0572849682
 21
184.8554232121
  0
LINE
  8
4
  6
BYBLOCK
 62
5
 10
372.0572849682
 20
183.8554232121
 11
365.5572849682
 21
183.8554232121
  0
SOLID
  8
4
  6
CONTINUOUS
 62
5
 10
367.4891366208
 20
184.3730613023
 11
367.4891366208
 21
183.3377851219
 12
365.5572849682
 22
183.8554232121
 13
365.5572849682
 23
183.8554232121
  0
SOLID
  8
4
  6
CONTINUOUS
 62
5
 10
370.1254333156
 20
183.3377851219
 11
370.1254333156
 21
184.3730613023
 12
372.0572849682
 22
183.8554232121
 13
372.0572849682
 23
183.8554232121
  0
TEXT
  8
4
  6
CONTINUOUS
 62
7
 10
366.182285
 20
184.855423
 40
3.500000
  1
6.5
 41
0.815217
 50
0.000000
 51
0.000000
 72
   5
 73
   0
 11
371.432285
 21
184.855423
  0
POINT
  8
DEFPOINTS
  6
BYBLOCK
 62
5
 10
365.5572849682
 20
175.6619743881
  0
POINT
  8
DEFPOINTS
  6
BYBLOCK
 62
5
 10
372.0572849682
 20
172.6619743881
  0
POINT
  8
DEFPOINTS
  6
BYBLOCK
 62
5
 10
372.0572849682
 20
183.8554232121
  0
ENDBLK
  8
0
  0
BLOCK
  8
4
  2
*D11
 70
     1
 10
0.0000000000
 20
0.0000000000
  3
*D11
  0
LINE
  8
4
  6
BYBLOCK
 62
5
 10
319.0572849682
 20
184.8554232121
 11
319.0572849682
 21
191.8554232121
  0
LINE
  8
4
  6
BYBLOCK
 62
5
 10
372.0572849682
 20
173.1619743881
 11
372.0572849682
 21
191.8554232121
  0
LINE
  8
4
  6
BYBLOCK
 62
5
 10
372.0572849682
 20
190.8554232121
 11
319.0572849682
 21
190.8554232121
  0
SOLID
  8
4
  6
CONTINUOUS
 62
5
 10
320.9891366208
 20
191.3730613023
 11
320.9891366208
 21
190.3377851219
 12
319.0572849682
 22
190.8554232121
 13
319.0572849682
 23
190.8554232121
  0
SOLID
  8
4
  6
CONTINUOUS
 62
5
 10
370.1254333156
 20
190.3377851219
 11
370.1254333156
 21
191.3730613023
 12
372.0572849682
 22
190.8554232121
 13
372.0572849682
 23
190.8554232121
  0
TEXT
  8
4
  6
CONTINUOUS
 62
7
 10
343.807285
 20
191.855423
 40
3.500000
  1
53
 41
0.854701
 50
0.000000
 51
0.000000
 72
   5
 73
   0
 11
347.307285
 21
191.855423
  0
POINT
  8
DEFPOINTS
  6
BYBLOCK
 62
5
 10
319.0572849682
 20
172.6619743881
  0
POINT
  8
DEFPOINTS
  6
BYBLOCK
 62
5
 10
372.0572849682
 20
172.6619743881
  0
POINT
  8
DEFPOINTS
  6
BYBLOCK
 62
5
 10
372.0572849682
 20
190.8554232121
  0
ENDBLK
  8
0
  0
BLOCK
  8
4
  2
*D12
 70
     1
 10
0.0000000000
 20
0.0000000000
  3
*D12
  0
LINE
  8
4
  6
BYBLOCK
 62
5
 10
324.7064153436
 20
178.3972965655
 11
323.2882993026
 21
180.4561668612
  0
LINE
  8
4
  6
BYBLOCK
 62
5
 10
326.4081545928
 20
175.9266522108
 11
327.8262706338
 21
173.8677819151
  0
SOLID
  8
4
  6
CONTINUOUS
 62
5
 10
323.1842795416
 20
179.6946410071
 11
324.0368792918
 21
180.2818977104
 12
324.7064153436
 22
178.3972965655
 13
324.7064153436
 23
178.3972965655
  0
SOLID
  8
4
  6
CONTINUOUS
 62
5
 10
327.9302903948
 20
174.6293077692
 11
327.0776906446
 21
174.0420510659
 12
326.4081545928
 22
175.9266522108
 13
326.4081545928
 23
175.9266522108
  0
TEXT
  8
4
  6
CONTINUOUS
 62
7
 10
332.437449
 20
168.936014
 40
3.500000
  1
4-M3
 41
0.796813
 50
304.558432
 51
0.000000
 72
   5
 73
   0
 11
336.408174
 21
163.171177
  0
POINT
  8
DEFPOINTS
  6
BYBLOCK
 62
5
 10
324.7064153436
 20
178.3972965655
  0
POINT
  8
DEFPOINTS
  6
BYBLOCK
 62
5
 10
326.4081545928
 20
175.9266522108
  0
LINE
  8
4
  6
BYBLOCK
 62
5
 10
324.7064153436
 20
178.3972965655
 11
335.5846262337
 21
162.6039308436
  0
ENDBLK
  8
0
  0
BLOCK
  8
4
  2
*D13
 70
     1
 10
0.0000000000
 20
0.0000000000
  3
*D13
  0
LINE
  8
4
  6
BYBLOCK
 62
5
 10
344.1560871308
 20
178.9224131461
 11
342.5992006447
 21
180.8784562104
  0
LINE
  8
4
  6
BYBLOCK
 62
5
 10
346.9584828056
 20
175.4015356302
 11
348.5153692917
 21
173.4454925659
  0
SOLID
  8
4
  6
CONTINUOUS
 62
5
 10
342.5480086799
 20
180.1115656577
 11
343.3580265968
 21
180.7562886555
 12
344.1560871308
 22
178.9224131461
 13
344.1560871308
 23
178.9224131461
  0
SOLID
  8
4
  6
CONTINUOUS
 62
5
 10
348.5665612565
 20
174.2123831186
 11
347.7565433396
 21
173.5676601208
 12
346.9584828056
 22
175.4015356302
 13
346.9584828056
 23
175.4015356302
  0
TEXT
  8
4
  6
CONTINUOUS
 62
7
 10
353.582932
 20
168.684470
 40
3.500000
  1
2-φ4.5
 41
0.804598
 50
308.517570
 51
0.000000
 72
   5
 73
   0
 11
361.211676
 21
159.099859
  0
POINT
  8
DEFPOINTS
  6
BYBLOCK
 62
5
 10
344.1560871308
 20
178.9224131461
  0
POINT
  8
DEFPOINTS
  6
BYBLOCK
 62
5
 10
346.9584828056
 20
175.4015356302
  0
LINE
  8
4
  6
BYBLOCK
 62
5
 10
344.1560871308
 20
178.9224131461
 11
360.4292590547
 21
158.4771042800
  0
ENDBLK
  8
0
  0
BLOCK
  8
1
  2
*D14
 70
     1
 10
0.0000000000
 20
0.0000000000
  3
*D14
  0
LINE
  8
1
  6
BYBLOCK
 62
5
 10
366.5572849682
 20
60.1619743881
 11
305.8614186851
 21
60.1619743881
  0
LINE
  8
1
  6
BYBLOCK
 62
5
 10
318.5572849682
 20
64.6619743881
 11
305.8614186851
 21
64.6619743881
  0
LINE
  8
1
  6
BYBLOCK
 62
5
 10
306.8614186851
 20
67.1619743881
 11
306.8614186851
 21
57.6619743881
  0
SOLID
  8
1
  6
CONTINUOUS
 62
5
 10
307.3790567753
 20
58.2301227356
 11
306.3437805949
 21
58.2301227356
 12
306.8614186851
 22
60.1619743881
 13
306.8614186851
 23
60.1619743881
  0
SOLID
  8
1
  6
CONTINUOUS
 62
5
 10
306.3437805949
 20
66.5938260407
 11
307.3790567753
 21
66.5938260407
 12
306.8614186851
 22
64.6619743881
 13
306.8614186851
 23
64.6619743881
  0
TEXT
  8
1
  6
CONTINUOUS
 62
7
 10
305.861419
 20
60.161974
 40
3.000000
  1
4.5
 41
0.815217
 50
90.000000
 51
0.000000
 72
   5
 73
   0
 11
305.861419
 21
64.661974
  0
POINT
  8
DEFPOINTS
  6
BYBLOCK
 62
5
 10
367.0572849682
 20
60.1619743881
  0
POINT
  8
DEFPOINTS
  6
BYBLOCK
 62
5
 10
319.0572849682
 20
64.6619743881
  0
POINT
  8
DEFPOINTS
  6
BYBLOCK
 62
5
 10
306.8614186851
 20
64.6619743881
  0
ENDBLK
  8
0
  0
BLOCK
  8
1
  2
*D15
 70
     1
 10
0.0000000000
 20
0.0000000000
  3
*D15
  0
LINE
  8
1
  6
BYBLOCK
 62
5
 10
318.5572849682
 20
172.6619743881
 11
305.8614186851
 21
172.6619743881
  0
LINE
  8
1
  6
BYBLOCK
 62
5
 10
306.8614186851
 20
172.6619743881
 11
306.8614186851
 21
64.6619743881
  0
SOLID
  8
1
  6
CONTINUOUS
 62
5
 10
306.3437805949
 20
66.5938260407
 11
307.3790567753
 21
66.5938260407
 12
306.8614186851
 22
64.6619743881
 13
306.8614186851
 23
64.6619743881
  0
SOLID
  8
1
  6
CONTINUOUS
 62
5
 10
307.3790567753
 20
170.7301227356
 11
306.3437805949
 21
170.7301227356
 12
306.8614186851
 22
172.6619743881
 13
306.8614186851
 23
172.6619743881
  0
TEXT
  8
1
  6
CONTINUOUS
 62
7
 10
305.861419
 20
116.036974
 40
3.500000
  1
108
 41
0.815217
 50
90.000000
 51
0.000000
 72
   5
 73
   0
 11
305.861419
 21
121.286974
  0
POINT
  8
DEFPOINTS
  6
BYBLOCK
 62
5
 10
319.0572849682
 20
64.6619743881
  0
POINT
  8
DEFPOINTS
  6
BYBLOCK
 62
5
 10
319.0572849682
 20
172.6619743881
  0
POINT
  8
DEFPOINTS
  6
BYBLOCK
 62
5
 10
306.8614186851
 20
172.6619743881
  0
ENDBLK
  8
0
  0
BLOCK
  8
1
  2
*D16
 70
     1
 10
0.0000000000
 20
0.0000000000
  3
*D16
  0
LINE
  8
1
  6
BYBLOCK
 62
5
 10
366.5572849682
 20
177.1619743881
 11
305.8614186851
 21
177.1619743881
  0
LINE
  8
1
  6
BYBLOCK
 62
5
 10
306.8614186851
 20
179.6619743881
 11
306.8614186851
 21
170.1619743881
  0
SOLID
  8
1
  6
CONTINUOUS
 62
5
 10
307.3790567753
 20
170.7301227356
 11
306.3437805949
 21
170.7301227356
 12
306.8614186851
 22
172.6619743881
 13
306.8614186851
 23
172.6619743881
  0
SOLID
  8
1
  6
CONTINUOUS
 62
5
 10
306.3437805949
 20
179.0938260407
 11
307.3790567753
 21
179.0938260407
 12
306.8614186851
 22
177.1619743881
 13
306.8614186851
 23
177.1619743881
  0
TEXT
  8
1
  6
CONTINUOUS
 62
7
 10
304.861419
 20
172.661974
 40
3.000000
  1
4.5
 41
0.815217
 50
90.000000
 51
0.000000
 72
   5
 73
   0
 11
304.861419
 21
177.161974
  0
POINT
  8
DEFPOINTS
  6
BYBLOCK
 62
5
 10
319.0572849682
 20
172.6619743881
  0
POINT
  8
DEFPOINTS
  6
BYBLOCK
 62
5
 10
367.0572849682
 20
177.1619743881
  0
POINT
  8
DEFPOINTS
  6
BYBLOCK
 62
5
 10
306.8614186851
 20
177.1619743881
  0
ENDBLK
  8
0
  0
BLOCK
  8
1
  2
*D17
 70
     1
 10
0.0000000000
 20
0.0000000000
  3
*D17
  0
LINE
  8
1
  6
BYBLOCK
 62
5
 10
305.8614186851
 20
60.1619743881
 11
298.8614186851
 21
60.1619743881
  0
LINE
  8
1
  6
BYBLOCK
 62
5
 10
366.5572849682
 20
177.1619743881
 11
298.8614186851
 21
177.1619743881
  0
LINE
  8
1
  6
BYBLOCK
 62
5
 10
299.8614186851
 20
177.1619743881
 11
299.8614186851
 21
60.1619743881
  0
SOLID
  8
1
  6
CONTINUOUS
 62
5
 10
299.3437805949
 20
62.0938260407
 11
300.3790567753
 21
62.0938260407
 12
299.8614186851
 22
60.1619743881
 13
299.8614186851
 23
60.1619743881
  0
SOLID
  8
1
  6
CONTINUOUS
 62
5
 10
300.3790567753
 20
175.2301227356
 11
299.3437805949
 21
175.2301227356
 12
299.8614186851
 22
177.1619743881
 13
299.8614186851
 23
177.1619743881
  0
TEXT
  8
1
  6
CONTINUOUS
 62
7
 10
298.861419
 20
116.036974
 40
3.500000
  1
117
 41
0.815217
 50
90.000000
 51
0.000000
 72
   5
 73
   0
 11
298.861419
 21
121.286974
  0
POINT
  8
DEFPOINTS
  6
BYBLOCK
 62
5
 10
367.0572849682
 20
60.1619743881
  0
POINT
  8
DEFPOINTS
  6
BYBLOCK
 62
5
 10
367.0572849682
 20
177.1619743881
  0
POINT
  8
DEFPOINTS
  6
BYBLOCK
 62
5
 10
299.8614186851
 20
177.1619743881
  0
ENDBLK
  8
0
  0
BLOCK
  8
1
  2
*D18
 70
     1
 10
0.0000000000
 20
0.0000000000
  3
*D18
  0
LINE
  8
1
  6
BYBLOCK
 62
5
 10
380.5572849682
 20
44.4119743881
 11
388.7005190311
 21
44.4119743881
  0
LINE
  8
1
  6
BYBLOCK
 62
5
 10
372.5572849682
 20
64.6619743881
 11
388.7005190311
 21
64.6619743881
  0
LINE
  8
1
  6
BYBLOCK
 62
5
 10
387.7005190311
 20
64.6619743881
 11
387.7005190311
 21
44.4119743881
  0
SOLID
  8
1
  6
CONTINUOUS
 62
5
 10
387.1828809409
 20
46.3438260407
 11
388.2181571213
 21
46.3438260407
 12
387.7005190311
 22
44.4119743881
 13
387.7005190311
 23
44.4119743881
  0
SOLID
  8
1
  6
CONTINUOUS
 62
5
 10
388.2181571213
 20
62.7301227356
 11
387.1828809409
 21
62.7301227356
 12
387.7005190311
 22
64.6619743881
 13
387.7005190311
 23
64.6619743881
  0
TEXT
  8
1
  6
CONTINUOUS
 62
7
 10
386.700519
 20
50.161974
 40
3.500000
  1
20.25
 41
0.786164
 50
90.000000
 51
0.000000
 72
   5
 73
   0
 11
386.700519
 21
58.911974
  0
POINT
  8
DEFPOINTS
  6
BYBLOCK
 62
5
 10
380.0572849682
 20
44.4119743881
  0
POINT
  8
DEFPOINTS
  6
BYBLOCK
 62
5
 10
372.0572849682
 20
64.6619743881
  0
POINT
  8
DEFPOINTS
  6
BYBLOCK
 62
5
 10
387.7005190311
 20
64.6619743881
  0
ENDBLK
  8
0
  0
BLOCK
  8
1
  2
*D19
 70
     1
 10
0.0000000000
 20
0.0000000000
  3
*D19
  0
LINE
  8
1
  6
BYBLOCK
 62
5
 10
372.5572849682
 20
172.6619743881
 11
388.7005190311
 21
172.6619743881
  0
LINE
  8
1
  6
BYBLOCK
 62
5
 10
387.7005190311
 20
172.6619743881
 11
387.7005190311
 21
64.6619743881
  0
SOLID
  8
1
  6
CONTINUOUS
 62
5
 10
387.1828809409
 20
66.5938260407
 11
388.2181571213
 21
66.5938260407
 12
387.7005190311
 22
64.6619743881
 13
387.7005190311
 23
64.6619743881
  0
SOLID
  8
1
  6
CONTINUOUS
 62
5
 10
388.2181571213
 20
170.7301227356
 11
387.1828809409
 21
170.7301227356
 12
387.7005190311
 22
172.6619743881
 13
387.7005190311
 23
172.6619743881
  0
TEXT
  8
1
  6
CONTINUOUS
 62
7
 10
386.700519
 20
116.036974
 40
3.500000
  1
108
 41
0.815217
 50
90.000000
 51
0.000000
 72
   5
 73
   0
 11
386.700519
 21
121.286974
  0
POINT
  8
DEFPOINTS
  6
BYBLOCK
 62
5
 10
372.0572849682
 20
64.6619743881
  0
POINT
  8
DEFPOINTS
  6
BYBLOCK
 62
5
 10
372.0572849682
 20
172.6619743881
  0
POINT
  8
DEFPOINTS
  6
BYBLOCK
 62
5
 10
387.7005190311
 20
172.6619743881
  0
ENDBLK
  8
0
  0
BLOCK
  8
1
  2
*D20
 70
     1
 10
0.0000000000
 20
0.0000000000
  3
*D20
  0
LINE
  8
1
  6
BYBLOCK
 62
5
 10
380.5572849682
 20
199.9119743881
 11
388.7005190311
 21
199.9119743881
  0
LINE
  8
1
  6
BYBLOCK
 62
5
 10
387.7005190311
 20
199.9119743881
 11
387.7005190311
 21
172.6619743881
  0
SOLID
  8
1
  6
CONTINUOUS
 62
5
 10
387.1828809409
 20
174.5938260407
 11
388.2181571213
 21
174.5938260407
 12
387.7005190311
 22
172.6619743881
 13
387.7005190311
 23
172.6619743881
  0
SOLID
  8
1
  6
CONTINUOUS
 62
5
 10
388.2181571213
 20
197.9801227356
 11
387.1828809409
 21
197.9801227356
 12
387.7005190311
 22
199.9119743881
 13
387.7005190311
 23
199.9119743881
  0
TEXT
  8
1
  6
CONTINUOUS
 62
7
 10
386.700519
 20
181.911974
 40
3.500000
  1
27.25
 41
0.786164
 50
90.000000
 51
0.000000
 72
   5
 73
   0
 11
386.700519
 21
190.661974
  0
POINT
  8
DEFPOINTS
  6
BYBLOCK
 62
5
 10
372.0572849682
 20
172.6619743881
  0
POINT
  8
DEFPOINTS
  6
BYBLOCK
 62
5
 10
380.0572849682
 20
199.9119743881
  0
POINT
  8
DEFPOINTS
  6
BYBLOCK
 62
5
 10
387.7005190311
 20
199.9119743881
  0
ENDBLK
  8
0
  0
BLOCK
  8
1
  2
LTEX1
 70
     0
 10
323.9116262976
 20
44.4119743881
  3
LTEX1
  0
SOLID
  8
1
  6
CONTINUOUS
 62
5
 10
324.7338699055
 20
46.2351352284
 11
325.5352905702
 21
45.5797561870
 12
323.9116262976
 22
44.4119743881
 13
323.9116262976
 23
44.4119743881
  0
TEXT
  8
1
  6
CONTINUOUS
 62
7
 10
328.407128
 20
50.909233
 40
2.500000
  1
製品外形
 41
0.886918
 50
0.000000
 51
0.000000
 72
   5
 73
   0
 11
338.407128
 21
50.909233
  0
LINE
  8
1
  6
BYBLOCK
 62
5
 10
323.9116262976
 20
44.4119743881
 11
328.4071280277
 21
49.9092328564
  0
LINE
  8
1
  6
BYBLOCK
 62
5
 10
328.4071280277
 20
49.9092328564
 11
338.4071280277
 21
49.9092328564
  0
ENDBLK
  8
0
  0
BLOCK
  8
3
  2
S2
 70
     0
 10
9.0000000000
 20
262.0000000000
  3
S2
  0
POINT
  8
3
  6
CONTINUOUS
 62
6
 10
9.0000000000
 20
262.0000000000
  0
ENDBLK
  8
0
  0
BLOCK
  8
3
  2
*D21
 70
     1
 10
0.0000000000
 20
0.0000000000
  3
*D21
  0
LINE
  8
3
  6
BYBLOCK
 62
5
 10
111.4661466639
 20
160.5332681654
 11
111.4661466639
 21
164.1940685219
  0
LINE
  8
3
  6
BYBLOCK
 62
5
 10
113.8661466639
 20
160.4525214537
 11
113.8661466639
 21
164.1940685219
  0
LINE
  8
3
  6
BYBLOCK
 62
5
 10
116.3661466639
 20
163.1940685219
 11
108.9661466639
 21
163.1940685219
  0
SOLID
  8
3
  6
CONTINUOUS
 62
5
 10
109.5342950114
 20
162.6764304317
 11
109.5342950114
 21
163.7117066121
 12
111.4661466639
 22
163.1940685219
 13
111.4661466639
 23
163.1940685219
  0
SOLID
  8
3
  6
CONTINUOUS
 62
5
 10
115.7979983165
 20
163.7117066121
 11
115.7979983165
 21
162.6764304317
 12
113.8661466639
 22
163.1940685219
 13
113.8661466639
 23
163.1940685219
  0
TEXT
  8
3
  6
CONTINUOUS
 62
7
 10
115.252815
 20
164.194069
 40
3.000000
  1
2.4
 41
0.815217
 50
0.000000
 51
0.000000
 72
   5
 73
   0
 11
119.752815
 21
164.194069
  0
POINT
  8
DEFPOINTS
  6
BYBLOCK
 62
5
 10
111.4661466639
 20
160.0332681654
  0
POINT
  8
DEFPOINTS
  6
BYBLOCK
 62
5
 10
113.8661466639
 20
159.9525214537
  0
POINT
  8
DEFPOINTS
  6
BYBLOCK
 62
5
 10
113.8661466639
 20
163.1940685219
  0
ENDBLK
  8
0
  0
BLOCK
  8
3
  2
BALN6
 70
     0
 10
207.3318385765
 20
135.4312011101
  3
BALN6
  0
SOLID
  8
3
  6
CONTINUOUS
 62
5
 10
209.3260705185
 20
135.5829870172
 11
209.1347870529
 21
134.5655355906
 12
207.3318385765
 22
135.4312011101
 13
207.3318385765
 23
135.4312011101
  0
LINE
  8
3
  6
BYBLOCK
 62
5
 10
207.3318385765
 20
135.4312011101
 11
239.3759924740
 21
129.4068183725
  0
CIRCLE
  8
3
  6
BYBLOCK
 62
5
 10
242.3243403039
 20
128.8525214537
 40
3.0000000000
  0
TEXT
  8
3
  6
CONTINUOUS
 62
7
 10
241.449340
 20
127.102521
 40
3.500000
  1
 
 41
1.000000
 50
0.000000
 51
0.000000
 72
   5
 73
   0
 11
243.199340
 21
127.102521
  0
ENDBLK
  8
0
  0
BLOCK
  8
3
  2
BALN7
 70
     0
 10
207.3318385765
 20
122.2738417972
  3
BALN7
  0
SOLID
  8
3
  6
CONTINUOUS
 62
5
 10
209.1347870529
 20
123.1395073167
 11
209.3260705185
 21
122.1220558901
 12
207.3318385765
 22
122.2738417972
 13
207.3318385765
 23
122.2738417972
  0
LINE
  8
3
  6
BYBLOCK
 62
5
 10
207.3318385765
 20
122.2738417972
 11
239.3759924740
 21
128.2982245349
  0
CIRCLE
  8
3
  6
BYBLOCK
 62
5
 10
242.3243403039
 20
128.8525214537
 40
3.0000000000
  0
TEXT
  8
3
  6
CONTINUOUS
 62
7
 10
241.324340
 20
126.852521
 40
4.000000
  1
9
 41
1.000000
 50
0.000000
 51
0.000000
 72
   5
 73
   0
 11
243.324340
 21
126.852521
  0
ENDBLK
  8
0
  0
BLOCK
  8
3
  2
BALN8
 70
     0
 10
205.4105182328
 20
160.3525214537
  3
BALN8
  0
SOLID
  8
3
  6
CONTINUOUS
 62
5
 10
207.3358161919
 20
160.8940265493
 11
207.3486277230
 21
159.8588296432
 12
205.4105182328
 22
160.3525214537
 13
205.4105182328
 23
160.3525214537
  0
LINE
  8
3
  6
BYBLOCK
 62
5
 10
205.4105182328
 20
160.3525214537
 11
239.3245700232
 21
160.7722396036
  0
CIRCLE
  8
3
  6
BYBLOCK
 62
5
 10
242.3243403039
 20
160.8093645700
 40
3.0000000000
  0
TEXT
  8
3
  6
CONTINUOUS
 62
7
 10
240.574340
 20
159.059365
 40
3.500000
  1
10
 41
0.854701
 50
0.000000
 51
0.000000
 72
   5
 73
   0
 11
244.074340
 21
159.059365
  0
ENDBLK
  8
0
  0
BLOCK
  8
1
  2
S3
 70
     0
 10
183.4105174579
 20
91.3525214537
  3
S3
  0
ENDBLK
  8
0
  0
BLOCK
  8
1
  2
S4
 70
     0
 10
183.4105174579
 20
186.3525214536
  3
S4
  0
CIRCLE
  8
1
  6
HIDDEN
 62
5
 10
183.4105174579
 20
186.3525214536
 40
4.5000000000
  0
LINE
  8
1
  6
HIDDEN
 62
5
 10
186.7855174581
 20
186.3525214536
 11
180.0355174581
 21
186.3525214536
  0
LINE
  8
1
  6
HIDDEN
 62
5
 10
185.6605174581
 20
184.6650214536
 11
181.1605174581
 21
184.6650214536
  0
LINE
  8
1
  6
HIDDEN
 62
5
 10
184.5355174581
 20
182.9775214536
 11
182.2855174581
 21
182.9775214536
  0
LINE
  8
1
  6
HIDDEN
 62
5
 10
183.4105174579
 20
186.3525214536
 11
183.4105174581
 21
189.7275214536
  0
ENDBLK
  8
0
  0
BLOCK
  8
1
  2
S5
 70
     0
 10
234.0683773645
 20
177.0185567967
  3
S5
  0
LINE
  8
1
  6
CONTINUOUS
 62
6
 10
236.5683773645
 20
175.0185567967
 11
231.5683773645
 21
175.0185567967
  0
TEXT
  8
1
  6
CONTINUOUS
 62
6
 10
232.972777
 20
174.640229
 40
3.300000
  1
C
 41
1.328000
 50
0.000000
 51
0.000000
 72
   5
 73
   0
 11
235.163977
 21
174.640229
  0
LINE
  8
1
  6
CONTINUOUS
 62
6
 10
234.0683773645
 20
179.0185567967
 11
231.5683773645
 21
175.0185567967
  0
LINE
  8
1
  6
CONTINUOUS
 62
6
 10
234.0683773645
 20
179.0185567967
 11
236.5683773645
 21
175.0185567967
  0
POINT
  8
1
  6
CONTINUOUS
 62
6
 10
234.0683773645
 20
177.0185567967
  0
ENDBLK
  8
0
  0
BLOCK
  8
1
  2
LTEX2
 70
     0
 10
197.9105182328
 20
186.3525214536
  3
LTEX2
  0
SOLID
  8
1
  6
CONTINUOUS
 62
5
 10
199.9029220982
 20
186.1783754317
 11
199.5489175839
 21
185.2055046419
 12
197.9105182328
 22
186.3525214536
 13
197.9105182328
 23
186.3525214536
  0
TEXT
  8
1
  6
CONTINUOUS
 62
7
 10
234.064335
 20
174.197009
 40
3.500000
  1
  M4ｱｰｽﾎﾞｽ
 41
0.765697
 50
0.000000
 51
0.000000
 72
   5
 73
   0
 11
251.564335
 21
174.197009
  0
LINE
  8
1
  6
BYBLOCK
 62
5
 10
197.9105182328
 20
186.3525214536
 11
234.0643346497
 21
173.1970085563
  0
LINE
  8
1
  6
BYBLOCK
 62
5
 10
234.0643346497
 20
173.1970085563
 11
251.5643346497
 21
173.1970085563
  0
ENDBLK
  8
0
  0
BLOCK
  8
1
  2
S6
 70
     0
 10
235.7035425623
 20
249.3925435666
  3
S6
  0
LINE
  8
1
  6
CONTINUOUS
 62
6
 10
238.2035425623
 20
247.3925435666
 11
233.2035425623
 21
247.3925435666
  0
TEXT
  8
1
  6
CONTINUOUS
 62
6
 10
234.652493
 20
247.014216
 40
3.300000
  1
B
 41
1.274000
 50
0.000000
 51
0.000000
 72
   5
 73
   0
 11
236.754593
 21
247.014216
  0
LINE
  8
1
  6
CONTINUOUS
 62
6
 10
235.7035425623
 20
251.3925435666
 11
233.2035425623
 21
247.3925435666
  0
LINE
  8
1
  6
CONTINUOUS
 62
6
 10
235.7035425623
 20
251.3925435666
 11
238.2035425623
 21
247.3925435666
  0
POINT
  8
1
  6
CONTINUOUS
 62
6
 10
235.7035425623
 20
249.3925435666
  0
ENDBLK
  8
0
  0
BLOCK
  8
1
  2
S7
 70
     0
 10
137.2868002249
 20
38.5097255163
  3
S7
  0
LINE
  8
1
  6
CONTINUOUS
 62
6
 10
139.7868002249
 20
36.5097255163
 11
134.7868002249
 21
36.5097255163
  0
TEXT
  8
1
  6
CONTINUOUS
 62
6
 10
136.235750
 20
36.131398
 40
3.300000
  1
B
 41
1.274000
 50
0.000000
 51
0.000000
 72
   5
 73
   0
 11
138.337850
 21
36.131398
  0
LINE
  8
1
  6
CONTINUOUS
 62
6
 10
137.2868002249
 20
40.5097255163
 11
134.7868002249
 21
36.5097255163
  0
LINE
  8
1
  6
CONTINUOUS
 62
6
 10
137.2868002249
 20
40.5097255163
 11
139.7868002249
 21
36.5097255163
  0
POINT
  8
1
  6
CONTINUOUS
 62
6
 10
137.2868002249
 20
38.5097255163
  0
ENDBLK
  8
0
  0
BLOCK
  8
3
  2
LTEX3
 70
     0
 10
134.5962334454
 20
86.7605564293
  3
LTEX3
  0
SOLID
  8
3
  6
CONTINUOUS
 62
5
 10
135.0708243304
 20
84.8176813710
 11
134.0358036791
 21
84.8406818299
 12
134.5962334454
 22
86.7605564293
 13
134.5962334454
 23
86.7605564293
  0
TEXT
  8
3
  6
CONTINUOUS
 62
7
 10
133.340636
 20
31.258654
 40
3.500000
  1
 PBT品はｱｰｽ部(2箇所) 
 41
0.804598
 50
0.000000
 51
0.000000
 72
   5
 73
   0
 11
170.090636
 21
31.258654
  0
TEXT
  8
3
  6
CONTINUOUS
 62
7
 10
133.340636
 20
26.258654
 40
3.500000
  1
%%uは無いです%%u
 41
0.880282
 50
0.000000
 51
0.000000
 72
   5
 73
   0
 11
150.840636
 21
26.258654
  0
LINE
  8
3
  6
BYBLOCK
 62
5
 10
134.5962334454
 20
86.7605564293
 11
133.3406356149
 21
30.2586540591
  0
LINE
  8
3
  6
BYBLOCK
 62
5
 10
133.3406356149
 20
30.2586540591
 11
170.0906356149
 21
30.2586540591
  0
ENDBLK
  8
0
  0
BLOCK
  8
3
  2
LTEX4
 70
     0
 10
88.2645106558
 20
17.3439335173
  3
LTEX4
  0
SOLID
  8
3
  6
CONTINUOUS
 62
5
 10
89.9790701192
 20
18.3736353414
 11
90.2642136195
 21
17.3784017236
 12
88.2645106558
 22
17.3439335173
 13
88.2645106558
 23
17.3439335173
  0
TEXT
  8
3
  6
CONTINUOUS
 62
7
 10
133.340636
 20
31.258654
 40
3.500000
  1
 
 41
1.000000
 50
0.000000
 51
0.000000
 72
   5
 73
   0
 11
135.090636
 21
31.258654
  0
LINE
  8
3
  6
BYBLOCK
 62
5
 10
88.2645106558
 20
17.3439335173
 11
133.3406356149
 21
30.2586540591
  0
LINE
  8
3
  6
BYBLOCK
 62
5
 10
133.3406356149
 20
30.2586540591
 11
135.0906356149
 21
30.2586540591
  0
ENDBLK
  8
0
  0
BLOCK
  8
3
  2
LTEX5
 70
     0
 10
39.2645106558
 20
18.7789024664
  3
LTEX5
  0
SOLID
  8
3
  6
CONTINUOUS
 62
5
 10
41.1194376375
 20
19.5267299150
 11
41.2448382684
 21
18.4990765437
 12
39.2645106558
 22
18.7789024664
 13
39.2645106558
 23
18.7789024664
  0
TEXT
  8
3
  6
CONTINUOUS
 62
7
 10
133.340636
 20
31.258654
 40
3.500000
  1
 
 41
1.000000
 50
0.000000
 51
0.000000
 72
   5
 73
   0
 11
135.090636
 21
31.258654
  0
LINE
  8
3
  6
BYBLOCK
 62
5
 10
39.2645106558
 20
18.7789024664
 11
133.3406356149
 21
30.2586540591
  0
LINE
  8
3
  6
BYBLOCK
 62
5
 10
133.3406356149
 20
30.2586540591
 11
135.0906356149
 21
30.2586540591
  0
ENDBLK
  8
0
  0
BLOCK
  8
1
  2
S8
 70
     0
 10
309.3313851285
 20
266.8545250502
  3
S8
  0
LINE
  8
1
  6
CONTINUOUS
 62
6
 10
311.8313851285
 20
264.8545250502
 11
306.8313851285
 21
264.8545250502
  0
TEXT
  8
1
  6
CONTINUOUS
 62
6
 10
308.280335
 20
264.476198
 40
3.300000
  1
B
 41
1.274000
 50
0.000000
 51
0.000000
 72
   5
 73
   0
 11
310.382435
 21
264.476198
  0
LINE
  8
1
  6
CONTINUOUS
 62
6
 10
309.3313851285
 20
268.8545250502
 11
306.8313851285
 21
264.8545250502
  0
LINE
  8
1
  6
CONTINUOUS
 62
6
 10
309.3313851285
 20
268.8545250502
 11
311.8313851285
 21
264.8545250502
  0
POINT
  8
1
  6
CONTINUOUS
 62
6
 10
309.3313851285
 20
266.8545250502
  0
ENDBLK
  8
0
  0
BLOCK
  8
1
  2
S9
 70
     0
 10
309.6673061663
 20
234.4607153152
  3
S9
  0
LINE
  8
1
  6
CONTINUOUS
 62
6
 10
312.1673061663
 20
232.4607153152
 11
307.1673061663
 21
232.4607153151
  0
TEXT
  8
1
  6
CONTINUOUS
 62
6
 10
308.616256
 20
232.082388
 40
3.300000
  1
B
 41
1.274000
 50
0.000000
 51
0.000000
 72
   5
 73
   0
 11
310.718356
 21
232.082388
  0
LINE
  8
1
  6
CONTINUOUS
 62
6
 10
309.6673061663
 20
236.4607153152
 11
307.1673061663
 21
232.4607153151
  0
LINE
  8
1
  6
CONTINUOUS
 62
6
 10
309.6673061663
 20
236.4607153152
 11
312.1673061663
 21
232.4607153152
  0
POINT
  8
1
  6
CONTINUOUS
 62
6
 10
309.6673061663
 20
234.4607153152
  0
ENDBLK
  8
0
  0
ENDSEC
  0
SECTION
  2
ENTITIES
  0
LINE
  8
1
  6
CONTINUOUS
 62
7
 10
95.7645106558
 20
65.6025214537
 11
95.7645106558
 21
209.4775214537
  0
LINE
  8
1
  6
CONTINUOUS
 62
7
 10
28.7645106558
 20
209.4775214537
 11
28.7645106558
 21
65.6025214537
  0
LINE
  8
1
  6
CONTINUOUS
 62
7
 10
96.7645106558
 20
64.6025214537
 11
96.7645106558
 21
220.1025214537
  0
LINE
  8
1
  6
CONTINUOUS
 62
7
 10
27.7645106558
 20
220.1025214537
 11
27.7645106558
 21
64.6025214537
  0
LINE
  8
1
  6
DASHDOT
 62
1
 10
101.7645106558
 20
213.1025214537
 11
22.7645106558
 21
213.1025214537
  0
LINE
  8
1
  6
CONTINUOUS
 62
7
 10
96.7645106558
 20
64.6025214537
 11
76.7270138153
 21
64.6025214537
  0
LINE
  8
1
  6
CONTINUOUS
 62
7
 10
47.8020074964
 20
64.6025214537
 11
27.7645106558
 21
64.6025214537
  0
LINE
  8
1
  6
CONTINUOUS
 62
7
 10
28.7645106558
 20
65.6025214537
 11
45.5659395189
 21
65.6025214537
  0
LINE
  8
1
  6
CONTINUOUS
 62
7
 10
78.9630817928
 20
65.6025214537
 11
95.7645106558
 21
65.6025214537
  0
LINE
  8
1
  6
CONTINUOUS
 62
7
 10
124.4661466639
 20
207.1025214537
 11
124.4661466639
 21
65.6025214537
  0
CIRCLE
  8
1
  6
CONTINUOUS
 62
7
 10
121.4661466639
 20
213.1025214537
 40
2.0000000000
  0
ARC
  8
1
  6
CONTINUOUS
 62
7
 10
121.4661466639
 20
213.1025214537
 40
6.0000000000
 50
90.0000000000
 51
270.0000000000
  0
LINE
  8
1
  6
CONTINUOUS
 62
7
 10
124.4661466639
 20
207.1025214537
 11
121.4661466639
 21
207.1025214537
  0
LINE
  8
1
  6
CONTINUOUS
 62
7
 10
124.4661466639
 20
219.1025214537
 11
121.4661466639
 21
219.1025214537
  0
LINE
  8
1
  6
CONTINUOUS
 62
7
 10
133.4661466639
 20
220.1025214537
 11
133.4661466639
 21
64.6025214537
  0
LINE
  8
1
  6
CONTINUOUS
 62
7
 10
28.7645106558
 20
207.1025214537
 11
28.7645106558
 21
219.1025214537
  0
LINE
  8
1
  6
CONTINUOUS
 62
7
 10
28.7645106558
 20
219.1025214537
 11
33.7645106558
 21
219.1025214537
  0
LINE
  8
1
  6
CONTINUOUS
 62
7
 10
33.7645106558
 20
219.1025214537
 11
33.7645106558
 21
207.1025214537
  0
LINE
  8
1
  6
CONTINUOUS
 62
7
 10
33.7645106558
 20
207.1025214537
 11
28.7645106558
 21
207.1025214537
  0
LINE
  8
1
  6
CONTINUOUS
 62
7
 10
95.7645106558
 20
219.1025214537
 11
90.7645106558
 21
219.1025214537
  0
LINE
  8
1
  6
CONTINUOUS
 62
7
 10
90.7645106558
 20
219.1025214537
 11
90.7645106558
 21
207.1025214537
  0
LINE
  8
1
  6
CONTINUOUS
 62
7
 10
90.7645106558
 20
207.1025214537
 11
95.7645106558
 21
207.1025214537
  0
LINE
  8
1
  6
CONTINUOUS
 62
7
 10
95.7645106558
 20
207.1025214537
 11
95.7645106558
 21
219.1025214537
  0
LINE
  8
1
  6
CONTINUOUS
 62
7
 10
90.7645106558
 20
207.1025214537
 11
90.7645106558
 21
206.1025214537
  0
LINE
  8
1
  6
CONTINUOUS
 62
7
 10
33.7645106558
 20
206.1025214537
 11
33.7645106558
 21
207.1025214537
  0
LINE
  8
1
  6
CONTINUOUS
 62
7
 10
96.7645106558
 20
220.1025214537
 11
27.7645106558
 21
220.1025214537
  0
LINE
  8
1
  6
CONTINUOUS
 62
7
 10
96.7645106558
 20
27.5484212565
 11
27.7645106558
 21
27.5484212565
  0
LINE
  8
1
  6
CONTINUOUS
 62
7
 10
28.7645106558
 20
36.5484212565
 11
95.7645106558
 21
36.5484212565
  0
LINE
  8
1
  6
CONTINUOUS
 62
7
 10
133.4661466639
 20
64.6025214537
 11
124.4661466639
 21
65.6025214537
  0
LINE
  8
1
  6
CONTINUOUS
 62
7
 10
133.4661466639
 20
220.1025214537
 11
124.4661466639
 21
219.1025214537
  0
LINE
  8
1
  6
CONTINUOUS
 62
7
 10
28.7645106558
 20
36.5484212565
 11
27.7645106558
 21
27.5484212565
  0
LINE
  8
1
  6
CONTINUOUS
 62
7
 10
95.7645106558
 20
36.5484212565
 11
96.7645106558
 21
27.5484212565
  0
LINE
  8
1
  6
HIDDEN
 62
7
 10
124.4661466639
 20
206.1025214537
 11
127.9661466639
 21
206.1025214537
  0
LINE
  8
1
  6
HIDDEN
 62
7
 10
127.9661466639
 20
206.1025214537
 11
127.9661466639
 21
219.4914103426
  0
LINE
  8
1
  6
HIDDEN
 62
7
 10
34.7645106558
 20
33.5484212565
 11
34.7645106558
 21
36.5484212565
  0
LINE
  8
1
  6
HIDDEN
 62
7
 10
89.7645106558
 20
33.5484212565
 11
34.7645106558
 21
33.5484212565
  0
LINE
  8
1
  6
HIDDEN
 62
7
 10
89.7645106558
 20
33.5484212565
 11
89.7645106558
 21
36.5484212565
  0
LINE
  8
1
  6
HIDDEN
 62
7
 10
85.5145106558
 20
33.5484212565
 11
85.5145106558
 21
29.5484212565
  0
LINE
  8
1
  6
HIDDEN
 62
7
 10
85.5145106558
 20
29.5484212565
 11
84.0145106559
 21
29.5484212565
  0
LINE
  8
1
  6
HIDDEN
 62
7
 10
80.5145106559
 20
29.5484212565
 11
79.0145106558
 21
29.5484212565
  0
LINE
  8
1
  6
HIDDEN
 62
7
 10
79.0145106558
 20
29.5484212565
 11
79.0145106558
 21
33.5484212565
  0
LINE
  8
1
  6
HIDDEN
 62
7
 10
80.5145106559
 20
29.5484212565
 11
80.5145106556
 21
27.5484212565
  0
LINE
  8
1
  6
HIDDEN
 62
7
 10
84.0145106559
 20
29.5484212565
 11
84.0145106558
 21
27.5484212565
  0
LINE
  8
1
  6
HIDDEN
 62
7
 10
39.0145106558
 20
33.5484212565
 11
39.0145106558
 21
29.5484212565
  0
LINE
  8
1
  6
HIDDEN
 62
7
 10
39.0145106558
 20
29.5484212565
 11
40.5145106558
 21
29.5484212565
  0
LINE
  8
1
  6
HIDDEN
 62
7
 10
44.0145106558
 20
29.5484212565
 11
45.5145106558
 21
29.5484212565
  0
LINE
  8
1
  6
HIDDEN
 62
7
 10
45.5145106558
 20
29.5484212565
 11
45.5145106558
 21
33.5484212565
  0
LINE
  8
1
  6
HIDDEN
 62
7
 10
44.0145106558
 20
29.5484212565
 11
44.0145106561
 21
27.5484212565
  0
LINE
  8
1
  6
HIDDEN
 62
7
 10
40.5145106558
 20
29.5484212565
 11
40.5145106559
 21
27.5484212565
  0
LINE
  8
1
  6
HIDDEN
 62
7
 10
60.2645106558
 20
33.5484212565
 11
60.2645106558
 21
27.5484212565
  0
LINE
  8
1
  6
HIDDEN
 62
7
 10
64.2645106558
 20
33.5484212565
 11
64.2645106558
 21
27.5484212565
  0
LINE
  8
1
  6
HIDDEN
 62
7
 10
63.9145106558
 20
33.5484212565
 11
63.9145106558
 21
27.5484212565
  0
LINE
  8
1
  6
HIDDEN
 62
7
 10
60.6145106558
 20
33.5484212565
 11
60.6145106558
 21
27.5484212565
  0
LINE
  8
1
  6
HIDDEN
 62
7
 10
124.4661466639
 20
201.1025214537
 11
127.9661466639
 21
201.1025214537
  0
LINE
  8
1
  6
HIDDEN
 62
7
 10
127.9661466639
 20
200.4775214537
 11
127.9661466639
 21
76.6025214537
  0
LINE
  8
1
  6
HIDDEN
 62
7
 10
127.9661466639
 20
76.6025214537
 11
124.4661466639
 21
76.6025214537
  0
LINE
  8
1
  6
HIDDEN
 62
7
 10
127.9661466639
 20
85.3525214537
 11
133.4661466639
 21
85.3525214537
  0
LINE
  8
1
  6
HIDDEN
 62
7
 10
127.9661466639
 20
192.3525214537
 11
133.4661466639
 21
192.3525214537
  0
LINE
  8
1
  6
HIDDEN
 62
7
 10
127.9661466639
 20
83.6025214537
 11
131.9661466639
 21
83.6025214537
  0
LINE
  8
1
  6
HIDDEN
 62
7
 10
131.9661466639
 20
83.6025214537
 11
131.9661466639
 21
82.1025214537
  0
LINE
  8
1
  6
HIDDEN
 62
7
 10
131.9661466639
 20
78.6025214537
 11
131.9661466639
 21
77.1025214537
  0
LINE
  8
1
  6
HIDDEN
 62
7
 10
131.9661466639
 20
77.1025214537
 11
127.9661466639
 21
77.1025214537
  0
LINE
  8
1
  6
HIDDEN
 62
7
 10
131.9661466639
 20
78.6025214537
 11
133.4661466639
 21
78.6025214535
  0
LINE
  8
1
  6
HIDDEN
 62
7
 10
131.9661466639
 20
82.1025214537
 11
133.4661466639
 21
82.1025214648
  0
LINE
  8
1
  6
HIDDEN
 62
7
 10
127.9661466639
 20
194.1025214537
 11
131.9661466639
 21
194.1025214537
  0
LINE
  8
1
  6
HIDDEN
 62
7
 10
131.9661466639
 20
194.1025214537
 11
131.9661466639
 21
195.6025214537
  0
LINE
  8
1
  6
HIDDEN
 62
7
 10
131.9661466639
 20
199.1025214537
 11
131.9661466639
 21
200.6025214537
  0
LINE
  8
1
  6
HIDDEN
 62
7
 10
131.9661466639
 20
200.6025214537
 11
127.9661466639
 21
200.6025214537
  0
LINE
  8
1
  6
HIDDEN
 62
7
 10
131.9661466639
 20
199.1025214537
 11
133.4661466639
 21
199.1025214539
  0
LINE
  8
1
  6
HIDDEN
 62
7
 10
131.9661466639
 20
195.6025214537
 11
133.4661466639
 21
195.6025214425
  0
ARC
  8
2
  6
HIDDEN
 62
5
 10
121.4661466639
 20
213.1025214537
 40
6.0000000000
 50
294.6243183522
 51
164.1092389898
  0
LINE
  8
2
  6
HIDDEN
 62
5
 10
123.9661466639
 20
207.6481653964
 11
123.9661466639
 21
207.1025214537
  0
LINE
  8
2
  6
CONTINUOUS
 62
5
 10
123.9661466639
 20
207.1025214537
 11
123.9661466639
 21
65.6025214537
  0
LINE
  8
2
  6
CONTINUOUS
 62
5
 10
115.8202125868
 20
65.6025214537
 11
123.9661466639
 21
65.6025214537
  0
LINE
  8
2
  6
CONTINUOUS
 62
5
 10
109.4661466639
 20
61.6025214537
 11
109.4661466639
 21
192.4775214537
  0
LINE
  8
2
  6
CONTINUOUS
 62
5
 10
123.9661466639
 20
206.1025214537
 11
113.2892089437
 21
206.1025214537
  0
CIRCLE
  8
2
  6
CONTINUOUS
 62
5
 10
121.4661466639
 20
213.1025214537
 40
2.0000000000
  0
LINE
  8
2
  6
CONTINUOUS
 62
5
 10
29.7645106558
 20
206.1025214537
 11
33.9645106558
 21
206.1025214537
  0
LINE
  8
2
  6
CONTINUOUS
 62
5
 10
33.9645106558
 20
206.1025214537
 11
33.9645106558
 21
219.1025214537
  0
LINE
  8
2
  6
CONTINUOUS
 62
5
 10
33.9645106558
 20
219.1025214537
 11
90.5645106558
 21
219.1025214537
  0
LINE
  8
2
  6
CONTINUOUS
 62
5
 10
90.5645106558
 20
219.1025214537
 11
90.5645106558
 21
206.1025214537
  0
LINE
  8
2
  6
CONTINUOUS
 62
5
 10
90.5645106558
 20
206.1025214537
 11
94.7645106558
 21
206.1025214537
  0
LINE
  8
2
  6
CONTINUOUS
 62
5
 10
94.7645106558
 20
206.1025214537
 11
94.7645106558
 21
65.6025214537
  0
LINE
  8
2
  6
CONTINUOUS
 62
5
 10
78.9630817928
 20
65.6025214537
 11
94.7645106558
 21
65.6025214537
  0
LINE
  8
2
  6
CONTINUOUS
 62
5
 10
45.5659395189
 20
65.6025214537
 11
29.7645106558
 21
65.6025214537
  0
LINE
  8
2
  6
CONTINUOUS
 62
5
 10
29.7645106558
 20
65.6025214537
 11
29.7645106558
 21
206.1025214537
  0
LINE
  8
2
  6
CONTINUOUS
 62
5
 10
49.3906030156
 20
62.0590341874
 11
48.1384182961
 21
64.1460087200
  0
LINE
  8
2
  6
CONTINUOUS
 62
5
 10
72.5659395189
 20
60.6025214537
 11
51.9630817928
 21
60.6025214537
  0
ARC
  8
2
  6
CONTINUOUS
 62
5
 10
45.5659395189
 20
62.6025214537
 40
3.0000000000
 50
30.9637565321
 51
90.0000000000
  0
ARC
  8
2
  6
CONTINUOUS
 62
5
 10
51.9630817928
 20
63.6025214537
 40
3.0000000000
 50
210.9637565321
 51
270.0000000000
  0
LINE
  8
2
  6
CONTINUOUS
 62
5
 10
75.1384182961
 20
62.0590341874
 11
76.3906030156
 21
64.1460087200
  0
ARC
  8
2
  6
CONTINUOUS
 62
5
 10
78.9630817928
 20
62.6025214537
 40
3.0000000000
 50
90.0000000000
 51
149.0362434679
  0
ARC
  8
2
  6
CONTINUOUS
 62
5
 10
72.5659395189
 20
63.6025214537
 40
3.0000000000
 50
270.0000000000
 51
329.0362434679
  0
LINE
  8
2
  6
HIDDEN
 62
5
 10
109.4661466639
 20
70.7525214537
 11
111.4661466639
 21
70.7525214537
  0
LINE
  8
2
  6
HIDDEN
 62
5
 10
111.4661466639
 20
71.1025214537
 11
109.4661466639
 21
71.1025214537
  0
LINE
  8
2
  6
HIDDEN
 62
5
 10
111.4661466639
 20
71.3525214537
 11
123.9661466639
 21
71.3525214537
  0
LINE
  8
2
  6
HIDDEN
 62
5
 10
109.4661466639
 20
67.4525214537
 11
111.4661466639
 21
67.4525214537
  0
LINE
  8
2
  6
HIDDEN
 62
5
 10
111.4661466639
 20
67.1025214537
 11
109.4661466639
 21
67.1025214537
  0
LINE
  8
2
  6
HIDDEN
 62
5
 10
111.4661466639
 20
66.8525214537
 11
123.9661466639
 21
66.8525214537
  0
LINE
  8
2
  6
HIDDEN
 62
5
 10
111.4661466639
 20
71.3525214537
 11
111.4661466639
 21
66.8525214537
  0
LINE
  8
1
  6
HIDDEN
 62
7
 10
124.4661466639
 20
71.1025214537
 11
133.4661466639
 21
71.1025214537
  0
LINE
  8
1
  6
HIDDEN
 62
7
 10
124.4661466639
 20
70.7525214537
 11
133.4661466639
 21
70.7525214537
  0
LINE
  8
1
  6
HIDDEN
 62
7
 10
124.4661466639
 20
67.4525214537
 11
133.4661466639
 21
67.4525214537
  0
LINE
  8
1
  6
HIDDEN
 62
7
 10
124.4661466639
 20
67.1025214537
 11
133.4661466639
 21
67.1025214537
  0
LINE
  8
2
  6
CONTINUOUS
 62
5
 10
113.9632592050
 20
64.3453028064
 11
112.7175903934
 21
61.2311307773
  0
LINE
  8
2
  6
CONTINUOUS
 62
5
 10
111.7891137025
 20
60.6025214537
 11
110.4661466639
 21
60.6025214537
  0
LINE
  8
2
  6
CONTINUOUS
 62
5
 10
36.2645106558
 20
51.5484212565
 11
88.2645106558
 21
51.5484212565
  0
LINE
  8
2
  6
CONTINUOUS
 62
5
 10
94.7645106558
 20
43.5484212565
 11
94.7645106558
 21
37.0484212565
  0
LINE
  8
2
  6
CONTINUOUS
 62
5
 10
94.7645106558
 20
37.0484212565
 11
29.7645106558
 21
37.0484212565
  0
LINE
  8
2
  6
CONTINUOUS
 62
5
 10
29.7645106558
 20
37.0484212565
 11
29.7645106558
 21
43.5484212565
  0
LINE
  8
2
  6
CONTINUOUS
 62
5
 10
94.7645106558
 20
43.5484212565
 11
88.2645106558
 21
51.5484212565
  0
LINE
  8
2
  6
CONTINUOUS
 62
5
 10
36.2645106558
 20
51.5484212565
 11
29.7645106558
 21
43.5484212565
  0
LINE
  8
2
  6
CONTINUOUS
 62
5
 10
33.8539337328
 20
206.1025214537
 11
36.2645106558
 21
192.4775214537
  0
LINE
  8
2
  6
CONTINUOUS
 62
5
 10
36.2645106558
 20
192.4775214537
 11
88.2645106558
 21
192.4775214537
  0
LINE
  8
2
  6
CONTINUOUS
 62
5
 10
88.2645106558
 20
192.4775214537
 11
90.6750875789
 21
206.1025214537
  0
LINE
  8
2
  6
CONTINUOUS
 62
5
 10
88.2645106558
 20
192.4775214537
 11
88.2645106558
 21
65.6025214537
  0
LINE
  8
2
  6
CONTINUOUS
 62
5
 10
36.2645106558
 20
65.6025214537
 11
36.2645106558
 21
192.4775214537
  0
LINE
  8
2
  6
CONTINUOUS
 62
5
 10
45.5659395189
 20
51.5484212565
 11
45.5659395189
 21
46.5484212565
  0
LINE
  8
2
  6
CONTINUOUS
 62
5
 10
45.5659395189
 20
46.5484212565
 11
51.9630817928
 21
48.5484212565
  0
LINE
  8
2
  6
CONTINUOUS
 62
5
 10
51.9630817928
 20
48.5484212565
 11
72.5659395189
 21
48.5484212565
  0
LINE
  8
2
  6
CONTINUOUS
 62
5
 10
72.5659395189
 20
48.5484212565
 11
78.9630817928
 21
46.5484212565
  0
LINE
  8
2
  6
CONTINUOUS
 62
5
 10
78.9630817928
 20
46.5484212565
 11
78.9630817928
 21
51.5484212565
  0
LINE
  8
2
  6
CONTINUOUS
 62
5
 10
51.9630817928
 20
51.5484212565
 11
51.9630817928
 21
48.5484212565
  0
LINE
  8
2
  6
CONTINUOUS
 62
5
 10
72.5659395189
 20
51.5484212565
 11
72.5659395189
 21
48.5484212565
  0
LINE
  8
2
  6
CONTINUOUS
 62
5
 10
45.5659395189
 20
46.5484212565
 11
78.9630817928
 21
46.5484212565
  0
ARC
  8
2
  6
CONTINUOUS
 62
5
 10
110.4661466639
 20
61.6025214537
 40
1.0000000000
 50
180.0000000000
 51
270.0000000000
  0
ARC
  8
2
  6
CONTINUOUS
 62
5
 10
111.7891137025
 20
61.6025214537
 40
1.0000000000
 50
270.0000000000
 51
338.1985905136
  0
ARC
  8
2
  6
CONTINUOUS
 62
5
 10
115.8202125868
 20
63.6025214537
 40
2.0000000000
 50
90.0000000000
 51
158.1985905136
  0
LINE
  8
1
  6
CONTINUOUS
 62
7
 10
96.7645106558
 20
27.5484212565
 11
27.7645106558
 21
27.5484212565
  0
LINE
  8
2
  6
CONTINUOUS
 62
5
 10
124.9661466639
 20
204.3525214537
 11
123.9661466639
 21
204.3525214537
  0
LINE
  8
2
  6
CONTINUOUS
 62
5
 10
124.9661466639
 20
204.3525214537
 11
124.9661466639
 21
203.8525214537
  0
LINE
  8
2
  6
CONTINUOUS
 62
5
 10
124.9661466639
 20
203.8525214537
 11
123.9661466639
 21
203.8525214537
  0
LINE
  8
2
  6
HIDDEN
 62
5
 10
123.9661466639
 20
203.8525214537
 11
114.7351177630
 21
203.8525214537
  0
LINE
  8
2
  6
CONTINUOUS
 62
5
 10
123.9661466639
 20
73.3525214537
 11
124.9661466639
 21
73.3525214537
  0
LINE
  8
2
  6
CONTINUOUS
 62
5
 10
124.9661466639
 20
73.3525214537
 11
124.9661466639
 21
73.8525214537
  0
LINE
  8
2
  6
CONTINUOUS
 62
5
 10
124.9661466639
 20
73.8525214537
 11
123.9661466639
 21
73.8525214537
  0
LINE
  8
2
  6
HIDDEN
 62
5
 10
123.9661466639
 20
73.8525214537
 11
111.4661466639
 21
73.8525214537
  0
LINE
  8
1
  6
CONTINUOUS
 62
7
 10
219.9105182328
 20
201.1025214537
 11
167.9105182328
 21
201.1025214537
  0
LINE
  8
1
  6
CONTINUOUS
 62
7
 10
221.4105182328
 20
78.1025214537
 11
221.4105182328
 21
199.6025214537
  0
LINE
  8
1
  6
CONTINUOUS
 62
7
 10
167.9105182328
 20
76.6025214537
 11
219.9105182328
 21
76.6025214537
  0
LINE
  8
1
  6
CONTINUOUS
 62
7
 10
166.4105182328
 20
78.1025214537
 11
166.4105182328
 21
199.6025214537
  0
LINE
  8
1
  6
CONTINUOUS
 62
7
 10
223.4105182328
 20
75.6025214537
 11
223.4105182328
 21
202.1025214537
  0
LINE
  8
1
  6
CONTINUOUS
 62
7
 10
222.4105182328
 20
203.1025214537
 11
165.4105182328
 21
203.1025214537
  0
LINE
  8
1
  6
CONTINUOUS
 62
7
 10
164.4105182328
 20
75.6025214537
 11
164.4105182328
 21
202.1025214537
  0
LINE
  8
1
  6
CONTINUOUS
 62
7
 10
165.4105182328
 20
74.6025214537
 11
222.4105182328
 21
74.6025214537
  0
ARC
  8
1
  6
CONTINUOUS
 62
7
 10
167.9105182328
 20
199.6025214537
 40
1.5000000000
 50
90.0000000000
 51
180.0000000000
  0
ARC
  8
1
  6
CONTINUOUS
 62
7
 10
219.9105182328
 20
199.6025214537
 40
1.5000000000
 50
0.0000000000
 51
90.0000000000
  0
ARC
  8
1
  6
CONTINUOUS
 62
7
 10
219.9105182328
 20
78.1025214537
 40
1.5000000000
 50
270.0000000000
 51
0.0000000000
  0
ARC
  8
1
  6
CONTINUOUS
 62
7
 10
167.9105182328
 20
78.1025214537
 40
1.5000000000
 50
180.0000000000
 51
270.0000000000
  0
CIRCLE
  8
1
  6
HIDDEN
 62
3
 10
173.9105182328
 20
197.3525214537
 40
1.7500000000
  0
CIRCLE
  8
1
  6
HIDDEN
 62
3
 10
173.9105182328
 20
197.3525214537
 40
3.2500000000
  0
CIRCLE
  8
1
  6
HIDDEN
 62
3
 10
213.9105182328
 20
197.3525214537
 40
1.7500000000
  0
CIRCLE
  8
1
  6
HIDDEN
 62
3
 10
213.9105182328
 20
197.3525214537
 40
3.2500000000
  0
LINE
  8
1
  6
HIDDEN
 62
3
 10
216.9105182328
 20
192.3525214537
 11
219.9105182328
 21
192.3525214537
  0
LINE
  8
1
  6
HIDDEN
 62
3
 10
168.9105182328
 20
192.3525214537
 11
216.9105182328
 21
192.3525214537
  0
CIRCLE
  8
1
  6
HIDDEN
 62
3
 10
173.9105182328
 20
80.3525214537
 40
1.7500000000
  0
CIRCLE
  8
1
  6
HIDDEN
 62
3
 10
173.9105182328
 20
80.3525214537
 40
3.2500000000
  0
CIRCLE
  8
1
  6
HIDDEN
 62
3
 10
213.9105182328
 20
80.3525214537
 40
1.7500000000
  0
CIRCLE
  8
1
  6
HIDDEN
 62
3
 10
213.9105182328
 20
80.3525214537
 40
3.2500000000
  0
CIRCLE
  8
1
  6
HIDDEN
 62
3
 10
193.9105182328
 20
197.3525214537
 40
2.0000000000
  0
LINE
  8
1
  6
CONTINUOUS
 62
7
 10
225.4105182328
 20
75.6025214537
 11
225.4105182328
 21
202.1025214537
  0
LINE
  8
1
  6
CONTINUOUS
 62
7
 10
222.4105182328
 20
205.1025214537
 11
165.4105182328
 21
205.1025214537
  0
LINE
  8
1
  6
CONTINUOUS
 62
7
 10
162.4105182328
 20
75.6025214537
 11
162.4105182328
 21
202.1025214537
  0
LINE
  8
1
  6
CONTINUOUS
 62
7
 10
165.4105182328
 20
72.6025214537
 11
222.4105182328
 21
72.6025214537
  0
LINE
  8
1
  6
CONTINUOUS
 62
7
 10
227.4105182328
 20
65.6025214537
 11
227.4105182328
 21
209.4775214537
  0
LINE
  8
1
  6
CONTINUOUS
 62
7
 10
160.4105182328
 20
209.4775214537
 11
160.4105182328
 21
65.6025214537
  0
LINE
  8
1
  6
CONTINUOUS
 62
7
 10
228.4105182328
 20
64.6025214537
 11
228.4105182328
 21
220.1025214537
  0
LINE
  8
1
  6
CONTINUOUS
 62
7
 10
159.4105182328
 20
220.1025214537
 11
159.4105182328
 21
64.6025214537
  0
ARC
  8
1
  6
CONTINUOUS
 62
7
 10
165.4105182328
 20
202.1025214537
 40
1.0000000000
 50
90.0000000000
 51
180.0000000000
  0
ARC
  8
1
  6
CONTINUOUS
 62
7
 10
222.4105182328
 20
202.1025214537
 40
1.0000000000
 50
0.0000000000
 51
90.0000000000
  0
ARC
  8
1
  6
CONTINUOUS
 62
7
 10
222.4105182328
 20
75.6025214537
 40
1.0000000000
 50
270.0000000000
 51
0.0000000000
  0
ARC
  8
1
  6
CONTINUOUS
 62
7
 10
165.4105182328
 20
75.6025214537
 40
1.0000000000
 50
180.0000000000
 51
270.0000000000
  0
LINE
  8
1
  6
HIDDEN
 62
3
 10
219.9105182328
 20
182.3525214537
 11
219.9105182328
 21
192.3525214537
  0
ARC
  8
1
  6
CONTINUOUS
 62
7
 10
165.4105182328
 20
202.1025214537
 40
3.0000000000
 50
90.0000000000
 51
180.0000000000
  0
ARC
  8
1
  6
CONTINUOUS
 62
7
 10
222.4105182328
 20
202.1025214537
 40
3.0000000000
 50
0.0000000000
 51
90.0000000000
  0
ARC
  8
1
  6
CONTINUOUS
 62
7
 10
222.4105182328
 20
75.6025214537
 40
3.0000000000
 50
270.0000000000
 51
0.0000000000
  0
ARC
  8
1
  6
CONTINUOUS
 62
7
 10
165.4105182328
 20
75.6025214537
 40
3.0000000000
 50
180.0000000000
 51
270.0000000000
  0
LINE
  8
1
  6
DASHDOT
 62
1
 10
230.4105182328
 20
213.1025214537
 11
157.4105182328
 21
213.1025214537
  0
LINE
  8
1
  6
CONTINUOUS
 62
7
 10
228.4105182328
 20
64.6025214537
 11
159.4105182328
 21
64.6025214537
  0
LINE
  8
1
  6
CONTINUOUS
 62
7
 10
160.4105182328
 20
65.6025214537
 11
227.4105182328
 21
65.6025214537
  0
LINE
  8
1
  6
CONTINUOUS
 62
7
 10
160.4105182328
 20
207.1025214537
 11
160.4105182328
 21
219.1025214537
  0
LINE
  8
1
  6
CONTINUOUS
 62
7
 10
160.4105182328
 20
219.1025214537
 11
165.4105182328
 21
219.1025214537
  0
LINE
  8
1
  6
CONTINUOUS
 62
7
 10
165.4105182328
 20
219.1025214537
 11
165.4105182328
 21
207.1025214537
  0
LINE
  8
1
  6
CONTINUOUS
 62
7
 10
165.4105182328
 20
207.1025214537
 11
160.4105182328
 21
207.1025214537
  0
LINE
  8
1
  6
CONTINUOUS
 62
7
 10
227.4105182328
 20
219.1025214537
 11
222.4105182328
 21
219.1025214537
  0
LINE
  8
1
  6
CONTINUOUS
 62
7
 10
222.4105182328
 20
219.1025214537
 11
222.4105182328
 21
207.1025214537
  0
LINE
  8
1
  6
CONTINUOUS
 62
7
 10
222.4105182328
 20
207.1025214537
 11
227.4105182328
 21
207.1025214537
  0
LINE
  8
1
  6
CONTINUOUS
 62
7
 10
227.4105182328
 20
207.1025214537
 11
227.4105182328
 21
219.1025214537
  0
LINE
  8
1
  6
CONTINUOUS
 62
7
 10
222.4105182328
 20
207.1025214537
 11
222.4105182328
 21
206.1025214537
  0
LINE
  8
1
  6
CONTINUOUS
 62
7
 10
222.4105182328
 20
206.1025214537
 11
165.4105182328
 21
206.1025214537
  0
LINE
  8
1
  6
CONTINUOUS
 62
7
 10
165.4105182328
 20
206.1025214537
 11
165.4105182328
 21
207.1025214537
  0
LINE
  8
1
  6
CONTINUOUS
 62
7
 10
228.4105182328
 20
220.1025214537
 11
159.4105182328
 21
220.1025214537
  0
CIRCLE
  8
1
  6
HIDDEN
 62
3
 10
193.9105182328
 20
197.3525214537
 40
1.6500000000
  0
CIRCLE
  8
1
  6
HIDDEN
 62
3
 10
193.9105182328
 20
80.3525214537
 40
2.0000000000
  0
CIRCLE
  8
1
  6
HIDDEN
 62
3
 10
193.9105182328
 20
80.3525214537
 40
1.6500000000
  0
CIRCLE
  8
1
  6
HIDDEN
 62
7
 10
193.9105182328
 20
69.1025214537
 40
2.0000000000
  0
CIRCLE
  8
1
  6
CONTINUOUS
 62
7
 10
193.9105182328
 20
69.1025214537
 40
1.6500000000
  0
INSERT
  8
5
  6
CONTINUOUS
 62
7
  2
S0
 10
0.0000000000
 20
0.0000000000
  0
TEXT
  8
5
  6
CONTINUOUS
 62
7
 10
349.684277
 20
5.000000
 40
6.000000
  1
M0051A067B
 41
0.765697
 50
0.000000
 51
0.000000
 72
   5
 73
   0
 11
379.684277
 21
5.000000
  0
TEXT
  8
5
  6
CONTINUOUS
 62
7
 10
293.500000
 20
10.750000
 40
3.000000
  1
Yamada
 41
0.779221
 50
0.000000
 51
0.000000
 72
   5
 73
   0
 11
302.500000
 21
10.750000
  0
TEXT
  8
5
  6
CONTINUOUS
 62
7
 10
304.500000
 20
10.750000
 40
3.000000
  1
Yamada
 41
0.779221
 50
0.000000
 51
0.000000
 72
   5
 73
   0
 11
313.500000
 21
10.750000
  0
TEXT
  8
1
  6
CONTINUOUS
 62
7
 10
178.408984
 20
56.344007
 40
4.000000
  1
内 部 図
 41
0.854701
 50
0.000000
 51
0.000000
 72
   5
 73
   0
 11
194.408984
 21
56.344007
  0
DIMENSION
  8
1
  6
CONTINUOUS
 62
5
  2
*D0
 10
111.4661466639
 20
98.7193009011
 11
119.7161466639
 21
101.4693009011
  70
0
 13
127.9661466639
 23
93.8244525436
 14
111.4661466639
 24
93.8244525436
 50
0.000000
  0
CIRCLE
  8
1
  6
CONTINUOUS
 62
5
 10
137.4661466639
 20
187.3525214537
 40
2.0000000000
  0
LINE
  8
1
  6
CONTINUOUS
 62
5
 10
135.9661466638
 20
187.3525214537
 11
138.9661466638
 21
187.3525214537
  0
LINE
  8
1
  6
CONTINUOUS
 62
5
 10
136.4661466638
 20
186.6025214537
 11
138.4661466638
 21
186.6025214537
  0
LINE
  8
1
  6
CONTINUOUS
 62
5
 10
136.9661466638
 20
185.8525214537
 11
137.9661466638
 21
185.8525214537
  0
LINE
  8
1
  6
CONTINUOUS
 62
5
 10
137.4661466639
 20
187.3525214537
 11
137.4661466638
 21
188.8525214537
  0
LINE
  8
1
  6
HIDDEN
 62
3
 10
219.9105182328
 20
182.3525214537
 11
216.9105182328
 21
182.3525214537
  0
LINE
  8
1
  6
HIDDEN
 62
3
 10
216.9105182328
 20
182.3525214537
 11
216.9105182328
 21
192.3525214537
  0
LINE
  8
1
  6
CONTINUOUS
 62
7
 10
133.4661466639
 20
192.3525214537
 11
148.4661466639
 21
192.3525214537
  0
LINE
  8
1
  6
CONTINUOUS
 62
7
 10
148.4661466639
 20
192.3525214537
 11
148.4661466639
 21
182.3525214537
  0
LINE
  8
1
  6
CONTINUOUS
 62
7
 10
148.4661466639
 20
182.3525214537
 11
133.4661466639
 21
182.3525214537
  0
CIRCLE
  8
1
  6
CONTINUOUS
 62
7
 10
143.4661466639
 20
187.3525214537
 40
2.0000000000
  0
CIRCLE
  8
1
  6
HIDDEN
 62
7
 10
143.4661466639
 20
187.3525214537
 40
2.5000000000
  0
CIRCLE
  8
1
  6
HIDDEN
 62
5
 10
137.4661466639
 20
90.3525214537
 40
2.0000000000
  0
LINE
  8
1
  6
HIDDEN
 62
5
 10
135.9661466638
 20
90.3525214537
 11
138.9661466638
 21
90.3525214537
  0
LINE
  8
1
  6
HIDDEN
 62
5
 10
136.4661466638
 20
89.6025214537
 11
138.4661466638
 21
89.6025214537
  0
LINE
  8
1
  6
HIDDEN
 62
5
 10
136.9661466638
 20
88.8525214537
 11
137.9661466638
 21
88.8525214537
  0
LINE
  8
1
  6
HIDDEN
 62
5
 10
137.4661466639
 20
90.3525214537
 11
137.4661466638
 21
91.8525214537
  0
LINE
  8
1
  6
CONTINUOUS
 62
7
 10
133.4661466639
 20
95.3525214537
 11
148.4661466639
 21
95.3525214537
  0
LINE
  8
1
  6
CONTINUOUS
 62
7
 10
148.4661466639
 20
95.3525214537
 11
148.4661466639
 21
85.3525214537
  0
LINE
  8
1
  6
CONTINUOUS
 62
7
 10
148.4661466639
 20
85.3525214537
 11
133.4661466639
 21
85.3525214537
  0
CIRCLE
  8
1
  6
CONTINUOUS
 62
7
 10
143.4661466639
 20
90.3525214537
 40
2.0000000000
  0
CIRCLE
  8
1
  6
HIDDEN
 62
7
 10
143.4661466639
 20
90.3525214537
 40
2.5000000000
  0
DIMENSION
  8
1
  6
CONTINUOUS
 62
5
  2
*D1
 10
20.9779016700
 20
36.5484212565
 11
18.2279016700
 21
32.0484212565
  70
0
 13
27.7645106558
 23
27.5484212565
 14
28.7645106558
 24
36.5484212565
 50
90.000000
  0
DIMENSION
  8
1
  6
CONTINUOUS
 62
5
  2
*D2
 10
20.7383253733
 20
51.5484212565
 11
17.9883253733
 21
44.2984212565
  70
0
 13
29.7645106558
 23
37.0484212565
 14
36.2645106558
 24
51.5484212565
 50
90.000000
  0
DIMENSION
  8
1
  6
CONTINUOUS
 62
5
  2
*D3
 10
13.2316014101
 20
51.5484212565
 11
10.4816014101
 21
39.5484212565
  70
0
 13
27.7645106558
 23
27.5484212565
 14
36.2645106558
 24
51.5484212565
 50
90.000000
  0
LINE
  8
1
  6
CONTINUOUS
 62
7
 10
36.2645106558
 20
27.5484212565
 11
36.2645106558
 21
12.5484212565
  0
LINE
  8
1
  6
CONTINUOUS
 62
7
 10
36.2645106558
 20
12.5484212565
 11
39.2645106558
 21
12.5484212565
  0
LINE
  8
1
  6
CONTINUOUS
 62
7
 10
39.2645106558
 20
12.5484212565
 11
39.2645106558
 21
27.5484212565
  0
LINE
  8
1
  6
CONTINUOUS
 62
7
 10
88.2645106558
 20
27.5484212565
 11
88.2645106558
 21
12.5484212565
  0
LINE
  8
1
  6
CONTINUOUS
 62
7
 10
88.2645106558
 20
12.5484212565
 11
85.2645106558
 21
12.5484212565
  0
LINE
  8
1
  6
CONTINUOUS
 62
7
 10
85.2645106558
 20
12.5484212565
 11
85.2645106558
 21
27.5484212565
  0
LINE
  8
1
  6
HIDDEN
 62
3
 10
167.9105182328
 20
85.3525214537
 11
170.9105182328
 21
85.3525214537
  0
LINE
  8
1
  6
HIDDEN
 62
3
 10
218.9105182328
 20
85.3525214537
 11
170.9105182328
 21
85.3525214537
  0
LINE
  8
1
  6
HIDDEN
 62
3
 10
167.9105182328
 20
95.3525214537
 11
170.9105182328
 21
95.3525214537
  0
LINE
  8
3
  6
HIDDEN
 62
3
 10
170.9105182328
 20
95.3525214537
 11
170.9105182328
 21
85.3525214537
  0
LINE
  8
1
  6
HIDDEN
 62
3
 10
167.9105182328
 20
95.3525214537
 11
167.9105182328
 21
85.3525214537
  0
LINE
  8
1
  6
HIDDEN
 62
3
 10
219.9105182328
 20
86.3525214537
 11
219.9105182328
 21
182.3525214537
  0
LINE
  8
1
  6
HIDDEN
 62
3
 10
167.9105182328
 20
191.3525214537
 11
167.9105182328
 21
95.3525214537
  0
LINE
  8
2
  6
CONTINUOUS
 62
5
 10
115.6954338248
 20
214.7453462552
 11
109.4661466639
 21
192.4775214537
  0
LINE
  8
2
  6
HIDDEN
 62
5
 10
114.7351177630
 20
203.8525214537
 11
111.4661466639
 21
192.2022453229
  0
LINE
  8
2
  6
HIDDEN
 62
5
 10
111.4661466639
 20
192.2022453229
 11
111.4661466639
 21
73.8525214537
  0
DIMENSION
  8
1
  6
CONTINUOUS
 62
5
  2
*D4
 10
17.2916228022
 20
64.6025214537
 11
13.7916228022
 21
142.3525214537
  70
0
 13
27.7645106558
 23
220.1025214537
 14
27.7645106558
 24
64.6025214537
 50
90.000000
  0
DIMENSION
  8
1
  6
CONTINUOUS
 62
5
  2
*D5
 10
96.7645106558
 20
224.0648547044
 11
62.2645106558
 21
227.5648547044
  70
0
 13
27.7645106558
 23
220.1025214537
 14
96.7645106558
 24
220.1025214537
 50
0.000000
  0
LINE
  8
2
  6
CONTINUOUS
 62
5
 10
31.5145106558
 20
37.0484212565
 11
31.5145106558
 21
36.0484212565
  0
LINE
  8
2
  6
CONTINUOUS
 62
5
 10
31.5145106558
 20
36.0484212565
 11
32.0145106558
 21
36.0484212565
  0
LINE
  8
2
  6
CONTINUOUS
 62
5
 10
32.0145106558
 20
36.0484212565
 11
32.0145106558
 21
37.0484212565
  0
LINE
  8
2
  6
CONTINUOUS
 62
5
 10
93.0145106558
 20
37.0484212565
 11
93.0145106558
 21
36.0484212565
  0
LINE
  8
2
  6
CONTINUOUS
 62
5
 10
93.0145106558
 20
36.0484212565
 11
92.5145106558
 21
36.0484212565
  0
LINE
  8
2
  6
CONTINUOUS
 62
5
 10
92.5145106558
 20
36.0484212565
 11
92.5145106558
 21
37.0484212565
  0
ARC
  8
1
  6
HIDDEN
 62
3
 10
168.9105182328
 20
191.3525214537
 40
1.0000000000
 50
90.0000000000
 51
180.0000000000
  0
ARC
  8
1
  6
HIDDEN
 62
3
 10
218.9105182328
 20
86.3525214537
 40
1.0000000000
 50
270.0000000000
 51
0.0000000000
  0
CIRCLE
  8
1
  6
CONTINUOUS
 62
7
 10
62.2645106558
 20
69.1025214537
 40
4.0000000000
  0
LINE
  8
1
  6
CONTINUOUS
 62
7
 10
60.4967437029
 20
70.8702884066
 11
64.0322776088
 21
67.3347545007
  0
LINE
  8
1
  6
CONTINUOUS
 62
7
 10
60.4967437029
 20
67.3347545007
 11
64.0322776088
 21
70.8702884066
  0
CIRCLE
  8
1
  6
CONTINUOUS
 62
7
 10
62.2645106558
 20
69.1025214537
 40
3.5000000000
  0
POINT
  8
1
  6
CONTINUOUS
 62
7
 10
62.2645106558
 20
51.5484212565
  0
LINE
  8
1
  6
CONTINUOUS
 62
7
 10
58.7645106558
 20
51.5484212586
 11
65.7645106558
 21
51.5484212543
  0
LINE
  8
1
  6
CONTINUOUS
 62
7
 10
61.4478439892
 20
54.2317545903
 11
63.0811773225
 21
54.2317545893
  0
ARC
  8
1
  6
CONTINUOUS
 62
7
 10
61.4478439892
 20
51.5484212570
 40
2.6833333333
 50
90.0000000000
 51
179.9999999648
  0
ARC
  8
1
  6
CONTINUOUS
 62
7
 10
63.0811773225
 20
51.5484212560
 40
2.6833333333
 50
359.9999999648
 51
90.0000000000
  0
POINT
  8
1
  6
CONTINUOUS
 62
7
 10
62.2645106558
 20
51.5484212565
  0
POINT
  8
1
  6
CONTINUOUS
 62
7
 10
62.2645106558
 20
51.5484212565
  0
POINT
  8
1
  6
CONTINUOUS
 62
7
 10
109.4661466639
 20
69.1025214537
  0
LINE
  8
1
  6
CONTINUOUS
 62
7
 10
109.4690741866
 20
65.5995939289
 11
109.4690741909
 21
72.5995939289
  0
LINE
  8
1
  6
CONTINUOUS
 62
7
 10
106.7857408549
 20
68.2829272622
 11
106.7857408559
 21
69.9162605955
  0
ARC
  8
1
  6
CONTINUOUS
 62
7
 10
109.4690741882
 20
68.2829272622
 40
2.6833333333
 50
180.0000000000
 51
269.9999999648
  0
ARC
  8
1
  6
CONTINUOUS
 62
7
 10
109.4690741892
 20
69.9162605955
 40
2.6833333333
 50
89.9999999648
 51
180.0000000000
  0
POINT
  8
1
  6
CONTINUOUS
 62
7
 10
109.4661466639
 20
69.1025214537
  0
POINT
  8
1
  6
CONTINUOUS
 62
7
 10
109.4661466639
 20
69.1025214537
  0
CIRCLE
  8
3
  6
CONTINUOUS
 62
6
 10
193.9105182328
 20
197.3525214536
 40
3.9000000000
  0
LINE
  8
3
  6
CONTINUOUS
 62
6
 10
192.1869454536
 20
199.0760942328
 11
195.6340910119
 21
195.6289486745
  0
LINE
  8
3
  6
CONTINUOUS
 62
6
 10
192.1869454536
 20
195.6289486745
 11
195.6340910119
 21
199.0760942328
  0
CIRCLE
  8
3
  6
CONTINUOUS
 62
6
 10
193.9105182328
 20
197.3525214536
 40
3.4125000000
  0
CIRCLE
  8
3
  6
CONTINUOUS
 62
6
 10
193.9105182328
 20
80.3525214537
 40
3.9000000000
  0
LINE
  8
3
  6
CONTINUOUS
 62
6
 10
192.1869454536
 20
82.0760942328
 11
195.6340910119
 21
78.6289486745
  0
LINE
  8
3
  6
CONTINUOUS
 62
6
 10
192.1869454536
 20
78.6289486745
 11
195.6340910119
 21
82.0760942328
  0
CIRCLE
  8
3
  6
CONTINUOUS
 62
6
 10
193.9105182328
 20
80.3525214537
 40
3.4125000000
  0
INSERT
  8
5
  6
CONTINUOUS
 62
7
  2
S1
 10
312.9235759729
 20
221.9463679840
  0
LINE
  8
5
  6
CONTINUOUS
 62
6
 10
13.5000000000
 20
254.5000000000
 11
13.5000000000
 21
279.5000000000
  0
LINE
  8
5
  6
CONTINUOUS
 62
6
 10
25.5000000000
 20
254.5000000000
 11
25.5000000000
 21
279.5000000000
  0
LINE
  8
5
  6
CONTINUOUS
 62
6
 10
90.0000000000
 20
254.5000000000
 11
90.0000000000
 21
279.5000000000
  0
LINE
  8
5
  6
CONTINUOUS
 62
6
 10
99.0000000000
 20
279.5000000000
 11
99.0000000000
 21
254.5000000000
  0
TEXT
  8
5
  6
CONTINUOUS
 62
6
 10
16.534500
 20
255.500000
 40
3.000000
  1
Date
 41
0.787649
 50
0.000000
 51
0.000000
 72
   5
 73
   0
 11
22.465500
 21
255.500000
  0
TEXT
  8
5
  6
CONTINUOUS
 62
6
 10
6.292500
 20
255.500000
 40
3.000000
  1
Rev.
 41
0.719124
 50
0.000000
 51
0.000000
 72
   5
 73
   0
 11
11.707500
 21
255.500000
  0
TEXT
  8
5
  6
CONTINUOUS
 62
6
 10
27.000000
 20
255.500000
 40
3.000000
  1
Content
 41
0.746681
 50
0.000000
 51
0.000000
 72
   5
 73
   0
 11
37.125000
 21
255.500000
  0
TEXT
  8
5
  6
CONTINUOUS
 62
6
 10
90.972000
 20
255.500000
 40
3.000000
  1
Name
 41
0.937052
 50
0.000000
 51
0.000000
 72
   5
 73
   0
 11
98.028000
 21
255.500000
  0
LINE
  8
5
  6
CONTINUOUS
 62
6
 10
4.5000000000
 20
259.5000000000
 11
99.0000000000
 21
259.5000000000
  0
LINE
  8
5
  6
CONTINUOUS
 62
6
 10
4.5000000000
 20
264.5000000000
 11
99.0000000000
 21
264.5000000000
  0
LINE
  8
5
  6
CONTINUOUS
 62
6
 10
4.5000000000
 20
269.5000000000
 11
99.0000000000
 21
269.5000000000
  0
LINE
  8
5
  6
CONTINUOUS
 62
6
 10
4.5000000000
 20
274.5000000000
 11
99.0000000000
 21
274.5000000000
  0
LINE
  8
5
  6
CONTINUOUS
 62
6
 10
4.5000000000
 20
254.5000000000
 11
99.0000000000
 21
254.5000000000
  0
POINT
  8
5
  6
CONTINUOUS
 62
6
 10
9.0000000000
 20
262.0000000000
  0
POINT
  8
5
  6
CONTINUOUS
 62
6
 10
9.0000000000
 20
267.0000000000
  0
POINT
  8
5
  6
CONTINUOUS
 62
6
 10
9.0000000000
 20
272.0000000000
  0
POINT
  8
5
  6
CONTINUOUS
 62
6
 10
9.0000000000
 20
277.0000000000
  0
POINT
  8
5
  6
CONTINUOUS
 62
6
 10
19.5000000000
 20
277.0000000000
  0
POINT
  8
5
  6
CONTINUOUS
 62
6
 10
19.5000000000
 20
272.0000000000
  0
POINT
  8
5
  6
CONTINUOUS
 62
6
 10
19.5000000000
 20
267.0000000000
  0
POINT
  8
5
  6
CONTINUOUS
 62
6
 10
19.5000000000
 20
262.0000000000
  0
POINT
  8
5
  6
CONTINUOUS
 62
6
 10
94.5000000000
 20
262.0000000000
  0
POINT
  8
5
  6
CONTINUOUS
 62
6
 10
94.5000000000
 20
267.0000000000
  0
POINT
  8
5
  6
CONTINUOUS
 62
6
 10
94.5000000000
 20
272.0000000000
  0
POINT
  8
5
  6
CONTINUOUS
 62
6
 10
94.5000000000
 20
277.0000000000
  0
POINT
  8
5
  6
CONTINUOUS
 62
6
 10
25.5000000000
 20
277.0000000000
  0
POINT
  8
5
  6
CONTINUOUS
 62
6
 10
25.5000000000
 20
272.0000000000
  0
POINT
  8
5
  6
CONTINUOUS
 62
6
 10
25.5000000000
 20
267.0000000000
  0
POINT
  8
5
  6
CONTINUOUS
 62
6
 10
25.5000000000
 20
262.0000000000
  0
INSERT
  8
1
  6
CONTINUOUS
 62
5
  2
BALN0
 10
65.1092980532
 20
67.0636039311
  0
TEXT
  8
5
  6
CONTINUOUS
 62
7
 10
338.923576
 20
247.946368
 40
3.000000
  1
M4×8小ワｾﾑｽ(ﾊﾟﾈﾙ固定用)
 41
0.833177
 50
0.000000
 51
0.000000
 72
   5
 73
   0
 11
376.141576
 21
247.946368
  0
TEXT
  8
5
  6
CONTINUOUS
 62
7
 10
318.923576
 20
247.946368
 40
3.000000
  1
添付品ﾋﾞｽ
 41
0.822804
 50
0.000000
 51
0.000000
 72
   5
 73
   0
 11
332.129576
 21
247.946368
  0
TEXT
  8
5
  6
CONTINUOUS
 62
7
 10
394.548576
 20
247.696368
 40
3.500000
  1
2
 41
1.000000
 50
0.000000
 51
0.000000
 72
   5
 73
   0
 11
396.298576
 21
247.696368
  0
LINE
  8
5
  6
CONTINUOUS
 62
6
 10
377.9235759729
 20
256.9463679840
 11
377.9235759729
 21
251.9463679840
  0
DIMENSION
  8
1
  6
CONTINUOUS
 62
5
  2
*D6
 10
142.4822443727
 20
88.0542751045
 11
140.9380756799
 21
91.4348139740
  70
3
 15
144.4500489552
 25
92.6507678028
  0
LINE
  8
5
  6
CONTINUOUS
 62
6
 10
377.9235759729
 20
226.9463679840
 11
337.9235759729
 21
226.9463679840
  0
TEXT
  8
5
  6
CONTINUOUS
 62
7
 10
313.673576
 20
222.696368
 40
3.500000
  1
10
 41
0.854701
 50
0.000000
 51
0.000000
 72
   5
 73
   0
 11
317.173576
 21
222.696368
  0
LINE
  8
5
  6
CONTINUOUS
 62
6
 10
312.9235759729
 20
216.9463679840
 11
312.9235759729
 21
221.9463679840
  0
LINE
  8
5
  6
CONTINUOUS
 62
6
 10
317.9235759729
 20
216.9463679840
 11
312.9235759729
 21
216.9463679840
  0
LINE
  8
5
  6
CONTINUOUS
 62
6
 10
317.9235759729
 20
221.9463679840
 11
317.9235759729
 21
216.9463679840
  0
LINE
  8
5
  6
CONTINUOUS
 62
6
 10
337.9235759729
 20
216.9463679840
 11
317.9235759729
 21
216.9463679840
  0
LINE
  8
5
  6
CONTINUOUS
 62
6
 10
337.9235759729
 20
221.9463679840
 11
337.9235759729
 21
216.9463679840
  0
LINE
  8
5
  6
CONTINUOUS
 62
6
 10
377.9235759729
 20
221.9463679840
 11
377.9235759729
 21
216.9463679840
  0
LINE
  8
5
  6
CONTINUOUS
 62
6
 10
392.9235759729
 20
221.9463679840
 11
392.9235759729
 21
216.9463679840
  0
LINE
  8
5
  6
CONTINUOUS
 62
6
 10
397.9235759729
 20
221.9463679840
 11
397.9235759729
 21
216.9463679840
  0
LINE
  8
5
  6
CONTINUOUS
 62
6
 10
397.9235759729
 20
216.9463679840
 11
392.9235759729
 21
216.9463679840
  0
LINE
  8
5
  6
CONTINUOUS
 62
6
 10
392.9235759729
 20
216.9463679840
 11
377.9235759729
 21
216.9463679840
  0
LINE
  8
5
  6
CONTINUOUS
 62
6
 10
312.9235759728
 20
211.9463679840
 11
312.9235759728
 21
216.9463679840
  0
LINE
  8
5
  6
CONTINUOUS
 62
6
 10
317.9235759728
 20
211.9463679840
 11
312.9235759728
 21
211.9463679840
  0
LINE
  8
5
  6
CONTINUOUS
 62
6
 10
317.9235759728
 20
216.9463679840
 11
317.9235759728
 21
211.9463679840
  0
LINE
  8
5
  6
CONTINUOUS
 62
6
 10
337.9235759728
 20
211.9463679840
 11
317.9235759728
 21
211.9463679840
  0
LINE
  8
5
  6
CONTINUOUS
 62
6
 10
337.9235759728
 20
216.9463679840
 11
337.9235759728
 21
211.9463679840
  0
LINE
  8
5
  6
CONTINUOUS
 62
6
 10
377.9235759728
 20
216.9463679840
 11
377.9235759728
 21
211.9463679840
  0
LINE
  8
5
  6
CONTINUOUS
 62
6
 10
392.9235759728
 20
216.9463679840
 11
392.9235759728
 21
211.9463679840
  0
LINE
  8
5
  6
CONTINUOUS
 62
6
 10
397.9235759728
 20
216.9463679840
 11
397.9235759728
 21
211.9463679840
  0
LINE
  8
5
  6
CONTINUOUS
 62
6
 10
397.9235759728
 20
211.9463679840
 11
392.9235759728
 21
211.9463679840
  0
LINE
  8
5
  6
CONTINUOUS
 62
6
 10
392.9235759728
 20
211.9463679840
 11
377.9235759728
 21
211.9463679840
  0
LINE
  8
5
  6
CONTINUOUS
 62
6
 10
377.9235759728
 20
211.9463679840
 11
337.9235759728
 21
211.9463679840
  0
LINE
  8
5
  6
CONTINUOUS
 62
6
 10
312.9235759727
 20
206.9463679840
 11
312.9235759727
 21
211.9463679840
  0
LINE
  8
5
  6
CONTINUOUS
 62
6
 10
317.9235759727
 20
206.9463679840
 11
312.9235759727
 21
206.9463679840
  0
LINE
  8
5
  6
CONTINUOUS
 62
6
 10
317.9235759727
 20
211.9463679840
 11
317.9235759727
 21
206.9463679840
  0
LINE
  8
5
  6
CONTINUOUS
 62
6
 10
337.9235759727
 20
206.9463679840
 11
317.9235759727
 21
206.9463679840
  0
LINE
  8
5
  6
CONTINUOUS
 62
6
 10
337.9235759727
 20
211.9463679840
 11
337.9235759727
 21
206.9463679840
  0
LINE
  8
5
  6
CONTINUOUS
 62
6
 10
377.9235759727
 20
211.9463679840
 11
377.9235759727
 21
206.9463679840
  0
LINE
  8
5
  6
CONTINUOUS
 62
6
 10
392.9235759727
 20
211.9463679840
 11
392.9235759727
 21
206.9463679840
  0
LINE
  8
5
  6
CONTINUOUS
 62
6
 10
397.9235759727
 20
211.9463679840
 11
397.9235759727
 21
206.9463679840
  0
LINE
  8
5
  6
CONTINUOUS
 62
6
 10
397.9235759727
 20
206.9463679840
 11
392.9235759727
 21
206.9463679840
  0
LINE
  8
5
  6
CONTINUOUS
 62
6
 10
392.9235759727
 20
206.9463679840
 11
377.9235759727
 21
206.9463679840
  0
LINE
  8
5
  6
CONTINUOUS
 62
6
 10
377.9235759727
 20
206.9463679840
 11
337.9235759727
 21
206.9463679840
  0
TEXT
  8
5
  6
CONTINUOUS
 62
7
 10
313.673576
 20
217.696368
 40
3.500000
  1
11
 41
0.854701
 50
0.000000
 51
0.000000
 72
   5
 73
   0
 11
317.173576
 21
217.696368
  0
TEXT
  8
5
  6
CONTINUOUS
 62
7
 10
313.673576
 20
212.696368
 40
3.500000
  1
12
 41
0.854701
 50
0.000000
 51
0.000000
 72
   5
 73
   0
 11
317.173576
 21
212.696368
  0
TEXT
  8
5
  6
CONTINUOUS
 62
7
 10
313.673576
 20
207.696368
 40
3.500000
  1
13
 41
0.854701
 50
0.000000
 51
0.000000
 72
   5
 73
   0
 11
317.173576
 21
207.696368
  0
TEXT
  8
5
  6
CONTINUOUS
 62
7
 10
318.923576
 20
232.946368
 40
3.000000
  1
パネル
 41
0.877246
 50
0.000000
 51
0.000000
 72
   5
 73
   0
 11
327.713576
 21
232.946368
  0
TEXT
  8
5
  6
CONTINUOUS
 62
7
 10
338.923576
 20
232.696368
 40
3.500000
  1
M0051B067B (SPCCt=1.6)
 41
0.754976
 50
0.000000
 51
0.000000
 72
   5
 73
   0
 11
377.423576
 21
232.696368
  0
TEXT
  8
5
  6
CONTINUOUS
 62
7
 10
394.548576
 20
232.696368
 40
3.500000
  1
1
 41
1.000000
 50
0.000000
 51
0.000000
 72
   5
 73
   0
 11
396.298576
 21
232.696368
  0
TEXT
  8
5
  6
CONTINUOUS
 62
7
 10
378.923576
 20
267.946368
 40
3.000000
  1
MADOKA
 41
1.028831
 50
0.000000
 51
0.000000
 72
   5
 73
   0
 11
390.806576
 21
267.946368
  0
TEXT
  8
5
  6
CONTINUOUS
 62
7
 10
378.923576
 20
262.946368
 40
3.000000
  1
MADOKA
 41
1.028831
 50
0.000000
 51
0.000000
 72
   5
 73
   0
 11
390.806576
 21
262.946368
  0
TEXT
  8
5
  6
CONTINUOUS
 62
7
 10
378.923576
 20
232.946368
 40
3.000000
  1
MADOKA
 41
1.028831
 50
0.000000
 51
0.000000
 72
   5
 73
   0
 11
390.806576
 21
232.946368
  0
TEXT
  8
5
  6
CONTINUOUS
 62
7
 10
378.923576
 20
237.946368
 40
3.000000
  1
--
 41
0.854701
 50
0.000000
 51
0.000000
 72
   5
 73
   0
 11
381.923576
 21
237.946368
  0
TEXT
  8
5
  6
CONTINUOUS
 62
7
 10
378.923576
 20
242.946368
 40
3.000000
  1
--
 41
0.854701
 50
0.000000
 51
0.000000
 72
   5
 73
   0
 11
381.923576
 21
242.946368
  0
TEXT
  8
5
  6
CONTINUOUS
 62
7
 10
378.923576
 20
247.946368
 40
3.000000
  1
--
 41
0.854701
 50
0.000000
 51
0.000000
 72
   5
 73
   0
 11
381.923576
 21
247.946368
  0
TEXT
  8
5
  6
CONTINUOUS
 62
7
 10
378.923576
 20
252.946368
 40
3.000000
  1
--
 41
0.854701
 50
0.000000
 51
0.000000
 72
   5
 73
   0
 11
381.923576
 21
252.946368
  0
TEXT
  8
5
  6
CONTINUOUS
 62
7
 10
378.923576
 20
257.946368
 40
3.000000
  1
--
 41
0.854701
 50
0.000000
 51
0.000000
 72
   5
 73
   0
 11
381.923576
 21
257.946368
  0
LINE
  8
3
  6
CONTINUOUS
 62
7
 10
221.1605182328
 20
78.8525214539
 11
221.1605182328
 21
198.8525214535
  0
LINE
  8
3
  6
CONTINUOUS
 62
7
 10
219.1605182328
 20
200.8525214535
 11
168.6605182328
 21
200.8525214539
  0
LINE
  8
3
  6
CONTINUOUS
 62
7
 10
166.6605182328
 20
78.8525214535
 11
166.6605182328
 21
198.8525214539
  0
LINE
  8
3
  6
CONTINUOUS
 62
7
 10
219.1605182328
 20
76.8525214539
 11
168.6605182328
 21
76.8525214535
  0
LINE
  8
5
  6
CONTINUOUS
 62
6
 10
377.9235759729
 20
216.9463679840
 11
337.9235759729
 21
216.9463679840
  0
INSERT
  8
3
  6
CONTINUOUS
 62
5
  2
LTEX0
 10
143.4661466639
 20
87.8525214537
  0
LINE
  8
5
  6
CONTINUOUS
 62
6
 10
312.9235759729
 20
231.9463679840
 11
312.9235759729
 21
236.9463679840
  0
INSERT
  8
3
  6
CONTINUOUS
 62
5
  2
BALN1
 10
110.9395553908
 20
197.7445137344
  0
INSERT
  8
3
  6
CONTINUOUS
 62
5
  2
BALN2
 10
130.9399894366
 20
211.8393700363
  0
INSERT
  8
3
  6
CONTINUOUS
 62
5
  2
BALN3
 10
173.9105182328
 20
197.3525214537
  0
INSERT
  8
3
  6
CONTINUOUS
 62
5
  2
BALN4
 10
193.9105182328
 20
197.3525214537
  0
INSERT
  8
3
  6
CONTINUOUS
 62
5
  2
BALN5
 10
205.2240678788
 20
195.9771255586
  0
TEXT
  8
5
  6
CONTINUOUS
 62
7
 10
348.653069
 20
22.742557
 40
4.200000
  1
Panel Interface
 41
0.641296
 50
0.000000
 51
0.000000
 72
   5
 73
   0
 11
375.264269
 21
22.742557
  0
TEXT
  8
5
  6
CONTINUOUS
 62
7
 10
348.653069
 20
18.542557
 40
4.200000
  1
Type:MCON-001-067
 41
0.803922
 50
0.000000
 51
0.000000
 72
   5
 73
   0
 11
386.537069
 21
18.542557
  0
TEXT
  8
5
  6
CONTINUOUS
 62
7
 10
348.653069
 20
14.342557
 40
4.200000
  1
                      仕様図　1/1
 41
0.558184
 50
0.000000
 51
0.000000
 72
   5
 73
   0
 11
398.494469
 21
14.342557
  0
TEXT
  8
5
  6
CONTINUOUS
 62
7
 10
378.923576
 20
222.946368
 40
3.000000
  1
--
 41
0.854701
 50
0.000000
 51
0.000000
 72
   5
 73
   0
 11
381.923576
 21
222.946368
  0
TEXT
  8
5
  6
CONTINUOUS
 62
7
 10
394.548576
 20
222.696368
 40
3.500000
  1
8
 41
1.000000
 50
0.000000
 51
0.000000
 72
   5
 73
   0
 11
396.298576
 21
222.696368
  0
LINE
  8
4
  6
CONTINUOUS
 62
3
 10
319.0572849682
 20
172.6619743881
 11
372.0572849682
 21
172.6619743881
  0
LINE
  8
4
  6
CONTINUOUS
 62
3
 10
372.0572849682
 20
172.6619743881
 11
372.0572849682
 21
64.6619743881
  0
LINE
  8
4
  6
CONTINUOUS
 62
3
 10
319.0572849682
 20
64.6619743881
 11
319.0572849682
 21
172.6619743881
  0
LINE
  8
4
  6
CONTINUOUS
 62
3
 10
372.0572849682
 20
64.6619743881
 11
319.0572849682
 21
64.6619743881
  0
CIRCLE
  8
4
  6
CONTINUOUS
 62
3
 10
325.5572849682
 20
177.1619743881
 40
1.5000000000
  0
CIRCLE
  8
4
  6
CONTINUOUS
 62
3
 10
365.5572849682
 20
177.1619743881
 40
1.5000000000
  0
CIRCLE
  8
4
  6
CONTINUOUS
 62
3
 10
325.5572849682
 20
60.1619743881
 40
1.5000000000
  0
CIRCLE
  8
4
  6
CONTINUOUS
 62
3
 10
365.5572849682
 20
60.1619743881
 40
1.5000000000
  0
CIRCLE
  8
4
  6
CONTINUOUS
 62
3
 10
345.5572849682
 20
177.1619743881
 40
2.2500000000
  0
CIRCLE
  8
4
  6
CONTINUOUS
 62
3
 10
345.5572849682
 20
60.1619743881
 40
2.2500000000
  0
DIMENSION
  8
4
  6
CONTINUOUS
 62
5
  2
*D7
 10
325.5572849682
 20
183.8554232121
 11
322.3072849682
 21
186.6054232121
  70
0
 13
319.0572849682
 23
172.6619743881
 14
325.5572849682
 24
175.6619743881
 50
0.000000
  0
DIMENSION
  8
4
  6
CONTINUOUS
 62
5
  2
*D8
 10
345.5572849682
 20
183.8554232121
 11
335.5572849682
 21
186.6054232121
  70
0
 13
325.5572849682
 23
175.6619743881
 14
345.5572849682
 24
174.9119743881
 50
0.000000
  0
DIMENSION
  8
4
  6
CONTINUOUS
 62
5
  2
*D9
 10
365.5572849682
 20
183.8554232121
 11
355.5572849682
 21
186.6054232121
  70
0
 13
345.5572849682
 23
174.9119743881
 14
365.5572849682
 24
175.6619743881
 50
0.000000
  0
DIMENSION
  8
4
  6
CONTINUOUS
 62
5
  2
*D10
 10
372.0572849682
 20
183.8554232121
 11
368.8072849682
 21
186.6054232121
  70
0
 13
365.5572849682
 23
175.6619743881
 14
372.0572849682
 24
172.6619743881
 50
0.000000
  0
DIMENSION
  8
4
  6
CONTINUOUS
 62
5
  2
*D11
 10
372.0572849682
 20
190.8554232121
 11
345.5572849682
 21
193.6054232121
  70
0
 13
319.0572849682
 23
172.6619743881
 14
372.0572849682
 24
172.6619743881
 50
0.000000
  0
DIMENSION
  8
4
  6
CONTINUOUS
 62
5
  2
*D12
 10
324.7064153436
 20
178.3972965655
 11
327.8220422934
 21
178.7219020332
  70
3
 15
326.4081545928
 25
175.9266522108
  0
DIMENSION
  8
4
  6
CONTINUOUS
 62
5
  2
*D13
 10
344.1560871308
 20
178.9224131461
 11
347.7089323390
 21
178.8745495228
  70
3
 15
346.9584828056
 25
175.4015356302
  0
TEXT
  8
4
  6
CONTINUOUS
 62
7
 10
322.885309
 20
36.456062
 40
5.000000
  1
パネルカット図
 41
0.872818
 50
0.000000
 51
0.000000
 72
   5
 73
   0
 11
357.885309
 21
36.456062
  0
TEXT
  8
4
  6
CONTINUOUS
 62
7
 10
322.885309
 20
31.456062
 40
5.000000
  1
推奨板厚 t=1.6以上
 41
0.827967
 50
0.000000
 51
0.000000
 72
   5
 73
   0
 11
367.885309
 21
31.456062
  0
LINE
  8
1
  6
HIDDEN
 62
1
 10
380.0572849682
 20
44.4119743881
 11
380.0572849682
 21
199.9119743881
  0
LINE
  8
1
  6
HIDDEN
 62
1
 10
380.0572849682
 20
199.9119743881
 11
311.0572849682
 21
199.9119743881
  0
LINE
  8
1
  6
HIDDEN
 62
1
 10
311.0572849682
 20
199.9119743881
 11
311.0572849682
 21
44.4119743881
  0
LINE
  8
1
  6
HIDDEN
 62
1
 10
380.0572849682
 20
44.4119743881
 11
311.0572849682
 21
44.4119743881
  0
DIMENSION
  8
1
  6
CONTINUOUS
 62
5
  2
*D14
 10
306.8614186851
 20
64.6619743881
 11
304.3614186851
 21
62.4119743881
  70
0
 13
367.0572849682
 23
60.1619743881
 14
319.0572849682
 24
64.6619743881
 50
90.000000
  0
DIMENSION
  8
1
  6
CONTINUOUS
 62
5
  2
*D15
 10
306.8614186851
 20
172.6619743881
 11
304.1114186851
 21
118.6619743881
  70
0
 13
319.0572849682
 23
64.6619743881
 14
319.0572849682
 24
172.6619743881
 50
90.000000
  0
DIMENSION
  8
1
  6
CONTINUOUS
 62
5
  2
*D16
 10
306.8614186851
 20
177.1619743881
 11
304.3614186851
 21
174.9119743881
  70
0
 13
319.0572849682
 23
172.6619743881
 14
367.0572849682
 24
177.1619743881
 50
90.000000
  0
DIMENSION
  8
1
  6
CONTINUOUS
 62
5
  2
*D17
 10
299.8614186851
 20
177.1619743881
 11
297.1114186851
 21
118.6619743881
  70
0
 13
367.0572849682
 23
60.1619743881
 14
367.0572849682
 24
177.1619743881
 50
90.000000
  0
DIMENSION
  8
1
  6
CONTINUOUS
 62
5
  2
*D18
 10
387.7005190311
 20
64.6619743881
 11
384.9505190311
 21
54.5369743881
  70
0
 13
380.0572849682
 23
44.4119743881
 14
372.0572849682
 24
64.6619743881
 50
90.000000
  0
DIMENSION
  8
1
  6
CONTINUOUS
 62
5
  2
*D19
 10
387.7005190311
 20
172.6619743881
 11
384.9505190311
 21
118.6619743881
  70
0
 13
372.0572849682
 23
64.6619743881
 14
372.0572849682
 24
172.6619743881
 50
90.000000
  0
DIMENSION
  8
1
  6
CONTINUOUS
 62
5
  2
*D20
 10
387.7005190311
 20
199.9119743881
 11
384.9505190311
 21
186.2869743881
  70
0
 13
372.0572849682
 23
172.6619743881
 14
380.0572849682
 24
199.9119743881
 50
90.000000
  0
INSERT
  8
1
  6
CONTINUOUS
 62
5
  2
LTEX1
 10
323.9116262976
 20
44.4119743881
  0
TEXT
  8
5
  6
CONTINUOUS
 62
7
 10
338.923576
 20
222.696368
 40
3.500000
  1
M2.6×6 小ワｾﾑｽ
 41
0.800427
 50
0.000000
 51
0.000000
 72
   5
 73
   0
 11
365.173576
 21
222.696368
  0
TEXT
  8
5
  6
CONTINUOUS
 62
7
 10
318.923576
 20
222.946368
 40
3.000000
  1
ﾋﾞｽ
 41
0.815217
 50
0.000000
 51
0.000000
 72
   5
 73
   0
 11
323.423576
 21
222.946368
  0
INSERT
  8
3
  6
CONTINUOUS
 62
7
  2
S2
 10
9.0000000000
 20
262.0000000000
  0
CIRCLE
  8
1
  6
CONTINUOUS
 62
6
 10
193.9105182328
 20
148.8525214537
 40
11.1000000000
  0
LINE
  8
1
  6
CONTINUOUS
 62
6
 10
205.2105182330
 20
163.1525214537
 11
182.6105182328
 21
163.1525214537
  0
LINE
  8
1
  6
CONTINUOUS
 62
6
 10
208.2105182328
 20
137.5525214537
 11
208.2105182328
 21
160.1525214537
  0
LINE
  8
1
  6
CONTINUOUS
 62
6
 10
182.6105182328
 20
134.5525214537
 11
205.2105182330
 21
134.5525214537
  0
LINE
  8
1
  6
CONTINUOUS
 62
6
 10
179.6105182328
 20
137.5525214537
 11
179.6105182328
 21
160.1525214537
  0
ARC
  8
1
  6
CONTINUOUS
 62
6
 10
182.6105182328
 20
160.1525214537
 40
3.0000000000
 50
90.0000000000
 51
180.0000000000
  0
ARC
  8
1
  6
CONTINUOUS
 62
6
 10
205.2105182330
 20
160.1525214537
 40
3.0000000000
 50
359.9999999999
 51
90.0000000000
  0
ARC
  8
1
  6
CONTINUOUS
 62
6
 10
205.2105182330
 20
137.5525214537
 40
3.0000000000
 50
270.0000000000
 51
359.9999999999
  0
ARC
  8
1
  6
CONTINUOUS
 62
6
 10
182.6105182328
 20
137.5525214537
 40
3.0000000000
 50
180.0000000000
 51
270.0000000000
  0
ARC
  8
1
  6
CONTINUOUS
 62
6
 10
193.9105182328
 20
148.8525214537
 40
9.4000000000
 50
100.7293659955
 51
189.5058177355
  0
ARC
  8
1
  6
CONTINUOUS
 62
6
 10
193.9105182328
 20
148.8525214537
 40
9.4000000000
 50
200.4941822645
 51
229.5058177355
  0
ARC
  8
1
  6
CONTINUOUS
 62
6
 10
193.9105182328
 20
148.8525214537
 40
9.4000000000
 50
240.4941822645
 51
299.5058177355
  0
ARC
  8
1
  6
CONTINUOUS
 62
6
 10
193.9105182328
 20
148.8525214537
 40
9.4000000000
 50
310.4941822645
 51
349.5058177355
  0
ARC
  8
1
  6
CONTINUOUS
 62
6
 10
193.9105182328
 20
148.8525214537
 40
9.4000000000
 50
0.4941822645
 51
79.2706340045
  0
ARC
  8
1
  6
CONTINUOUS
 62
6
 10
193.9105182328
 20
148.8525214537
 40
10.4000000000
 50
190.0355017466
 51
199.9644982534
  0
ARC
  8
1
  6
CONTINUOUS
 62
6
 10
193.9105182328
 20
148.8525214537
 40
10.4000000000
 50
230.0355017466
 51
239.9644982534
  0
ARC
  8
1
  6
CONTINUOUS
 62
6
 10
193.9105182328
 20
148.8525214537
 40
10.4000000000
 50
300.0355017466
 51
309.9644982534
  0
ARC
  8
1
  6
CONTINUOUS
 62
6
 10
193.9105182328
 20
148.8525214537
 40
10.4000000000
 50
350.0355017466
 51
359.9644982534
  0
ARC
  8
1
  6
CONTINUOUS
 62
6
 10
193.9105182328
 20
148.8525214537
 40
10.4000000000
 50
80.3127962989
 51
99.6872037011
  0
LINE
  8
1
  6
CONTINUOUS
 62
6
 10
192.1605182328
 20
158.0881860210
 11
192.1605182328
 21
159.1042286286
  0
LINE
  8
1
  6
CONTINUOUS
 62
6
 10
195.6605182328
 20
158.0881860210
 11
195.6605182328
 21
159.1042286286
  0
LINE
  8
1
  6
CONTINUOUS
 62
6
 10
203.1532882533
 20
147.1404460035
 11
204.1536358994
 21
147.0529269249
  0
LINE
  8
1
  6
CONTINUOUS
 62
6
 10
204.3105162363
 20
148.8460773815
 11
203.3101685903
 21
148.9335964601
  0
LINE
  8
1
  6
CONTINUOUS
 62
6
 10
200.5905716445
 20
140.8815186048
 11
200.0146040761
 21
141.7040855396
  0
LINE
  8
1
  6
CONTINUOUS
 62
6
 10
199.1160979648
 20
139.8490810194
 11
198.5401303964
 21
140.6716479542
  0
LINE
  8
1
  6
CONTINUOUS
 62
6
 10
187.2304648210
 20
140.8815186048
 11
187.8064323895
 21
141.7040855396
  0
LINE
  8
1
  6
CONTINUOUS
 62
6
 10
188.7049385008
 20
139.8490810194
 11
189.2809060692
 21
140.6716479542
  0
LINE
  8
1
  6
CONTINUOUS
 62
6
 10
183.6696385690
 20
147.0402345803
 11
184.6395911580
 21
147.3001325933
  0
LINE
  8
1
  6
CONTINUOUS
 62
6
 10
184.1355128501
 20
145.3015680930
 11
185.1054654392
 21
145.5614661060
  0
LINE
  8
1
  6
CONTINUOUS
 62
6
 10
192.9105182328
 20
137.7976582704
 11
192.9105182328
 21
136.4525214537
  0
LINE
  8
1
  6
CONTINUOUS
 62
6
 10
192.9105182328
 20
136.4525214537
 11
194.9105182328
 21
136.4525214537
  0
LINE
  8
1
  6
CONTINUOUS
 62
6
 10
194.9105182328
 20
136.4525214537
 11
194.9105182328
 21
137.7976582704
  0
LINE
  8
1
  6
CONTINUOUS
 62
6
 10
203.9843105848
 20
153.5139276415
 11
205.1492332397
 21
154.1864960499
  0
LINE
  8
1
  6
CONTINUOUS
 62
6
 10
184.8367258807
 20
155.2459784491
 11
183.6718032258
 21
155.9185468575
  0
LINE
  8
1
  6
CONTINUOUS
 62
6
 10
205.1492332397
 20
154.1864960499
 11
204.1492332397
 21
155.9185468575
  0
LINE
  8
1
  6
CONTINUOUS
 62
6
 10
183.6718032258
 20
155.9185468575
 11
182.6718032258
 21
154.1864960499
  0
LINE
  8
1
  6
CONTINUOUS
 62
6
 10
204.1492332397
 20
155.9185468575
 11
202.9843105848
 21
155.2459784491
  0
LINE
  8
1
  6
CONTINUOUS
 62
6
 10
182.6718032258
 20
154.1864960499
 11
183.8367258807
 21
153.5139276415
  0
CIRCLE
  8
1
  6
CONTINUOUS
 62
6
 10
193.9105182328
 20
148.8525214537
 40
8.0000000000
  0
CIRCLE
  8
1
  6
CONTINUOUS
 62
6
 10
193.9105182328
 20
154.8525214537
 40
0.7500000000
  0
CIRCLE
  8
1
  6
CONTINUOUS
 62
6
 10
197.2438515661
 20
154.8525214537
 40
0.7500000000
  0
CIRCLE
  8
1
  6
CONTINUOUS
 62
6
 10
190.5771849328
 20
154.8525214537
 40
0.7500000000
  0
CIRCLE
  8
1
  6
CONTINUOUS
 62
6
 10
188.9105182828
 20
151.8525214537
 40
0.7500000000
  0
CIRCLE
  8
1
  6
CONTINUOUS
 62
6
 10
192.2438516161
 20
151.8525214537
 40
0.7500000000
  0
CIRCLE
  8
1
  6
CONTINUOUS
 62
6
 10
195.5771849494
 20
151.8525214537
 40
0.7500000000
  0
CIRCLE
  8
1
  6
CONTINUOUS
 62
6
 10
198.9105182828
 20
151.8525214537
 40
0.7500000000
  0
CIRCLE
  8
1
  6
CONTINUOUS
 62
6
 10
193.9105182328
 20
148.8525214537
 40
0.7500000000
  0
CIRCLE
  8
1
  6
CONTINUOUS
 62
6
 10
197.2438515661
 20
148.8525214537
 40
0.7500000000
  0
CIRCLE
  8
1
  6
CONTINUOUS
 62
6
 10
190.5771849328
 20
148.8525214537
 40
0.7500000000
  0
CIRCLE
  8
1
  6
CONTINUOUS
 62
6
 10
187.2438516328
 20
148.8525214537
 40
0.7500000000
  0
CIRCLE
  8
1
  6
CONTINUOUS
 62
6
 10
200.5771848328
 20
148.8525214537
 40
0.7500000000
  0
CIRCLE
  8
1
  6
CONTINUOUS
 62
6
 10
193.9105182328
 20
142.8525214537
 40
0.7500000000
  0
CIRCLE
  8
1
  6
CONTINUOUS
 62
6
 10
197.2438515661
 20
142.8525214537
 40
0.7500000000
  0
CIRCLE
  8
1
  6
CONTINUOUS
 62
6
 10
190.5771849328
 20
142.8525214537
 40
0.7500000000
  0
CIRCLE
  8
1
  6
CONTINUOUS
 62
6
 10
188.9105182828
 20
145.8525214537
 40
0.7500000000
  0
CIRCLE
  8
1
  6
CONTINUOUS
 62
6
 10
192.2438516161
 20
145.8525214537
 40
0.7500000000
  0
CIRCLE
  8
1
  6
CONTINUOUS
 62
6
 10
195.5771849494
 20
145.8525214537
 40
0.7500000000
  0
CIRCLE
  8
1
  6
CONTINUOUS
 62
6
 10
198.9105182828
 20
145.8525214537
 40
0.7500000000
  0
CIRCLE
  8
1
  6
HIDDEN
 62
7
 10
205.4105182328
 20
160.3525214537
 40
1.3000000000
  0
CIRCLE
  8
1
  6
HIDDEN
 62
7
 10
205.4105182328
 20
137.3525214537
 40
1.3000000000
  0
CIRCLE
  8
1
  6
HIDDEN
 62
7
 10
182.4105182328
 20
137.3525214537
 40
1.3000000000
  0
CIRCLE
  8
1
  6
HIDDEN
 62
7
 10
182.4105182328
 20
160.3525214537
 40
1.3000000000
  0
CIRCLE
  8
1
  6
CONTINUOUS
 62
6
 10
193.9105182328
 20
108.8525214537
 40
11.1000000000
  0
LINE
  8
1
  6
CONTINUOUS
 62
6
 10
205.2105182330
 20
123.1525214537
 11
182.6105182328
 21
123.1525214537
  0
LINE
  8
1
  6
CONTINUOUS
 62
6
 10
208.2105182328
 20
97.5525214537
 11
208.2105182328
 21
120.1525214537
  0
LINE
  8
1
  6
CONTINUOUS
 62
6
 10
182.6105182328
 20
94.5525214537
 11
205.2105182330
 21
94.5525214537
  0
LINE
  8
1
  6
CONTINUOUS
 62
6
 10
179.6105182328
 20
97.5525214537
 11
179.6105182328
 21
120.1525214537
  0
ARC
  8
1
  6
CONTINUOUS
 62
6
 10
182.6105182328
 20
120.1525214537
 40
3.0000000000
 50
90.0000000000
 51
180.0000000000
  0
ARC
  8
1
  6
CONTINUOUS
 62
6
 10
205.2105182330
 20
120.1525214537
 40
3.0000000000
 50
359.9999999999
 51
90.0000000000
  0
ARC
  8
1
  6
CONTINUOUS
 62
6
 10
205.2105182330
 20
97.5525214537
 40
3.0000000000
 50
270.0000000000
 51
359.9999999999
  0
ARC
  8
1
  6
CONTINUOUS
 62
6
 10
182.6105182328
 20
97.5525214537
 40
3.0000000000
 50
180.0000000000
 51
270.0000000000
  0
ARC
  8
1
  6
CONTINUOUS
 62
6
 10
193.9105182328
 20
108.8525214537
 40
9.4000000000
 50
100.7293659955
 51
189.5058177355
  0
ARC
  8
1
  6
CONTINUOUS
 62
6
 10
193.9105182328
 20
108.8525214537
 40
9.4000000000
 50
200.4941822645
 51
229.5058177355
  0
ARC
  8
1
  6
CONTINUOUS
 62
6
 10
193.9105182328
 20
108.8525214537
 40
9.4000000000
 50
240.4941822645
 51
299.5058177355
  0
ARC
  8
1
  6
CONTINUOUS
 62
6
 10
193.9105182328
 20
108.8525214537
 40
9.4000000000
 50
310.4941822645
 51
349.5058177355
  0
ARC
  8
1
  6
CONTINUOUS
 62
6
 10
193.9105182328
 20
108.8525214537
 40
9.4000000000
 50
0.4941822645
 51
79.2706340045
  0
ARC
  8
1
  6
CONTINUOUS
 62
6
 10
193.9105182328
 20
108.8525214537
 40
10.4000000000
 50
190.0355017466
 51
199.9644982534
  0
ARC
  8
1
  6
CONTINUOUS
 62
6
 10
193.9105182328
 20
108.8525214537
 40
10.4000000000
 50
230.0355017466
 51
239.9644982534
  0
ARC
  8
1
  6
CONTINUOUS
 62
6
 10
193.9105182328
 20
108.8525214537
 40
10.4000000000
 50
300.0355017466
 51
309.9644982534
  0
ARC
  8
1
  6
CONTINUOUS
 62
6
 10
193.9105182328
 20
108.8525214537
 40
10.4000000000
 50
350.0355017466
 51
359.9644982534
  0
ARC
  8
1
  6
CONTINUOUS
 62
6
 10
193.9105182328
 20
108.8525214537
 40
10.4000000000
 50
80.3127962989
 51
99.6872037011
  0
LINE
  8
1
  6
CONTINUOUS
 62
6
 10
192.1605182328
 20
118.0881860210
 11
192.1605182328
 21
119.1042286286
  0
LINE
  8
1
  6
CONTINUOUS
 62
6
 10
195.6605182328
 20
118.0881860210
 11
195.6605182328
 21
119.1042286286
  0
LINE
  8
1
  6
CONTINUOUS
 62
6
 10
203.1532882533
 20
107.1404460035
 11
204.1536358994
 21
107.0529269249
  0
LINE
  8
1
  6
CONTINUOUS
 62
6
 10
204.3105162363
 20
108.8460773815
 11
203.3101685903
 21
108.9335964601
  0
LINE
  8
1
  6
CONTINUOUS
 62
6
 10
200.5905716445
 20
100.8815186048
 11
200.0146040761
 21
101.7040855396
  0
LINE
  8
1
  6
CONTINUOUS
 62
6
 10
199.1160979648
 20
99.8490810194
 11
198.5401303964
 21
100.6716479542
  0
LINE
  8
1
  6
CONTINUOUS
 62
6
 10
187.2304648210
 20
100.8815186048
 11
187.8064323895
 21
101.7040855396
  0
LINE
  8
1
  6
CONTINUOUS
 62
6
 10
188.7049385008
 20
99.8490810194
 11
189.2809060692
 21
100.6716479542
  0
LINE
  8
1
  6
CONTINUOUS
 62
6
 10
183.6696385690
 20
107.0402345803
 11
184.6395911580
 21
107.3001325933
  0
LINE
  8
1
  6
CONTINUOUS
 62
6
 10
184.1355128501
 20
105.3015680930
 11
185.1054654392
 21
105.5614661060
  0
LINE
  8
1
  6
CONTINUOUS
 62
6
 10
192.9105182328
 20
97.7976582704
 11
192.9105182328
 21
96.4525214537
  0
LINE
  8
1
  6
CONTINUOUS
 62
6
 10
192.9105182328
 20
96.4525214537
 11
194.9105182328
 21
96.4525214537
  0
LINE
  8
1
  6
CONTINUOUS
 62
6
 10
194.9105182328
 20
96.4525214537
 11
194.9105182328
 21
97.7976582704
  0
LINE
  8
1
  6
CONTINUOUS
 62
6
 10
203.9843105848
 20
113.5139276415
 11
205.1492332397
 21
114.1864960499
  0
LINE
  8
1
  6
CONTINUOUS
 62
6
 10
184.8367258807
 20
115.2459784491
 11
183.6718032258
 21
115.9185468575
  0
LINE
  8
1
  6
CONTINUOUS
 62
6
 10
205.1492332397
 20
114.1864960499
 11
204.1492332397
 21
115.9185468575
  0
LINE
  8
1
  6
CONTINUOUS
 62
6
 10
183.6718032258
 20
115.9185468575
 11
182.6718032258
 21
114.1864960499
  0
LINE
  8
1
  6
CONTINUOUS
 62
6
 10
204.1492332397
 20
115.9185468575
 11
202.9843105848
 21
115.2459784491
  0
LINE
  8
1
  6
CONTINUOUS
 62
6
 10
182.6718032258
 20
114.1864960499
 11
183.8367258807
 21
113.5139276415
  0
CIRCLE
  8
1
  6
CONTINUOUS
 62
6
 10
193.9105182328
 20
108.8525214537
 40
8.0000000000
  0
CIRCLE
  8
1
  6
CONTINUOUS
 62
6
 10
193.9105182328
 20
114.8525214537
 40
0.7500000000
  0
CIRCLE
  8
1
  6
CONTINUOUS
 62
6
 10
197.2438515661
 20
114.8525214537
 40
0.7500000000
  0
CIRCLE
  8
1
  6
CONTINUOUS
 62
6
 10
190.5771849328
 20
114.8525214537
 40
0.7500000000
  0
CIRCLE
  8
1
  6
CONTINUOUS
 62
6
 10
188.9105182828
 20
111.8525214537
 40
0.7500000000
  0
CIRCLE
  8
1
  6
CONTINUOUS
 62
6
 10
192.2438516161
 20
111.8525214537
 40
0.7500000000
  0
CIRCLE
  8
1
  6
CONTINUOUS
 62
6
 10
195.5771849494
 20
111.8525214537
 40
0.7500000000
  0
CIRCLE
  8
1
  6
CONTINUOUS
 62
6
 10
198.9105182828
 20
111.8525214537
 40
0.7500000000
  0
CIRCLE
  8
1
  6
CONTINUOUS
 62
6
 10
193.9105182328
 20
108.8525214537
 40
0.7500000000
  0
CIRCLE
  8
1
  6
CONTINUOUS
 62
6
 10
197.2438515661
 20
108.8525214537
 40
0.7500000000
  0
CIRCLE
  8
1
  6
CONTINUOUS
 62
6
 10
190.5771849328
 20
108.8525214537
 40
0.7500000000
  0
CIRCLE
  8
1
  6
CONTINUOUS
 62
6
 10
187.2438516328
 20
108.8525214537
 40
0.7500000000
  0
CIRCLE
  8
1
  6
CONTINUOUS
 62
6
 10
200.5771848328
 20
108.8525214537
 40
0.7500000000
  0
CIRCLE
  8
1
  6
CONTINUOUS
 62
6
 10
193.9105182328
 20
102.8525214537
 40
0.7500000000
  0
CIRCLE
  8
1
  6
CONTINUOUS
 62
6
 10
197.2438515661
 20
102.8525214537
 40
0.7500000000
  0
CIRCLE
  8
1
  6
CONTINUOUS
 62
6
 10
190.5771849328
 20
102.8525214537
 40
0.7500000000
  0
CIRCLE
  8
1
  6
CONTINUOUS
 62
6
 10
188.9105182828
 20
105.8525214537
 40
0.7500000000
  0
CIRCLE
  8
1
  6
CONTINUOUS
 62
6
 10
192.2438516161
 20
105.8525214537
 40
0.7500000000
  0
CIRCLE
  8
1
  6
CONTINUOUS
 62
6
 10
195.5771849494
 20
105.8525214537
 40
0.7500000000
  0
CIRCLE
  8
1
  6
CONTINUOUS
 62
6
 10
198.9105182828
 20
105.8525214537
 40
0.7500000000
  0
CIRCLE
  8
1
  6
HIDDEN
 62
7
 10
205.4105182328
 20
120.3525214537
 40
1.3000000000
  0
CIRCLE
  8
1
  6
HIDDEN
 62
7
 10
205.4105182328
 20
97.3525214537
 40
1.3000000000
  0
CIRCLE
  8
1
  6
HIDDEN
 62
7
 10
182.4105182328
 20
97.3525214537
 40
1.3000000000
  0
CIRCLE
  8
1
  6
HIDDEN
 62
7
 10
182.4105182328
 20
120.3525214537
 40
1.3000000000
  0
LINE
  8
3
  6
CONTINUOUS
 62
7
 10
219.1605182328
 20
76.8525214539
 11
221.1605182328
 21
78.8525214539
  0
LINE
  8
3
  6
CONTINUOUS
 62
7
 10
168.6605182328
 20
76.8525214535
 11
166.6605182328
 21
78.8525214535
  0
LINE
  8
3
  6
CONTINUOUS
 62
7
 10
166.6605182328
 20
198.8525214539
 11
168.6605182328
 21
200.8525214539
  0
LINE
  8
3
  6
CONTINUOUS
 62
7
 10
219.1605182328
 20
200.8525214535
 11
221.1605182328
 21
198.8525214535
  0
LINE
  8
1
  6
HIDDEN
 62
3
 10
124.7661466639
 20
163.1525214537
 11
126.3661466639
 21
163.1525214537
  0
LINE
  8
1
  6
HIDDEN
 62
3
 10
126.3661466639
 20
163.1525214537
 11
126.3661466639
 21
134.5525214537
  0
LINE
  8
1
  6
HIDDEN
 62
3
 10
126.3661466639
 20
134.5525214537
 11
124.7661466639
 21
134.5525214537
  0
LINE
  8
1
  6
HIDDEN
 62
3
 10
124.7661466639
 20
134.5525214537
 11
124.7661466639
 21
163.1525214537
  0
LINE
  8
1
  6
HIDDEN
 62
3
 10
124.7661466639
 20
137.7525214537
 11
113.8661466639
 21
137.7525214537
  0
LINE
  8
1
  6
HIDDEN
 62
3
 10
113.8661466639
 20
137.7525214537
 11
113.8661466639
 21
159.9525214537
  0
LINE
  8
1
  6
HIDDEN
 62
3
 10
113.8661466639
 20
159.9525214537
 11
124.7661466639
 21
159.9525214537
  0
LINE
  8
1
  6
HIDDEN
 62
3
 10
126.3661466639
 20
159.3025214537
 11
134.8661466639
 21
159.3025214537
  0
LINE
  8
1
  6
HIDDEN
 62
3
 10
134.8661466639
 20
159.3025214537
 11
134.8661466639
 21
138.4025214537
  0
LINE
  8
1
  6
HIDDEN
 62
3
 10
134.8661466639
 20
138.4025214537
 11
126.3661466639
 21
138.4025214537
  0
LINE
  8
1
  6
HIDDEN
 62
3
 10
134.8661466639
 20
156.3025214537
 11
138.1661466639
 21
156.3025214537
  0
LINE
  8
1
  6
HIDDEN
 62
3
 10
138.1661466639
 20
156.3025214537
 11
138.1661466639
 21
141.4025214537
  0
LINE
  8
1
  6
HIDDEN
 62
3
 10
138.1661466639
 20
141.4025214537
 11
134.8661466639
 21
141.4025214537
  0
LINE
  8
1
  6
HIDDEN
 62
3
 10
117.3661466639
 20
155.0525214537
 11
117.3661466639
 21
154.1864960499
  0
LINE
  8
1
  6
HIDDEN
 62
3
 10
115.3661466639
 20
154.1864960499
 11
115.3661466639
 21
155.0525214537
  0
POLYLINE
  8
1
  6
HIDDEN
 62
3
 66
     1
 70
     1
  0
VERTEX
  8
1
 10
116.3661466639
 20
155.9185468575
 42
0.1021787313
  0
VERTEX
  8
1
 10
115.9189330684
 20
155.8271181230
 42
0.0763279593
  0
VERTEX
  8
1
 10
115.6590398827
 20
155.6648938894
 42
0.0835487363
  0
VERTEX
  8
1
 10
115.4717194729
 20
155.4398197883
 42
0.1321119775
  0
VERTEX
  8
1
 10
115.3661466639
 20
155.0525214537
 42
0.1321119775
  0
VERTEX
  8
1
 10
115.4717194729
 20
154.6652231190
 42
0.0835487363
  0
VERTEX
  8
1
 10
115.6590398827
 20
154.4401490180
 42
0.0763279593
  0
VERTEX
  8
1
 10
115.9189330684
 20
154.2779247844
 42
0.1021787313
  0
VERTEX
  8
1
 10
116.3661466639
 20
154.1864960499
 42
0.1021787313
  0
VERTEX
  8
1
 10
116.8133602595
 20
154.2779247844
 42
0.0763279593
  0
VERTEX
  8
1
 10
117.0732534452
 20
154.4401490180
 42
0.0835487363
  0
VERTEX
  8
1
 10
117.2605738550
 20
154.6652231190
 42
0.1321119775
  0
VERTEX
  8
1
 10
117.3661466639
 20
155.0525214537
 42
0.1321119775
  0
VERTEX
  8
1
 10
117.2605738550
 20
155.4398197883
 42
0.0835487363
  0
VERTEX
  8
1
 10
117.0732534452
 20
155.6648938894
 42
0.0763279593
  0
VERTEX
  8
1
 10
116.8133602595
 20
155.8271181230
 42
0.1021787313
  0
SEQEND
  8
1
  0
POLYLINE
  8
1
  6
HIDDEN
 62
3
 66
     1
 70
     0
  0
VERTEX
  8
1
 62
3
 10
115.3661466639
 20
154.1864960499
 42
0.1625784873
  0
VERTEX
  8
1
 62
3
 10
115.4717194729
 20
153.8857143138
 42
0.0846789103
  0
VERTEX
  8
1
 62
3
 10
115.6590398827
 20
153.7109183675
 42
0.0666626310
  0
VERTEX
  8
1
 62
3
 10
115.9189330684
 20
153.5849325776
 42
0.0806237782
  0
VERTEX
  8
1
 62
3
 10
116.3661466639
 20
153.5139276415
 42
0.0806237782
  0
VERTEX
  8
1
 62
3
 10
116.8133602595
 20
153.5849325776
 42
0.0666626310
  0
VERTEX
  8
1
 62
3
 10
117.0732534452
 20
153.7109183675
 42
0.0846789103
  0
VERTEX
  8
1
 62
3
 10
117.2605738550
 20
153.8857143137
 42
0.1625784873
  0
VERTEX
  8
1
 62
3
 10
117.3661466639
 20
154.1864960499
 42
0.1625784873
  0
SEQEND
  8
1
  0
LINE
  8
1
  6
HIDDEN
 62
3
 10
115.3661466639
 20
137.7525214537
 11
115.3661466639
 21
136.4525214537
  0
LINE
  8
1
  6
HIDDEN
 62
3
 10
115.3661466639
 20
136.4525214537
 11
117.3661466639
 21
136.4525214537
  0
LINE
  8
1
  6
HIDDEN
 62
3
 10
117.3661466639
 20
136.4525214537
 11
117.3661466639
 21
137.7525214537
  0
LINE
  8
1
  6
HIDDEN
 62
3
 10
124.7661466639
 20
123.1525214537
 11
126.3661466639
 21
123.1525214537
  0
LINE
  8
1
  6
HIDDEN
 62
3
 10
126.3661466639
 20
123.1525214537
 11
126.3661466639
 21
94.5525214537
  0
LINE
  8
1
  6
HIDDEN
 62
3
 10
126.3661466639
 20
94.5525214537
 11
124.7661466639
 21
94.5525214537
  0
LINE
  8
1
  6
HIDDEN
 62
3
 10
124.7661466639
 20
94.5525214537
 11
124.7661466639
 21
123.1525214537
  0
LINE
  8
1
  6
HIDDEN
 62
3
 10
124.7661466639
 20
97.7525214537
 11
113.8661466639
 21
97.7525214537
  0
LINE
  8
1
  6
HIDDEN
 62
3
 10
113.8661466639
 20
97.7525214537
 11
113.8661466639
 21
119.9525214537
  0
LINE
  8
1
  6
HIDDEN
 62
3
 10
113.8661466639
 20
119.9525214537
 11
124.7661466639
 21
119.9525214537
  0
LINE
  8
1
  6
HIDDEN
 62
3
 10
126.3661466639
 20
119.3025214537
 11
134.8661466639
 21
119.3025214537
  0
LINE
  8
1
  6
HIDDEN
 62
3
 10
134.8661466639
 20
119.3025214537
 11
134.8661466639
 21
98.4025214537
  0
LINE
  8
1
  6
HIDDEN
 62
3
 10
134.8661466639
 20
98.4025214537
 11
126.3661466639
 21
98.4025214537
  0
LINE
  8
1
  6
HIDDEN
 62
3
 10
134.8661466639
 20
116.3025214537
 11
138.1661466639
 21
116.3025214537
  0
LINE
  8
1
  6
HIDDEN
 62
3
 10
138.1661466639
 20
116.3025214537
 11
138.1661466639
 21
101.4025214537
  0
LINE
  8
1
  6
HIDDEN
 62
3
 10
138.1661466639
 20
101.4025214537
 11
134.8661466639
 21
101.4025214537
  0
LINE
  8
1
  6
HIDDEN
 62
3
 10
117.3661466639
 20
115.0525214537
 11
117.3661466639
 21
114.1864960499
  0
LINE
  8
1
  6
HIDDEN
 62
3
 10
115.3661466639
 20
114.1864960499
 11
115.3661466639
 21
115.0525214537
  0
POLYLINE
  8
1
  6
HIDDEN
 62
3
 66
     1
 70
     1
  0
VERTEX
  8
1
 10
116.3661466639
 20
115.9185468575
 42
0.1021787313
  0
VERTEX
  8
1
 10
115.9189330684
 20
115.8271181230
 42
0.0763279593
  0
VERTEX
  8
1
 10
115.6590398827
 20
115.6648938894
 42
0.0835487363
  0
VERTEX
  8
1
 10
115.4717194729
 20
115.4398197883
 42
0.1321119775
  0
VERTEX
  8
1
 10
115.3661466639
 20
115.0525214537
 42
0.1321119775
  0
VERTEX
  8
1
 10
115.4717194729
 20
114.6652231190
 42
0.0835487363
  0
VERTEX
  8
1
 10
115.6590398827
 20
114.4401490180
 42
0.0763279593
  0
VERTEX
  8
1
 10
115.9189330684
 20
114.2779247844
 42
0.1021787313
  0
VERTEX
  8
1
 10
116.3661466639
 20
114.1864960499
 42
0.1021787313
  0
VERTEX
  8
1
 10
116.8133602595
 20
114.2779247844
 42
0.0763279593
  0
VERTEX
  8
1
 10
117.0732534452
 20
114.4401490180
 42
0.0835487363
  0
VERTEX
  8
1
 10
117.2605738550
 20
114.6652231190
 42
0.1321119775
  0
VERTEX
  8
1
 10
117.3661466639
 20
115.0525214537
 42
0.1321119775
  0
VERTEX
  8
1
 10
117.2605738550
 20
115.4398197883
 42
0.0835487363
  0
VERTEX
  8
1
 10
117.0732534452
 20
115.6648938894
 42
0.0763279593
  0
VERTEX
  8
1
 10
116.8133602595
 20
115.8271181230
 42
0.1021787313
  0
SEQEND
  8
1
  0
POLYLINE
  8
1
  6
HIDDEN
 62
3
 66
     1
 70
     0
  0
VERTEX
  8
1
 62
3
 10
115.3661466639
 20
114.1864960499
 42
0.1625784873
  0
VERTEX
  8
1
 62
3
 10
115.4717194729
 20
113.8857143138
 42
0.0846789103
  0
VERTEX
  8
1
 62
3
 10
115.6590398827
 20
113.7109183675
 42
0.0666626310
  0
VERTEX
  8
1
 62
3
 10
115.9189330684
 20
113.5849325776
 42
0.0806237782
  0
VERTEX
  8
1
 62
3
 10
116.3661466639
 20
113.5139276415
 42
0.0806237782
  0
VERTEX
  8
1
 62
3
 10
116.8133602595
 20
113.5849325776
 42
0.0666626310
  0
VERTEX
  8
1
 62
3
 10
117.0732534452
 20
113.7109183675
 42
0.0846789103
  0
VERTEX
  8
1
 62
3
 10
117.2605738550
 20
113.8857143137
 42
0.1625784873
  0
VERTEX
  8
1
 62
3
 10
117.3661466639
 20
114.1864960499
 42
0.1625784873
  0
SEQEND
  8
1
  0
LINE
  8
1
  6
HIDDEN
 62
3
 10
115.3661466639
 20
97.7525214537
 11
115.3661466639
 21
96.4525214537
  0
LINE
  8
1
  6
HIDDEN
 62
3
 10
115.3661466639
 20
96.4525214537
 11
117.3661466639
 21
96.4525214537
  0
LINE
  8
1
  6
HIDDEN
 62
3
 10
117.3661466639
 20
96.4525214537
 11
117.3661466639
 21
97.7525214537
  0
DIMENSION
  8
3
  6
CONTINUOUS
 62
5
  2
*D21
 10
113.8661466639
 20
163.1940685219
 11
112.6661466639
 21
165.6940685219
  70
0
 13
111.4661466639
 23
160.0332681654
 14
113.8661466639
 24
159.9525214537
 50
0.000000
  0
TEXT
  8
5
  6
CONTINUOUS
 62
7
 10
318.923576
 20
227.946368
 40
3.000000
  1
MIL PTｺﾈｸﾀ
 41
0.765697
 50
0.000000
 51
0.000000
 72
   5
 73
   0
 11
333.923576
 21
227.946368
  0
TEXT
  8
5
  6
CONTINUOUS
 62
7
 10
338.923576
 20
227.446368
 40
4.000000
  1
MS3112E14-19S
 41
0.761124
 50
0.000000
 51
0.000000
 72
   5
 73
   0
 11
364.923576
 21
227.446368
  0
TEXT
  8
5
  6
CONTINUOUS
 62
7
 10
378.923576
 20
227.946368
 40
3.000000
  1
Amphenol
 41
0.786513
 50
0.000000
 51
0.000000
 72
   5
 73
   0
 11
391.169576
 21
227.946368
  0
TEXT
  8
5
  6
CONTINUOUS
 62
7
 10
394.548576
 20
227.696368
 40
3.500000
  1
2
 41
1.000000
 50
0.000000
 51
0.000000
 72
   5
 73
   0
 11
396.298576
 21
227.696368
  0
INSERT
  8
3
  6
CONTINUOUS
 62
5
  2
BALN6
 10
207.3318385765
 20
135.4312011101
  0
INSERT
  8
3
  6
CONTINUOUS
 62
5
  2
BALN7
 10
207.3318385765
 20
122.2738417972
  0
CIRCLE
  8
1
  6
CONTINUOUS
 62
3
 10
253.8482852226
 20
44.9596658099
 40
16.6500000000
  0
LINE
  8
1
  6
CONTINUOUS
 62
3
 10
270.7982852229
 20
66.4096658099
 11
236.8982852226
 21
66.4096658099
  0
LINE
  8
1
  6
CONTINUOUS
 62
3
 10
275.2982852226
 20
28.0096658099
 11
275.2982852226
 21
61.9096658099
  0
LINE
  8
1
  6
CONTINUOUS
 62
3
 10
236.8982852226
 20
23.5096658099
 11
270.7982852229
 21
23.5096658099
  0
LINE
  8
1
  6
CONTINUOUS
 62
3
 10
232.3982852226
 20
28.0096658099
 11
232.3982852226
 21
61.9096658099
  0
CIRCLE
  8
1
  6
CONTINUOUS
 62
3
 10
236.5982852226
 20
62.2096658099
 40
2.2500000000
  0
CIRCLE
  8
1
  6
CONTINUOUS
 62
3
 10
271.0982852226
 20
62.2096658099
 40
2.2500000000
  0
CIRCLE
  8
1
  6
CONTINUOUS
 62
3
 10
236.5982852226
 20
27.7096658099
 40
2.2500000000
  0
CIRCLE
  8
1
  6
CONTINUOUS
 62
3
 10
271.0982852226
 20
27.7096658099
 40
2.2500000000
  0
ARC
  8
1
  6
CONTINUOUS
 62
3
 10
236.8982852226
 20
61.9096658099
 40
4.5000000000
 50
90.0000000000
 51
180.0000000000
  0
ARC
  8
1
  6
CONTINUOUS
 62
3
 10
270.7982852229
 20
61.9096658099
 40
4.5000000000
 50
359.9999999999
 51
90.0000000000
  0
ARC
  8
1
  6
CONTINUOUS
 62
3
 10
270.7982852229
 20
28.0096658099
 40
4.5000000000
 50
270.0000000000
 51
359.9999999999
  0
ARC
  8
1
  6
CONTINUOUS
 62
3
 10
236.8982852226
 20
28.0096658099
 40
4.5000000000
 50
180.0000000000
 51
270.0000000000
  0
ARC
  8
1
  6
CONTINUOUS
 62
3
 10
253.8482852226
 20
44.9596658099
 40
14.1000000000
 50
100.7293659955
 51
189.5058177355
  0
ARC
  8
1
  6
CONTINUOUS
 62
3
 10
253.8482852226
 20
44.9596658099
 40
14.1000000000
 50
200.4941822645
 51
229.5058177355
  0
ARC
  8
1
  6
CONTINUOUS
 62
3
 10
253.8482852226
 20
44.9596658099
 40
14.1000000000
 50
240.4941822645
 51
299.5058177355
  0
ARC
  8
1
  6
CONTINUOUS
 62
3
 10
253.8482852226
 20
44.9596658099
 40
14.1000000000
 50
310.4941822645
 51
349.5058177355
  0
ARC
  8
1
  6
CONTINUOUS
 62
3
 10
253.8482852226
 20
44.9596658099
 40
14.1000000000
 50
0.4941822645
 51
79.2706340045
  0
ARC
  8
1
  6
CONTINUOUS
 62
3
 10
253.8482852226
 20
44.9596658099
 40
15.6000000000
 50
190.0355017466
 51
199.9644982534
  0
ARC
  8
1
  6
CONTINUOUS
 62
3
 10
253.8482852226
 20
44.9596658099
 40
15.6000000000
 50
230.0355017466
 51
239.9644982534
  0
ARC
  8
1
  6
CONTINUOUS
 62
3
 10
253.8482852226
 20
44.9596658099
 40
15.6000000000
 50
300.0355017466
 51
309.9644982534
  0
ARC
  8
1
  6
CONTINUOUS
 62
3
 10
253.8482852226
 20
44.9596658099
 40
15.6000000000
 50
350.0355017466
 51
359.9644982534
  0
ARC
  8
1
  6
CONTINUOUS
 62
3
 10
253.8482852226
 20
44.9596658099
 40
15.6000000000
 50
80.3127962989
 51
99.6872037011
  0
LINE
  8
1
  6
CONTINUOUS
 62
3
 10
251.2232852226
 20
58.8131626609
 11
251.2232852226
 21
60.3372265723
  0
LINE
  8
1
  6
CONTINUOUS
 62
3
 10
256.4732852226
 20
58.8131626609
 11
256.4732852226
 21
60.3372265723
  0
LINE
  8
1
  6
CONTINUOUS
 62
3
 10
267.7124402535
 20
42.3915526346
 11
269.2129617225
 21
42.2602740167
  0
LINE
  8
1
  6
CONTINUOUS
 62
3
 10
269.4482822279
 20
44.9499997016
 11
267.9477607589
 21
45.0812783195
  0
LINE
  8
1
  6
CONTINUOUS
 62
3
 10
263.8683653402
 20
33.0031615366
 11
263.0044139876
 21
34.2370119388
  0
LINE
  8
1
  6
CONTINUOUS
 62
3
 10
261.6566548206
 20
31.4545051585
 11
260.7927034680
 21
32.6883555607
  0
LINE
  8
1
  6
CONTINUOUS
 62
3
 10
243.8282051050
 20
33.0031615366
 11
244.6921564576
 21
34.2370119388
  0
LINE
  8
1
  6
CONTINUOUS
 62
3
 10
246.0399156246
 20
31.4545051585
 11
246.9038669772
 21
32.6883555607
  0
LINE
  8
1
  6
CONTINUOUS
 62
3
 10
238.4869657269
 20
42.2412354999
 11
239.9418946104
 21
42.6310825193
  0
LINE
  8
1
  6
CONTINUOUS
 62
3
 10
239.1857771487
 20
39.6332357689
 11
240.6407060322
 21
40.0230827883
  0
LINE
  8
1
  6
CONTINUOUS
 62
3
 10
252.3482852226
 20
28.3773710350
 11
252.3482852226
 21
26.3596658099
  0
LINE
  8
1
  6
CONTINUOUS
 62
3
 10
252.3482852226
 20
26.3596658099
 11
255.3482852226
 21
26.3596658099
  0
LINE
  8
1
  6
CONTINUOUS
 62
3
 10
255.3482852226
 20
26.3596658099
 11
255.3482852226
 21
28.3773710350
  0
LINE
  8
1
  6
CONTINUOUS
 62
3
 10
268.9589737507
 20
51.9517750916
 11
270.7063577330
 21
52.9606277042
  0
LINE
  8
1
  6
CONTINUOUS
 62
3
 10
240.2375966946
 20
54.5498513030
 11
238.4902127122
 21
55.5587039156
  0
LINE
  8
1
  6
CONTINUOUS
 62
3
 10
270.7063577330
 20
52.9606277042
 11
269.2063577330
 21
55.5587039156
  0
LINE
  8
1
  6
CONTINUOUS
 62
3
 10
238.4902127122
 20
55.5587039156
 11
236.9902127122
 21
52.9606277042
  0
LINE
  8
1
  6
CONTINUOUS
 62
3
 10
269.2063577330
 20
55.5587039156
 11
267.4589737507
 21
54.5498513030
  0
LINE
  8
1
  6
CONTINUOUS
 62
3
 10
236.9902127122
 20
52.9606277042
 11
238.7375966946
 21
51.9517750916
  0
CIRCLE
  8
1
  6
CONTINUOUS
 62
3
 10
253.8482852226
 20
44.9596658099
 40
12.0000000000
  0
CIRCLE
  8
1
  6
CONTINUOUS
 62
3
 10
253.8482852226
 20
53.9596658099
 40
1.1250000000
  0
CIRCLE
  8
1
  6
CONTINUOUS
 62
3
 10
258.8482852226
 20
53.9596658099
 40
1.1250000000
  0
CIRCLE
  8
1
  6
CONTINUOUS
 62
3
 10
248.8482852726
 20
53.9596658099
 40
1.1250000000
  0
CIRCLE
  8
1
  6
CONTINUOUS
 62
3
 10
246.3482852976
 20
49.4596658099
 40
1.1250000000
  0
CIRCLE
  8
1
  6
CONTINUOUS
 62
3
 10
251.3482852976
 20
49.4596658099
 40
1.1250000000
  0
CIRCLE
  8
1
  6
CONTINUOUS
 62
3
 10
256.3482852976
 20
49.4596658099
 40
1.1250000000
  0
CIRCLE
  8
1
  6
CONTINUOUS
 62
3
 10
261.3482852976
 20
49.4596658099
 40
1.1250000000
  0
CIRCLE
  8
1
  6
CONTINUOUS
 62
3
 10
253.8482852226
 20
44.9596658099
 40
1.1250000000
  0
CIRCLE
  8
1
  6
CONTINUOUS
 62
3
 10
258.8482852226
 20
44.9596658099
 40
1.1250000000
  0
CIRCLE
  8
1
  6
CONTINUOUS
 62
3
 10
248.8482852726
 20
44.9596658099
 40
1.1250000000
  0
CIRCLE
  8
1
  6
CONTINUOUS
 62
3
 10
243.8482853226
 20
44.9596658099
 40
1.1250000000
  0
CIRCLE
  8
1
  6
CONTINUOUS
 62
3
 10
263.8482851226
 20
44.9596658099
 40
1.1250000000
  0
CIRCLE
  8
1
  6
CONTINUOUS
 62
3
 10
253.8482852226
 20
35.9596658099
 40
1.1250000000
  0
CIRCLE
  8
1
  6
CONTINUOUS
 62
3
 10
258.8482852226
 20
35.9596658099
 40
1.1250000000
  0
CIRCLE
  8
1
  6
CONTINUOUS
 62
3
 10
248.8482852726
 20
35.9596658099
 40
1.1250000000
  0
CIRCLE
  8
1
  6
CONTINUOUS
 62
3
 10
246.3482852976
 20
40.4596658099
 40
1.1250000000
  0
CIRCLE
  8
1
  6
CONTINUOUS
 62
3
 10
251.3482852976
 20
40.4596658099
 40
1.1250000000
  0
CIRCLE
  8
1
  6
CONTINUOUS
 62
3
 10
256.3482852976
 20
40.4596658099
 40
1.1250000000
  0
CIRCLE
  8
1
  6
CONTINUOUS
 62
3
 10
261.3482852976
 20
40.4596658099
 40
1.1250000000
  0
TEXT
  8
1
  6
CONTINUOUS
 62
3
 10
253.285785
 20
52.834666
 40
2.250000
  1
A
 41
1.000000
 50
0.000000
 51
0.000000
 72
   5
 73
   0
 11
254.410785
 21
52.834666
  0
TEXT
  8
1
  6
CONTINUOUS
 62
3
 10
248.285785
 20
52.834666
 40
2.250000
  1
B
 41
1.000000
 50
0.000000
 51
0.000000
 72
   5
 73
   0
 11
249.410785
 21
52.834666
  0
TEXT
  8
1
  6
CONTINUOUS
 62
3
 10
245.785785
 20
48.334666
 40
2.250000
  1
C
 41
1.000000
 50
0.000000
 51
0.000000
 72
   5
 73
   0
 11
246.910785
 21
48.334666
  0
TEXT
  8
1
  6
CONTINUOUS
 62
3
 10
243.285785
 20
43.834666
 40
2.250000
  1
D
 41
1.000000
 50
0.000000
 51
0.000000
 72
   5
 73
   0
 11
244.410785
 21
43.834666
  0
TEXT
  8
1
  6
CONTINUOUS
 62
3
 10
245.785785
 20
39.334666
 40
2.250000
  1
E
 41
1.000000
 50
0.000000
 51
0.000000
 72
   5
 73
   0
 11
246.910785
 21
39.334666
  0
TEXT
  8
1
  6
CONTINUOUS
 62
3
 10
248.285785
 20
34.834666
 40
2.250000
  1
F
 41
1.000000
 50
0.000000
 51
0.000000
 72
   5
 73
   0
 11
249.410785
 21
34.834666
  0
TEXT
  8
1
  6
CONTINUOUS
 62
3
 10
253.285785
 20
34.834666
 40
2.250000
  1
G
 41
1.000000
 50
0.000000
 51
0.000000
 72
   5
 73
   0
 11
254.410785
 21
34.834666
  0
TEXT
  8
1
  6
CONTINUOUS
 62
3
 10
258.285785
 20
34.834666
 40
2.250000
  1
H
 41
1.000000
 50
0.000000
 51
0.000000
 72
   5
 73
   0
 11
259.410785
 21
34.834666
  0
TEXT
  8
1
  6
CONTINUOUS
 62
3
 10
260.785785
 20
39.334666
 40
2.250000
  1
J
 41
1.000000
 50
0.000000
 51
0.000000
 72
   5
 73
   0
 11
261.910785
 21
39.334666
  0
TEXT
  8
1
  6
CONTINUOUS
 62
3
 10
263.285785
 20
43.834666
 40
2.250000
  1
K
 41
1.000000
 50
0.000000
 51
0.000000
 72
   5
 73
   0
 11
264.410785
 21
43.834666
  0
TEXT
  8
1
  6
CONTINUOUS
 62
3
 10
260.785785
 20
48.334666
 40
2.250000
  1
L
 41
1.000000
 50
0.000000
 51
0.000000
 72
   5
 73
   0
 11
261.910785
 21
48.334666
  0
TEXT
  8
1
  6
CONTINUOUS
 62
3
 10
258.285785
 20
52.834666
 40
2.250000
  1
M
 41
1.000000
 50
0.000000
 51
0.000000
 72
   5
 73
   0
 11
259.410785
 21
52.834666
  0
TEXT
  8
1
  6
CONTINUOUS
 62
3
 10
255.785785
 20
48.334666
 40
2.250000
  1
N
 41
1.000000
 50
0.000000
 51
0.000000
 72
   5
 73
   0
 11
256.910785
 21
48.334666
  0
TEXT
  8
1
  6
CONTINUOUS
 62
3
 10
250.785785
 20
48.334666
 40
2.250000
  1
P
 41
1.000000
 50
0.000000
 51
0.000000
 72
   5
 73
   0
 11
251.910785
 21
48.334666
  0
TEXT
  8
1
  6
CONTINUOUS
 62
3
 10
248.285785
 20
43.834666
 40
2.250000
  1
R
 41
1.000000
 50
0.000000
 51
0.000000
 72
   5
 73
   0
 11
249.410785
 21
43.834666
  0
TEXT
  8
1
  6
CONTINUOUS
 62
3
 10
250.785785
 20
39.334666
 40
2.250000
  1
S
 41
1.000000
 50
0.000000
 51
0.000000
 72
   5
 73
   0
 11
251.910785
 21
39.334666
  0
TEXT
  8
1
  6
CONTINUOUS
 62
3
 10
255.785785
 20
39.334666
 40
2.250000
  1
T
 41
1.000000
 50
0.000000
 51
0.000000
 72
   5
 73
   0
 11
256.910785
 21
39.334666
  0
TEXT
  8
1
  6
CONTINUOUS
 62
3
 10
258.285785
 20
43.834666
 40
2.250000
  1
U
 41
1.000000
 50
0.000000
 51
0.000000
 72
   5
 73
   0
 11
259.410785
 21
43.834666
  0
TEXT
  8
1
  6
CONTINUOUS
 62
3
 10
253.285785
 20
43.834666
 40
2.250000
  1
V
 41
1.000000
 50
0.000000
 51
0.000000
 72
   5
 73
   0
 11
254.410785
 21
43.834666
  0
TEXT
  8
3
  6
CONTINUOUS
 62
7
 10
238.848285
 20
13.049369
 40
4.000000
  1
参考図(1.5/1尺)
 41
0.815217
 50
0.000000
 51
0.000000
 72
   5
 73
   0
 11
268.848285
 21
13.049369
  0
TEXT
  8
3
  6
CONTINUOUS
 62
7
 10
238.848285
 20
9.049369
 40
4.000000
  1
ｺﾈｸﾀ嵌合面
 41
0.830565
 50
0.000000
 51
0.000000
 72
   5
 73
   0
 11
258.848285
 21
9.049369
  0
LINE
  8
3
  6
CONTINUOUS
 62
6
 10
204.2505263941
 20
159.1925296150
 11
206.5705100714
 21
161.5125132923
  0
LINE
  8
3
  6
CONTINUOUS
 62
6
 10
206.5705100714
 20
159.1925296150
 11
204.2505263941
 21
161.5125132923
  0
CIRCLE
  8
3
  6
CONTINUOUS
 62
6
 10
205.4105182328
 20
160.3525214537
 40
2.2966666667
  0
LINE
  8
3
  6
CONTINUOUS
 62
6
 10
181.2505263941
 20
159.1925296150
 11
183.5705100714
 21
161.5125132923
  0
LINE
  8
3
  6
CONTINUOUS
 62
6
 10
183.5705100714
 20
159.1925296150
 11
181.2505263941
 21
161.5125132923
  0
CIRCLE
  8
3
  6
CONTINUOUS
 62
6
 10
182.4105182328
 20
160.3525214537
 40
2.2966666667
  0
LINE
  8
3
  6
CONTINUOUS
 62
6
 10
181.2505263941
 20
136.1925296150
 11
183.5705100714
 21
138.5125132923
  0
LINE
  8
3
  6
CONTINUOUS
 62
6
 10
183.5705100714
 20
136.1925296150
 11
181.2505263941
 21
138.5125132923
  0
CIRCLE
  8
3
  6
CONTINUOUS
 62
6
 10
182.4105182328
 20
137.3525214537
 40
2.2966666667
  0
LINE
  8
3
  6
CONTINUOUS
 62
6
 10
204.2505263941
 20
136.1925296150
 11
206.5705100714
 21
138.5125132923
  0
LINE
  8
3
  6
CONTINUOUS
 62
6
 10
206.5705100714
 20
136.1925296150
 11
204.2505263941
 21
138.5125132923
  0
CIRCLE
  8
3
  6
CONTINUOUS
 62
6
 10
205.4105182328
 20
137.3525214537
 40
2.2966666667
  0
LINE
  8
3
  6
CONTINUOUS
 62
6
 10
204.2505263941
 20
119.1925296150
 11
206.5705100714
 21
121.5125132923
  0
LINE
  8
3
  6
CONTINUOUS
 62
6
 10
206.5705100714
 20
119.1925296150
 11
204.2505263941
 21
121.5125132923
  0
CIRCLE
  8
3
  6
CONTINUOUS
 62
6
 10
205.4105182328
 20
120.3525214537
 40
2.2966666667
  0
LINE
  8
3
  6
CONTINUOUS
 62
6
 10
181.2505263941
 20
119.1925296150
 11
183.5705100714
 21
121.5125132923
  0
LINE
  8
3
  6
CONTINUOUS
 62
6
 10
183.5705100714
 20
119.1925296150
 11
181.2505263941
 21
121.5125132923
  0
CIRCLE
  8
3
  6
CONTINUOUS
 62
6
 10
182.4105182328
 20
120.3525214537
 40
2.2966666667
  0
LINE
  8
3
  6
CONTINUOUS
 62
6
 10
181.2505263941
 20
96.1925296150
 11
183.5705100714
 21
98.5125132923
  0
LINE
  8
3
  6
CONTINUOUS
 62
6
 10
183.5705100714
 20
96.1925296150
 11
181.2505263941
 21
98.5125132923
  0
CIRCLE
  8
3
  6
CONTINUOUS
 62
6
 10
182.4105182328
 20
97.3525214537
 40
2.2966666667
  0
LINE
  8
3
  6
CONTINUOUS
 62
6
 10
204.2505263941
 20
96.1925296150
 11
206.5705100714
 21
98.5125132923
  0
LINE
  8
3
  6
CONTINUOUS
 62
6
 10
206.5705100714
 20
96.1925296150
 11
204.2505263941
 21
98.5125132923
  0
CIRCLE
  8
3
  6
CONTINUOUS
 62
6
 10
205.4105182328
 20
97.3525214537
 40
2.2966666667
  0
INSERT
  8
3
  6
CONTINUOUS
 62
5
  2
BALN8
 10
205.4105182328
 20
160.3525214537
  0
INSERT
  8
1
  6
CONTINUOUS
 62
7
  2
S3
 10
183.4105174579
 20
91.3525214537
  0
CIRCLE
  8
1
  6
HIDDEN
 62
6
 10
193.9105182328
 20
186.3525214536
 40
2.0000000000
  0
CIRCLE
  8
1
  6
HIDDEN
 62
6
 10
193.9105182328
 20
186.3525214536
 40
4.0000000000
  0
INSERT
  8
1
  6
CONTINUOUS
 62
7
  2
S4
 10
183.4105174579
 20
186.3525214536
  0
INSERT
  8
1
  6
CONTINUOUS
 62
7
  2
S5
 10
234.0683773645
 20
177.0185567967
  0
INSERT
  8
1
  6
CONTINUOUS
 62
5
  2
LTEX2
 10
197.9105182328
 20
186.3525214536
  0
TEXT
  8
3
  6
CONTINUOUS
 62
7
 10
206.908653
 20
267.770633
 40
5.000000
  1
型番仕様
 41
0.886918
 50
0.000000
 51
0.000000
 72
   5
 73
   0
 11
226.908653
 21
267.770633
  0
TEXT
  8
3
  6
CONTINUOUS
 62
7
 10
206.908653
 20
261.770633
 40
5.000000
  1
MCON-001-067 %%uPB
 41
0.759109
 50
0.000000
 51
0.000000
 72
   5
 73
   0
 11
244.408653
 21
261.770633
  0
POINT
  8
5
  6
CONTINUOUS
 62
6
 10
235.7035425623
 20
249.3925435666
  0
POINT
  8
5
  6
CONTINUOUS
 62
6
 10
235.7035425623
 20
249.3925435666
  0
POINT
  8
1
  6
CONTINUOUS
 62
6
 10
235.7035425623
 20
249.3925435666
  0
POINT
  8
5
  6
CONTINUOUS
 62
6
 10
235.7035425623
 20
249.3925435666
  0
INSERT
  8
1
  6
CONTINUOUS
 62
7
  2
S6
 10
235.7035425623
 20
249.3925435666
  0
LINE
  8
1
  6
CONTINUOUS
 62
7
 10
242.6377557611
 20
261.6869229088
 11
242.6377557611
 21
251.6369125646
  0
TEXT
  8
1
  6
CONTINUOUS
 62
7
 10
241.460863
 20
246.871761
 40
3.500000
  1
①ﾍﾞｰｽ,②ｶﾊﾞｰ材質
 41
0.806452
 50
0.000000
 51
0.000000
 72
   5
 73
   0
 11
271.210863
 21
246.871761
  0
TEXT
  8
1
  6
CONTINUOUS
 62
7
 10
241.460863
 20
243.371761
 40
3.500000
  1
無印:ｱﾙﾐﾀﾞｲｷｬｽﾄ
 41
0.786164
 50
0.000000
 51
0.000000
 72
   5
 73
   0
 11
267.710863
 21
243.371761
  0
TEXT
  8
1
  6
CONTINUOUS
 62
7
 10
241.460863
 20
239.871761
 40
3.500000
  1
PB:PBT(UL:V-0)
 41
0.760043
 50
0.000000
 51
0.000000
 72
   5
 73
   0
 11
265.960863
 21
239.871761
  0
POINT
  8
5
  6
CONTINUOUS
 62
6
 10
9.0000000000
 20
262.0000000000
  0
POINT
  8
5
  6
CONTINUOUS
 62
6
 10
9.0000000000
 20
262.0000000000
  0
POINT
  8
5
  6
CONTINUOUS
 62
6
 10
9.0000000000
 20
262.0000000000
  0
POINT
  8
5
  6
CONTINUOUS
 62
6
 10
9.0000000000
 20
262.0000000000
  0
POINT
  8
5
  6
CONTINUOUS
 62
6
 10
9.0000000000
 20
262.0000000000
  0
POINT
  8
5
  6
CONTINUOUS
 62
6
 10
8.9999999999
 20
262.0000000000
  0
LINE
  8
1
  6
CONTINUOUS
 62
7
 10
11.4999999999
 20
260.0000000000
 11
6.4999999999
 21
260.0000000000
  0
TEXT
  8
1
  6
CONTINUOUS
 62
7
 10
7.948950
 20
259.621673
 40
3.300000
  1
B
 41
1.274000
 50
0.000000
 51
0.000000
 72
   5
 73
   0
 11
10.051050
 21
259.621673
  0
LINE
  8
1
  6
CONTINUOUS
 62
7
 10
8.9999999999
 20
264.0000000000
 11
6.4999999999
 21
260.0000000000
  0
LINE
  8
1
  6
CONTINUOUS
 62
7
 10
8.9999999999
 20
264.0000000000
 11
11.4999999999
 21
260.0000000000
  0
POINT
  8
1
  6
CONTINUOUS
 62
7
 10
8.9999999999
 20
262.0000000000
  0
TEXT
  8
1
  6
CONTINUOUS
 62
7
 10
14.836500
 20
260.500000
 40
3.000000
  1
'22.3.23
 41
0.599037
 50
0.000000
 51
0.000000
 72
   5
 73
   0
 11
24.163500
 21
260.500000
  0
TEXT
  8
1
  6
CONTINUOUS
 62
7
 10
28.160983
 20
260.056979
 40
4.000000
  1
PB追加に伴う変更
 41
0.854701
 50
0.000000
 51
0.000000
 72
   5
 73
   0
 11
60.160983
 21
260.056979
  0
TEXT
  8
1
  6
CONTINUOUS
 62
7
 10
91.000000
 20
260.250000
 40
3.500000
  1
山田
 41
0.921659
 50
0.000000
 51
0.000000
 72
   5
 73
   0
 11
98.000000
 21
260.250000
  0
POINT
  8
5
  6
CONTINUOUS
 62
6
 10
137.2868002249
 20
38.5097255163
  0
POINT
  8
5
  6
CONTINUOUS
 62
6
 10
137.2868002249
 20
38.5097255163
  0
POINT
  8
1
  6
CONTINUOUS
 62
6
 10
137.2868002249
 20
38.5097255163
  0
POINT
  8
5
  6
CONTINUOUS
 62
6
 10
137.2868002249
 20
38.5097255163
  0
INSERT
  8
1
  6
CONTINUOUS
 62
7
  2
S7
 10
137.2868002249
 20
38.5097255163
  0
INSERT
  8
3
  6
CONTINUOUS
 62
5
  2
LTEX3
 10
134.5962334454
 20
86.7605564293
  0
INSERT
  8
3
  6
CONTINUOUS
 62
5
  2
LTEX4
 10
88.2645106558
 20
17.3439335173
  0
INSERT
  8
3
  6
CONTINUOUS
 62
5
  2
LTEX5
 10
39.2645106558
 20
18.7789024664
  0
TEXT
  8
5
  6
CONTINUOUS
 62
7
 10
338.753123
 20
268.474804
 40
3.000000
  1
ｱﾙﾐﾀﾞｲｷｬｽﾄ銀色塗装
 41
0.833541
 50
0.000000
 51
0.000000
 72
   5
 73
   0
 11
366.785123
 21
268.474804
  0
TEXT
  8
5
  6
CONTINUOUS
 62
7
 10
338.753123
 20
265.474804
 40
3.000000
  1
又は
 41
0.921659
 50
0.000000
 51
0.000000
 72
   5
 73
   0
 11
344.753123
 21
265.474804
  0
TEXT
  8
5
  6
CONTINUOUS
 62
7
 10
338.753123
 20
262.474804
 40
3.000000
  1
PBT 黒色(UL  V-0)
 41
0.751838
 50
0.000000
 51
0.000000
 72
   5
 73
   0
 11
363.293123
 21
262.474804
  0
POINT
  8
5
  6
CONTINUOUS
 62
6
 10
309.3313851285
 20
266.8545250502
  0
POINT
  8
5
  6
CONTINUOUS
 62
6
 10
309.3313851285
 20
266.8545250502
  0
POINT
  8
1
  6
CONTINUOUS
 62
6
 10
309.3313851285
 20
266.8545250502
  0
POINT
  8
5
  6
CONTINUOUS
 62
6
 10
309.3313851285
 20
266.8545250502
  0
INSERT
  8
1
  6
CONTINUOUS
 62
7
  2
S8
 10
309.3313851285
 20
266.8545250502
  0
POINT
  8
5
  6
CONTINUOUS
 62
6
 10
309.6673061663
 20
234.4607153152
  0
POINT
  8
5
  6
CONTINUOUS
 62
6
 10
309.6673061663
 20
234.4607153152
  0
POINT
  8
1
  6
CONTINUOUS
 62
6
 10
309.6673061663
 20
234.4607153152
  0
POINT
  8
5
  6
CONTINUOUS
 62
6
 10
309.6673061663
 20
234.4607153152
  0
INSERT
  8
1
  6
CONTINUOUS
 62
7
  2
S9
 10
309.6673061663
 20
234.4607153152
  0
ENDSEC
  0
EOF
