  0
SECTION
  2
HEADER
  9
$ACADVER
  1
AC1009
  9
$DWGCODEPAGE
  3
dos932
  9
$INSBASE
 10
203.5000000000
 20
142.0000000000
  9
$EXTMIN
 10
-53.4957171345
 20
-31.7257559395
  9
$EXTMAX
 10
578.3348984163
 20
315.7257559395
  9
$LIMMIN
 10
-53.4957171345
 20
-31.7257559395
  9
$LIMMAX
 10
578.3348984163
 20
315.7257559395
  9
$VIEWCTR
 10
0.0000000000
 20
0.0000000000
  9
$VIEWSIZE
 40
0.0000000000
  9
$SNAPMODE
 70
     0
  9
$SNAPUNIT
 10
20.0
 20
20.0
  9
$SNAPBASE
 10
0.000000
 20
0.000000
  9
$SNAPANG
 50
0.0
  9
$SNAPSTYLE
 70
     0
  9
$SNAPISOPAIR
 70
     0
  9
$GRIDMODE
 70
     0
  9
$GRIDUNIT
 10
10.000000
 20
10.000000
  9
$ORTHOMODE
 70
     0
  9
$REGENMODE
 70
     0
  9
$FILLMODE
 70
     1
  9
$QTEXTMODE
 70
     0
  9
$DRAGMODE
 70
     1
  9
$LTSCALE
 40
1.0
  9
$OSMODE
 70
     0
  9
$ATTMODE
 70
     1
  9
$TEXTSIZE
 40
4.000000
  9
$TRACEWID
 40
0.05
  9
$TEXTSTYLE
  7
STANDARD
  9
$CLAYER
  8
3
  9
$CELTYPE
  6
CONTINUOUS
  9
$CECOLOR
  62
7
  9
$DIMSCALE
 40
1.0000000000
  9
$DIMASZ
 40
2.0000000000
  9
$DIMEXO
 40
0.5000000000
  9
$DIMDLI
 40
7.000000
  9
$DIMRND
 40
0.0
  9
$DIMDLE
 40
0.0
  9
$DIMEXE
 40
1.0000000000
  9
$DIMTP
 40
0.0
  9
$DIMTM
 40
0.0
  9
$DIMTXT
 40
3.500000
  9
$DIMCEN
 40
0.09
  9
$DIMTSZ
 40
0.0
  9
$DIMTOL
 70
     0
  9
$DIMLIM
 70
     0
  9
$DIMTIH
 70
     0
  9
$DIMTOH
 70
     0
  9
$DIMSE1
 70
     0
  9
$DIMSE2
 70
     0
  9
$DIMTAD
 70
     1
  9
$DIMZIN
 70
     0
  9
$DIMBLK
  1

  9
$DIMASO
 70
     1
  9
$DIMSHO
 70
     0
  9
$DIMPOST
  1

  9
$DIMAPOST
  1

  9
$DIMALT
 70
     0
  9
$DIMALTD
 70
     3
  9
$DIMCLRD
 70
     5
  9
$DIMCLRE
 70
     5
  9
$DIMCLRT
 70
     7
  9
$DIMALTF
 40
25.4
  9
$DIMLFAC
 40
1.0
  9
$DIMTOFL
 70
     0
  9
$DIMTVP
 40
0.0
  9
$DIMTIX
 70
     0
  9
$DIMSOXD
 70
     0
  9
$DIMSAH
 70
     0
  9
$LUNITS
 70
     2
  9
$LUPREC
 70
     4
  9
$AXISMODE
 70
     0
  9
$AXISUNIT
 10
0.0
 20
0.0
  9
$SKETCHINC
 40
0.1
  9
$FILLETRAD
 40
0.0
  9
$AUNITS
 70
     0
  9
$AUPREC
 70
     0
  9
$MENU
  1
ACAD
  9
$ELEVATION
 40
0.0
  9
$THICKNESS
 40
0.0
  9
$VIEWDIR
 10
0.0
 20
0.0
 30
1.0
  9
$LIMCHECK
 70
     0
  9
$BLIPMODE
 70
     1
  9
$CHAMFERA
 40
0.0
  9
$CHAMFERB
 40
0.0
  9
$FASTZOOM
 70
     1
  9
$SKPOLY
 70
     0
  9
$TDCREATE
 40
2460019.0000000051
  9
$TDUPDATE
 40
2460019.0000000051
  9
$TDINDWG
 40
0.0000000000
  9
$TDUSRTIMER
 40
0.0000000000
  9
$USRTIMER
 70
     1
  9
$ANGBASE
 50
0.0
  9
$ANGDIR
 70
     0
  9
$PDMODE
 70
     65
  9
$PDSIZE
 40
0.2
  9
$PLINEWID
 40
0.0
  9
$COORDS
 70
     2
  9
$USERI1
 70
     0
  9
$USERI2
 70
     0
  9
$USERI3
 70
     0
  9
$USERI4
 70
     0
  9
$USERI5
 70
     0
  9
$USERR1
 40
0.0
  9
$USERR2
 40
0.0
  9
$USERR3
 40
0.0
  9
$USERR4
 40
0.0
  9
$USERR5
 40
0.0
  0
ENDSEC
  0
SECTION
  2
TABLES
  0
TABLE
  2
LTYPE
 70
     9
  0
LTYPE
  2
CONTINUOUS
 70
    64
  3
Solid line
 72
    65
 73
     0
 40
0.0
  0
LTYPE
  2
DASHED
 70
    64
  3
__ __ __ __ __ __ __ __ __ __ __ __ __ __ __
 72
    65
 73
     2
 40
3.0
 49
2.0
 49
-1.0
  0
LTYPE
  2
HIDDEN
 70
    64
  3
_ _ _ _ _ _ _ _ _ _ _ _ _ _ _ _ _ _ _ _ _ _ _
 72
    65
 73
     2
 40
1.5
 49
1.0
 49
-0.5
  0
LTYPE
  2
CENTER
 70
    64
  3
____ _ ____ _ ____ _ ____ _ ____ _ ____ _ ____
 72
    65
 73
     4
 40
24.0
 49
20.0
 49
-1.0
 49
2.0
 49
-1.0
  0
LTYPE
  2
PHANTOM
 70
    64
  3
_____ _ _ _____ _ _ _____ _ _ _____ _ _ ____
 72
    65
 73
     6
 40
27.0
 49
20.0
 49
-1.0
 49
2.0
 49
-1.0
 49
2.0
 49
-1.0
  0
LTYPE
  2
DOT
 70
    64
  3
...............................................
 72
    65
 73
     2
 40
1.5
 49
0.5
 49
-1.0
  0
LTYPE
  2
DASHDOT
 70
    64
  3
__ . __ . __ . __ . __ . __ . __ . __ . __ . __
 72
    65
 73
     4
 40
8.5
 49
6.0
 49
-1.0
 49
0.5
 49
-1.0
  0
LTYPE
  2
DIVIDE
 70
    64
  3
__ . . __ . . __ . . __ . . __ . . __ . . __
 72
    65
 73
     6
 40
10.0
 49
6.0
 49
-1.0
 49
0.5
 49
-1.0
 49
0.5
 49
-1.0
  0
LTYPE
  2
BORDER
 70
    64
  3
__ __ . __ __ . __ __ . __ __ . __ __ . __ __
 72
    65
 73
     6
 40
15.5
 49
6.0
 49
-1.0
 49
6.0
 49
-1.0
 49
0.5
 49
-1.0
  0
ENDTAB
  0
TABLE
  2
LAYER
 70
  7
  0
LAYER
  2
0
 70
    64
 62
     7
  6
CONTINUOUS
  0
LAYER
  2
1
 70
    64
 62
     7
  6
CONTINUOUS
  0
LAYER
  2
2
 70
    64
 62
     7
  6
CONTINUOUS
  0
LAYER
  2
3
 70
    64
 62
     7
  6
CONTINUOUS
  0
LAYER
  2
4
 70
    64
 62
     7
  6
CONTINUOUS
  0
LAYER
  2
5
 70
    64
 62
     7
  6
CONTINUOUS
  0
LAYER
  2
DEFPOINTS
 70
     0
 62
    -7
  6
CONTINUOUS
  0
ENDTAB
  0
TABLE
  2
STYLE
 70
     1
  0
STYLE
  2
STANDARD
 70
    64
 40
0.0
 41
1.0
 71
     0
 42
4.000000
  3
TXT
  4
EXTFONT
 50
0.0
  0
ENDTAB
  0
TABLE
  2
VIEW
 70
     0
  0
ENDTAB
  0
ENDSEC
  0
SECTION
  2
BLOCKS
  0
BLOCK
  8
0
  2
CI
 70
   0
 10
0.0
 20
0.0
  0
CIRCLE
  8
0
  62
0
 10
0.0
 20
0.0
 40
0.1666666666
  0
ENDBLK
  8
0
  0
BLOCK
  8
5
  2
S0
 70
     0
 10
0.0000000000
 20
0.0000000000
  3
S0
  0
POINT
  8
5
  6
CONTINUOUS
 62
6
 10
-6.5000000000
 20
-6.5000000000
  0
LINE
  8
5
  6
CONTINUOUS
 62
6
 10
4.5000000000
 20
4.5000000000
 11
402.5000000000
 21
4.5000000000
  0
LINE
  8
5
  6
CONTINUOUS
 62
6
 10
4.5000000000
 20
4.5000000000
 11
4.5000000000
 21
279.5000000000
  0
LINE
  8
5
  6
CONTINUOUS
 62
6
 10
44.5000000000
 20
284.0000000000
 11
44.5000000000
 21
279.5000000000
  0
LINE
  8
5
  6
CONTINUOUS
 62
6
 10
44.5000000000
 20
4.5000000000
 11
44.5000000000
 21
0.0000000000
  0
LINE
  8
5
  6
CONTINUOUS
 62
6
 10
84.5000000000
 20
284.0000000000
 11
84.5000000000
 21
279.5000000000
  0
LINE
  8
5
  6
CONTINUOUS
 62
6
 10
124.5000000000
 20
284.0000000000
 11
124.5000000000
 21
279.5000000000
  0
LINE
  8
5
  6
CONTINUOUS
 62
6
 10
164.5000000000
 20
284.0000000000
 11
164.5000000000
 21
279.5000000000
  0
LINE
  8
5
  6
CONTINUOUS
 62
6
 10
204.5000000000
 20
284.0000000000
 11
204.5000000000
 21
279.5000000000
  0
LINE
  8
5
  6
CONTINUOUS
 62
6
 10
244.5000000000
 20
284.0000000000
 11
244.5000000000
 21
279.5000000000
  0
LINE
  8
5
  6
CONTINUOUS
 62
6
 10
84.5000000000
 20
4.5000000000
 11
84.5000000000
 21
0.0000000000
  0
LINE
  8
5
  6
CONTINUOUS
 62
6
 10
124.5000000000
 20
4.5000000000
 11
124.5000000000
 21
0.0000000000
  0
LINE
  8
5
  6
CONTINUOUS
 62
6
 10
164.5000000000
 20
4.5000000000
 11
164.5000000000
 21
0.0000000000
  0
LINE
  8
5
  6
CONTINUOUS
 62
6
 10
204.5000000000
 20
4.5000000000
 11
204.5000000000
 21
0.0000000000
  0
LINE
  8
5
  6
CONTINUOUS
 62
6
 10
244.5000000000
 20
4.5000000000
 11
244.5000000000
 21
0.0000000000
  0
LINE
  8
5
  6
CONTINUOUS
 62
6
 10
0.0000000000
 20
239.5000000000
 11
4.5000000000
 21
239.5000000000
  0
LINE
  8
5
  6
CONTINUOUS
 62
6
 10
402.5000000000
 20
239.5000000000
 11
407.0000000000
 21
239.5000000000
  0
LINE
  8
5
  6
CONTINUOUS
 62
6
 10
0.0000000000
 20
199.5000000000
 11
4.5000000000
 21
199.5000000000
  0
LINE
  8
5
  6
CONTINUOUS
 62
6
 10
0.0000000000
 20
159.5000000000
 11
4.5000000000
 21
159.5000000000
  0
LINE
  8
5
  6
CONTINUOUS
 62
6
 10
0.0000000000
 20
119.5000000000
 11
4.5000000000
 21
119.5000000000
  0
LINE
  8
5
  6
CONTINUOUS
 62
6
 10
402.5000000000
 20
199.5000000000
 11
407.0000000000
 21
199.5000000000
  0
LINE
  8
5
  6
CONTINUOUS
 62
6
 10
402.5000000000
 20
159.5000000000
 11
407.0000000000
 21
159.5000000000
  0
LINE
  8
5
  6
CONTINUOUS
 62
6
 10
402.5000000000
 20
119.5000000000
 11
407.0000000000
 21
119.5000000000
  0
TEXT
  8
5
  6
CONTINUOUS
 62
6
 10
23.500000
 20
279.500000
 40
4.000000
  1
1
 41
1.000000
 50
0.000000
 51
0.000000
 72
   5
 73
   0
 11
25.500000
 21
279.500000
  0
TEXT
  8
5
  6
CONTINUOUS
 62
6
 10
23.500000
 20
0.500000
 40
4.000000
  1
1
 41
1.000000
 50
0.000000
 51
0.000000
 72
   5
 73
   0
 11
25.500000
 21
0.500000
  0
TEXT
  8
5
  6
CONTINUOUS
 62
6
 10
63.500000
 20
279.500000
 40
4.000000
  1
2
 41
1.000000
 50
0.000000
 51
0.000000
 72
   5
 73
   0
 11
65.500000
 21
279.500000
  0
TEXT
  8
5
  6
CONTINUOUS
 62
6
 10
103.500000
 20
279.500000
 40
4.000000
  1
3
 41
1.000000
 50
0.000000
 51
0.000000
 72
   5
 73
   0
 11
105.500000
 21
279.500000
  0
TEXT
  8
5
  6
CONTINUOUS
 62
6
 10
143.500000
 20
279.500000
 40
4.000000
  1
4
 41
1.000000
 50
0.000000
 51
0.000000
 72
   5
 73
   0
 11
145.500000
 21
279.500000
  0
TEXT
  8
5
  6
CONTINUOUS
 62
6
 10
183.500000
 20
279.500000
 40
4.000000
  1
5
 41
1.000000
 50
0.000000
 51
0.000000
 72
   5
 73
   0
 11
185.500000
 21
279.500000
  0
TEXT
  8
5
  6
CONTINUOUS
 62
6
 10
223.500000
 20
279.500000
 40
4.000000
  1
6
 41
1.000000
 50
0.000000
 51
0.000000
 72
   5
 73
   0
 11
225.500000
 21
279.500000
  0
TEXT
  8
5
  6
CONTINUOUS
 62
6
 10
263.500000
 20
279.500000
 40
4.000000
  1
7
 41
1.000000
 50
0.000000
 51
0.000000
 72
   5
 73
   0
 11
265.500000
 21
279.500000
  0
TEXT
  8
5
  6
CONTINUOUS
 62
6
 10
63.500000
 20
0.500000
 40
4.000000
  1
2
 41
1.000000
 50
0.000000
 51
0.000000
 72
   5
 73
   0
 11
65.500000
 21
0.500000
  0
TEXT
  8
5
  6
CONTINUOUS
 62
6
 10
103.500000
 20
0.500000
 40
4.000000
  1
3
 41
1.000000
 50
0.000000
 51
0.000000
 72
   5
 73
   0
 11
105.500000
 21
0.500000
  0
TEXT
  8
5
  6
CONTINUOUS
 62
6
 10
143.500000
 20
0.500000
 40
4.000000
  1
4
 41
1.000000
 50
0.000000
 51
0.000000
 72
   5
 73
   0
 11
145.500000
 21
0.500000
  0
TEXT
  8
5
  6
CONTINUOUS
 62
6
 10
183.500000
 20
0.500000
 40
4.000000
  1
5
 41
1.000000
 50
0.000000
 51
0.000000
 72
   5
 73
   0
 11
185.500000
 21
0.500000
  0
TEXT
  8
5
  6
CONTINUOUS
 62
6
 10
223.500000
 20
0.500000
 40
4.000000
  1
6
 41
1.000000
 50
0.000000
 51
0.000000
 72
   5
 73
   0
 11
225.500000
 21
0.500000
  0
TEXT
  8
5
  6
CONTINUOUS
 62
6
 10
263.500000
 20
0.500000
 40
4.000000
  1
7
 41
1.000000
 50
0.000000
 51
0.000000
 72
   5
 73
   0
 11
265.500000
 21
0.500000
  0
TEXT
  8
5
  6
CONTINUOUS
 62
6
 10
1.626773
 20
257.454143
 40
4.000000
  1
A
 41
1.266000
 50
0.000000
 51
0.000000
 72
   5
 73
   0
 11
4.158773
 21
257.454143
  0
TEXT
  8
5
  6
CONTINUOUS
 62
6
 10
402.786513
 20
257.492354
 40
4.000000
  1
A
 41
1.266000
 50
0.000000
 51
0.000000
 72
   5
 73
   0
 11
405.318513
 21
257.492354
  0
TEXT
  8
5
  6
CONTINUOUS
 62
6
 10
1.610773
 20
217.454143
 40
4.000000
  1
B
 41
1.274000
 50
0.000000
 51
0.000000
 72
   5
 73
   0
 11
4.158773
 21
217.454143
  0
TEXT
  8
5
  6
CONTINUOUS
 62
6
 10
1.502773
 20
177.454143
 40
4.000000
  1
C
 41
1.328000
 50
0.000000
 51
0.000000
 72
   5
 73
   0
 11
4.158773
 21
177.454143
  0
TEXT
  8
5
  6
CONTINUOUS
 62
6
 10
1.566773
 20
137.454143
 40
4.000000
  1
D
 41
1.296000
 50
0.000000
 51
0.000000
 72
   5
 73
   0
 11
4.158773
 21
137.454143
  0
TEXT
  8
5
  6
CONTINUOUS
 62
6
 10
1.894773
 20
97.454143
 40
4.000000
  1
E
 41
1.132000
 50
0.000000
 51
0.000000
 72
   5
 73
   0
 11
4.158773
 21
97.454143
  0
TEXT
  8
5
  6
CONTINUOUS
 62
6
 10
402.786513
 20
217.492354
 40
4.000000
  1
B
 41
1.274000
 50
0.000000
 51
0.000000
 72
   5
 73
   0
 11
405.334513
 21
217.492354
  0
TEXT
  8
5
  6
CONTINUOUS
 62
6
 10
402.786513
 20
177.492354
 40
4.000000
  1
C
 41
1.328000
 50
0.000000
 51
0.000000
 72
   5
 73
   0
 11
405.442513
 21
177.492354
  0
TEXT
  8
5
  6
CONTINUOUS
 62
6
 10
402.786513
 20
137.492354
 40
4.000000
  1
D
 41
1.296000
 50
0.000000
 51
0.000000
 72
   5
 73
   0
 11
405.378513
 21
137.492354
  0
TEXT
  8
5
  6
CONTINUOUS
 62
6
 10
402.786513
 20
97.492354
 40
4.000000
  1
E
 41
1.132000
 50
0.000000
 51
0.000000
 72
   5
 73
   0
 11
405.050513
 21
97.492354
  0
LINE
  8
5
  6
CONTINUOUS
 62
6
 10
347.5000000000
 20
29.5000000000
 11
347.5000000000
 21
4.5000000000
  0
LINE
  8
5
  6
CONTINUOUS
 62
6
 10
347.5000000000
 20
14.5000000000
 11
402.5000000000
 21
14.5000000000
  0
LINE
  8
5
  6
CONTINUOUS
 62
6
 10
347.5000000000
 20
7.5000000000
 11
281.5000000000
 21
7.5000000000
  0
LINE
  8
5
  6
CONTINUOUS
 62
6
 10
303.5000000000
 20
4.5000000000
 11
303.5000000000
 21
21.0000000000
  0
LINE
  8
5
  6
CONTINUOUS
 62
6
 10
336.5000000000
 20
17.0000000000
 11
336.5000000000
 21
4.5000000000
  0
LINE
  8
5
  6
CONTINUOUS
 62
6
 10
325.5000000000
 20
4.5000000000
 11
325.4999999999
 21
21.0000000000
  0
LINE
  8
5
  6
CONTINUOUS
 62
6
 10
314.5000000000
 20
17.0000000000
 11
314.5000000000
 21
4.5000000000
  0
TEXT
  8
5
  6
CONTINUOUS
 62
6
 10
294.250000
 20
4.750000
 40
2.500000
  1
Design
 41
0.779221
 50
0.000000
 51
0.000000
 72
   5
 73
   0
 11
301.750000
 21
4.750000
  0
TEXT
  8
5
  6
CONTINUOUS
 62
6
 10
305.875000
 20
4.750000
 40
2.500000
  1
Draft
 41
0.786164
 50
0.000000
 51
0.000000
 72
   5
 73
   0
 11
312.125000
 21
4.750000
  0
TEXT
  8
5
  6
CONTINUOUS
 62
6
 10
316.875000
 20
4.750000
 40
2.500000
  1
Check
 41
0.786164
 50
0.000000
 51
0.000000
 72
   5
 73
   0
 11
323.125000
 21
4.750000
  0
LINE
  8
5
  6
CONTINUOUS
 62
6
 10
281.5000000000
 20
29.5000000000
 11
402.5000000000
 21
29.5000000000
  0
LINE
  8
5
  6
CONTINUOUS
 62
6
 10
281.5000000000
 20
17.0000000000
 11
347.5000000000
 21
17.0000000000
  0
LINE
  8
5
  6
CONTINUOUS
 62
6
 10
392.5000000000
 20
14.5000000000
 11
392.5000000000
 21
4.5000000000
  0
TEXT
  8
5
  6
CONTINUOUS
 62
6
 10
395.520000
 20
5.000000
 40
2.000000
  1
SIZE
 41
0.788845
 50
0.000000
 51
0.000000
 72
   5
 73
   0
 11
399.480000
 21
5.000000
  0
LINE
  8
5
  6
CONTINUOUS
 62
6
 10
392.5000000000
 20
7.5000000000
 11
402.5000000000
 21
7.5000000000
  0
TEXT
  8
5
  6
CONTINUOUS
 62
6
 10
394.005000
 20
8.500000
 40
5.000000
  1
Ａ３
 41
0.644240
 50
0.000000
 51
0.000000
 72
   5
 73
   0
 11
400.995000
 21
8.500000
  0
TEXT
  8
5
  6
CONTINUOUS
 62
6
 10
338.875000
 20
4.750000
 40
2.500000
  1
Scale
 41
0.786164
 50
0.000000
 51
0.000000
 72
   5
 73
   0
 11
345.125000
 21
4.750000
  0
TEXT
  8
5
  6
CONTINUOUS
 62
6
 10
338.250000
 20
9.750000
 40
5.000000
  1
1/1
 41
0.815217
 50
0.000000
 51
0.000000
 72
   5
 73
   0
 11
345.750000
 21
9.750000
  0
TEXT
  8
5
  6
CONTINUOUS
 62
6
 10
326.625000
 20
4.750000
 40
2.500000
  1
Confirm
 41
0.774336
 50
0.000000
 51
0.000000
 72
   5
 73
   0
 11
335.375000
 21
4.750000
  0
TEXT
  8
5
  6
CONTINUOUS
 62
6
 10
284.500000
 20
4.750000
 40
2.500000
  1
Date
 41
0.796813
 50
0.000000
 51
0.000000
 72
   5
 73
   0
 11
289.500000
 21
4.750000
  0
TEXT
  8
5
  6
CONTINUOUS
 62
6
 10
283.250000
 20
12.462500
 40
3.000000
  1
2010/
 41
0.786164
 50
0.000000
 51
0.000000
 72
   5
 73
   0
 11
290.750000
 21
12.462500
  0
TEXT
  8
5
  6
CONTINUOUS
 62
6
 10
283.250000
 20
9.037500
 40
3.000000
  1
01/22
 41
0.786164
 50
0.000000
 51
0.000000
 72
   5
 73
   0
 11
290.750000
 21
9.037500
  0
LINE
  8
5
  6
CONTINUOUS
 62
6
 10
292.5000000000
 20
17.0000000000
 11
292.5000000000
 21
4.5000000000
  0
LINE
  8
5
  6
CONTINUOUS
 62
6
 10
281.5000000000
 20
4.5000000000
 11
281.5000000000
 21
29.5000000000
  0
TEXT
  8
5
  6
CONTINUOUS
 62
6
 10
281.755293
 20
18.213190
 40
2.000000
  1
Material
 41
0.638921
 50
0.000000
 51
0.000000
 72
   5
 73
   0
 11
288.387293
 21
18.213190
  0
LINE
  8
5
  6
CONTINUOUS
 62
6
 10
288.5000000000
 20
21.0000000000
 11
288.5000000000
 21
17.0000000000
  0
TEXT
  8
5
  6
CONTINUOUS
 62
6
 10
303.605000
 20
18.000000
 40
2.000000
  1
Process
 41
0.751106
 50
0.000000
 51
0.000000
 72
   5
 73
   0
 11
310.395000
 21
18.000000
  0
LINE
  8
5
  6
CONTINUOUS
 62
6
 10
310.5000000000
 20
21.0000000000
 11
310.5000000000
 21
17.0000000000
  0
TEXT
  8
5
  6
CONTINUOUS
 62
6
 10
325.773000
 20
18.000000
 40
2.000000
  1
Amount
 41
0.838182
 50
0.000000
 51
0.000000
 72
   5
 73
   0
 11
332.227000
 21
18.000000
  0
LINE
  8
5
  6
CONTINUOUS
 62
6
 10
332.4999999999
 20
21.0000000000
 11
332.4999999999
 21
17.0000000000
  0
LINE
  8
5
  6
CONTINUOUS
 62
6
 10
347.5000000000
 20
21.0000000000
 11
281.5000000000
 21
21.0000000000
  0
POINT
  8
5
  6
CONTINUOUS
 62
6
 10
289.5000000000
 20
19.0000000000
  0
POINT
  8
5
  6
CONTINUOUS
 62
6
 10
311.5000000000
 20
19.0000000000
  0
POINT
  8
5
  6
CONTINUOUS
 62
6
 10
339.9999999999
 20
19.0000000000
  0
POINT
  8
5
  6
CONTINUOUS
 62
6
 10
298.0000000000
 20
12.2500000000
  0
POINT
  8
5
  6
CONTINUOUS
 62
6
 10
309.0000000000
 20
12.2500000000
  0
POINT
  8
5
  6
CONTINUOUS
 62
6
 10
320.0000000000
 20
12.2500000000
  0
POINT
  8
5
  6
CONTINUOUS
 62
6
 10
331.0000000000
 20
12.2500000000
  0
POINT
  8
5
  6
CONTINUOUS
 62
6
 10
0.0000000000
 20
0.0000000000
  0
TEXT
  8
5
  6
CONTINUOUS
 62
7
 10
301.099806
 20
20.780083
 40
4.000000
  1
MADOKA SYSTEM co,.ltd
 41
0.778201
 50
0.000000
 51
0.000000
 72
   5
 73
   0
 11
344.367806
 21
20.780083
  0
LINE
  8
5
  6
CONTINUOUS
 62
6
 10
284.5000000000
 20
284.0000000000
 11
284.5000000000
 21
279.5000000000
  0
LINE
  8
5
  6
CONTINUOUS
 62
6
 10
284.5000000000
 20
4.5000000000
 11
284.5000000000
 21
0.0000000000
  0
TEXT
  8
5
  6
CONTINUOUS
 62
6
 10
303.500000
 20
279.500000
 40
4.000000
  1
8
 41
1.000000
 50
0.000000
 51
0.000000
 72
   5
 73
   0
 11
305.500000
 21
279.500000
  0
TEXT
  8
5
  6
CONTINUOUS
 62
6
 10
303.500000
 20
0.500000
 40
4.000000
  1
8
 41
1.000000
 50
0.000000
 51
0.000000
 72
   5
 73
   0
 11
305.500000
 21
0.500000
  0
LINE
  8
5
  6
CONTINUOUS
 62
6
 10
324.5000000000
 20
284.0000000000
 11
324.5000000000
 21
279.5000000000
  0
LINE
  8
5
  6
CONTINUOUS
 62
6
 10
324.5000000000
 20
4.5000000000
 11
324.5000000000
 21
0.0000000000
  0
TEXT
  8
5
  6
CONTINUOUS
 62
6
 10
343.500000
 20
279.500000
 40
4.000000
  1
9
 41
1.000000
 50
0.000000
 51
0.000000
 72
   5
 73
   0
 11
345.500000
 21
279.500000
  0
TEXT
  8
5
  6
CONTINUOUS
 62
6
 10
343.500000
 20
0.500000
 40
4.000000
  1
9
 41
1.000000
 50
0.000000
 51
0.000000
 72
   5
 73
   0
 11
345.500000
 21
0.500000
  0
LINE
  8
5
  6
CONTINUOUS
 62
6
 10
364.5000000000
 20
284.0000000000
 11
364.5000000000
 21
279.5000000000
  0
LINE
  8
5
  6
CONTINUOUS
 62
6
 10
364.5000000000
 20
4.5000000000
 11
364.5000000000
 21
0.0000000000
  0
TEXT
  8
5
  6
CONTINUOUS
 62
6
 10
382.500000
 20
279.500000
 40
4.000000
  1
10
 41
0.854701
 50
0.000000
 51
0.000000
 72
   5
 73
   0
 11
386.500000
 21
279.500000
  0
TEXT
  8
5
  6
CONTINUOUS
 62
6
 10
382.500000
 20
0.500000
 40
4.000000
  1
10
 41
0.854701
 50
0.000000
 51
0.000000
 72
   5
 73
   0
 11
386.500000
 21
0.500000
  0
LINE
  8
5
  6
CONTINUOUS
 62
6
 10
0.0000000000
 20
79.5000000000
 11
4.5000000000
 21
79.5000000000
  0
LINE
  8
5
  6
CONTINUOUS
 62
6
 10
402.5000000000
 20
79.5000000000
 11
407.0000000000
 21
79.5000000000
  0
LINE
  8
5
  6
CONTINUOUS
 62
6
 10
0.0000000000
 20
39.5000000000
 11
4.5000000000
 21
39.5000000000
  0
LINE
  8
5
  6
CONTINUOUS
 62
6
 10
402.5000000000
 20
39.5000000000
 11
407.0000000000
 21
39.5000000000
  0
TEXT
  8
5
  6
CONTINUOUS
 62
6
 10
1.954773
 20
57.454143
 40
4.000000
  1
F
 41
1.102000
 50
0.000000
 51
0.000000
 72
   5
 73
   0
 11
4.158773
 21
57.454143
  0
TEXT
  8
5
  6
CONTINUOUS
 62
6
 10
402.786513
 20
57.492354
 40
4.000000
  1
F
 41
1.102000
 50
0.000000
 51
0.000000
 72
   5
 73
   0
 11
404.990513
 21
57.492354
  0
TEXT
  8
5
  6
CONTINUOUS
 62
6
 10
1.438773
 20
17.454143
 40
4.000000
  1
G
 41
1.360000
 50
0.000000
 51
0.000000
 72
   5
 73
   0
 11
4.158773
 21
17.454143
  0
TEXT
  8
5
  6
CONTINUOUS
 62
6
 10
402.786513
 20
17.492354
 40
4.000000
  1
G
 41
1.360000
 50
0.000000
 51
0.000000
 72
   5
 73
   0
 11
405.506513
 21
17.492354
  0
LINE
  8
5
  6
CONTINUOUS
 62
6
 10
4.5000000000
 20
279.5000000000
 11
402.5000000000
 21
279.5000000000
  0
LINE
  8
5
  6
CONTINUOUS
 62
6
 10
402.5000000000
 20
279.5000000000
 11
402.5000000000
 21
4.5000000000
  0
POINT
  8
5
  6
CONTINUOUS
 62
6
 10
353.5000000000
 20
20.5000000000
  0
POINT
  8
5
  6
CONTINUOUS
 62
6
 10
353.5000000000
 20
8.0000000000
  0
LINE
  8
5
  6
CONTINUOUS
 62
6
 10
347.5000000000
 20
26.5000000000
 11
402.5000000000
 21
26.5000000000
  0
LINE
  8
5
  6
CONTINUOUS
 62
6
 10
347.5000000000
 20
11.5000000000
 11
392.5000000000
 21
11.5000000000
  0
TEXT
  8
5
  6
CONTINUOUS
 62
7
 10
362.928500
 20
26.250000
 40
3.500000
  1
Document Name
 41
0.807728
 50
0.000000
 51
0.000000
 72
   5
 73
   0
 11
387.071500
 21
26.250000
  0
TEXT
  8
5
  6
CONTINUOUS
 62
7
 10
359.678500
 20
11.250000
 40
3.500000
  1
Document No.
 41
0.749428
 50
0.000000
 51
0.000000
 72
   5
 73
   0
 11
380.321500
 21
11.250000
  0
ENDBLK
  8
0
  0
BLOCK
  8
1
  2
*D0
 70
     1
 10
0.0000000000
 20
0.0000000000
  3
*D0
  0
LINE
  8
1
  6
BYBLOCK
 62
5
 10
127.9661466639
 20
94.3244525436
 11
127.9661466639
 21
99.7193009011
  0
LINE
  8
1
  6
BYBLOCK
 62
5
 10
111.4661466639
 20
94.3244525436
 11
111.4661466639
 21
99.7193009011
  0
LINE
  8
1
  6
BYBLOCK
 62
5
 10
111.4661466639
 20
98.7193009011
 11
127.9661466639
 21
98.7193009011
  0
SOLID
  8
1
  6
CONTINUOUS
 62
5
 10
126.0342950114
 20
98.2016628109
 11
126.0342950114
 21
99.2369389913
 12
127.9661466639
 22
98.7193009011
 13
127.9661466639
 23
98.7193009011
  0
SOLID
  8
1
  6
CONTINUOUS
 62
5
 10
113.3979983165
 20
99.2369389913
 11
113.3979983165
 21
98.2016628109
 12
111.4661466639
 22
98.7193009011
 13
111.4661466639
 23
98.7193009011
  0
TEXT
  8
1
  6
CONTINUOUS
 62
7
 10
116.216147
 20
99.719301
 40
3.500000
  1
16.5
 41
0.796813
 50
0.000000
 51
0.000000
 72
   5
 73
   0
 11
123.216147
 21
99.719301
  0
POINT
  8
DEFPOINTS
  6
BYBLOCK
 62
5
 10
127.9661466639
 20
93.8244525436
  0
POINT
  8
DEFPOINTS
  6
BYBLOCK
 62
5
 10
111.4661466639
 20
93.8244525436
  0
POINT
  8
DEFPOINTS
  6
BYBLOCK
 62
5
 10
111.4661466639
 20
98.7193009011
  0
ENDBLK
  8
0
  0
BLOCK
  8
1
  2
*D1
 70
     1
 10
0.0000000000
 20
0.0000000000
  3
*D1
  0
LINE
  8
1
  6
BYBLOCK
 62
5
 10
27.2645106558
 20
27.5484212565
 11
19.9779016700
 21
27.5484212565
  0
LINE
  8
1
  6
BYBLOCK
 62
5
 10
28.2645106558
 20
36.5484212565
 11
19.9779016700
 21
36.5484212565
  0
LINE
  8
1
  6
BYBLOCK
 62
5
 10
20.9779016700
 20
36.5484212565
 11
20.9779016700
 21
27.5484212565
  0
SOLID
  8
1
  6
CONTINUOUS
 62
5
 10
20.4602635798
 20
29.4802729091
 11
21.4955397602
 21
29.4802729091
 12
20.9779016700
 22
27.5484212565
 13
20.9779016700
 23
27.5484212565
  0
SOLID
  8
1
  6
CONTINUOUS
 62
5
 10
21.4955397602
 20
34.6165696039
 11
20.4602635798
 21
34.6165696039
 12
20.9779016700
 22
36.5484212565
 13
20.9779016700
 23
36.5484212565
  0
TEXT
  8
1
  6
CONTINUOUS
 62
7
 10
19.977902
 20
31.173421
 40
3.500000
  1
9
 41
1.000000
 50
90.000000
 51
0.000000
 72
   5
 73
   0
 11
19.977902
 21
32.923421
  0
POINT
  8
DEFPOINTS
  6
BYBLOCK
 62
5
 10
27.7645106558
 20
27.5484212565
  0
POINT
  8
DEFPOINTS
  6
BYBLOCK
 62
5
 10
28.7645106558
 20
36.5484212565
  0
POINT
  8
DEFPOINTS
  6
BYBLOCK
 62
5
 10
20.9779016700
 20
36.5484212565
  0
ENDBLK
  8
0
  0
BLOCK
  8
1
  2
*D2
 70
     1
 10
0.0000000000
 20
0.0000000000
  3
*D2
  0
LINE
  8
1
  6
BYBLOCK
 62
5
 10
29.2645106558
 20
37.0484212565
 11
19.7383253733
 21
37.0484212565
  0
LINE
  8
1
  6
BYBLOCK
 62
5
 10
35.7645106558
 20
51.5484212565
 11
19.7383253733
 21
51.5484212565
  0
LINE
  8
1
  6
BYBLOCK
 62
5
 10
20.7383253733
 20
51.5484212565
 11
20.7383253733
 21
37.0484212565
  0
SOLID
  8
1
  6
CONTINUOUS
 62
5
 10
20.2206872831
 20
38.9802729091
 11
21.2559634635
 21
38.9802729091
 12
20.7383253733
 22
37.0484212565
 13
20.7383253733
 23
37.0484212565
  0
SOLID
  8
1
  6
CONTINUOUS
 62
5
 10
21.2559634635
 20
49.6165696039
 11
20.2206872831
 21
49.6165696039
 12
20.7383253733
 22
51.5484212565
 13
20.7383253733
 23
51.5484212565
  0
TEXT
  8
1
  6
CONTINUOUS
 62
7
 10
19.738325
 20
40.798421
 40
3.500000
  1
14.5
 41
0.796813
 50
90.000000
 51
0.000000
 72
   5
 73
   0
 11
19.738325
 21
47.798421
  0
POINT
  8
DEFPOINTS
  6
BYBLOCK
 62
5
 10
29.7645106558
 20
37.0484212565
  0
POINT
  8
DEFPOINTS
  6
BYBLOCK
 62
5
 10
36.2645106558
 20
51.5484212565
  0
POINT
  8
DEFPOINTS
  6
BYBLOCK
 62
5
 10
20.7383253733
 20
51.5484212565
  0
ENDBLK
  8
0
  0
BLOCK
  8
1
  2
*D3
 70
     1
 10
0.0000000000
 20
0.0000000000
  3
*D3
  0
LINE
  8
1
  6
BYBLOCK
 62
5
 10
27.2645106558
 20
27.5484212565
 11
12.2316014101
 21
27.5484212565
  0
LINE
  8
1
  6
BYBLOCK
 62
5
 10
35.7645106558
 20
51.5484212565
 11
12.2316014101
 21
51.5484212565
  0
LINE
  8
1
  6
BYBLOCK
 62
5
 10
13.2316014101
 20
51.5484212565
 11
13.2316014101
 21
27.5484212565
  0
SOLID
  8
1
  6
CONTINUOUS
 62
5
 10
12.7139633199
 20
29.4802729091
 11
13.7492395003
 21
29.4802729091
 12
13.2316014101
 22
27.5484212565
 13
13.2316014101
 23
27.5484212565
  0
SOLID
  8
1
  6
CONTINUOUS
 62
5
 10
13.7492395003
 20
49.6165696039
 11
12.7139633199
 21
49.6165696039
 12
13.2316014101
 22
51.5484212565
 13
13.2316014101
 23
51.5484212565
  0
TEXT
  8
1
  6
CONTINUOUS
 62
7
 10
12.231601
 20
37.798421
 40
3.500000
  1
24
 41
0.854701
 50
90.000000
 51
0.000000
 72
   5
 73
   0
 11
12.231601
 21
41.298421
  0
POINT
  8
DEFPOINTS
  6
BYBLOCK
 62
5
 10
27.7645106558
 20
27.5484212565
  0
POINT
  8
DEFPOINTS
  6
BYBLOCK
 62
5
 10
36.2645106558
 20
51.5484212565
  0
POINT
  8
DEFPOINTS
  6
BYBLOCK
 62
5
 10
13.2316014101
 20
51.5484212565
  0
ENDBLK
  8
0
  0
BLOCK
  8
1
  2
*D4
 70
     1
 10
0.0000000000
 20
0.0000000000
  3
*D4
  0
LINE
  8
1
  6
BYBLOCK
 62
5
 10
27.2645106558
 20
220.1025214537
 11
16.2916228022
 21
220.1025214537
  0
LINE
  8
1
  6
BYBLOCK
 62
5
 10
27.2645106558
 20
64.6025214537
 11
16.2916228022
 21
64.6025214537
  0
LINE
  8
1
  6
BYBLOCK
 62
5
 10
17.2916228022
 20
64.6025214537
 11
17.2916228022
 21
220.1025214537
  0
SOLID
  8
1
  6
CONTINUOUS
 62
5
 10
17.8092608924
 20
218.1706698011
 11
16.7739847120
 21
218.1706698011
 12
17.2916228022
 22
220.1025214537
 13
17.2916228022
 23
220.1025214537
  0
SOLID
  8
1
  6
CONTINUOUS
 62
5
 10
16.7739847120
 20
66.5343731063
 11
17.8092608924
 21
66.5343731063
 12
17.2916228022
 22
64.6025214537
 13
17.2916228022
 23
64.6025214537
  0
TEXT
  8
1
  6
CONTINUOUS
 62
7
 10
16.291623
 20
136.102521
 40
5.000000
  1
155.5
 41
0.786164
 50
90.000000
 51
0.000000
 72
   5
 73
   0
 11
16.291623
 21
148.602521
  0
POINT
  8
DEFPOINTS
  6
BYBLOCK
 62
5
 10
27.7645106558
 20
220.1025214537
  0
POINT
  8
DEFPOINTS
  6
BYBLOCK
 62
5
 10
27.7645106558
 20
64.6025214537
  0
POINT
  8
DEFPOINTS
  6
BYBLOCK
 62
5
 10
17.2916228022
 20
64.6025214537
  0
ENDBLK
  8
0
  0
BLOCK
  8
1
  2
*D5
 70
     1
 10
0.0000000000
 20
0.0000000000
  3
*D5
  0
LINE
  8
1
  6
BYBLOCK
 62
5
 10
27.7645106558
 20
220.6025214537
 11
27.7645106558
 21
225.0648547044
  0
LINE
  8
1
  6
BYBLOCK
 62
5
 10
96.7645106558
 20
220.6025214537
 11
96.7645106558
 21
225.0648547044
  0
LINE
  8
1
  6
BYBLOCK
 62
5
 10
96.7645106558
 20
224.0648547044
 11
27.7645106558
 21
224.0648547044
  0
SOLID
  8
1
  6
CONTINUOUS
 62
5
 10
29.6963623084
 20
224.5824927946
 11
29.6963623084
 21
223.5472166142
 12
27.7645106558
 22
224.0648547044
 13
27.7645106558
 23
224.0648547044
  0
SOLID
  8
1
  6
CONTINUOUS
 62
5
 10
94.8326590033
 20
223.5472166142
 11
94.8326590033
 21
224.5824927946
 12
96.7645106558
 22
224.0648547044
 13
96.7645106558
 23
224.0648547044
  0
TEXT
  8
1
  6
CONTINUOUS
 62
7
 10
59.764511
 20
225.064855
 40
5.000000
  1
69
 41
0.854701
 50
0.000000
 51
0.000000
 72
   5
 73
   0
 11
64.764511
 21
225.064855
  0
POINT
  8
DEFPOINTS
  6
BYBLOCK
 62
5
 10
27.7645106558
 20
220.1025214537
  0
POINT
  8
DEFPOINTS
  6
BYBLOCK
 62
5
 10
96.7645106558
 20
220.1025214537
  0
POINT
  8
DEFPOINTS
  6
BYBLOCK
 62
5
 10
96.7645106558
 20
224.0648547044
  0
ENDBLK
  8
0
  0
BLOCK
  8
5
  2
S1
 70
     0
 10
312.9235759729
 20
221.9463679840
  3
S1
  0
LINE
  8
5
  6
CONTINUOUS
 62
6
 10
312.9235759729
 20
271.9463679840
 11
312.9235759729
 21
276.9463679840
  0
LINE
  8
5
  6
CONTINUOUS
 62
6
 10
312.9235759729
 20
276.9463679840
 11
317.9235759729
 21
276.9463679840
  0
LINE
  8
5
  6
CONTINUOUS
 62
6
 10
317.9235759729
 20
276.9463679840
 11
337.9235759729
 21
276.9463679840
  0
LINE
  8
5
  6
CONTINUOUS
 62
6
 10
337.9235759729
 20
276.9463679840
 11
377.9235759729
 21
276.9463679840
  0
LINE
  8
5
  6
CONTINUOUS
 62
6
 10
377.9235759729
 20
276.9463679840
 11
392.9235759729
 21
276.9463679840
  0
LINE
  8
5
  6
CONTINUOUS
 62
6
 10
392.9235759729
 20
276.9463679840
 11
397.9235759729
 21
276.9463679840
  0
LINE
  8
5
  6
CONTINUOUS
 62
6
 10
397.9235759729
 20
276.9463679840
 11
397.9235759729
 21
271.9463679840
  0
LINE
  8
5
  6
CONTINUOUS
 62
6
 10
397.9235759729
 20
271.9463679840
 11
392.9235759729
 21
271.9463679840
  0
LINE
  8
5
  6
CONTINUOUS
 62
6
 10
392.9235759729
 20
271.9463679840
 11
377.9235759729
 21
271.9463679840
  0
LINE
  8
5
  6
CONTINUOUS
 62
6
 10
377.9235759729
 20
271.9463679840
 11
337.9235759729
 21
271.9463679840
  0
LINE
  8
5
  6
CONTINUOUS
 62
6
 10
337.9235759729
 20
271.9463679840
 11
317.9235759729
 21
271.9463679840
  0
LINE
  8
5
  6
CONTINUOUS
 62
6
 10
317.9235759729
 20
271.9463679840
 11
312.9235759729
 21
271.9463679840
  0
LINE
  8
5
  6
CONTINUOUS
 62
6
 10
317.9235759729
 20
276.9463679840
 11
317.9235759729
 21
271.9463679840
  0
LINE
  8
5
  6
CONTINUOUS
 62
6
 10
337.9235759729
 20
276.9463679840
 11
337.9235759729
 21
271.9463679840
  0
LINE
  8
5
  6
CONTINUOUS
 62
6
 10
377.9235759729
 20
276.9463679840
 11
377.9235759729
 21
271.9463679840
  0
LINE
  8
5
  6
CONTINUOUS
 62
6
 10
392.9235759729
 20
276.9463679840
 11
392.9235759729
 21
271.9463679840
  0
TEXT
  8
5
  6
CONTINUOUS
 62
7
 10
313.123576
 20
273.296368
 40
2.300000
  1
項番
 41
0.921659
 50
0.000000
 51
0.000000
 72
   5
 73
   0
 11
317.723576
 21
273.296368
  0
TEXT
  8
5
  6
CONTINUOUS
 62
7
 10
322.931576
 20
272.946368
 40
3.000000
  1
品　　名
 41
0.737916
 50
0.000000
 51
0.000000
 72
   5
 73
   0
 11
332.915576
 21
272.946368
  0
TEXT
  8
5
  6
CONTINUOUS
 62
7
 10
342.770576
 20
272.946368
 40
3.000000
  1
定  格 / 型  番 / 材　質
 41
0.686277
 50
0.000000
 51
0.000000
 72
   5
 73
   0
 11
373.076576
 21
272.946368
  0
TEXT
  8
5
  6
CONTINUOUS
 62
7
 10
380.226076
 20
272.946368
 40
3.000000
  1
メーカー
 41
0.768293
 50
0.000000
 51
0.000000
 72
   5
 73
   0
 11
390.621076
 21
272.946368
  0
TEXT
  8
5
  6
CONTINUOUS
 62
7
 10
393.123576
 20
273.296368
 40
2.300000
  1
数量
 41
0.921659
 50
0.000000
 51
0.000000
 72
   5
 73
   0
 11
397.723576
 21
273.296368
  0
LINE
  8
5
  6
CONTINUOUS
 62
6
 10
312.9235759729
 20
266.9463679840
 11
312.9235759729
 21
271.9463679840
  0
LINE
  8
5
  6
CONTINUOUS
 62
6
 10
312.9235759729
 20
271.9463679840
 11
317.9235759729
 21
271.9463679840
  0
LINE
  8
5
  6
CONTINUOUS
 62
6
 10
317.9235759729
 20
271.9463679840
 11
337.9235759729
 21
271.9463679840
  0
LINE
  8
5
  6
CONTINUOUS
 62
6
 10
337.9235759729
 20
271.9463679840
 11
377.9235759729
 21
271.9463679840
  0
LINE
  8
5
  6
CONTINUOUS
 62
6
 10
377.9235759729
 20
271.9463679840
 11
392.9235759729
 21
271.9463679840
  0
LINE
  8
5
  6
CONTINUOUS
 62
6
 10
392.9235759729
 20
271.9463679840
 11
397.9235759729
 21
271.9463679840
  0
LINE
  8
5
  6
CONTINUOUS
 62
6
 10
397.9235759729
 20
271.9463679840
 11
397.9235759729
 21
266.9463679840
  0
LINE
  8
5
  6
CONTINUOUS
 62
6
 10
397.9235759729
 20
266.9463679840
 11
392.9235759729
 21
266.9463679840
  0
LINE
  8
5
  6
CONTINUOUS
 62
6
 10
392.9235759729
 20
266.9463679840
 11
377.9235759729
 21
266.9463679840
  0
LINE
  8
5
  6
CONTINUOUS
 62
6
 10
337.9235759729
 20
266.9463679840
 11
317.9235759729
 21
266.9463679840
  0
LINE
  8
5
  6
CONTINUOUS
 62
6
 10
317.9235759729
 20
266.9463679840
 11
312.9235759729
 21
266.9463679840
  0
LINE
  8
5
  6
CONTINUOUS
 62
6
 10
317.9235759729
 20
271.9463679840
 11
317.9235759729
 21
266.9463679840
  0
LINE
  8
5
  6
CONTINUOUS
 62
6
 10
337.9235759729
 20
271.9463679840
 11
337.9235759729
 21
266.9463679840
  0
LINE
  8
5
  6
CONTINUOUS
 62
6
 10
377.9235759729
 20
271.9463679840
 11
377.9235759729
 21
266.9463679840
  0
LINE
  8
5
  6
CONTINUOUS
 62
6
 10
392.9235759729
 20
271.9463679840
 11
392.9235759729
 21
266.9463679840
  0
TEXT
  8
5
  6
CONTINUOUS
 62
7
 10
314.548576
 20
267.696368
 40
3.500000
  1
1
 41
1.000000
 50
0.000000
 51
0.000000
 72
   5
 73
   0
 11
316.298576
 21
267.696368
  0
TEXT
  8
5
  6
CONTINUOUS
 62
7
 10
318.923576
 20
267.946368
 40
3.000000
  1
ベース
 41
0.841018
 50
0.000000
 51
0.000000
 72
   5
 73
   0
 11
327.350576
 21
267.946368
  0
TEXT
  8
5
  6
CONTINUOUS
 62
7
 10
394.548576
 20
267.696368
 40
3.500000
  1
1
 41
1.000000
 50
0.000000
 51
0.000000
 72
   5
 73
   0
 11
396.298576
 21
267.696368
  0
LINE
  8
5
  6
CONTINUOUS
 62
6
 10
397.9235759729
 20
261.9463679840
 11
392.9235759729
 21
261.9463679840
  0
LINE
  8
5
  6
CONTINUOUS
 62
6
 10
397.9235759729
 20
256.9463679840
 11
392.9235759729
 21
256.9463679840
  0
LINE
  8
5
  6
CONTINUOUS
 62
6
 10
397.9235759729
 20
251.9463679840
 11
392.9235759729
 21
251.9463679840
  0
LINE
  8
5
  6
CONTINUOUS
 62
6
 10
397.9235759729
 20
246.9463679840
 11
392.9235759729
 21
246.9463679840
  0
LINE
  8
5
  6
CONTINUOUS
 62
6
 10
397.9235759729
 20
241.9463679840
 11
392.9235759729
 21
241.9463679840
  0
LINE
  8
5
  6
CONTINUOUS
 62
6
 10
397.9235759729
 20
236.9463679840
 11
392.9235759729
 21
236.9463679840
  0
LINE
  8
5
  6
CONTINUOUS
 62
6
 10
397.9235759729
 20
231.9463679840
 11
392.9235759729
 21
231.9463679840
  0
LINE
  8
5
  6
CONTINUOUS
 62
6
 10
397.9235759729
 20
226.9463679840
 11
392.9235759729
 21
226.9463679840
  0
LINE
  8
5
  6
CONTINUOUS
 62
6
 10
392.9235759729
 20
261.9463679840
 11
377.9235759729
 21
261.9463679840
  0
LINE
  8
5
  6
CONTINUOUS
 62
6
 10
392.9235759729
 20
256.9463679840
 11
377.9235759729
 21
256.9463679840
  0
LINE
  8
5
  6
CONTINUOUS
 62
6
 10
392.9235759729
 20
251.9463679840
 11
377.9235759729
 21
251.9463679840
  0
LINE
  8
5
  6
CONTINUOUS
 62
6
 10
392.9235759729
 20
246.9463679840
 11
377.9235759729
 21
246.9463679840
  0
LINE
  8
5
  6
CONTINUOUS
 62
6
 10
392.9235759729
 20
241.9463679840
 11
377.9235759729
 21
241.9463679840
  0
LINE
  8
5
  6
CONTINUOUS
 62
6
 10
392.9235759729
 20
236.9463679840
 11
377.9235759729
 21
236.9463679840
  0
LINE
  8
5
  6
CONTINUOUS
 62
6
 10
392.9235759729
 20
231.9463679840
 11
377.9235759729
 21
231.9463679840
  0
LINE
  8
5
  6
CONTINUOUS
 62
6
 10
392.9235759729
 20
226.9463679840
 11
377.9235759729
 21
226.9463679840
  0
LINE
  8
5
  6
CONTINUOUS
 62
6
 10
377.9235759729
 20
261.9463679840
 11
337.9235759729
 21
261.9463679840
  0
LINE
  8
5
  6
CONTINUOUS
 62
6
 10
377.9235759729
 20
256.9463679840
 11
337.9235759729
 21
256.9463679840
  0
LINE
  8
5
  6
CONTINUOUS
 62
6
 10
377.9235759729
 20
251.9463679840
 11
337.9235759729
 21
251.9463679840
  0
LINE
  8
5
  6
CONTINUOUS
 62
6
 10
377.9235759729
 20
246.9463679840
 11
337.9235759729
 21
246.9463679840
  0
LINE
  8
5
  6
CONTINUOUS
 62
6
 10
377.9235759729
 20
241.9463679840
 11
337.9235759729
 21
241.9463679840
  0
LINE
  8
5
  6
CONTINUOUS
 62
6
 10
377.9235759729
 20
236.9463679840
 11
337.9235759729
 21
236.9463679840
  0
LINE
  8
5
  6
CONTINUOUS
 62
6
 10
377.9235759729
 20
231.9463679840
 11
337.9235759729
 21
231.9463679840
  0
LINE
  8
5
  6
CONTINUOUS
 62
6
 10
337.9235759729
 20
261.9463679840
 11
317.9235759729
 21
261.9463679840
  0
LINE
  8
5
  6
CONTINUOUS
 62
6
 10
337.9235759729
 20
256.9463679840
 11
317.9235759729
 21
256.9463679840
  0
LINE
  8
5
  6
CONTINUOUS
 62
6
 10
337.9235759729
 20
251.9463679840
 11
317.9235759729
 21
251.9463679840
  0
LINE
  8
5
  6
CONTINUOUS
 62
6
 10
337.9235759729
 20
246.9463679840
 11
317.9235759729
 21
246.9463679840
  0
LINE
  8
5
  6
CONTINUOUS
 62
6
 10
337.9235759729
 20
241.9463679840
 11
317.9235759729
 21
241.9463679840
  0
LINE
  8
5
  6
CONTINUOUS
 62
6
 10
337.9235759729
 20
236.9463679840
 11
317.9235759729
 21
236.9463679840
  0
LINE
  8
5
  6
CONTINUOUS
 62
6
 10
337.9235759729
 20
231.9463679840
 11
317.9235759729
 21
231.9463679840
  0
LINE
  8
5
  6
CONTINUOUS
 62
6
 10
337.9235759729
 20
226.9463679840
 11
317.9235759729
 21
226.9463679840
  0
LINE
  8
5
  6
CONTINUOUS
 62
6
 10
317.9235759729
 20
261.9463679840
 11
312.9235759729
 21
261.9463679840
  0
LINE
  8
5
  6
CONTINUOUS
 62
6
 10
317.9235759729
 20
256.9463679840
 11
312.9235759729
 21
256.9463679840
  0
LINE
  8
5
  6
CONTINUOUS
 62
6
 10
317.9235759729
 20
251.9463679840
 11
312.9235759729
 21
251.9463679840
  0
LINE
  8
5
  6
CONTINUOUS
 62
6
 10
317.9235759729
 20
246.9463679840
 11
312.9235759729
 21
246.9463679840
  0
LINE
  8
5
  6
CONTINUOUS
 62
6
 10
317.9235759729
 20
241.9463679840
 11
312.9235759729
 21
241.9463679840
  0
LINE
  8
5
  6
CONTINUOUS
 62
6
 10
317.9235759729
 20
236.9463679840
 11
312.9235759729
 21
236.9463679840
  0
LINE
  8
5
  6
CONTINUOUS
 62
6
 10
317.9235759729
 20
231.9463679840
 11
312.9235759729
 21
231.9463679840
  0
LINE
  8
5
  6
CONTINUOUS
 62
6
 10
317.9235759729
 20
226.9463679840
 11
312.9235759729
 21
226.9463679840
  0
TEXT
  8
5
  6
CONTINUOUS
 62
7
 10
314.548576
 20
262.696368
 40
3.500000
  1
2
 41
1.000000
 50
0.000000
 51
0.000000
 72
   5
 73
   0
 11
316.298576
 21
262.696368
  0
TEXT
  8
5
  6
CONTINUOUS
 62
7
 10
314.548576
 20
257.696368
 40
3.500000
  1
3
 41
1.000000
 50
0.000000
 51
0.000000
 72
   5
 73
   0
 11
316.298576
 21
257.696368
  0
TEXT
  8
5
  6
CONTINUOUS
 62
7
 10
314.548576
 20
252.696368
 40
3.500000
  1
4
 41
1.000000
 50
0.000000
 51
0.000000
 72
   5
 73
   0
 11
316.298576
 21
252.696368
  0
TEXT
  8
5
  6
CONTINUOUS
 62
7
 10
314.548576
 20
247.696368
 40
3.500000
  1
5
 41
1.000000
 50
0.000000
 51
0.000000
 72
   5
 73
   0
 11
316.298576
 21
247.696368
  0
TEXT
  8
5
  6
CONTINUOUS
 62
7
 10
314.548576
 20
242.696368
 40
3.500000
  1
6
 41
1.000000
 50
0.000000
 51
0.000000
 72
   5
 73
   0
 11
316.298576
 21
242.696368
  0
TEXT
  8
5
  6
CONTINUOUS
 62
7
 10
314.548576
 20
237.696368
 40
3.500000
  1
7
 41
1.000000
 50
0.000000
 51
0.000000
 72
   5
 73
   0
 11
316.298576
 21
237.696368
  0
TEXT
  8
5
  6
CONTINUOUS
 62
7
 10
314.548576
 20
232.696368
 40
3.500000
  1
8
 41
1.000000
 50
0.000000
 51
0.000000
 72
   5
 73
   0
 11
316.298576
 21
232.696368
  0
TEXT
  8
5
  6
CONTINUOUS
 62
7
 10
314.548576
 20
227.696368
 40
3.500000
  1
9
 41
1.000000
 50
0.000000
 51
0.000000
 72
   5
 73
   0
 11
316.298576
 21
227.696368
  0
TEXT
  8
5
  6
CONTINUOUS
 62
7
 10
318.923576
 20
262.946368
 40
3.000000
  1
カバー
 41
0.833832
 50
0.000000
 51
0.000000
 72
   5
 73
   0
 11
327.278576
 21
262.946368
  0
TEXT
  8
5
  6
CONTINUOUS
 62
7
 10
318.923576
 20
257.946368
 40
3.000000
  1
ロック
 41
0.719162
 50
0.000000
 51
0.000000
 72
   5
 73
   0
 11
326.129576
 21
257.946368
  0
TEXT
  8
5
  6
CONTINUOUS
 62
7
 10
318.923576
 20
252.946368
 40
3.000000
  1
添付品ﾋﾞｽ
 41
0.822804
 50
0.000000
 51
0.000000
 72
   5
 73
   0
 11
332.129576
 21
252.946368
  0
TEXT
  8
5
  6
CONTINUOUS
 62
7
 10
318.923576
 20
242.946368
 40
3.000000
  1
添付品ﾋﾞｽ
 41
0.822804
 50
0.000000
 51
0.000000
 72
   5
 73
   0
 11
332.129576
 21
242.946368
  0
TEXT
  8
5
  6
CONTINUOUS
 62
7
 10
318.923576
 20
237.946368
 40
3.000000
  1
添付品ﾋﾞｽ
 41
0.822804
 50
0.000000
 51
0.000000
 72
   5
 73
   0
 11
332.129576
 21
237.946368
  0
TEXT
  8
5
  6
CONTINUOUS
 62
7
 10
338.923576
 20
257.946368
 40
3.000000
  1
M4×20 脱落防止ビス
 41
0.819085
 50
0.000000
 51
0.000000
 72
   5
 73
   0
 11
366.862576
 21
257.946368
  0
TEXT
  8
5
  6
CONTINUOUS
 62
7
 10
338.923576
 20
252.946368
 40
3.000000
  1
M3×8小ワｾﾑｽ(ﾍﾞｰｽ固定用)
 41
0.831095
 50
0.000000
 51
0.000000
 72
   5
 73
   0
 11
376.048576
 21
252.946368
  0
TEXT
  8
5
  6
CONTINUOUS
 62
7
 10
338.923576
 20
242.946368
 40
3.000000
  1
M5×10ｱﾌﾞｾｯﾄ
 41
0.813247
 50
0.000000
 51
0.000000
 72
   5
 73
   0
 11
357.709576
 21
242.946368
  0
TEXT
  8
5
  6
CONTINUOUS
 62
7
 10
338.923576
 20
237.946368
 40
3.000000
  1
M5 内歯菊座金
 41
0.851365
 50
0.000000
 51
0.000000
 72
   5
 73
   0
 11
358.564576
 21
237.946368
  0
TEXT
  8
5
  6
CONTINUOUS
 62
7
 10
394.548576
 20
262.696368
 40
3.500000
  1
1
 41
1.000000
 50
0.000000
 51
0.000000
 72
   5
 73
   0
 11
396.298576
 21
262.696368
  0
TEXT
  8
5
  6
CONTINUOUS
 62
7
 10
394.548576
 20
257.696368
 40
3.500000
  1
1
 41
1.000000
 50
0.000000
 51
0.000000
 72
   5
 73
   0
 11
396.298576
 21
257.696368
  0
TEXT
  8
5
  6
CONTINUOUS
 62
7
 10
394.548576
 20
252.696368
 40
3.500000
  1
4
 41
1.000000
 50
0.000000
 51
0.000000
 72
   5
 73
   0
 11
396.298576
 21
252.696368
  0
TEXT
  8
5
  6
CONTINUOUS
 62
7
 10
394.548576
 20
242.696368
 40
3.500000
  1
1
 41
1.000000
 50
0.000000
 51
0.000000
 72
   5
 73
   0
 11
396.298576
 21
242.696368
  0
TEXT
  8
5
  6
CONTINUOUS
 62
7
 10
394.548576
 20
237.696368
 40
3.500000
  1
1
 41
1.000000
 50
0.000000
 51
0.000000
 72
   5
 73
   0
 11
396.298576
 21
237.696368
  0
LINE
  8
5
  6
CONTINUOUS
 62
6
 10
312.9235759729
 20
261.9463679840
 11
312.9235759729
 21
266.9463679840
  0
LINE
  8
5
  6
CONTINUOUS
 62
6
 10
312.9235759729
 20
256.9463679840
 11
312.9235759729
 21
261.9463679840
  0
LINE
  8
5
  6
CONTINUOUS
 62
6
 10
312.9235759729
 20
251.9463679840
 11
312.9235759729
 21
256.9463679840
  0
LINE
  8
5
  6
CONTINUOUS
 62
6
 10
312.9235759729
 20
246.9463679840
 11
312.9235759729
 21
251.9463679840
  0
LINE
  8
5
  6
CONTINUOUS
 62
6
 10
312.9235759729
 20
241.9463679840
 11
312.9235759729
 21
246.9463679840
  0
LINE
  8
5
  6
CONTINUOUS
 62
6
 10
312.9235759729
 20
236.9463679840
 11
312.9235759729
 21
241.9463679840
  0
LINE
  8
5
  6
CONTINUOUS
 62
6
 10
312.9235759729
 20
226.9463679840
 11
312.9235759729
 21
231.9463679840
  0
LINE
  8
5
  6
CONTINUOUS
 62
6
 10
317.9235759729
 20
266.9463679840
 11
317.9235759729
 21
261.9463679840
  0
LINE
  8
5
  6
CONTINUOUS
 62
6
 10
317.9235759729
 20
261.9463679840
 11
317.9235759729
 21
256.9463679840
  0
LINE
  8
5
  6
CONTINUOUS
 62
6
 10
317.9235759729
 20
256.9463679840
 11
317.9235759729
 21
251.9463679840
  0
LINE
  8
5
  6
CONTINUOUS
 62
6
 10
317.9235759729
 20
251.9463679840
 11
317.9235759729
 21
246.9463679840
  0
LINE
  8
5
  6
CONTINUOUS
 62
6
 10
317.9235759729
 20
246.9463679840
 11
317.9235759729
 21
241.9463679840
  0
LINE
  8
5
  6
CONTINUOUS
 62
6
 10
317.9235759729
 20
241.9463679840
 11
317.9235759729
 21
236.9463679840
  0
LINE
  8
5
  6
CONTINUOUS
 62
6
 10
317.9235759729
 20
236.9463679840
 11
317.9235759729
 21
231.9463679840
  0
LINE
  8
5
  6
CONTINUOUS
 62
6
 10
317.9235759729
 20
231.9463679840
 11
317.9235759729
 21
226.9463679840
  0
LINE
  8
5
  6
CONTINUOUS
 62
6
 10
337.9235759729
 20
266.9463679840
 11
337.9235759729
 21
261.9463679840
  0
LINE
  8
5
  6
CONTINUOUS
 62
6
 10
337.9235759729
 20
261.9463679840
 11
337.9235759729
 21
256.9463679840
  0
LINE
  8
5
  6
CONTINUOUS
 62
6
 10
337.9235759729
 20
256.9463679840
 11
337.9235759729
 21
251.9463679840
  0
LINE
  8
5
  6
CONTINUOUS
 62
6
 10
337.9235759729
 20
251.9463679840
 11
337.9235759729
 21
246.9463679840
  0
LINE
  8
5
  6
CONTINUOUS
 62
6
 10
337.9235759729
 20
246.9463679840
 11
337.9235759729
 21
241.9463679840
  0
LINE
  8
5
  6
CONTINUOUS
 62
6
 10
337.9235759729
 20
241.9463679840
 11
337.9235759729
 21
236.9463679840
  0
LINE
  8
5
  6
CONTINUOUS
 62
6
 10
337.9235759729
 20
236.9463679840
 11
337.9235759729
 21
231.9463679840
  0
LINE
  8
5
  6
CONTINUOUS
 62
6
 10
337.9235759729
 20
231.9463679840
 11
337.9235759729
 21
226.9463679840
  0
LINE
  8
5
  6
CONTINUOUS
 62
6
 10
377.9235759729
 20
266.9463679840
 11
377.9235759729
 21
261.9463679840
  0
LINE
  8
5
  6
CONTINUOUS
 62
6
 10
377.9235759729
 20
261.9463679840
 11
377.9235759729
 21
256.9463679840
  0
LINE
  8
5
  6
CONTINUOUS
 62
6
 10
377.9235759729
 20
251.9463679840
 11
377.9235759729
 21
246.9463679840
  0
LINE
  8
5
  6
CONTINUOUS
 62
6
 10
377.9235759729
 20
246.9463679840
 11
377.9235759729
 21
241.9463679840
  0
LINE
  8
5
  6
CONTINUOUS
 62
6
 10
377.9235759729
 20
241.9463679840
 11
377.9235759729
 21
236.9463679840
  0
LINE
  8
5
  6
CONTINUOUS
 62
6
 10
377.9235759729
 20
236.9463679840
 11
377.9235759729
 21
231.9463679840
  0
LINE
  8
5
  6
CONTINUOUS
 62
6
 10
377.9235759729
 20
231.9463679840
 11
377.9235759729
 21
226.9463679840
  0
LINE
  8
5
  6
CONTINUOUS
 62
6
 10
392.9235759729
 20
266.9463679840
 11
392.9235759729
 21
261.9463679840
  0
LINE
  8
5
  6
CONTINUOUS
 62
6
 10
392.9235759729
 20
261.9463679840
 11
392.9235759729
 21
256.9463679840
  0
LINE
  8
5
  6
CONTINUOUS
 62
6
 10
392.9235759729
 20
256.9463679840
 11
392.9235759729
 21
251.9463679840
  0
LINE
  8
5
  6
CONTINUOUS
 62
6
 10
392.9235759729
 20
251.9463679840
 11
392.9235759729
 21
246.9463679840
  0
LINE
  8
5
  6
CONTINUOUS
 62
6
 10
392.9235759729
 20
246.9463679840
 11
392.9235759729
 21
241.9463679840
  0
LINE
  8
5
  6
CONTINUOUS
 62
6
 10
392.9235759729
 20
241.9463679840
 11
392.9235759729
 21
236.9463679840
  0
LINE
  8
5
  6
CONTINUOUS
 62
6
 10
392.9235759729
 20
236.9463679840
 11
392.9235759729
 21
231.9463679840
  0
LINE
  8
5
  6
CONTINUOUS
 62
6
 10
392.9235759729
 20
231.9463679840
 11
392.9235759729
 21
226.9463679840
  0
LINE
  8
5
  6
CONTINUOUS
 62
6
 10
397.9235759729
 20
266.9463679840
 11
397.9235759729
 21
261.9463679840
  0
LINE
  8
5
  6
CONTINUOUS
 62
6
 10
397.9235759729
 20
261.9463679840
 11
397.9235759729
 21
256.9463679840
  0
LINE
  8
5
  6
CONTINUOUS
 62
6
 10
397.9235759729
 20
256.9463679840
 11
397.9235759729
 21
251.9463679840
  0
LINE
  8
5
  6
CONTINUOUS
 62
6
 10
397.9235759729
 20
251.9463679840
 11
397.9235759729
 21
246.9463679840
  0
LINE
  8
5
  6
CONTINUOUS
 62
6
 10
397.9235759729
 20
246.9463679840
 11
397.9235759729
 21
241.9463679840
  0
LINE
  8
5
  6
CONTINUOUS
 62
6
 10
397.9235759729
 20
241.9463679840
 11
397.9235759729
 21
236.9463679840
  0
LINE
  8
5
  6
CONTINUOUS
 62
6
 10
397.9235759729
 20
236.9463679840
 11
397.9235759729
 21
231.9463679840
  0
LINE
  8
5
  6
CONTINUOUS
 62
6
 10
397.9235759729
 20
231.9463679840
 11
397.9235759729
 21
226.9463679840
  0
LINE
  8
5
  6
CONTINUOUS
 62
6
 10
397.9235759729
 20
221.9463679840
 11
392.9235759729
 21
221.9463679840
  0
LINE
  8
5
  6
CONTINUOUS
 62
6
 10
392.9235759729
 20
221.9463679840
 11
377.9235759729
 21
221.9463679840
  0
LINE
  8
5
  6
CONTINUOUS
 62
6
 10
377.9235759729
 20
221.9463679840
 11
337.9235759729
 21
221.9463679840
  0
LINE
  8
5
  6
CONTINUOUS
 62
6
 10
337.9235759729
 20
221.9463679840
 11
317.9235759729
 21
221.9463679840
  0
LINE
  8
5
  6
CONTINUOUS
 62
6
 10
317.9235759729
 20
221.9463679840
 11
312.9235759729
 21
221.9463679840
  0
LINE
  8
5
  6
CONTINUOUS
 62
6
 10
312.9235759729
 20
221.9463679840
 11
312.9235759729
 21
226.9463679840
  0
LINE
  8
5
  6
CONTINUOUS
 62
6
 10
317.9235759729
 20
226.9463679840
 11
317.9235759729
 21
221.9463679840
  0
LINE
  8
5
  6
CONTINUOUS
 62
6
 10
337.9235759729
 20
226.9463679840
 11
337.9235759729
 21
221.9463679840
  0
LINE
  8
5
  6
CONTINUOUS
 62
6
 10
377.9235759729
 20
226.9463679840
 11
377.9235759729
 21
221.9463679840
  0
LINE
  8
5
  6
CONTINUOUS
 62
6
 10
392.9235759729
 20
226.9463679840
 11
392.9235759729
 21
221.9463679840
  0
LINE
  8
5
  6
CONTINUOUS
 62
6
 10
397.9235759729
 20
226.9463679840
 11
397.9235759729
 21
221.9463679840
  0
ENDBLK
  8
0
  0
BLOCK
  8
1
  2
BALN0
 70
     0
 10
65.1092980532
 20
67.0636039311
  3
BALN0
  0
SOLID
  8
1
  6
CONTINUOUS
 62
5
 10
67.0995994495
 20
66.8668798809
 11
66.7345875985
 21
65.8980852079
 12
65.1092980532
 22
67.0636039311
 13
65.1092980532
 23
67.0636039311
  0
LINE
  8
1
  6
BYBLOCK
 62
5
 10
65.1092980532
 20
67.0636039311
 11
88.4832927053
 21
58.2570061116
  0
CIRCLE
  8
1
  6
BYBLOCK
 62
5
 10
91.2906440902
 20
57.1992829901
 40
3.0000000000
  0
TEXT
  8
1
  6
CONTINUOUS
 62
7
 10
90.415644
 20
55.449283
 40
3.500000
  1
3
 41
1.000000
 50
0.000000
 51
0.000000
 72
   5
 73
   0
 11
92.165644
 21
55.449283
  0
ENDBLK
  8
0
  0
BLOCK
  8
1
  2
*D6
 70
     1
 10
0.0000000000
 20
0.0000000000
  3
*D6
  0
LINE
  8
1
  6
BYBLOCK
 62
5
 10
142.4822443727
 20
88.0542751045
 11
141.4983420815
 21
85.7560287554
  0
LINE
  8
1
  6
BYBLOCK
 62
5
 10
144.4500489552
 20
92.6507678028
 11
145.4339512464
 21
94.9490141519
  0
SOLID
  8
1
  6
CONTINUOUS
 62
5
 10
142.1978070062
 20
86.0746045803
 11
141.2460791254
 21
86.4820488227
 12
142.4822443727
 22
88.0542751045
 13
142.4822443727
 23
88.0542751045
  0
SOLID
  8
1
  6
CONTINUOUS
 62
5
 10
144.7344863217
 20
94.6304383270
 11
145.6862142025
 21
94.2229940847
 12
144.4500489552
 22
92.6507678028
 13
144.4500489552
 23
92.6507678028
  0
TEXT
  8
1
  6
CONTINUOUS
 62
7
 10
145.999175
 20
98.810194
 40
3.500000
  1
2-M5
 41
0.796813
 50
66.823748
 51
0.000000
 72
   5
 73
   0
 11
148.754102
 21
105.245284
  0
POINT
  8
DEFPOINTS
  6
BYBLOCK
 62
5
 10
142.4822443727
 20
88.0542751045
  0
POINT
  8
DEFPOINTS
  6
BYBLOCK
 62
5
 10
144.4500489552
 20
92.6507678028
  0
LINE
  8
1
  6
BYBLOCK
 62
5
 10
142.4822443727
 20
88.0542751045
 11
149.6734002150
 21
104.8517231924
  0
ENDBLK
  8
0
  0
BLOCK
  8
3
  2
LTEX0
 70
     0
 10
143.4661466639
 20
87.8525214537
  3
LTEX0
  0
SOLID
  8
3
  6
CONTINUOUS
 62
5
 10
143.6084688299
 20
85.8575917805
 11
142.5919364386
 21
86.0537005949
 12
143.4661466639
 22
87.8525214537
 13
143.4661466639
 23
87.8525214537
  0
TEXT
  8
3
  6
CONTINUOUS
 62
7
 10
138.506017
 20
63.141631
 40
5.000000
  1
 ⑥⑦
 41
0.880282
 50
0.000000
 51
0.000000
 72
   5
 73
   0
 11
151.006017
 21
63.141631
  0
LINE
  8
3
  6
BYBLOCK
 62
5
 10
143.4661466639
 20
87.8525214537
 11
138.5060171650
 21
62.1416307173
  0
LINE
  8
3
  6
BYBLOCK
 62
5
 10
138.5060171650
 20
62.1416307173
 11
151.0060171650
 21
62.1416307173
  0
ENDBLK
  8
0
  0
BLOCK
  8
3
  2
BALN1
 70
     0
 10
110.9395553908
 20
197.7445137344
  3
BALN1
  0
SOLID
  8
3
  6
CONTINUOUS
 62
5
 10
109.9794309481
 20
199.4989826154
 11
110.9852976731
 21
199.7439905769
 12
110.9395553908
 22
197.7445137344
 13
110.9395553908
 23
197.7445137344
  0
LINE
  8
3
  6
BYBLOCK
 62
5
 10
110.9395553908
 20
197.7445137344
 11
104.2398643142
 21
225.2497273708
  0
CIRCLE
  8
3
  6
BYBLOCK
 62
5
 10
103.5298857614
 20
228.1645053134
 40
3.0000000000
  0
TEXT
  8
3
  6
CONTINUOUS
 62
7
 10
102.654886
 20
226.414505
 40
3.500000
  1
2
 41
1.000000
 50
0.000000
 51
0.000000
 72
   5
 73
   0
 11
104.404886
 21
226.414505
  0
ENDBLK
  8
0
  0
BLOCK
  8
3
  2
BALN2
 70
     0
 10
130.9399894366
 20
211.8393700363
  3
BALN2
  0
SOLID
  8
3
  6
CONTINUOUS
 62
5
 10
130.6388546845
 20
213.8165695358
 11
131.6677988411
 21
213.7022424073
 12
130.9399894366
 22
211.8393700363
 13
130.9399894366
 23
211.8393700363
  0
LINE
  8
3
  6
BYBLOCK
 62
5
 10
130.9399894366
 20
211.8393700363
 11
132.4225987781
 21
225.1828541094
  0
CIRCLE
  8
3
  6
BYBLOCK
 62
5
 10
132.7538933563
 20
228.1645053134
 40
3.0000000000
  0
TEXT
  8
3
  6
CONTINUOUS
 62
7
 10
131.878893
 20
226.414505
 40
3.500000
  1
1
 41
1.000000
 50
0.000000
 51
0.000000
 72
   5
 73
   0
 11
133.628893
 21
226.414505
  0
ENDBLK
  8
0
  0
BLOCK
  8
3
  2
BALN3
 70
     0
 10
173.9105182328
 20
197.3525214537
  3
BALN3
  0
SOLID
  8
3
  6
CONTINUOUS
 62
5
 10
172.9725529828
 20
199.1189362379
 11
173.9814238906
 21
199.3512641554
 12
173.9105182328
 22
197.3525214537
 13
173.9105182328
 23
197.3525214537
  0
LINE
  8
3
  6
BYBLOCK
 62
5
 10
173.9105182328
 20
197.3525214537
 11
167.4882126774
 21
225.2410219179
  0
CIRCLE
  8
3
  6
BYBLOCK
 62
5
 10
166.8149780704
 20
228.1645053134
 40
3.0000000000
  0
TEXT
  8
3
  6
CONTINUOUS
 62
7
 10
165.939978
 20
226.414505
 40
3.500000
  1
4
 41
1.000000
 50
0.000000
 51
0.000000
 72
   5
 73
   0
 11
167.689978
 21
226.414505
  0
ENDBLK
  8
0
  0
BLOCK
  8
3
  2
BALN4
 70
     0
 10
193.9105182328
 20
197.3525214537
  3
BALN4
  0
SOLID
  8
3
  6
CONTINUOUS
 62
5
 10
193.1296052330
 20
199.1937642097
 11
194.1548491148
 21
199.3375409549
 12
193.9105182328
 22
197.3525214537
 13
193.9105182328
 23
197.3525214537
  0
LINE
  8
3
  6
BYBLOCK
 62
5
 10
193.9105182328
 20
197.3525214537
 11
190.0061825204
 21
225.1935766822
  0
CIRCLE
  8
3
  6
BYBLOCK
 62
5
 10
189.5895495064
 20
228.1645053134
 40
3.0000000000
  0
TEXT
  8
3
  6
CONTINUOUS
 62
7
 10
188.714550
 20
226.414505
 40
3.500000
  1
5
 41
1.000000
 50
0.000000
 51
0.000000
 72
   5
 73
   0
 11
190.464550
 21
226.414505
  0
ENDBLK
  8
0
  0
BLOCK
  8
3
  2
BALN5
 70
     0
 10
205.2240678788
 20
195.9771255586
  3
BALN5
  0
SOLID
  8
3
  6
CONTINUOUS
 62
5
 10
204.9068082572
 20
197.9518018188
 11
205.9366511169
 21
197.8458751750
 12
205.2240678788
 22
195.9771255586
 13
205.2240678788
 23
195.9771255586
  0
LINE
  8
3
  6
BYBLOCK
 62
5
 10
205.2240678788
 20
195.9771255586
 11
208.2278163802
 21
225.1802498676
  0
CIRCLE
  8
3
  6
BYBLOCK
 62
5
 10
208.5347682231
 20
228.1645053134
 40
3.0000000000
  0
TEXT
  8
3
  6
CONTINUOUS
 62
7
 10
207.659768
 20
226.414505
 40
3.500000
  1
8
 41
1.000000
 50
0.000000
 51
0.000000
 72
   5
 73
   0
 11
209.409768
 21
226.414505
  0
ENDBLK
  8
0
  0
BLOCK
  8
4
  2
*D7
 70
     1
 10
0.0000000000
 20
0.0000000000
  3
*D7
  0
LINE
  8
4
  6
BYBLOCK
 62
5
 10
319.0572849682
 20
173.1619743881
 11
319.0572849682
 21
184.8554232121
  0
LINE
  8
4
  6
BYBLOCK
 62
5
 10
325.5572849682
 20
176.1619743881
 11
325.5572849682
 21
184.8554232121
  0
LINE
  8
4
  6
BYBLOCK
 62
5
 10
325.5572849682
 20
183.8554232121
 11
319.0572849682
 21
183.8554232121
  0
SOLID
  8
4
  6
CONTINUOUS
 62
5
 10
320.9891366208
 20
184.3730613023
 11
320.9891366208
 21
183.3377851219
 12
319.0572849682
 22
183.8554232121
 13
319.0572849682
 23
183.8554232121
  0
SOLID
  8
4
  6
CONTINUOUS
 62
5
 10
323.6254333156
 20
183.3377851219
 11
323.6254333156
 21
184.3730613023
 12
325.5572849682
 22
183.8554232121
 13
325.5572849682
 23
183.8554232121
  0
TEXT
  8
4
  6
CONTINUOUS
 62
7
 10
319.682285
 20
184.855423
 40
3.500000
  1
6.5
 41
0.815217
 50
0.000000
 51
0.000000
 72
   5
 73
   0
 11
324.932285
 21
184.855423
  0
POINT
  8
DEFPOINTS
  6
BYBLOCK
 62
5
 10
319.0572849682
 20
172.6619743881
  0
POINT
  8
DEFPOINTS
  6
BYBLOCK
 62
5
 10
325.5572849682
 20
175.6619743881
  0
POINT
  8
DEFPOINTS
  6
BYBLOCK
 62
5
 10
325.5572849682
 20
183.8554232121
  0
ENDBLK
  8
0
  0
BLOCK
  8
4
  2
*D8
 70
     1
 10
0.0000000000
 20
0.0000000000
  3
*D8
  0
LINE
  8
4
  6
BYBLOCK
 62
5
 10
345.5572849682
 20
175.4119743881
 11
345.5572849682
 21
184.8554232121
  0
LINE
  8
4
  6
BYBLOCK
 62
5
 10
345.5572849682
 20
183.8554232121
 11
325.5572849682
 21
183.8554232121
  0
SOLID
  8
4
  6
CONTINUOUS
 62
5
 10
327.4891366208
 20
184.3730613023
 11
327.4891366208
 21
183.3377851219
 12
325.5572849682
 22
183.8554232121
 13
325.5572849682
 23
183.8554232121
  0
SOLID
  8
4
  6
CONTINUOUS
 62
5
 10
343.6254333156
 20
183.3377851219
 11
343.6254333156
 21
184.3730613023
 12
345.5572849682
 22
183.8554232121
 13
345.5572849682
 23
183.8554232121
  0
TEXT
  8
4
  6
CONTINUOUS
 62
7
 10
333.807285
 20
184.855423
 40
3.500000
  1
20
 41
0.854701
 50
0.000000
 51
0.000000
 72
   5
 73
   0
 11
337.307285
 21
184.855423
  0
POINT
  8
DEFPOINTS
  6
BYBLOCK
 62
5
 10
325.5572849682
 20
175.6619743881
  0
POINT
  8
DEFPOINTS
  6
BYBLOCK
 62
5
 10
345.5572849682
 20
174.9119743881
  0
POINT
  8
DEFPOINTS
  6
BYBLOCK
 62
5
 10
345.5572849682
 20
183.8554232121
  0
ENDBLK
  8
0
  0
BLOCK
  8
4
  2
*D9
 70
     1
 10
0.0000000000
 20
0.0000000000
  3
*D9
  0
LINE
  8
4
  6
BYBLOCK
 62
5
 10
365.5572849682
 20
176.1619743881
 11
365.5572849682
 21
184.8554232121
  0
LINE
  8
4
  6
BYBLOCK
 62
5
 10
365.5572849682
 20
183.8554232121
 11
345.5572849682
 21
183.8554232121
  0
SOLID
  8
4
  6
CONTINUOUS
 62
5
 10
347.4891366208
 20
184.3730613023
 11
347.4891366208
 21
183.3377851219
 12
345.5572849682
 22
183.8554232121
 13
345.5572849682
 23
183.8554232121
  0
SOLID
  8
4
  6
CONTINUOUS
 62
5
 10
363.6254333156
 20
183.3377851219
 11
363.6254333156
 21
184.3730613023
 12
365.5572849682
 22
183.8554232121
 13
365.5572849682
 23
183.8554232121
  0
TEXT
  8
4
  6
CONTINUOUS
 62
7
 10
353.807285
 20
184.855423
 40
3.500000
  1
20
 41
0.854701
 50
0.000000
 51
0.000000
 72
   5
 73
   0
 11
357.307285
 21
184.855423
  0
POINT
  8
DEFPOINTS
  6
BYBLOCK
 62
5
 10
345.5572849682
 20
174.9119743881
  0
POINT
  8
DEFPOINTS
  6
BYBLOCK
 62
5
 10
365.5572849682
 20
175.6619743881
  0
POINT
  8
DEFPOINTS
  6
BYBLOCK
 62
5
 10
365.5572849682
 20
183.8554232121
  0
ENDBLK
  8
0
  0
BLOCK
  8
4
  2
*D10
 70
     1
 10
0.0000000000
 20
0.0000000000
  3
*D10
  0
LINE
  8
4
  6
BYBLOCK
 62
5
 10
372.0572849682
 20
173.1619743881
 11
372.0572849682
 21
184.8554232121
  0
LINE
  8
4
  6
BYBLOCK
 62
5
 10
372.0572849682
 20
183.8554232121
 11
365.5572849682
 21
183.8554232121
  0
SOLID
  8
4
  6
CONTINUOUS
 62
5
 10
367.4891366208
 20
184.3730613023
 11
367.4891366208
 21
183.3377851219
 12
365.5572849682
 22
183.8554232121
 13
365.5572849682
 23
183.8554232121
  0
SOLID
  8
4
  6
CONTINUOUS
 62
5
 10
370.1254333156
 20
183.3377851219
 11
370.1254333156
 21
184.3730613023
 12
372.0572849682
 22
183.8554232121
 13
372.0572849682
 23
183.8554232121
  0
TEXT
  8
4
  6
CONTINUOUS
 62
7
 10
366.182285
 20
184.855423
 40
3.500000
  1
6.5
 41
0.815217
 50
0.000000
 51
0.000000
 72
   5
 73
   0
 11
371.432285
 21
184.855423
  0
POINT
  8
DEFPOINTS
  6
BYBLOCK
 62
5
 10
365.5572849682
 20
175.6619743881
  0
POINT
  8
DEFPOINTS
  6
BYBLOCK
 62
5
 10
372.0572849682
 20
172.6619743881
  0
POINT
  8
DEFPOINTS
  6
BYBLOCK
 62
5
 10
372.0572849682
 20
183.8554232121
  0
ENDBLK
  8
0
  0
BLOCK
  8
4
  2
*D11
 70
     1
 10
0.0000000000
 20
0.0000000000
  3
*D11
  0
LINE
  8
4
  6
BYBLOCK
 62
5
 10
319.0572849682
 20
184.8554232121
 11
319.0572849682
 21
191.8554232121
  0
LINE
  8
4
  6
BYBLOCK
 62
5
 10
372.0572849682
 20
173.1619743881
 11
372.0572849682
 21
191.8554232121
  0
LINE
  8
4
  6
BYBLOCK
 62
5
 10
372.0572849682
 20
190.8554232121
 11
319.0572849682
 21
190.8554232121
  0
SOLID
  8
4
  6
CONTINUOUS
 62
5
 10
320.9891366208
 20
191.3730613023
 11
320.9891366208
 21
190.3377851219
 12
319.0572849682
 22
190.8554232121
 13
319.0572849682
 23
190.8554232121
  0
SOLID
  8
4
  6
CONTINUOUS
 62
5
 10
370.1254333156
 20
190.3377851219
 11
370.1254333156
 21
191.3730613023
 12
372.0572849682
 22
190.8554232121
 13
372.0572849682
 23
190.8554232121
  0
TEXT
  8
4
  6
CONTINUOUS
 62
7
 10
343.807285
 20
191.855423
 40
3.500000
  1
53
 41
0.854701
 50
0.000000
 51
0.000000
 72
   5
 73
   0
 11
347.307285
 21
191.855423
  0
POINT
  8
DEFPOINTS
  6
BYBLOCK
 62
5
 10
319.0572849682
 20
172.6619743881
  0
POINT
  8
DEFPOINTS
  6
BYBLOCK
 62
5
 10
372.0572849682
 20
172.6619743881
  0
POINT
  8
DEFPOINTS
  6
BYBLOCK
 62
5
 10
372.0572849682
 20
190.8554232121
  0
ENDBLK
  8
0
  0
BLOCK
  8
4
  2
*D12
 70
     1
 10
0.0000000000
 20
0.0000000000
  3
*D12
  0
LINE
  8
4
  6
BYBLOCK
 62
5
 10
324.7064153436
 20
178.3972965655
 11
323.2882993026
 21
180.4561668612
  0
LINE
  8
4
  6
BYBLOCK
 62
5
 10
326.4081545928
 20
175.9266522108
 11
327.8262706338
 21
173.8677819151
  0
SOLID
  8
4
  6
CONTINUOUS
 62
5
 10
323.1842795416
 20
179.6946410071
 11
324.0368792918
 21
180.2818977104
 12
324.7064153436
 22
178.3972965655
 13
324.7064153436
 23
178.3972965655
  0
SOLID
  8
4
  6
CONTINUOUS
 62
5
 10
327.9302903948
 20
174.6293077692
 11
327.0776906446
 21
174.0420510659
 12
326.4081545928
 22
175.9266522108
 13
326.4081545928
 23
175.9266522108
  0
TEXT
  8
4
  6
CONTINUOUS
 62
7
 10
332.437449
 20
168.936014
 40
3.500000
  1
4-M3
 41
0.796813
 50
304.558432
 51
0.000000
 72
   5
 73
   0
 11
336.408174
 21
163.171177
  0
POINT
  8
DEFPOINTS
  6
BYBLOCK
 62
5
 10
324.7064153436
 20
178.3972965655
  0
POINT
  8
DEFPOINTS
  6
BYBLOCK
 62
5
 10
326.4081545928
 20
175.9266522108
  0
LINE
  8
4
  6
BYBLOCK
 62
5
 10
324.7064153436
 20
178.3972965655
 11
335.5846262337
 21
162.6039308436
  0
ENDBLK
  8
0
  0
BLOCK
  8
4
  2
*D13
 70
     1
 10
0.0000000000
 20
0.0000000000
  3
*D13
  0
LINE
  8
4
  6
BYBLOCK
 62
5
 10
344.1560871308
 20
178.9224131461
 11
342.5992006447
 21
180.8784562104
  0
LINE
  8
4
  6
BYBLOCK
 62
5
 10
346.9584828056
 20
175.4015356302
 11
348.5153692917
 21
173.4454925659
  0
SOLID
  8
4
  6
CONTINUOUS
 62
5
 10
342.5480086799
 20
180.1115656577
 11
343.3580265968
 21
180.7562886555
 12
344.1560871308
 22
178.9224131461
 13
344.1560871308
 23
178.9224131461
  0
SOLID
  8
4
  6
CONTINUOUS
 62
5
 10
348.5665612565
 20
174.2123831186
 11
347.7565433396
 21
173.5676601208
 12
346.9584828056
 22
175.4015356302
 13
346.9584828056
 23
175.4015356302
  0
TEXT
  8
4
  6
CONTINUOUS
 62
7
 10
353.582932
 20
168.684470
 40
3.500000
  1
2-φ4.5
 41
0.804598
 50
308.517570
 51
0.000000
 72
   5
 73
   0
 11
361.211676
 21
159.099859
  0
POINT
  8
DEFPOINTS
  6
BYBLOCK
 62
5
 10
344.1560871308
 20
178.9224131461
  0
POINT
  8
DEFPOINTS
  6
BYBLOCK
 62
5
 10
346.9584828056
 20
175.4015356302
  0
LINE
  8
4
  6
BYBLOCK
 62
5
 10
344.1560871308
 20
178.9224131461
 11
360.4292590547
 21
158.4771042800
  0
ENDBLK
  8
0
  0
BLOCK
  8
1
  2
*D14
 70
     1
 10
0.0000000000
 20
0.0000000000
  3
*D14
  0
LINE
  8
1
  6
BYBLOCK
 62
5
 10
366.5572849682
 20
60.1619743881
 11
305.8614186851
 21
60.1619743881
  0
LINE
  8
1
  6
BYBLOCK
 62
5
 10
318.5572849682
 20
64.6619743881
 11
305.8614186851
 21
64.6619743881
  0
LINE
  8
1
  6
BYBLOCK
 62
5
 10
306.8614186851
 20
67.1619743881
 11
306.8614186851
 21
57.6619743881
  0
SOLID
  8
1
  6
CONTINUOUS
 62
5
 10
307.3790567753
 20
58.2301227356
 11
306.3437805949
 21
58.2301227356
 12
306.8614186851
 22
60.1619743881
 13
306.8614186851
 23
60.1619743881
  0
SOLID
  8
1
  6
CONTINUOUS
 62
5
 10
306.3437805949
 20
66.5938260407
 11
307.3790567753
 21
66.5938260407
 12
306.8614186851
 22
64.6619743881
 13
306.8614186851
 23
64.6619743881
  0
TEXT
  8
1
  6
CONTINUOUS
 62
7
 10
305.861419
 20
60.161974
 40
3.000000
  1
4.5
 41
0.815217
 50
90.000000
 51
0.000000
 72
   5
 73
   0
 11
305.861419
 21
64.661974
  0
POINT
  8
DEFPOINTS
  6
BYBLOCK
 62
5
 10
367.0572849682
 20
60.1619743881
  0
POINT
  8
DEFPOINTS
  6
BYBLOCK
 62
5
 10
319.0572849682
 20
64.6619743881
  0
POINT
  8
DEFPOINTS
  6
BYBLOCK
 62
5
 10
306.8614186851
 20
64.6619743881
  0
ENDBLK
  8
0
  0
BLOCK
  8
1
  2
*D15
 70
     1
 10
0.0000000000
 20
0.0000000000
  3
*D15
  0
LINE
  8
1
  6
BYBLOCK
 62
5
 10
318.5572849682
 20
172.6619743881
 11
305.8614186851
 21
172.6619743881
  0
LINE
  8
1
  6
BYBLOCK
 62
5
 10
306.8614186851
 20
172.6619743881
 11
306.8614186851
 21
64.6619743881
  0
SOLID
  8
1
  6
CONTINUOUS
 62
5
 10
306.3437805949
 20
66.5938260407
 11
307.3790567753
 21
66.5938260407
 12
306.8614186851
 22
64.6619743881
 13
306.8614186851
 23
64.6619743881
  0
SOLID
  8
1
  6
CONTINUOUS
 62
5
 10
307.3790567753
 20
170.7301227356
 11
306.3437805949
 21
170.7301227356
 12
306.8614186851
 22
172.6619743881
 13
306.8614186851
 23
172.6619743881
  0
TEXT
  8
1
  6
CONTINUOUS
 62
7
 10
305.861419
 20
116.036974
 40
3.500000
  1
108
 41
0.815217
 50
90.000000
 51
0.000000
 72
   5
 73
   0
 11
305.861419
 21
121.286974
  0
POINT
  8
DEFPOINTS
  6
BYBLOCK
 62
5
 10
319.0572849682
 20
64.6619743881
  0
POINT
  8
DEFPOINTS
  6
BYBLOCK
 62
5
 10
319.0572849682
 20
172.6619743881
  0
POINT
  8
DEFPOINTS
  6
BYBLOCK
 62
5
 10
306.8614186851
 20
172.6619743881
  0
ENDBLK
  8
0
  0
BLOCK
  8
1
  2
*D16
 70
     1
 10
0.0000000000
 20
0.0000000000
  3
*D16
  0
LINE
  8
1
  6
BYBLOCK
 62
5
 10
366.5572849682
 20
177.1619743881
 11
305.8614186851
 21
177.1619743881
  0
LINE
  8
1
  6
BYBLOCK
 62
5
 10
306.8614186851
 20
179.6619743881
 11
306.8614186851
 21
170.1619743881
  0
SOLID
  8
1
  6
CONTINUOUS
 62
5
 10
307.3790567753
 20
170.7301227356
 11
306.3437805949
 21
170.7301227356
 12
306.8614186851
 22
172.6619743881
 13
306.8614186851
 23
172.6619743881
  0
SOLID
  8
1
  6
CONTINUOUS
 62
5
 10
306.3437805949
 20
179.0938260407
 11
307.3790567753
 21
179.0938260407
 12
306.8614186851
 22
177.1619743881
 13
306.8614186851
 23
177.1619743881
  0
TEXT
  8
1
  6
CONTINUOUS
 62
7
 10
304.861419
 20
172.661974
 40
3.000000
  1
4.5
 41
0.815217
 50
90.000000
 51
0.000000
 72
   5
 73
   0
 11
304.861419
 21
177.161974
  0
POINT
  8
DEFPOINTS
  6
BYBLOCK
 62
5
 10
319.0572849682
 20
172.6619743881
  0
POINT
  8
DEFPOINTS
  6
BYBLOCK
 62
5
 10
367.0572849682
 20
177.1619743881
  0
POINT
  8
DEFPOINTS
  6
BYBLOCK
 62
5
 10
306.8614186851
 20
177.1619743881
  0
ENDBLK
  8
0
  0
BLOCK
  8
1
  2
*D17
 70
     1
 10
0.0000000000
 20
0.0000000000
  3
*D17
  0
LINE
  8
1
  6
BYBLOCK
 62
5
 10
305.8614186851
 20
60.1619743881
 11
298.8614186851
 21
60.1619743881
  0
LINE
  8
1
  6
BYBLOCK
 62
5
 10
366.5572849682
 20
177.1619743881
 11
298.8614186851
 21
177.1619743881
  0
LINE
  8
1
  6
BYBLOCK
 62
5
 10
299.8614186851
 20
177.1619743881
 11
299.8614186851
 21
60.1619743881
  0
SOLID
  8
1
  6
CONTINUOUS
 62
5
 10
299.3437805949
 20
62.0938260407
 11
300.3790567753
 21
62.0938260407
 12
299.8614186851
 22
60.1619743881
 13
299.8614186851
 23
60.1619743881
  0
SOLID
  8
1
  6
CONTINUOUS
 62
5
 10
300.3790567753
 20
175.2301227356
 11
299.3437805949
 21
175.2301227356
 12
299.8614186851
 22
177.1619743881
 13
299.8614186851
 23
177.1619743881
  0
TEXT
  8
1
  6
CONTINUOUS
 62
7
 10
298.861419
 20
116.036974
 40
3.500000
  1
117
 41
0.815217
 50
90.000000
 51
0.000000
 72
   5
 73
   0
 11
298.861419
 21
121.286974
  0
POINT
  8
DEFPOINTS
  6
BYBLOCK
 62
5
 10
367.0572849682
 20
60.1619743881
  0
POINT
  8
DEFPOINTS
  6
BYBLOCK
 62
5
 10
367.0572849682
 20
177.1619743881
  0
POINT
  8
DEFPOINTS
  6
BYBLOCK
 62
5
 10
299.8614186851
 20
177.1619743881
  0
ENDBLK
  8
0
  0
BLOCK
  8
1
  2
*D18
 70
     1
 10
0.0000000000
 20
0.0000000000
  3
*D18
  0
LINE
  8
1
  6
BYBLOCK
 62
5
 10
380.5572849682
 20
44.4119743881
 11
388.7005190311
 21
44.4119743881
  0
LINE
  8
1
  6
BYBLOCK
 62
5
 10
372.5572849682
 20
64.6619743881
 11
388.7005190311
 21
64.6619743881
  0
LINE
  8
1
  6
BYBLOCK
 62
5
 10
387.7005190311
 20
64.6619743881
 11
387.7005190311
 21
44.4119743881
  0
SOLID
  8
1
  6
CONTINUOUS
 62
5
 10
387.1828809409
 20
46.3438260407
 11
388.2181571213
 21
46.3438260407
 12
387.7005190311
 22
44.4119743881
 13
387.7005190311
 23
44.4119743881
  0
SOLID
  8
1
  6
CONTINUOUS
 62
5
 10
388.2181571213
 20
62.7301227356
 11
387.1828809409
 21
62.7301227356
 12
387.7005190311
 22
64.6619743881
 13
387.7005190311
 23
64.6619743881
  0
TEXT
  8
1
  6
CONTINUOUS
 62
7
 10
386.700519
 20
50.161974
 40
3.500000
  1
20.25
 41
0.786164
 50
90.000000
 51
0.000000
 72
   5
 73
   0
 11
386.700519
 21
58.911974
  0
POINT
  8
DEFPOINTS
  6
BYBLOCK
 62
5
 10
380.0572849682
 20
44.4119743881
  0
POINT
  8
DEFPOINTS
  6
BYBLOCK
 62
5
 10
372.0572849682
 20
64.6619743881
  0
POINT
  8
DEFPOINTS
  6
BYBLOCK
 62
5
 10
387.7005190311
 20
64.6619743881
  0
ENDBLK
  8
0
  0
BLOCK
  8
1
  2
*D19
 70
     1
 10
0.0000000000
 20
0.0000000000
  3
*D19
  0
LINE
  8
1
  6
BYBLOCK
 62
5
 10
372.5572849682
 20
172.6619743881
 11
388.7005190311
 21
172.6619743881
  0
LINE
  8
1
  6
BYBLOCK
 62
5
 10
387.7005190311
 20
172.6619743881
 11
387.7005190311
 21
64.6619743881
  0
SOLID
  8
1
  6
CONTINUOUS
 62
5
 10
387.1828809409
 20
66.5938260407
 11
388.2181571213
 21
66.5938260407
 12
387.7005190311
 22
64.6619743881
 13
387.7005190311
 23
64.6619743881
  0
SOLID
  8
1
  6
CONTINUOUS
 62
5
 10
388.2181571213
 20
170.7301227356
 11
387.1828809409
 21
170.7301227356
 12
387.7005190311
 22
172.6619743881
 13
387.7005190311
 23
172.6619743881
  0
TEXT
  8
1
  6
CONTINUOUS
 62
7
 10
386.700519
 20
116.036974
 40
3.500000
  1
108
 41
0.815217
 50
90.000000
 51
0.000000
 72
   5
 73
   0
 11
386.700519
 21
121.286974
  0
POINT
  8
DEFPOINTS
  6
BYBLOCK
 62
5
 10
372.0572849682
 20
64.6619743881
  0
POINT
  8
DEFPOINTS
  6
BYBLOCK
 62
5
 10
372.0572849682
 20
172.6619743881
  0
POINT
  8
DEFPOINTS
  6
BYBLOCK
 62
5
 10
387.7005190311
 20
172.6619743881
  0
ENDBLK
  8
0
  0
BLOCK
  8
1
  2
*D20
 70
     1
 10
0.0000000000
 20
0.0000000000
  3
*D20
  0
LINE
  8
1
  6
BYBLOCK
 62
5
 10
380.5572849682
 20
199.9119743881
 11
388.7005190311
 21
199.9119743881
  0
LINE
  8
1
  6
BYBLOCK
 62
5
 10
387.7005190311
 20
199.9119743881
 11
387.7005190311
 21
172.6619743881
  0
SOLID
  8
1
  6
CONTINUOUS
 62
5
 10
387.1828809409
 20
174.5938260407
 11
388.2181571213
 21
174.5938260407
 12
387.7005190311
 22
172.6619743881
 13
387.7005190311
 23
172.6619743881
  0
SOLID
  8
1
  6
CONTINUOUS
 62
5
 10
388.2181571213
 20
197.9801227356
 11
387.1828809409
 21
197.9801227356
 12
387.7005190311
 22
199.9119743881
 13
387.7005190311
 23
199.9119743881
  0
TEXT
  8
1
  6
CONTINUOUS
 62
7
 10
386.700519
 20
181.911974
 40
3.500000
  1
27.25
 41
0.786164
 50
90.000000
 51
0.000000
 72
   5
 73
   0
 11
386.700519
 21
190.661974
  0
POINT
  8
DEFPOINTS
  6
BYBLOCK
 62
5
 10
372.0572849682
 20
172.6619743881
  0
POINT
  8
DEFPOINTS
  6
BYBLOCK
 62
5
 10
380.0572849682
 20
199.9119743881
  0
POINT
  8
DEFPOINTS
  6
BYBLOCK
 62
5
 10
387.7005190311
 20
199.9119743881
  0
ENDBLK
  8
0
  0
BLOCK
  8
1
  2
LTEX1
 70
     0
 10
323.9116262976
 20
44.4119743881
  3
LTEX1
  0
SOLID
  8
1
  6
CONTINUOUS
 62
5
 10
324.7338699055
 20
46.2351352284
 11
325.5352905702
 21
45.5797561870
 12
323.9116262976
 22
44.4119743881
 13
323.9116262976
 23
44.4119743881
  0
TEXT
  8
1
  6
CONTINUOUS
 62
7
 10
328.407128
 20
50.909233
 40
2.500000
  1
製品外形
 41
0.886918
 50
0.000000
 51
0.000000
 72
   5
 73
   0
 11
338.407128
 21
50.909233
  0
LINE
  8
1
  6
BYBLOCK
 62
5
 10
323.9116262976
 20
44.4119743881
 11
328.4071280277
 21
49.9092328564
  0
LINE
  8
1
  6
BYBLOCK
 62
5
 10
328.4071280277
 20
49.9092328564
 11
338.4071280277
 21
49.9092328564
  0
ENDBLK
  8
0
  0
BLOCK
  8
3
  2
BALN6
 70
     0
 10
200.8166330539
 20
183.8500721262
  3
BALN6
  0
SOLID
  8
3
  6
CONTINUOUS
 62
5
 10
202.5812145045
 20
184.7914818692
 11
202.8155102886
 21
183.7830661537
 12
200.8166330539
 22
183.8500721262
 13
200.8166330539
 23
183.8500721262
  0
LINE
  8
3
  6
BYBLOCK
 62
5
 10
200.8166330539
 20
183.8500721262
 11
235.4883538831
 21
191.9057161382
  0
CIRCLE
  8
3
  6
BYBLOCK
 62
5
 10
238.4105182328
 20
192.5846531849
 40
3.0000000000
  0
TEXT
  8
3
  6
CONTINUOUS
 62
7
 10
237.535518
 20
190.834653
 40
3.500000
  1
9
 41
1.000000
 50
0.000000
 51
0.000000
 72
   5
 73
   0
 11
239.285518
 21
190.834653
  0
ENDBLK
  8
0
  0
BLOCK
  8
3
  2
BALN7
 70
     0
 10
208.4105182328
 20
179.8525214540
  3
BALN7
  0
SOLID
  8
3
  6
CONTINUOUS
 62
5
 10
210.2638742763
 20
180.6042337499
 11
210.3914277967
 21
179.5768453768
 12
208.4105182328
 22
179.8525214540
 13
208.4105182328
 23
179.8525214540
  0
LINE
  8
3
  6
BYBLOCK
 62
5
 10
208.4105182328
 20
179.8525214540
 11
235.4333753432
 21
183.2074947493
  0
CIRCLE
  8
3
  6
BYBLOCK
 62
5
 10
238.4105182328
 20
183.5771164681
 40
3.0000000000
  0
TEXT
  8
3
  6
CONTINUOUS
 62
7
 10
236.660518
 20
181.827116
 40
3.500000
  1
10
 41
0.854701
 50
0.000000
 51
0.000000
 72
   5
 73
   0
 11
240.160518
 21
181.827116
  0
ENDBLK
  8
0
  0
BLOCK
  8
3
  2
BALN8
 70
     0
 10
213.4605177328
 20
159.2840628985
  3
BALN8
  0
SOLID
  8
3
  6
CONTINUOUS
 62
5
 10
215.3085559684
 20
160.0487554377
 11
215.4433120616
 21
159.0222869457
 12
213.4605177328
 22
159.2840628985
 13
213.4605177328
 23
159.2840628985
  0
LINE
  8
3
  6
BYBLOCK
 62
5
 10
213.4605177328
 20
159.2840628985
 11
235.4360409539
 21
162.1690376235
  0
CIRCLE
  8
3
  6
BYBLOCK
 62
5
 10
238.4105182328
 20
162.5595307955
 40
3.0000000000
  0
TEXT
  8
3
  6
CONTINUOUS
 62
7
 10
236.660518
 20
160.809531
 40
3.500000
  1
11
 41
0.854701
 50
0.000000
 51
0.000000
 72
   5
 73
   0
 11
240.160518
 21
160.809531
  0
ENDBLK
  8
0
  0
BLOCK
  8
3
  2
BALN9
 70
     0
 10
213.4605177328
 20
139.2840628985
  3
BALN9
  0
SOLID
  8
3
  6
CONTINUOUS
 62
5
 10
215.3085559684
 20
140.0487554377
 11
215.4433120616
 21
139.0222869457
 12
213.4605177328
 22
139.2840628985
 13
213.4605177328
 23
139.2840628985
  0
LINE
  8
3
  6
BYBLOCK
 62
5
 10
213.4605177328
 20
139.2840628985
 11
235.4360409539
 21
142.1690376235
  0
CIRCLE
  8
3
  6
BYBLOCK
 62
5
 10
238.4105182328
 20
142.5595307955
 40
3.0000000000
  0
TEXT
  8
3
  6
CONTINUOUS
 62
7
 10
236.660518
 20
140.809531
 40
3.500000
  1
11
 41
0.854701
 50
0.000000
 51
0.000000
 72
   5
 73
   0
 11
240.160518
 21
140.809531
  0
ENDBLK
  8
0
  0
BLOCK
  8
3
  2
LTEX2
 70
     0
 10
202.4723793047
 20
136.5891162123
  3
LTEX2
  0
SOLID
  8
3
  6
CONTINUOUS
 62
5
 10
204.3996847314
 20
136.0548000209
 11
203.8743166694
 21
135.1627321036
 12
202.4723793047
 22
136.5891162123
 13
202.4723793047
 23
136.5891162123
  0
TEXT
  8
3
  6
CONTINUOUS
 62
7
 10
231.217243
 20
120.660323
 40
2.500000
  1
D-SUBｼﾞｪﾝﾀﾞｰﾁｪﾝｼﾞｬｰ
 41
0.756369
 50
0.000000
 51
0.000000
 72
   5
 73
   0
 11
254.967243
 21
120.660323
  0
TEXT
  8
3
  6
CONTINUOUS
 62
7
 10
231.217243
 20
116.660323
 40
2.500000
  1
%%u出荷時は、表面ﾒｽ、裏面ｵｽ、になっています。%%u
 41
0.848828
 50
0.000000
 51
0.000000
 72
   5
 73
   0
 11
283.717243
 21
116.660323
  0
TEXT
  8
3
  6
CONTINUOUS
 62
7
 10
231.217243
 20
112.660323
 40
2.500000
  1
%%uﾕｰｻﾞ様にて表裏入れ替え可能です。%%u
 41
0.847009
 50
0.000000
 51
0.000000
 72
   5
 73
   0
 11
271.217243
 21
112.660323
  0
LINE
  8
3
  6
BYBLOCK
 62
5
 10
202.4723793047
 20
136.5891162123
 11
231.2172426684
 21
119.6603231641
  0
LINE
  8
3
  6
BYBLOCK
 62
5
 10
231.2172426684
 20
119.6603231641
 11
254.9672426684
 21
119.6603231641
  0
ENDBLK
  8
0
  0
BLOCK
  8
3
  2
S2
 70
     0
 10
309.0147335960
 20
234.6482531231
  3
S2
  0
LINE
  8
3
  6
CONTINUOUS
 62
6
 10
311.5147335960
 20
232.6482531231
 11
306.5147335960
 21
232.6482531230
  0
TEXT
  8
3
  6
CONTINUOUS
 62
6
 10
307.963684
 20
232.269926
 40
3.300000
  1
B
 41
1.274000
 50
0.000000
 51
0.000000
 72
   5
 73
   0
 11
310.065784
 21
232.269926
  0
LINE
  8
3
  6
CONTINUOUS
 62
6
 10
309.0147335960
 20
236.6482531231
 11
306.5147335960
 21
232.6482531230
  0
LINE
  8
3
  6
CONTINUOUS
 62
6
 10
309.0147335960
 20
236.6482531231
 11
311.5147335960
 21
232.6482531231
  0
POINT
  8
3
  6
CONTINUOUS
 62
6
 10
309.0147335960
 20
234.6482531231
  0
ENDBLK
  8
0
  0
BLOCK
  8
3
  2
S3
 70
     0
 10
9.0000000000
 20
262.0000000000
  3
S3
  0
LINE
  8
3
  6
CONTINUOUS
 62
6
 10
11.5000000000
 20
260.0000000000
 11
6.5000000000
 21
260.0000000000
  0
TEXT
  8
3
  6
CONTINUOUS
 62
6
 10
7.948950
 20
259.621673
 40
3.300000
  1
B
 41
1.274000
 50
0.000000
 51
0.000000
 72
   5
 73
   0
 11
10.051050
 21
259.621673
  0
LINE
  8
3
  6
CONTINUOUS
 62
6
 10
9.0000000000
 20
264.0000000000
 11
6.5000000000
 21
260.0000000000
  0
LINE
  8
3
  6
CONTINUOUS
 62
6
 10
9.0000000000
 20
264.0000000000
 11
11.5000000000
 21
260.0000000000
  0
POINT
  8
3
  6
CONTINUOUS
 62
6
 10
9.0000000000
 20
262.0000000000
  0
ENDBLK
  8
0
  0
BLOCK
  8
1
  2
S4
 70
     0
 10
213.1605182328
 20
101.3525214525
  3
S4
  0
CIRCLE
  8
1
  6
HIDDEN
 62
5
 10
213.1605182328
 20
101.3525214525
 40
4.5000000000
  0
LINE
  8
1
  6
HIDDEN
 62
5
 10
216.5355182329
 20
101.3525214525
 11
209.7855182329
 21
101.3525214525
  0
LINE
  8
1
  6
HIDDEN
 62
5
 10
215.4105182329
 20
99.6650214525
 11
210.9105182329
 21
99.6650214525
  0
LINE
  8
1
  6
HIDDEN
 62
5
 10
214.2855182329
 20
97.9775214525
 11
212.0355182329
 21
97.9775214525
  0
LINE
  8
1
  6
HIDDEN
 62
5
 10
213.1605182328
 20
101.3525214525
 11
213.1605182329
 21
104.7275214525
  0
ENDBLK
  8
0
  0
BLOCK
  8
1
  2
LTEX3
 70
     0
 10
217.1605182328
 20
91.3525214526
  3
LTEX3
  0
SOLID
  8
1
  6
CONTINUOUS
 62
5
 10
219.1529220982
 20
91.1783754306
 11
218.7989175839
 21
90.2055046409
 12
217.1605182328
 22
91.3525214526
 13
217.1605182328
 23
91.3525214526
  0
TEXT
  8
1
  6
CONTINUOUS
 62
7
 10
253.314335
 20
79.197009
 40
3.500000
  1
  M4ｱｰｽﾎﾞｽ
 41
0.765697
 50
0.000000
 51
0.000000
 72
   5
 73
   0
 11
270.814335
 21
79.197009
  0
LINE
  8
1
  6
BYBLOCK
 62
5
 10
217.1605182328
 20
91.3525214526
 11
253.3143346497
 21
78.1970085552
  0
LINE
  8
1
  6
BYBLOCK
 62
5
 10
253.3143346497
 20
78.1970085552
 11
270.8143346497
 21
78.1970085552
  0
ENDBLK
  8
0
  0
BLOCK
  8
1
  2
S5
 70
     0
 10
253.1816052311
 20
82.0992534622
  3
S5
  0
LINE
  8
1
  6
CONTINUOUS
 62
6
 10
255.6816052311
 20
80.0992534622
 11
250.6816052311
 21
80.0992534622
  0
TEXT
  8
1
  6
CONTINUOUS
 62
6
 10
252.086005
 20
79.720926
 40
3.300000
  1
C
 41
1.328000
 50
0.000000
 51
0.000000
 72
   5
 73
   0
 11
254.277205
 21
79.720926
  0
LINE
  8
1
  6
CONTINUOUS
 62
6
 10
253.1816052311
 20
84.0992534622
 11
250.6816052311
 21
80.0992534622
  0
LINE
  8
1
  6
CONTINUOUS
 62
6
 10
253.1816052311
 20
84.0992534622
 11
255.6816052311
 21
80.0992534622
  0
POINT
  8
1
  6
CONTINUOUS
 62
6
 10
253.1816052311
 20
82.0992534622
  0
ENDBLK
  8
0
  0
BLOCK
  8
3
  2
BALN10
 70
     0
 10
207.4105182328
 20
108.9163718686
  3
BALN10
  0
SOLID
  8
3
  6
CONTINUOUS
 62
5
 10
209.3918795912
 20
109.1887817940
 11
209.2626324659
 21
108.1616051050
 12
207.4105182328
 22
108.9163718686
 13
207.4105182328
 23
108.9163718686
  0
LINE
  8
3
  6
BYBLOCK
 62
5
 10
207.4105182328
 20
108.9163718686
 11
234.1613554688
 21
105.5503795828
  0
CIRCLE
  8
3
  6
BYBLOCK
 62
5
 10
237.1378849449
 20
105.1758501740
 40
3.0000000000
  0
TEXT
  8
3
  6
CONTINUOUS
 62
7
 10
235.387885
 20
103.425850
 40
3.500000
  1
12
 41
0.854701
 50
0.000000
 51
0.000000
 72
   5
 73
   0
 11
238.887885
 21
103.425850
  0
ENDBLK
  8
0
  0
BLOCK
  8
1
  2
S6
 70
     0
 10
228.4721692345
 20
252.8416386812
  3
S6
  0
LINE
  8
1
  6
CONTINUOUS
 62
6
 10
230.9721692345
 20
250.8416386812
 11
225.9721692345
 21
250.8416386812
  0
TEXT
  8
1
  6
CONTINUOUS
 62
6
 10
227.376569
 20
250.463311
 40
3.300000
  1
C
 41
1.328000
 50
0.000000
 51
0.000000
 72
   5
 73
   0
 11
229.567769
 21
250.463311
  0
LINE
  8
1
  6
CONTINUOUS
 62
6
 10
228.4721692345
 20
254.8416386812
 11
225.9721692345
 21
250.8416386812
  0
LINE
  8
1
  6
CONTINUOUS
 62
6
 10
228.4721692345
 20
254.8416386812
 11
230.9721692345
 21
250.8416386812
  0
POINT
  8
1
  6
CONTINUOUS
 62
6
 10
228.4721692345
 20
252.8416386812
  0
ENDBLK
  8
0
  0
BLOCK
  8
1
  2
S7
 70
     0
 10
309.3313851285
 20
266.8545250502
  3
S7
  0
LINE
  8
1
  6
CONTINUOUS
 62
6
 10
311.8313851285
 20
264.8545250502
 11
306.8313851285
 21
264.8545250502
  0
TEXT
  8
1
  6
CONTINUOUS
 62
6
 10
308.235785
 20
264.476198
 40
3.300000
  1
C
 41
1.328000
 50
0.000000
 51
0.000000
 72
   5
 73
   0
 11
310.426985
 21
264.476198
  0
LINE
  8
1
  6
CONTINUOUS
 62
6
 10
309.3313851285
 20
268.8545250502
 11
306.8313851285
 21
264.8545250502
  0
LINE
  8
1
  6
CONTINUOUS
 62
6
 10
309.3313851285
 20
268.8545250502
 11
311.8313851285
 21
264.8545250502
  0
POINT
  8
1
  6
CONTINUOUS
 62
6
 10
309.3313851285
 20
266.8545250502
  0
ENDBLK
  8
0
  0
BLOCK
  8
3
  2
S8
 70
     0
 10
303.4973368413
 20
234.6482531231
  3
S8
  0
LINE
  8
3
  6
CONTINUOUS
 62
6
 10
305.9973368413
 20
232.6482531231
 11
300.9973368413
 21
232.6482531230
  0
TEXT
  8
3
  6
CONTINUOUS
 62
6
 10
302.401737
 20
232.269926
 40
3.300000
  1
C
 41
1.328000
 50
0.000000
 51
0.000000
 72
   5
 73
   0
 11
304.592937
 21
232.269926
  0
LINE
  8
3
  6
CONTINUOUS
 62
6
 10
303.4973368413
 20
236.6482531231
 11
300.9973368413
 21
232.6482531230
  0
LINE
  8
3
  6
CONTINUOUS
 62
6
 10
303.4973368413
 20
236.6482531231
 11
305.9973368413
 21
232.6482531231
  0
POINT
  8
3
  6
CONTINUOUS
 62
6
 10
303.4973368413
 20
234.6482531231
  0
ENDBLK
  8
0
  0
BLOCK
  8
1
  2
S9
 70
     0
 10
137.2868002249
 20
38.5097255163
  3
S9
  0
LINE
  8
1
  6
CONTINUOUS
 62
6
 10
139.7868002249
 20
36.5097255163
 11
134.7868002249
 21
36.5097255163
  0
TEXT
  8
1
  6
CONTINUOUS
 62
6
 10
136.191200
 20
36.131398
 40
3.300000
  1
C
 41
1.328000
 50
0.000000
 51
0.000000
 72
   5
 73
   0
 11
138.382400
 21
36.131398
  0
LINE
  8
1
  6
CONTINUOUS
 62
6
 10
137.2868002249
 20
40.5097255163
 11
134.7868002249
 21
36.5097255163
  0
LINE
  8
1
  6
CONTINUOUS
 62
6
 10
137.2868002249
 20
40.5097255163
 11
139.7868002249
 21
36.5097255163
  0
POINT
  8
1
  6
CONTINUOUS
 62
6
 10
137.2868002249
 20
38.5097255163
  0
ENDBLK
  8
0
  0
BLOCK
  8
3
  2
LTEX4
 70
     0
 10
88.2645106558
 20
17.3439335173
  3
LTEX4
  0
SOLID
  8
3
  6
CONTINUOUS
 62
5
 10
89.9790701192
 20
18.3736353414
 11
90.2642136195
 21
17.3784017236
 12
88.2645106558
 22
17.3439335173
 13
88.2645106558
 23
17.3439335173
  0
TEXT
  8
3
  6
CONTINUOUS
 62
7
 10
133.340636
 20
31.258654
 40
3.500000
  1
 
 41
1.000000
 50
0.000000
 51
0.000000
 72
   5
 73
   0
 11
135.090636
 21
31.258654
  0
LINE
  8
3
  6
BYBLOCK
 62
5
 10
88.2645106558
 20
17.3439335173
 11
133.3406356149
 21
30.2586540591
  0
LINE
  8
3
  6
BYBLOCK
 62
5
 10
133.3406356149
 20
30.2586540591
 11
135.0906356149
 21
30.2586540591
  0
ENDBLK
  8
0
  0
BLOCK
  8
3
  2
LTEX5
 70
     0
 10
39.2645106558
 20
18.7789024664
  3
LTEX5
  0
SOLID
  8
3
  6
CONTINUOUS
 62
5
 10
41.1194376375
 20
19.5267299150
 11
41.2448382684
 21
18.4990765437
 12
39.2645106558
 22
18.7789024664
 13
39.2645106558
 23
18.7789024664
  0
TEXT
  8
3
  6
CONTINUOUS
 62
7
 10
133.340636
 20
31.258654
 40
3.500000
  1
 
 41
1.000000
 50
0.000000
 51
0.000000
 72
   5
 73
   0
 11
135.090636
 21
31.258654
  0
LINE
  8
3
  6
BYBLOCK
 62
5
 10
39.2645106558
 20
18.7789024664
 11
133.3406356149
 21
30.2586540591
  0
LINE
  8
3
  6
BYBLOCK
 62
5
 10
133.3406356149
 20
30.2586540591
 11
135.0906356149
 21
30.2586540591
  0
ENDBLK
  8
0
  0
BLOCK
  8
3
  2
LTEX6
 70
     0
 10
134.5962334454
 20
86.7605564293
  3
LTEX6
  0
SOLID
  8
3
  6
CONTINUOUS
 62
5
 10
135.0708243304
 20
84.8176813710
 11
134.0358036791
 21
84.8406818299
 12
134.5962334454
 22
86.7605564293
 13
134.5962334454
 23
86.7605564293
  0
TEXT
  8
3
  6
CONTINUOUS
 62
7
 10
133.340636
 20
31.258654
 40
3.500000
  1
 PBT品はｱｰｽ部(2箇所) 
 41
0.804598
 50
0.000000
 51
0.000000
 72
   5
 73
   0
 11
170.090636
 21
31.258654
  0
TEXT
  8
3
  6
CONTINUOUS
 62
7
 10
133.340636
 20
26.258654
 40
3.500000
  1
%%uは無いです%%u
 41
0.880282
 50
0.000000
 51
0.000000
 72
   5
 73
   0
 11
150.840636
 21
26.258654
  0
LINE
  8
3
  6
BYBLOCK
 62
5
 10
134.5962334454
 20
86.7605564293
 11
133.3406356149
 21
30.2586540591
  0
LINE
  8
3
  6
BYBLOCK
 62
5
 10
133.3406356149
 20
30.2586540591
 11
170.0906356149
 21
30.2586540591
  0
ENDBLK
  8
0
  0
ENDSEC
  0
SECTION
  2
ENTITIES
  0
LINE
  8
1
  6
CONTINUOUS
 62
7
 10
95.7645106558
 20
65.6025214537
 11
95.7645106558
 21
209.4775214537
  0
LINE
  8
1
  6
CONTINUOUS
 62
7
 10
28.7645106558
 20
209.4775214537
 11
28.7645106558
 21
65.6025214537
  0
LINE
  8
1
  6
CONTINUOUS
 62
7
 10
96.7645106558
 20
64.6025214537
 11
96.7645106558
 21
220.1025214537
  0
LINE
  8
1
  6
CONTINUOUS
 62
7
 10
27.7645106558
 20
220.1025214537
 11
27.7645106558
 21
64.6025214537
  0
LINE
  8
1
  6
DASHDOT
 62
1
 10
101.7645106558
 20
213.1025214537
 11
22.7645106558
 21
213.1025214537
  0
LINE
  8
1
  6
CONTINUOUS
 62
7
 10
96.7645106558
 20
64.6025214537
 11
76.7270138153
 21
64.6025214537
  0
LINE
  8
1
  6
CONTINUOUS
 62
7
 10
47.8020074964
 20
64.6025214537
 11
27.7645106558
 21
64.6025214537
  0
LINE
  8
1
  6
CONTINUOUS
 62
7
 10
28.7645106558
 20
65.6025214537
 11
45.5659395189
 21
65.6025214537
  0
LINE
  8
1
  6
CONTINUOUS
 62
7
 10
78.9630817928
 20
65.6025214537
 11
95.7645106558
 21
65.6025214537
  0
LINE
  8
1
  6
CONTINUOUS
 62
7
 10
124.4661466639
 20
207.1025214537
 11
124.4661466639
 21
65.6025214537
  0
CIRCLE
  8
1
  6
CONTINUOUS
 62
7
 10
121.4661466639
 20
213.1025214537
 40
2.0000000000
  0
ARC
  8
1
  6
CONTINUOUS
 62
7
 10
121.4661466639
 20
213.1025214537
 40
6.0000000000
 50
90.0000000000
 51
270.0000000000
  0
LINE
  8
1
  6
CONTINUOUS
 62
7
 10
124.4661466639
 20
207.1025214537
 11
121.4661466639
 21
207.1025214537
  0
LINE
  8
1
  6
CONTINUOUS
 62
7
 10
124.4661466639
 20
219.1025214537
 11
121.4661466639
 21
219.1025214537
  0
LINE
  8
1
  6
CONTINUOUS
 62
7
 10
133.4661466639
 20
220.1025214537
 11
133.4661466639
 21
64.6025214537
  0
LINE
  8
1
  6
CONTINUOUS
 62
7
 10
28.7645106558
 20
207.1025214537
 11
28.7645106558
 21
219.1025214537
  0
LINE
  8
1
  6
CONTINUOUS
 62
7
 10
28.7645106558
 20
219.1025214537
 11
33.7645106558
 21
219.1025214537
  0
LINE
  8
1
  6
CONTINUOUS
 62
7
 10
33.7645106558
 20
219.1025214537
 11
33.7645106558
 21
207.1025214537
  0
LINE
  8
1
  6
CONTINUOUS
 62
7
 10
33.7645106558
 20
207.1025214537
 11
28.7645106558
 21
207.1025214537
  0
LINE
  8
1
  6
CONTINUOUS
 62
7
 10
95.7645106558
 20
219.1025214537
 11
90.7645106558
 21
219.1025214537
  0
LINE
  8
1
  6
CONTINUOUS
 62
7
 10
90.7645106558
 20
219.1025214537
 11
90.7645106558
 21
207.1025214537
  0
LINE
  8
1
  6
CONTINUOUS
 62
7
 10
90.7645106558
 20
207.1025214537
 11
95.7645106558
 21
207.1025214537
  0
LINE
  8
1
  6
CONTINUOUS
 62
7
 10
95.7645106558
 20
207.1025214537
 11
95.7645106558
 21
219.1025214537
  0
LINE
  8
1
  6
CONTINUOUS
 62
7
 10
90.7645106558
 20
207.1025214537
 11
90.7645106558
 21
206.1025214537
  0
LINE
  8
1
  6
CONTINUOUS
 62
7
 10
33.7645106558
 20
206.1025214537
 11
33.7645106558
 21
207.1025214537
  0
LINE
  8
1
  6
CONTINUOUS
 62
7
 10
96.7645106558
 20
220.1025214537
 11
27.7645106558
 21
220.1025214537
  0
LINE
  8
1
  6
CONTINUOUS
 62
7
 10
96.7645106558
 20
27.5484212565
 11
27.7645106558
 21
27.5484212565
  0
LINE
  8
1
  6
CONTINUOUS
 62
7
 10
28.7645106558
 20
36.5484212565
 11
95.7645106558
 21
36.5484212565
  0
LINE
  8
1
  6
CONTINUOUS
 62
7
 10
133.4661466639
 20
64.6025214537
 11
124.4661466639
 21
65.6025214537
  0
LINE
  8
1
  6
CONTINUOUS
 62
7
 10
133.4661466639
 20
220.1025214537
 11
124.4661466639
 21
219.1025214537
  0
LINE
  8
1
  6
CONTINUOUS
 62
7
 10
28.7645106558
 20
36.5484212565
 11
27.7645106558
 21
27.5484212565
  0
LINE
  8
1
  6
CONTINUOUS
 62
7
 10
95.7645106558
 20
36.5484212565
 11
96.7645106558
 21
27.5484212565
  0
LINE
  8
1
  6
HIDDEN
 62
7
 10
124.4661466639
 20
206.1025214537
 11
127.9661466639
 21
206.1025214537
  0
LINE
  8
1
  6
HIDDEN
 62
7
 10
127.9661466639
 20
206.1025214537
 11
127.9661466639
 21
219.4914103426
  0
LINE
  8
1
  6
HIDDEN
 62
7
 10
34.7645106558
 20
33.5484212565
 11
34.7645106558
 21
36.5484212565
  0
LINE
  8
1
  6
HIDDEN
 62
7
 10
89.7645106558
 20
33.5484212565
 11
34.7645106558
 21
33.5484212565
  0
LINE
  8
1
  6
HIDDEN
 62
7
 10
89.7645106558
 20
33.5484212565
 11
89.7645106558
 21
36.5484212565
  0
LINE
  8
1
  6
HIDDEN
 62
7
 10
85.5145106558
 20
33.5484212565
 11
85.5145106558
 21
29.5484212565
  0
LINE
  8
1
  6
HIDDEN
 62
7
 10
85.5145106558
 20
29.5484212565
 11
84.0145106559
 21
29.5484212565
  0
LINE
  8
1
  6
HIDDEN
 62
7
 10
80.5145106559
 20
29.5484212565
 11
79.0145106558
 21
29.5484212565
  0
LINE
  8
1
  6
HIDDEN
 62
7
 10
79.0145106558
 20
29.5484212565
 11
79.0145106558
 21
33.5484212565
  0
LINE
  8
1
  6
HIDDEN
 62
7
 10
80.5145106559
 20
29.5484212565
 11
80.5145106556
 21
27.5484212565
  0
LINE
  8
1
  6
HIDDEN
 62
7
 10
84.0145106559
 20
29.5484212565
 11
84.0145106558
 21
27.5484212565
  0
LINE
  8
1
  6
HIDDEN
 62
7
 10
39.0145106558
 20
33.5484212565
 11
39.0145106558
 21
29.5484212565
  0
LINE
  8
1
  6
HIDDEN
 62
7
 10
39.0145106558
 20
29.5484212565
 11
40.5145106558
 21
29.5484212565
  0
LINE
  8
1
  6
HIDDEN
 62
7
 10
44.0145106558
 20
29.5484212565
 11
45.5145106558
 21
29.5484212565
  0
LINE
  8
1
  6
HIDDEN
 62
7
 10
45.5145106558
 20
29.5484212565
 11
45.5145106558
 21
33.5484212565
  0
LINE
  8
1
  6
HIDDEN
 62
7
 10
44.0145106558
 20
29.5484212565
 11
44.0145106561
 21
27.5484212565
  0
LINE
  8
1
  6
HIDDEN
 62
7
 10
40.5145106558
 20
29.5484212565
 11
40.5145106559
 21
27.5484212565
  0
LINE
  8
1
  6
HIDDEN
 62
7
 10
60.2645106558
 20
33.5484212565
 11
60.2645106558
 21
27.5484212565
  0
LINE
  8
1
  6
HIDDEN
 62
7
 10
64.2645106558
 20
33.5484212565
 11
64.2645106558
 21
27.5484212565
  0
LINE
  8
1
  6
HIDDEN
 62
7
 10
63.9145106558
 20
33.5484212565
 11
63.9145106558
 21
27.5484212565
  0
LINE
  8
1
  6
HIDDEN
 62
7
 10
60.6145106558
 20
33.5484212565
 11
60.6145106558
 21
27.5484212565
  0
LINE
  8
1
  6
HIDDEN
 62
7
 10
124.4661466639
 20
201.1025214537
 11
127.9661466639
 21
201.1025214537
  0
LINE
  8
1
  6
HIDDEN
 62
7
 10
127.9661466639
 20
200.4775214537
 11
127.9661466639
 21
76.6025214537
  0
LINE
  8
1
  6
HIDDEN
 62
7
 10
127.9661466639
 20
76.6025214537
 11
124.4661466639
 21
76.6025214537
  0
LINE
  8
1
  6
HIDDEN
 62
7
 10
127.9661466639
 20
85.3525214537
 11
133.4661466639
 21
85.3525214537
  0
LINE
  8
1
  6
HIDDEN
 62
7
 10
127.9661466639
 20
192.3525214537
 11
133.4661466639
 21
192.3525214537
  0
LINE
  8
1
  6
HIDDEN
 62
7
 10
127.9661466639
 20
83.6025214537
 11
131.9661466639
 21
83.6025214537
  0
LINE
  8
1
  6
HIDDEN
 62
7
 10
131.9661466639
 20
83.6025214537
 11
131.9661466639
 21
82.1025214537
  0
LINE
  8
1
  6
HIDDEN
 62
7
 10
131.9661466639
 20
78.6025214537
 11
131.9661466639
 21
77.1025214537
  0
LINE
  8
1
  6
HIDDEN
 62
7
 10
131.9661466639
 20
77.1025214537
 11
127.9661466639
 21
77.1025214537
  0
LINE
  8
1
  6
HIDDEN
 62
7
 10
131.9661466639
 20
78.6025214537
 11
133.4661466639
 21
78.6025214535
  0
LINE
  8
1
  6
HIDDEN
 62
7
 10
131.9661466639
 20
82.1025214537
 11
133.4661466639
 21
82.1025214648
  0
LINE
  8
1
  6
HIDDEN
 62
7
 10
127.9661466639
 20
194.1025214537
 11
131.9661466639
 21
194.1025214537
  0
LINE
  8
1
  6
HIDDEN
 62
7
 10
131.9661466639
 20
194.1025214537
 11
131.9661466639
 21
195.6025214537
  0
LINE
  8
1
  6
HIDDEN
 62
7
 10
131.9661466639
 20
199.1025214537
 11
131.9661466639
 21
200.6025214537
  0
LINE
  8
1
  6
HIDDEN
 62
7
 10
131.9661466639
 20
200.6025214537
 11
127.9661466639
 21
200.6025214537
  0
LINE
  8
1
  6
HIDDEN
 62
7
 10
131.9661466639
 20
199.1025214537
 11
133.4661466639
 21
199.1025214539
  0
LINE
  8
1
  6
HIDDEN
 62
7
 10
131.9661466639
 20
195.6025214537
 11
133.4661466639
 21
195.6025214425
  0
ARC
  8
2
  6
HIDDEN
 62
5
 10
121.4661466639
 20
213.1025214537
 40
6.0000000000
 50
294.6243183522
 51
164.1092389898
  0
LINE
  8
2
  6
HIDDEN
 62
5
 10
123.9661466639
 20
207.6481653964
 11
123.9661466639
 21
207.1025214537
  0
LINE
  8
2
  6
CONTINUOUS
 62
5
 10
123.9661466639
 20
207.1025214537
 11
123.9661466639
 21
65.6025214537
  0
LINE
  8
2
  6
CONTINUOUS
 62
5
 10
115.8202125868
 20
65.6025214537
 11
123.9661466639
 21
65.6025214537
  0
LINE
  8
2
  6
CONTINUOUS
 62
5
 10
109.4661466639
 20
61.6025214537
 11
109.4661466639
 21
192.4775214537
  0
LINE
  8
2
  6
CONTINUOUS
 62
5
 10
123.9661466639
 20
206.1025214537
 11
113.2892089437
 21
206.1025214537
  0
CIRCLE
  8
2
  6
CONTINUOUS
 62
5
 10
121.4661466639
 20
213.1025214537
 40
2.0000000000
  0
LINE
  8
2
  6
CONTINUOUS
 62
5
 10
29.7645106558
 20
206.1025214537
 11
33.9645106558
 21
206.1025214537
  0
LINE
  8
2
  6
CONTINUOUS
 62
5
 10
33.9645106558
 20
206.1025214537
 11
33.9645106558
 21
219.1025214537
  0
LINE
  8
2
  6
CONTINUOUS
 62
5
 10
33.9645106558
 20
219.1025214537
 11
90.5645106558
 21
219.1025214537
  0
LINE
  8
2
  6
CONTINUOUS
 62
5
 10
90.5645106558
 20
219.1025214537
 11
90.5645106558
 21
206.1025214537
  0
LINE
  8
2
  6
CONTINUOUS
 62
5
 10
90.5645106558
 20
206.1025214537
 11
94.7645106558
 21
206.1025214537
  0
LINE
  8
2
  6
CONTINUOUS
 62
5
 10
94.7645106558
 20
206.1025214537
 11
94.7645106558
 21
65.6025214537
  0
LINE
  8
2
  6
CONTINUOUS
 62
5
 10
78.9630817928
 20
65.6025214537
 11
94.7645106558
 21
65.6025214537
  0
LINE
  8
2
  6
CONTINUOUS
 62
5
 10
45.5659395189
 20
65.6025214537
 11
29.7645106558
 21
65.6025214537
  0
LINE
  8
2
  6
CONTINUOUS
 62
5
 10
29.7645106558
 20
65.6025214537
 11
29.7645106558
 21
206.1025214537
  0
LINE
  8
2
  6
CONTINUOUS
 62
5
 10
49.3906030156
 20
62.0590341874
 11
48.1384182961
 21
64.1460087200
  0
LINE
  8
2
  6
CONTINUOUS
 62
5
 10
72.5659395189
 20
60.6025214537
 11
51.9630817928
 21
60.6025214537
  0
ARC
  8
2
  6
CONTINUOUS
 62
5
 10
45.5659395189
 20
62.6025214537
 40
3.0000000000
 50
30.9637565321
 51
90.0000000000
  0
ARC
  8
2
  6
CONTINUOUS
 62
5
 10
51.9630817928
 20
63.6025214537
 40
3.0000000000
 50
210.9637565321
 51
270.0000000000
  0
LINE
  8
2
  6
CONTINUOUS
 62
5
 10
75.1384182961
 20
62.0590341874
 11
76.3906030156
 21
64.1460087200
  0
ARC
  8
2
  6
CONTINUOUS
 62
5
 10
78.9630817928
 20
62.6025214537
 40
3.0000000000
 50
90.0000000000
 51
149.0362434679
  0
ARC
  8
2
  6
CONTINUOUS
 62
5
 10
72.5659395189
 20
63.6025214537
 40
3.0000000000
 50
270.0000000000
 51
329.0362434679
  0
LINE
  8
2
  6
HIDDEN
 62
5
 10
109.4661466639
 20
70.7525214537
 11
111.4661466639
 21
70.7525214537
  0
LINE
  8
2
  6
HIDDEN
 62
5
 10
111.4661466639
 20
71.1025214537
 11
109.4661466639
 21
71.1025214537
  0
LINE
  8
2
  6
HIDDEN
 62
5
 10
111.4661466639
 20
71.3525214537
 11
123.9661466639
 21
71.3525214537
  0
LINE
  8
2
  6
HIDDEN
 62
5
 10
109.4661466639
 20
67.4525214537
 11
111.4661466639
 21
67.4525214537
  0
LINE
  8
2
  6
HIDDEN
 62
5
 10
111.4661466639
 20
67.1025214537
 11
109.4661466639
 21
67.1025214537
  0
LINE
  8
2
  6
HIDDEN
 62
5
 10
111.4661466639
 20
66.8525214537
 11
123.9661466639
 21
66.8525214537
  0
LINE
  8
2
  6
HIDDEN
 62
5
 10
111.4661466639
 20
71.3525214537
 11
111.4661466639
 21
66.8525214537
  0
LINE
  8
1
  6
HIDDEN
 62
7
 10
124.4661466639
 20
71.1025214537
 11
133.4661466639
 21
71.1025214537
  0
LINE
  8
1
  6
HIDDEN
 62
7
 10
124.4661466639
 20
70.7525214537
 11
133.4661466639
 21
70.7525214537
  0
LINE
  8
1
  6
HIDDEN
 62
7
 10
124.4661466639
 20
67.4525214537
 11
133.4661466639
 21
67.4525214537
  0
LINE
  8
1
  6
HIDDEN
 62
7
 10
124.4661466639
 20
67.1025214537
 11
133.4661466639
 21
67.1025214537
  0
LINE
  8
2
  6
CONTINUOUS
 62
5
 10
113.9632592050
 20
64.3453028064
 11
112.7175903934
 21
61.2311307773
  0
LINE
  8
2
  6
CONTINUOUS
 62
5
 10
111.7891137025
 20
60.6025214537
 11
110.4661466639
 21
60.6025214537
  0
LINE
  8
2
  6
CONTINUOUS
 62
5
 10
36.2645106558
 20
51.5484212565
 11
88.2645106558
 21
51.5484212565
  0
LINE
  8
2
  6
CONTINUOUS
 62
5
 10
94.7645106558
 20
43.5484212565
 11
94.7645106558
 21
37.0484212565
  0
LINE
  8
2
  6
CONTINUOUS
 62
5
 10
94.7645106558
 20
37.0484212565
 11
29.7645106558
 21
37.0484212565
  0
LINE
  8
2
  6
CONTINUOUS
 62
5
 10
29.7645106558
 20
37.0484212565
 11
29.7645106558
 21
43.5484212565
  0
LINE
  8
2
  6
CONTINUOUS
 62
5
 10
94.7645106558
 20
43.5484212565
 11
88.2645106558
 21
51.5484212565
  0
LINE
  8
2
  6
CONTINUOUS
 62
5
 10
36.2645106558
 20
51.5484212565
 11
29.7645106558
 21
43.5484212565
  0
LINE
  8
2
  6
CONTINUOUS
 62
5
 10
33.8539337328
 20
206.1025214537
 11
36.2645106558
 21
192.4775214537
  0
LINE
  8
2
  6
CONTINUOUS
 62
5
 10
36.2645106558
 20
192.4775214537
 11
88.2645106558
 21
192.4775214537
  0
LINE
  8
2
  6
CONTINUOUS
 62
5
 10
88.2645106558
 20
192.4775214537
 11
90.6750875789
 21
206.1025214537
  0
LINE
  8
2
  6
CONTINUOUS
 62
5
 10
88.2645106558
 20
192.4775214537
 11
88.2645106558
 21
65.6025214537
  0
LINE
  8
2
  6
CONTINUOUS
 62
5
 10
36.2645106558
 20
65.6025214537
 11
36.2645106558
 21
192.4775214537
  0
LINE
  8
2
  6
CONTINUOUS
 62
5
 10
45.5659395189
 20
51.5484212565
 11
45.5659395189
 21
46.5484212565
  0
LINE
  8
2
  6
CONTINUOUS
 62
5
 10
45.5659395189
 20
46.5484212565
 11
51.9630817928
 21
48.5484212565
  0
LINE
  8
2
  6
CONTINUOUS
 62
5
 10
51.9630817928
 20
48.5484212565
 11
72.5659395189
 21
48.5484212565
  0
LINE
  8
2
  6
CONTINUOUS
 62
5
 10
72.5659395189
 20
48.5484212565
 11
78.9630817928
 21
46.5484212565
  0
LINE
  8
2
  6
CONTINUOUS
 62
5
 10
78.9630817928
 20
46.5484212565
 11
78.9630817928
 21
51.5484212565
  0
LINE
  8
2
  6
CONTINUOUS
 62
5
 10
51.9630817928
 20
51.5484212565
 11
51.9630817928
 21
48.5484212565
  0
LINE
  8
2
  6
CONTINUOUS
 62
5
 10
72.5659395189
 20
51.5484212565
 11
72.5659395189
 21
48.5484212565
  0
LINE
  8
2
  6
CONTINUOUS
 62
5
 10
45.5659395189
 20
46.5484212565
 11
78.9630817928
 21
46.5484212565
  0
ARC
  8
2
  6
CONTINUOUS
 62
5
 10
110.4661466639
 20
61.6025214537
 40
1.0000000000
 50
180.0000000000
 51
270.0000000000
  0
ARC
  8
2
  6
CONTINUOUS
 62
5
 10
111.7891137025
 20
61.6025214537
 40
1.0000000000
 50
270.0000000000
 51
338.1985905136
  0
ARC
  8
2
  6
CONTINUOUS
 62
5
 10
115.8202125868
 20
63.6025214537
 40
2.0000000000
 50
90.0000000000
 51
158.1985905136
  0
LINE
  8
1
  6
CONTINUOUS
 62
7
 10
96.7645106558
 20
27.5484212565
 11
27.7645106558
 21
27.5484212565
  0
LINE
  8
2
  6
CONTINUOUS
 62
5
 10
124.9661466639
 20
204.3525214537
 11
123.9661466639
 21
204.3525214537
  0
LINE
  8
2
  6
CONTINUOUS
 62
5
 10
124.9661466639
 20
204.3525214537
 11
124.9661466639
 21
203.8525214537
  0
LINE
  8
2
  6
CONTINUOUS
 62
5
 10
124.9661466639
 20
203.8525214537
 11
123.9661466639
 21
203.8525214537
  0
LINE
  8
2
  6
HIDDEN
 62
5
 10
123.9661466639
 20
203.8525214537
 11
114.7351177630
 21
203.8525214537
  0
LINE
  8
2
  6
CONTINUOUS
 62
5
 10
123.9661466639
 20
73.3525214537
 11
124.9661466639
 21
73.3525214537
  0
LINE
  8
2
  6
CONTINUOUS
 62
5
 10
124.9661466639
 20
73.3525214537
 11
124.9661466639
 21
73.8525214537
  0
LINE
  8
2
  6
CONTINUOUS
 62
5
 10
124.9661466639
 20
73.8525214537
 11
123.9661466639
 21
73.8525214537
  0
LINE
  8
2
  6
HIDDEN
 62
5
 10
123.9661466639
 20
73.8525214537
 11
111.4661466639
 21
73.8525214537
  0
LINE
  8
1
  6
CONTINUOUS
 62
7
 10
219.9105182328
 20
201.1025214537
 11
167.9105182328
 21
201.1025214537
  0
LINE
  8
1
  6
CONTINUOUS
 62
7
 10
221.4105182328
 20
78.1025214537
 11
221.4105182328
 21
199.6025214537
  0
LINE
  8
1
  6
CONTINUOUS
 62
7
 10
167.9105182328
 20
76.6025214537
 11
219.9105182328
 21
76.6025214537
  0
LINE
  8
1
  6
CONTINUOUS
 62
7
 10
166.4105182328
 20
78.1025214537
 11
166.4105182328
 21
199.6025214537
  0
LINE
  8
1
  6
CONTINUOUS
 62
7
 10
223.4105182328
 20
75.6025214537
 11
223.4105182328
 21
202.1025214537
  0
LINE
  8
1
  6
CONTINUOUS
 62
7
 10
222.4105182328
 20
203.1025214537
 11
165.4105182328
 21
203.1025214537
  0
LINE
  8
1
  6
CONTINUOUS
 62
7
 10
164.4105182328
 20
75.6025214537
 11
164.4105182328
 21
202.1025214537
  0
LINE
  8
1
  6
CONTINUOUS
 62
7
 10
165.4105182328
 20
74.6025214537
 11
222.4105182328
 21
74.6025214537
  0
ARC
  8
1
  6
CONTINUOUS
 62
7
 10
167.9105182328
 20
199.6025214537
 40
1.5000000000
 50
90.0000000000
 51
180.0000000000
  0
ARC
  8
1
  6
CONTINUOUS
 62
7
 10
219.9105182328
 20
199.6025214537
 40
1.5000000000
 50
0.0000000000
 51
90.0000000000
  0
ARC
  8
1
  6
CONTINUOUS
 62
7
 10
219.9105182328
 20
78.1025214537
 40
1.5000000000
 50
270.0000000000
 51
0.0000000000
  0
ARC
  8
1
  6
CONTINUOUS
 62
7
 10
167.9105182328
 20
78.1025214537
 40
1.5000000000
 50
180.0000000000
 51
270.0000000000
  0
CIRCLE
  8
1
  6
HIDDEN
 62
3
 10
173.9105182328
 20
197.3525214537
 40
1.7500000000
  0
CIRCLE
  8
1
  6
HIDDEN
 62
3
 10
173.9105182328
 20
197.3525214537
 40
3.2500000000
  0
CIRCLE
  8
1
  6
HIDDEN
 62
3
 10
213.9105182328
 20
197.3525214537
 40
1.7500000000
  0
CIRCLE
  8
1
  6
HIDDEN
 62
3
 10
213.9105182328
 20
197.3525214537
 40
3.2500000000
  0
LINE
  8
1
  6
HIDDEN
 62
3
 10
216.9105182328
 20
192.3525214537
 11
219.9105182328
 21
192.3525214537
  0
LINE
  8
1
  6
HIDDEN
 62
3
 10
168.9105182328
 20
192.3525214537
 11
216.9105182328
 21
192.3525214537
  0
CIRCLE
  8
1
  6
HIDDEN
 62
3
 10
173.9105182328
 20
80.3525214537
 40
1.7500000000
  0
CIRCLE
  8
1
  6
HIDDEN
 62
3
 10
173.9105182328
 20
80.3525214537
 40
3.2500000000
  0
CIRCLE
  8
1
  6
HIDDEN
 62
3
 10
213.9105182328
 20
80.3525214537
 40
1.7500000000
  0
CIRCLE
  8
1
  6
HIDDEN
 62
3
 10
213.9105182328
 20
80.3525214537
 40
3.2500000000
  0
CIRCLE
  8
1
  6
HIDDEN
 62
3
 10
193.9105182328
 20
197.3525214537
 40
2.0000000000
  0
LINE
  8
1
  6
CONTINUOUS
 62
7
 10
225.4105182328
 20
75.6025214537
 11
225.4105182328
 21
202.1025214537
  0
LINE
  8
1
  6
CONTINUOUS
 62
7
 10
222.4105182328
 20
205.1025214537
 11
165.4105182328
 21
205.1025214537
  0
LINE
  8
1
  6
CONTINUOUS
 62
7
 10
162.4105182328
 20
75.6025214537
 11
162.4105182328
 21
202.1025214537
  0
LINE
  8
1
  6
CONTINUOUS
 62
7
 10
165.4105182328
 20
72.6025214537
 11
222.4105182328
 21
72.6025214537
  0
LINE
  8
1
  6
CONTINUOUS
 62
7
 10
227.4105182328
 20
65.6025214537
 11
227.4105182328
 21
209.4775214537
  0
LINE
  8
1
  6
CONTINUOUS
 62
7
 10
160.4105182328
 20
209.4775214537
 11
160.4105182328
 21
65.6025214537
  0
LINE
  8
1
  6
CONTINUOUS
 62
7
 10
228.4105182328
 20
64.6025214537
 11
228.4105182328
 21
220.1025214537
  0
LINE
  8
1
  6
CONTINUOUS
 62
7
 10
159.4105182328
 20
220.1025214537
 11
159.4105182328
 21
64.6025214537
  0
ARC
  8
1
  6
CONTINUOUS
 62
7
 10
165.4105182328
 20
202.1025214537
 40
1.0000000000
 50
90.0000000000
 51
180.0000000000
  0
ARC
  8
1
  6
CONTINUOUS
 62
7
 10
222.4105182328
 20
202.1025214537
 40
1.0000000000
 50
0.0000000000
 51
90.0000000000
  0
ARC
  8
1
  6
CONTINUOUS
 62
7
 10
222.4105182328
 20
75.6025214537
 40
1.0000000000
 50
270.0000000000
 51
0.0000000000
  0
ARC
  8
1
  6
CONTINUOUS
 62
7
 10
165.4105182328
 20
75.6025214537
 40
1.0000000000
 50
180.0000000000
 51
270.0000000000
  0
LINE
  8
1
  6
HIDDEN
 62
3
 10
219.9105182328
 20
182.3525214537
 11
219.9105182328
 21
192.3525214537
  0
ARC
  8
1
  6
CONTINUOUS
 62
7
 10
165.4105182328
 20
202.1025214537
 40
3.0000000000
 50
90.0000000000
 51
180.0000000000
  0
ARC
  8
1
  6
CONTINUOUS
 62
7
 10
222.4105182328
 20
202.1025214537
 40
3.0000000000
 50
0.0000000000
 51
90.0000000000
  0
ARC
  8
1
  6
CONTINUOUS
 62
7
 10
222.4105182328
 20
75.6025214537
 40
3.0000000000
 50
270.0000000000
 51
0.0000000000
  0
ARC
  8
1
  6
CONTINUOUS
 62
7
 10
165.4105182328
 20
75.6025214537
 40
3.0000000000
 50
180.0000000000
 51
270.0000000000
  0
LINE
  8
1
  6
DASHDOT
 62
1
 10
230.4105182328
 20
213.1025214537
 11
157.4105182328
 21
213.1025214537
  0
LINE
  8
1
  6
CONTINUOUS
 62
7
 10
228.4105182328
 20
64.6025214537
 11
159.4105182328
 21
64.6025214537
  0
LINE
  8
1
  6
CONTINUOUS
 62
7
 10
160.4105182328
 20
65.6025214537
 11
227.4105182328
 21
65.6025214537
  0
LINE
  8
1
  6
CONTINUOUS
 62
7
 10
160.4105182328
 20
207.1025214537
 11
160.4105182328
 21
219.1025214537
  0
LINE
  8
1
  6
CONTINUOUS
 62
7
 10
160.4105182328
 20
219.1025214537
 11
165.4105182328
 21
219.1025214537
  0
LINE
  8
1
  6
CONTINUOUS
 62
7
 10
165.4105182328
 20
219.1025214537
 11
165.4105182328
 21
207.1025214537
  0
LINE
  8
1
  6
CONTINUOUS
 62
7
 10
165.4105182328
 20
207.1025214537
 11
160.4105182328
 21
207.1025214537
  0
LINE
  8
1
  6
CONTINUOUS
 62
7
 10
227.4105182328
 20
219.1025214537
 11
222.4105182328
 21
219.1025214537
  0
LINE
  8
1
  6
CONTINUOUS
 62
7
 10
222.4105182328
 20
219.1025214537
 11
222.4105182328
 21
207.1025214537
  0
LINE
  8
1
  6
CONTINUOUS
 62
7
 10
222.4105182328
 20
207.1025214537
 11
227.4105182328
 21
207.1025214537
  0
LINE
  8
1
  6
CONTINUOUS
 62
7
 10
227.4105182328
 20
207.1025214537
 11
227.4105182328
 21
219.1025214537
  0
LINE
  8
1
  6
CONTINUOUS
 62
7
 10
222.4105182328
 20
207.1025214537
 11
222.4105182328
 21
206.1025214537
  0
LINE
  8
1
  6
CONTINUOUS
 62
7
 10
222.4105182328
 20
206.1025214537
 11
165.4105182328
 21
206.1025214537
  0
LINE
  8
1
  6
CONTINUOUS
 62
7
 10
165.4105182328
 20
206.1025214537
 11
165.4105182328
 21
207.1025214537
  0
LINE
  8
1
  6
CONTINUOUS
 62
7
 10
228.4105182328
 20
220.1025214537
 11
159.4105182328
 21
220.1025214537
  0
CIRCLE
  8
1
  6
HIDDEN
 62
3
 10
193.9105182328
 20
197.3525214537
 40
1.6500000000
  0
CIRCLE
  8
1
  6
HIDDEN
 62
3
 10
193.9105182328
 20
80.3525214537
 40
2.0000000000
  0
CIRCLE
  8
1
  6
HIDDEN
 62
3
 10
193.9105182328
 20
80.3525214537
 40
1.6500000000
  0
CIRCLE
  8
1
  6
HIDDEN
 62
7
 10
193.9105182328
 20
69.1025214537
 40
2.0000000000
  0
CIRCLE
  8
1
  6
CONTINUOUS
 62
7
 10
193.9105182328
 20
69.1025214537
 40
1.6500000000
  0
INSERT
  8
5
  6
CONTINUOUS
 62
7
  2
S0
 10
0.0000000000
 20
0.0000000000
  0
TEXT
  8
5
  6
CONTINUOUS
 62
7
 10
349.684277
 20
5.000000
 40
6.000000
  1
M0051A066C
 41
0.765697
 50
0.000000
 51
0.000000
 72
   5
 73
   0
 11
379.684277
 21
5.000000
  0
TEXT
  8
5
  6
CONTINUOUS
 62
7
 10
293.500000
 20
10.750000
 40
3.000000
  1
Yamada
 41
0.779221
 50
0.000000
 51
0.000000
 72
   5
 73
   0
 11
302.500000
 21
10.750000
  0
TEXT
  8
5
  6
CONTINUOUS
 62
7
 10
304.500000
 20
10.750000
 40
3.000000
  1
Yamada
 41
0.779221
 50
0.000000
 51
0.000000
 72
   5
 73
   0
 11
313.500000
 21
10.750000
  0
TEXT
  8
1
  6
CONTINUOUS
 62
7
 10
178.408984
 20
56.344007
 40
4.000000
  1
内 部 図
 41
0.854701
 50
0.000000
 51
0.000000
 72
   5
 73
   0
 11
194.408984
 21
56.344007
  0
DIMENSION
  8
1
  6
CONTINUOUS
 62
5
  2
*D0
 10
111.4661466639
 20
98.7193009011
 11
119.7161466639
 21
101.4693009011
  70
0
 13
127.9661466639
 23
93.8244525436
 14
111.4661466639
 24
93.8244525436
 50
0.000000
  0
CIRCLE
  8
1
  6
CONTINUOUS
 62
5
 10
137.4661466639
 20
187.3525214537
 40
2.0000000000
  0
LINE
  8
1
  6
CONTINUOUS
 62
5
 10
135.9661466638
 20
187.3525214537
 11
138.9661466638
 21
187.3525214537
  0
LINE
  8
1
  6
CONTINUOUS
 62
5
 10
136.4661466638
 20
186.6025214537
 11
138.4661466638
 21
186.6025214537
  0
LINE
  8
1
  6
CONTINUOUS
 62
5
 10
136.9661466638
 20
185.8525214537
 11
137.9661466638
 21
185.8525214537
  0
LINE
  8
1
  6
CONTINUOUS
 62
5
 10
137.4661466639
 20
187.3525214537
 11
137.4661466638
 21
188.8525214537
  0
LINE
  8
1
  6
HIDDEN
 62
3
 10
219.9105182328
 20
182.3525214537
 11
216.9105182328
 21
182.3525214537
  0
LINE
  8
1
  6
HIDDEN
 62
3
 10
216.9105182328
 20
182.3525214537
 11
216.9105182328
 21
192.3525214537
  0
LINE
  8
1
  6
CONTINUOUS
 62
7
 10
133.4661466639
 20
192.3525214537
 11
148.4661466639
 21
192.3525214537
  0
LINE
  8
1
  6
CONTINUOUS
 62
7
 10
148.4661466639
 20
192.3525214537
 11
148.4661466639
 21
182.3525214537
  0
LINE
  8
1
  6
CONTINUOUS
 62
7
 10
148.4661466639
 20
182.3525214537
 11
133.4661466639
 21
182.3525214537
  0
CIRCLE
  8
1
  6
CONTINUOUS
 62
7
 10
143.4661466639
 20
187.3525214537
 40
2.0000000000
  0
CIRCLE
  8
1
  6
HIDDEN
 62
7
 10
143.4661466639
 20
187.3525214537
 40
2.5000000000
  0
CIRCLE
  8
1
  6
HIDDEN
 62
5
 10
137.4661466639
 20
90.3525214537
 40
2.0000000000
  0
LINE
  8
1
  6
HIDDEN
 62
5
 10
135.9661466638
 20
90.3525214537
 11
138.9661466638
 21
90.3525214537
  0
LINE
  8
1
  6
HIDDEN
 62
5
 10
136.4661466638
 20
89.6025214537
 11
138.4661466638
 21
89.6025214537
  0
LINE
  8
1
  6
HIDDEN
 62
5
 10
136.9661466638
 20
88.8525214537
 11
137.9661466638
 21
88.8525214537
  0
LINE
  8
1
  6
HIDDEN
 62
5
 10
137.4661466639
 20
90.3525214537
 11
137.4661466638
 21
91.8525214537
  0
LINE
  8
1
  6
CONTINUOUS
 62
7
 10
133.4661466639
 20
95.3525214537
 11
148.4661466639
 21
95.3525214537
  0
LINE
  8
1
  6
CONTINUOUS
 62
7
 10
148.4661466639
 20
95.3525214537
 11
148.4661466639
 21
85.3525214537
  0
LINE
  8
1
  6
CONTINUOUS
 62
7
 10
148.4661466639
 20
85.3525214537
 11
133.4661466639
 21
85.3525214537
  0
CIRCLE
  8
1
  6
CONTINUOUS
 62
7
 10
143.4661466639
 20
90.3525214537
 40
2.0000000000
  0
CIRCLE
  8
1
  6
HIDDEN
 62
7
 10
143.4661466639
 20
90.3525214537
 40
2.5000000000
  0
DIMENSION
  8
1
  6
CONTINUOUS
 62
5
  2
*D1
 10
20.9779016700
 20
36.5484212565
 11
18.2279016700
 21
32.0484212565
  70
0
 13
27.7645106558
 23
27.5484212565
 14
28.7645106558
 24
36.5484212565
 50
90.000000
  0
DIMENSION
  8
1
  6
CONTINUOUS
 62
5
  2
*D2
 10
20.7383253733
 20
51.5484212565
 11
17.9883253733
 21
44.2984212565
  70
0
 13
29.7645106558
 23
37.0484212565
 14
36.2645106558
 24
51.5484212565
 50
90.000000
  0
DIMENSION
  8
1
  6
CONTINUOUS
 62
5
  2
*D3
 10
13.2316014101
 20
51.5484212565
 11
10.4816014101
 21
39.5484212565
  70
0
 13
27.7645106558
 23
27.5484212565
 14
36.2645106558
 24
51.5484212565
 50
90.000000
  0
LINE
  8
1
  6
CONTINUOUS
 62
7
 10
36.2645106558
 20
27.5484212565
 11
36.2645106558
 21
12.5484212565
  0
LINE
  8
1
  6
CONTINUOUS
 62
7
 10
36.2645106558
 20
12.5484212565
 11
39.2645106558
 21
12.5484212565
  0
LINE
  8
1
  6
CONTINUOUS
 62
7
 10
39.2645106558
 20
12.5484212565
 11
39.2645106558
 21
27.5484212565
  0
LINE
  8
1
  6
CONTINUOUS
 62
7
 10
88.2645106558
 20
27.5484212565
 11
88.2645106558
 21
12.5484212565
  0
LINE
  8
1
  6
CONTINUOUS
 62
7
 10
88.2645106558
 20
12.5484212565
 11
85.2645106558
 21
12.5484212565
  0
LINE
  8
1
  6
CONTINUOUS
 62
7
 10
85.2645106558
 20
12.5484212565
 11
85.2645106558
 21
27.5484212565
  0
LINE
  8
1
  6
HIDDEN
 62
3
 10
167.9105182328
 20
85.3525214537
 11
170.9105182328
 21
85.3525214537
  0
LINE
  8
1
  6
HIDDEN
 62
3
 10
218.9105182328
 20
85.3525214537
 11
170.9105182328
 21
85.3525214537
  0
LINE
  8
1
  6
HIDDEN
 62
3
 10
167.9105182328
 20
95.3525214537
 11
170.9105182328
 21
95.3525214537
  0
LINE
  8
3
  6
HIDDEN
 62
3
 10
170.9105182328
 20
95.3525214537
 11
170.9105182328
 21
85.3525214537
  0
LINE
  8
1
  6
HIDDEN
 62
3
 10
167.9105182328
 20
95.3525214537
 11
167.9105182328
 21
85.3525214537
  0
LINE
  8
1
  6
HIDDEN
 62
3
 10
219.9105182328
 20
86.3525214537
 11
219.9105182328
 21
182.3525214537
  0
LINE
  8
1
  6
HIDDEN
 62
3
 10
167.9105182328
 20
191.3525214537
 11
167.9105182328
 21
95.3525214537
  0
LINE
  8
2
  6
CONTINUOUS
 62
5
 10
115.6954338248
 20
214.7453462552
 11
109.4661466639
 21
192.4775214537
  0
LINE
  8
2
  6
HIDDEN
 62
5
 10
114.7351177630
 20
203.8525214537
 11
111.4661466639
 21
192.2022453229
  0
LINE
  8
2
  6
HIDDEN
 62
5
 10
111.4661466639
 20
192.2022453229
 11
111.4661466639
 21
73.8525214537
  0
DIMENSION
  8
1
  6
CONTINUOUS
 62
5
  2
*D4
 10
17.2916228022
 20
64.6025214537
 11
13.7916228022
 21
142.3525214537
  70
0
 13
27.7645106558
 23
220.1025214537
 14
27.7645106558
 24
64.6025214537
 50
90.000000
  0
DIMENSION
  8
1
  6
CONTINUOUS
 62
5
  2
*D5
 10
96.7645106558
 20
224.0648547044
 11
62.2645106558
 21
227.5648547044
  70
0
 13
27.7645106558
 23
220.1025214537
 14
96.7645106558
 24
220.1025214537
 50
0.000000
  0
LINE
  8
2
  6
CONTINUOUS
 62
5
 10
31.5145106558
 20
37.0484212565
 11
31.5145106558
 21
36.0484212565
  0
LINE
  8
2
  6
CONTINUOUS
 62
5
 10
31.5145106558
 20
36.0484212565
 11
32.0145106558
 21
36.0484212565
  0
LINE
  8
2
  6
CONTINUOUS
 62
5
 10
32.0145106558
 20
36.0484212565
 11
32.0145106558
 21
37.0484212565
  0
LINE
  8
2
  6
CONTINUOUS
 62
5
 10
93.0145106558
 20
37.0484212565
 11
93.0145106558
 21
36.0484212565
  0
LINE
  8
2
  6
CONTINUOUS
 62
5
 10
93.0145106558
 20
36.0484212565
 11
92.5145106558
 21
36.0484212565
  0
LINE
  8
2
  6
CONTINUOUS
 62
5
 10
92.5145106558
 20
36.0484212565
 11
92.5145106558
 21
37.0484212565
  0
ARC
  8
1
  6
HIDDEN
 62
3
 10
168.9105182328
 20
191.3525214537
 40
1.0000000000
 50
90.0000000000
 51
180.0000000000
  0
ARC
  8
1
  6
HIDDEN
 62
3
 10
218.9105182328
 20
86.3525214537
 40
1.0000000000
 50
270.0000000000
 51
0.0000000000
  0
CIRCLE
  8
1
  6
CONTINUOUS
 62
7
 10
62.2645106558
 20
69.1025214537
 40
4.0000000000
  0
LINE
  8
1
  6
CONTINUOUS
 62
7
 10
60.4967437029
 20
70.8702884066
 11
64.0322776088
 21
67.3347545007
  0
LINE
  8
1
  6
CONTINUOUS
 62
7
 10
60.4967437029
 20
67.3347545007
 11
64.0322776088
 21
70.8702884066
  0
CIRCLE
  8
1
  6
CONTINUOUS
 62
7
 10
62.2645106558
 20
69.1025214537
 40
3.5000000000
  0
POINT
  8
1
  6
CONTINUOUS
 62
7
 10
62.2645106558
 20
51.5484212565
  0
LINE
  8
1
  6
CONTINUOUS
 62
7
 10
58.7645106558
 20
51.5484212586
 11
65.7645106558
 21
51.5484212543
  0
LINE
  8
1
  6
CONTINUOUS
 62
7
 10
61.4478439892
 20
54.2317545903
 11
63.0811773225
 21
54.2317545893
  0
ARC
  8
1
  6
CONTINUOUS
 62
7
 10
61.4478439892
 20
51.5484212570
 40
2.6833333333
 50
90.0000000000
 51
179.9999999648
  0
ARC
  8
1
  6
CONTINUOUS
 62
7
 10
63.0811773225
 20
51.5484212560
 40
2.6833333333
 50
359.9999999648
 51
90.0000000000
  0
POINT
  8
1
  6
CONTINUOUS
 62
7
 10
62.2645106558
 20
51.5484212565
  0
POINT
  8
1
  6
CONTINUOUS
 62
7
 10
62.2645106558
 20
51.5484212565
  0
POINT
  8
1
  6
CONTINUOUS
 62
7
 10
109.4661466639
 20
69.1025214537
  0
LINE
  8
1
  6
CONTINUOUS
 62
7
 10
109.4690741866
 20
65.5995939289
 11
109.4690741909
 21
72.5995939289
  0
LINE
  8
1
  6
CONTINUOUS
 62
7
 10
106.7857408549
 20
68.2829272622
 11
106.7857408559
 21
69.9162605955
  0
ARC
  8
1
  6
CONTINUOUS
 62
7
 10
109.4690741882
 20
68.2829272622
 40
2.6833333333
 50
180.0000000000
 51
269.9999999648
  0
ARC
  8
1
  6
CONTINUOUS
 62
7
 10
109.4690741892
 20
69.9162605955
 40
2.6833333333
 50
89.9999999648
 51
180.0000000000
  0
POINT
  8
1
  6
CONTINUOUS
 62
7
 10
109.4661466639
 20
69.1025214537
  0
POINT
  8
1
  6
CONTINUOUS
 62
7
 10
109.4661466639
 20
69.1025214537
  0
LINE
  8
3
  6
CONTINUOUS
 62
7
 10
221.1605182328
 20
77.8525214539
 11
221.1605182328
 21
199.8525214535
  0
LINE
  8
3
  6
CONTINUOUS
 62
7
 10
220.1605182328
 20
200.8525214535
 11
167.6605182328
 21
200.8525214539
  0
LINE
  8
3
  6
CONTINUOUS
 62
7
 10
166.6605182328
 20
77.8525214535
 11
166.6605182328
 21
199.8525214539
  0
LINE
  8
3
  6
CONTINUOUS
 62
7
 10
220.1605182328
 20
76.8525214539
 11
167.6605182328
 21
76.8525214535
  0
LINE
  8
3
  6
CONTINUOUS
 62
7
 10
167.6605182328
 20
200.8525214539
 11
166.6605182328
 21
199.8525214539
  0
LINE
  8
3
  6
CONTINUOUS
 62
7
 10
221.1605182328
 20
199.8525214535
 11
220.1605182328
 21
200.8525214535
  0
LINE
  8
3
  6
CONTINUOUS
 62
7
 10
221.1605182328
 20
77.8525214539
 11
220.1605182328
 21
76.8525214539
  0
LINE
  8
3
  6
CONTINUOUS
 62
7
 10
167.6605182328
 20
76.8525214535
 11
166.6605182328
 21
77.8525214535
  0
CIRCLE
  8
3
  6
CONTINUOUS
 62
6
 10
193.9105182328
 20
197.3525214536
 40
3.9000000000
  0
LINE
  8
3
  6
CONTINUOUS
 62
6
 10
192.1869454536
 20
199.0760942328
 11
195.6340910119
 21
195.6289486745
  0
LINE
  8
3
  6
CONTINUOUS
 62
6
 10
192.1869454536
 20
195.6289486745
 11
195.6340910119
 21
199.0760942328
  0
CIRCLE
  8
3
  6
CONTINUOUS
 62
6
 10
193.9105182328
 20
197.3525214536
 40
3.4125000000
  0
CIRCLE
  8
3
  6
CONTINUOUS
 62
6
 10
193.9105182328
 20
80.3525214537
 40
3.9000000000
  0
LINE
  8
3
  6
CONTINUOUS
 62
6
 10
192.1869454536
 20
82.0760942328
 11
195.6340910119
 21
78.6289486745
  0
LINE
  8
3
  6
CONTINUOUS
 62
6
 10
192.1869454536
 20
78.6289486745
 11
195.6340910119
 21
82.0760942328
  0
CIRCLE
  8
3
  6
CONTINUOUS
 62
6
 10
193.9105182328
 20
80.3525214537
 40
3.4125000000
  0
INSERT
  8
5
  6
CONTINUOUS
 62
7
  2
S1
 10
312.9235759729
 20
221.9463679840
  0
LINE
  8
5
  6
CONTINUOUS
 62
6
 10
13.5000000000
 20
254.5000000000
 11
13.5000000000
 21
279.5000000000
  0
LINE
  8
5
  6
CONTINUOUS
 62
6
 10
25.5000000000
 20
254.5000000000
 11
25.5000000000
 21
279.5000000000
  0
LINE
  8
5
  6
CONTINUOUS
 62
6
 10
90.0000000000
 20
254.5000000000
 11
90.0000000000
 21
279.5000000000
  0
LINE
  8
5
  6
CONTINUOUS
 62
6
 10
99.0000000000
 20
279.5000000000
 11
99.0000000000
 21
254.5000000000
  0
TEXT
  8
5
  6
CONTINUOUS
 62
6
 10
16.534500
 20
255.500000
 40
3.000000
  1
Date
 41
0.787649
 50
0.000000
 51
0.000000
 72
   5
 73
   0
 11
22.465500
 21
255.500000
  0
TEXT
  8
5
  6
CONTINUOUS
 62
6
 10
6.292500
 20
255.500000
 40
3.000000
  1
Rev.
 41
0.719124
 50
0.000000
 51
0.000000
 72
   5
 73
   0
 11
11.707500
 21
255.500000
  0
TEXT
  8
5
  6
CONTINUOUS
 62
6
 10
27.000000
 20
255.500000
 40
3.000000
  1
Content
 41
0.746681
 50
0.000000
 51
0.000000
 72
   5
 73
   0
 11
37.125000
 21
255.500000
  0
TEXT
  8
5
  6
CONTINUOUS
 62
6
 10
90.972000
 20
255.500000
 40
3.000000
  1
Name
 41
0.937052
 50
0.000000
 51
0.000000
 72
   5
 73
   0
 11
98.028000
 21
255.500000
  0
LINE
  8
5
  6
CONTINUOUS
 62
6
 10
4.5000000000
 20
259.5000000000
 11
99.0000000000
 21
259.5000000000
  0
LINE
  8
5
  6
CONTINUOUS
 62
6
 10
4.5000000000
 20
264.5000000000
 11
99.0000000000
 21
264.5000000000
  0
LINE
  8
5
  6
CONTINUOUS
 62
6
 10
4.5000000000
 20
269.5000000000
 11
99.0000000000
 21
269.5000000000
  0
LINE
  8
5
  6
CONTINUOUS
 62
6
 10
4.5000000000
 20
274.5000000000
 11
99.0000000000
 21
274.5000000000
  0
LINE
  8
5
  6
CONTINUOUS
 62
6
 10
4.5000000000
 20
254.5000000000
 11
99.0000000000
 21
254.5000000000
  0
POINT
  8
5
  6
CONTINUOUS
 62
6
 10
9.0000000000
 20
262.0000000000
  0
POINT
  8
5
  6
CONTINUOUS
 62
6
 10
9.0000000000
 20
267.0000000000
  0
POINT
  8
5
  6
CONTINUOUS
 62
6
 10
9.0000000000
 20
272.0000000000
  0
POINT
  8
5
  6
CONTINUOUS
 62
6
 10
9.0000000000
 20
277.0000000000
  0
POINT
  8
5
  6
CONTINUOUS
 62
6
 10
19.5000000000
 20
277.0000000000
  0
POINT
  8
5
  6
CONTINUOUS
 62
6
 10
19.5000000000
 20
272.0000000000
  0
POINT
  8
5
  6
CONTINUOUS
 62
6
 10
19.5000000000
 20
267.0000000000
  0
POINT
  8
5
  6
CONTINUOUS
 62
6
 10
19.5000000000
 20
262.0000000000
  0
POINT
  8
5
  6
CONTINUOUS
 62
6
 10
94.5000000000
 20
262.0000000000
  0
POINT
  8
5
  6
CONTINUOUS
 62
6
 10
94.5000000000
 20
267.0000000000
  0
POINT
  8
5
  6
CONTINUOUS
 62
6
 10
94.5000000000
 20
272.0000000000
  0
POINT
  8
5
  6
CONTINUOUS
 62
6
 10
94.5000000000
 20
277.0000000000
  0
POINT
  8
5
  6
CONTINUOUS
 62
6
 10
25.5000000000
 20
277.0000000000
  0
POINT
  8
5
  6
CONTINUOUS
 62
6
 10
25.5000000000
 20
272.0000000000
  0
POINT
  8
5
  6
CONTINUOUS
 62
6
 10
25.5000000000
 20
267.0000000000
  0
POINT
  8
5
  6
CONTINUOUS
 62
6
 10
25.5000000000
 20
262.0000000000
  0
INSERT
  8
1
  6
CONTINUOUS
 62
5
  2
BALN0
 10
65.1092980532
 20
67.0636039311
  0
TEXT
  8
5
  6
CONTINUOUS
 62
7
 10
338.923576
 20
247.946368
 40
3.000000
  1
M4×8小ワｾﾑｽ(ﾊﾟﾈﾙ固定用)
 41
0.833177
 50
0.000000
 51
0.000000
 72
   5
 73
   0
 11
376.141576
 21
247.946368
  0
TEXT
  8
5
  6
CONTINUOUS
 62
7
 10
318.923576
 20
247.946368
 40
3.000000
  1
添付品ﾋﾞｽ
 41
0.822804
 50
0.000000
 51
0.000000
 72
   5
 73
   0
 11
332.129576
 21
247.946368
  0
TEXT
  8
5
  6
CONTINUOUS
 62
7
 10
394.548576
 20
247.696368
 40
3.500000
  1
2
 41
1.000000
 50
0.000000
 51
0.000000
 72
   5
 73
   0
 11
396.298576
 21
247.696368
  0
LINE
  8
5
  6
CONTINUOUS
 62
6
 10
377.9235759729
 20
256.9463679840
 11
377.9235759729
 21
251.9463679840
  0
LINE
  8
3
  6
CONTINUOUS
 62
7
 10
221.1605182328
 20
77.8525214539
 11
221.1605182328
 21
199.8525214535
  0
LINE
  8
3
  6
CONTINUOUS
 62
7
 10
221.1605182328
 20
199.8525214535
 11
220.1605182328
 21
200.8525214535
  0
LINE
  8
3
  6
CONTINUOUS
 62
7
 10
220.1605182328
 20
200.8525214535
 11
167.6605182328
 21
200.8525214539
  0
LINE
  8
3
  6
CONTINUOUS
 62
7
 10
167.6605182328
 20
200.8525214539
 11
166.6605182328
 21
199.8525214539
  0
LINE
  8
3
  6
CONTINUOUS
 62
7
 10
166.6605182328
 20
77.8525214535
 11
166.6605182328
 21
199.8525214539
  0
LINE
  8
3
  6
CONTINUOUS
 62
7
 10
167.6605182328
 20
76.8525214535
 11
166.6605182328
 21
77.8525214535
  0
LINE
  8
3
  6
CONTINUOUS
 62
7
 10
220.1605182328
 20
76.8525214539
 11
167.6605182328
 21
76.8525214535
  0
LINE
  8
3
  6
CONTINUOUS
 62
7
 10
221.1605182328
 20
77.8525214539
 11
220.1605182328
 21
76.8525214539
  0
DIMENSION
  8
1
  6
CONTINUOUS
 62
5
  2
*D6
 10
142.4822443727
 20
88.0542751045
 11
140.9380756799
 21
91.4348139740
  70
3
 15
144.4500489552
 25
92.6507678028
  0
LINE
  8
5
  6
CONTINUOUS
 62
6
 10
377.9235759729
 20
226.9463679840
 11
337.9235759729
 21
226.9463679840
  0
TEXT
  8
5
  6
CONTINUOUS
 62
7
 10
313.673576
 20
222.696368
 40
3.500000
  1
10
 41
0.854701
 50
0.000000
 51
0.000000
 72
   5
 73
   0
 11
317.173576
 21
222.696368
  0
LINE
  8
5
  6
CONTINUOUS
 62
6
 10
312.9235759729
 20
216.9463679840
 11
312.9235759729
 21
221.9463679840
  0
LINE
  8
5
  6
CONTINUOUS
 62
6
 10
317.9235759729
 20
216.9463679840
 11
312.9235759729
 21
216.9463679840
  0
LINE
  8
5
  6
CONTINUOUS
 62
6
 10
317.9235759729
 20
221.9463679840
 11
317.9235759729
 21
216.9463679840
  0
LINE
  8
5
  6
CONTINUOUS
 62
6
 10
337.9235759729
 20
216.9463679840
 11
317.9235759729
 21
216.9463679840
  0
LINE
  8
5
  6
CONTINUOUS
 62
6
 10
337.9235759729
 20
221.9463679840
 11
337.9235759729
 21
216.9463679840
  0
LINE
  8
5
  6
CONTINUOUS
 62
6
 10
377.9235759729
 20
221.9463679840
 11
377.9235759729
 21
216.9463679840
  0
LINE
  8
5
  6
CONTINUOUS
 62
6
 10
392.9235759729
 20
221.9463679840
 11
392.9235759729
 21
216.9463679840
  0
LINE
  8
5
  6
CONTINUOUS
 62
6
 10
397.9235759729
 20
221.9463679840
 11
397.9235759729
 21
216.9463679840
  0
LINE
  8
5
  6
CONTINUOUS
 62
6
 10
397.9235759729
 20
216.9463679840
 11
392.9235759729
 21
216.9463679840
  0
LINE
  8
5
  6
CONTINUOUS
 62
6
 10
392.9235759729
 20
216.9463679840
 11
377.9235759729
 21
216.9463679840
  0
LINE
  8
5
  6
CONTINUOUS
 62
6
 10
312.9235759728
 20
211.9463679840
 11
312.9235759728
 21
216.9463679840
  0
LINE
  8
5
  6
CONTINUOUS
 62
6
 10
317.9235759728
 20
211.9463679840
 11
312.9235759728
 21
211.9463679840
  0
LINE
  8
5
  6
CONTINUOUS
 62
6
 10
317.9235759728
 20
216.9463679840
 11
317.9235759728
 21
211.9463679840
  0
LINE
  8
5
  6
CONTINUOUS
 62
6
 10
337.9235759728
 20
211.9463679840
 11
317.9235759728
 21
211.9463679840
  0
LINE
  8
5
  6
CONTINUOUS
 62
6
 10
337.9235759728
 20
216.9463679840
 11
337.9235759728
 21
211.9463679840
  0
LINE
  8
5
  6
CONTINUOUS
 62
6
 10
377.9235759728
 20
216.9463679840
 11
377.9235759728
 21
211.9463679840
  0
LINE
  8
5
  6
CONTINUOUS
 62
6
 10
392.9235759728
 20
216.9463679840
 11
392.9235759728
 21
211.9463679840
  0
LINE
  8
5
  6
CONTINUOUS
 62
6
 10
397.9235759728
 20
216.9463679840
 11
397.9235759728
 21
211.9463679840
  0
LINE
  8
5
  6
CONTINUOUS
 62
6
 10
397.9235759728
 20
211.9463679840
 11
392.9235759728
 21
211.9463679840
  0
LINE
  8
5
  6
CONTINUOUS
 62
6
 10
392.9235759728
 20
211.9463679840
 11
377.9235759728
 21
211.9463679840
  0
LINE
  8
5
  6
CONTINUOUS
 62
6
 10
377.9235759728
 20
211.9463679840
 11
337.9235759728
 21
211.9463679840
  0
LINE
  8
5
  6
CONTINUOUS
 62
6
 10
312.9235759727
 20
206.9463679840
 11
312.9235759727
 21
211.9463679840
  0
LINE
  8
5
  6
CONTINUOUS
 62
6
 10
317.9235759727
 20
206.9463679840
 11
312.9235759727
 21
206.9463679840
  0
LINE
  8
5
  6
CONTINUOUS
 62
6
 10
317.9235759727
 20
211.9463679840
 11
317.9235759727
 21
206.9463679840
  0
LINE
  8
5
  6
CONTINUOUS
 62
6
 10
337.9235759727
 20
206.9463679840
 11
317.9235759727
 21
206.9463679840
  0
LINE
  8
5
  6
CONTINUOUS
 62
6
 10
337.9235759727
 20
211.9463679840
 11
337.9235759727
 21
206.9463679840
  0
LINE
  8
5
  6
CONTINUOUS
 62
6
 10
377.9235759727
 20
211.9463679840
 11
377.9235759727
 21
206.9463679840
  0
LINE
  8
5
  6
CONTINUOUS
 62
6
 10
392.9235759727
 20
211.9463679840
 11
392.9235759727
 21
206.9463679840
  0
LINE
  8
5
  6
CONTINUOUS
 62
6
 10
397.9235759727
 20
211.9463679840
 11
397.9235759727
 21
206.9463679840
  0
LINE
  8
5
  6
CONTINUOUS
 62
6
 10
397.9235759727
 20
206.9463679840
 11
392.9235759727
 21
206.9463679840
  0
LINE
  8
5
  6
CONTINUOUS
 62
6
 10
392.9235759727
 20
206.9463679840
 11
377.9235759727
 21
206.9463679840
  0
LINE
  8
5
  6
CONTINUOUS
 62
6
 10
377.9235759727
 20
206.9463679840
 11
337.9235759727
 21
206.9463679840
  0
TEXT
  8
5
  6
CONTINUOUS
 62
7
 10
313.673576
 20
217.696368
 40
3.500000
  1
11
 41
0.854701
 50
0.000000
 51
0.000000
 72
   5
 73
   0
 11
317.173576
 21
217.696368
  0
TEXT
  8
5
  6
CONTINUOUS
 62
7
 10
313.673576
 20
212.696368
 40
3.500000
  1
12
 41
0.854701
 50
0.000000
 51
0.000000
 72
   5
 73
   0
 11
317.173576
 21
212.696368
  0
TEXT
  8
5
  6
CONTINUOUS
 62
7
 10
313.673576
 20
207.696368
 40
3.500000
  1
13
 41
0.854701
 50
0.000000
 51
0.000000
 72
   5
 73
   0
 11
317.173576
 21
207.696368
  0
TEXT
  8
5
  6
CONTINUOUS
 62
7
 10
318.923576
 20
232.946368
 40
3.000000
  1
パネル
 41
0.877246
 50
0.000000
 51
0.000000
 72
   5
 73
   0
 11
327.713576
 21
232.946368
  0
TEXT
  8
5
  6
CONTINUOUS
 62
7
 10
338.923576
 20
232.696368
 40
3.500000
  1
M0051B066C (SPCCt=1.0)
 41
0.759025
 50
0.000000
 51
0.000000
 72
   5
 73
   0
 11
377.630076
 21
232.696368
  0
TEXT
  8
5
  6
CONTINUOUS
 62
7
 10
394.548576
 20
232.696368
 40
3.500000
  1
1
 41
1.000000
 50
0.000000
 51
0.000000
 72
   5
 73
   0
 11
396.298576
 21
232.696368
  0
TEXT
  8
5
  6
CONTINUOUS
 62
7
 10
378.923576
 20
267.946368
 40
3.000000
  1
MADOKA
 41
1.028831
 50
0.000000
 51
0.000000
 72
   5
 73
   0
 11
390.806576
 21
267.946368
  0
TEXT
  8
5
  6
CONTINUOUS
 62
7
 10
378.923576
 20
262.946368
 40
3.000000
  1
MADOKA
 41
1.028831
 50
0.000000
 51
0.000000
 72
   5
 73
   0
 11
390.806576
 21
262.946368
  0
TEXT
  8
5
  6
CONTINUOUS
 62
7
 10
378.923576
 20
232.946368
 40
3.000000
  1
MADOKA
 41
1.028831
 50
0.000000
 51
0.000000
 72
   5
 73
   0
 11
390.806576
 21
232.946368
  0
TEXT
  8
5
  6
CONTINUOUS
 62
7
 10
378.923576
 20
237.946368
 40
3.000000
  1
--
 41
0.854701
 50
0.000000
 51
0.000000
 72
   5
 73
   0
 11
381.923576
 21
237.946368
  0
TEXT
  8
5
  6
CONTINUOUS
 62
7
 10
378.923576
 20
242.946368
 40
3.000000
  1
--
 41
0.854701
 50
0.000000
 51
0.000000
 72
   5
 73
   0
 11
381.923576
 21
242.946368
  0
TEXT
  8
5
  6
CONTINUOUS
 62
7
 10
378.923576
 20
247.946368
 40
3.000000
  1
--
 41
0.854701
 50
0.000000
 51
0.000000
 72
   5
 73
   0
 11
381.923576
 21
247.946368
  0
TEXT
  8
5
  6
CONTINUOUS
 62
7
 10
378.923576
 20
252.946368
 40
3.000000
  1
--
 41
0.854701
 50
0.000000
 51
0.000000
 72
   5
 73
   0
 11
381.923576
 21
252.946368
  0
TEXT
  8
5
  6
CONTINUOUS
 62
7
 10
378.923576
 20
257.946368
 40
3.000000
  1
--
 41
0.854701
 50
0.000000
 51
0.000000
 72
   5
 73
   0
 11
381.923576
 21
257.946368
  0
TEXT
  8
5
  6
CONTINUOUS
 62
7
 10
394.548576
 20
217.696368
 40
3.500000
  1
2
 41
1.000000
 50
0.000000
 51
0.000000
 72
   5
 73
   0
 11
396.298576
 21
217.696368
  0
LINE
  8
3
  6
CONTINUOUS
 62
7
 10
221.1605182328
 20
77.8525214539
 11
221.1605182328
 21
199.8525214535
  0
LINE
  8
3
  6
CONTINUOUS
 62
7
 10
220.1605182328
 20
200.8525214535
 11
167.6605182328
 21
200.8525214539
  0
LINE
  8
3
  6
CONTINUOUS
 62
7
 10
166.6605182328
 20
77.8525214535
 11
166.6605182328
 21
199.8525214539
  0
LINE
  8
3
  6
CONTINUOUS
 62
7
 10
220.1605182328
 20
76.8525214539
 11
167.6605182328
 21
76.8525214535
  0
LINE
  8
3
  6
CONTINUOUS
 62
7
 10
167.6605182328
 20
200.8525214539
 11
166.6605182328
 21
199.8525214539
  0
LINE
  8
3
  6
CONTINUOUS
 62
7
 10
221.1605182328
 20
199.8525214535
 11
220.1605182328
 21
200.8525214535
  0
LINE
  8
3
  6
CONTINUOUS
 62
7
 10
221.1605182328
 20
77.8525214539
 11
220.1605182328
 21
76.8525214539
  0
LINE
  8
3
  6
CONTINUOUS
 62
7
 10
167.6605182328
 20
76.8525214535
 11
166.6605182328
 21
77.8525214535
  0
LINE
  8
5
  6
CONTINUOUS
 62
6
 10
377.9235759729
 20
216.9463679840
 11
337.9235759729
 21
216.9463679840
  0
TEXT
  8
5
  6
CONTINUOUS
 62
7
 10
378.923576
 20
217.946368
 40
3.000000
  1
MISUMI
 41
0.836104
 50
0.000000
 51
0.000000
 72
   5
 73
   0
 11
388.580576
 21
217.946368
  0
TEXT
  8
5
  6
CONTINUOUS
 62
7
 10
318.923576
 20
212.946368
 40
3.000000
  1
ACｱｳﾄﾚｯﾄ
 41
0.770713
 50
0.000000
 51
0.000000
 72
   5
 73
   0
 11
330.923576
 21
212.946368
  0
TEXT
  8
5
  6
CONTINUOUS
 62
7
 10
338.923576
 20
212.946368
 40
3.000000
  1
AC-G07FB18
 41
0.867381
 50
0.000000
 51
0.000000
 72
   5
 73
   0
 11
355.915576
 21
212.946368
  0
TEXT
  8
5
  6
CONTINUOUS
 62
7
 10
378.923576
 20
212.946368
 40
3.000000
  1
ECHO
 41
1.027092
 50
0.000000
 51
0.000000
 72
   5
 73
   0
 11
386.657576
 21
212.946368
  0
TEXT
  8
5
  6
CONTINUOUS
 62
7
 10
394.548576
 20
212.696368
 40
3.500000
  1
1
 41
1.000000
 50
0.000000
 51
0.000000
 72
   5
 73
   0
 11
396.298576
 21
212.696368
  0
TEXT
  8
5
  6
CONTINUOUS
 62
7
 10
318.923576
 20
207.696368
 40
3.500000
  1
--
 41
0.854701
 50
0.000000
 51
0.000000
 72
   5
 73
   0
 11
322.423576
 21
207.696368
  0
TEXT
  8
5
  6
CONTINUOUS
 62
7
 10
338.923576
 20
207.946368
 40
3.000000
  1
--
 41
0.854701
 50
0.000000
 51
0.000000
 72
   5
 73
   0
 11
341.923576
 21
207.946368
  0
TEXT
  8
5
  6
CONTINUOUS
 62
7
 10
378.923576
 20
207.946368
 40
3.000000
  1
--
 41
0.854701
 50
0.000000
 51
0.000000
 72
   5
 73
   0
 11
381.923576
 21
207.946368
  0
TEXT
  8
5
  6
CONTINUOUS
 62
7
 10
393.673576
 20
207.696368
 40
3.500000
  1
--
 41
0.854701
 50
0.000000
 51
0.000000
 72
   5
 73
   0
 11
397.173576
 21
207.696368
  0
INSERT
  8
3
  6
CONTINUOUS
 62
5
  2
LTEX0
 10
143.4661466639
 20
87.8525214537
  0
LINE
  8
5
  6
CONTINUOUS
 62
6
 10
312.9235759729
 20
231.9463679840
 11
312.9235759729
 21
236.9463679840
  0
INSERT
  8
3
  6
CONTINUOUS
 62
5
  2
BALN1
 10
110.9395553908
 20
197.7445137344
  0
INSERT
  8
3
  6
CONTINUOUS
 62
5
  2
BALN2
 10
130.9399894366
 20
211.8393700363
  0
INSERT
  8
3
  6
CONTINUOUS
 62
5
  2
BALN3
 10
173.9105182328
 20
197.3525214537
  0
INSERT
  8
3
  6
CONTINUOUS
 62
5
  2
BALN4
 10
193.9105182328
 20
197.3525214537
  0
INSERT
  8
3
  6
CONTINUOUS
 62
5
  2
BALN5
 10
205.2240678788
 20
195.9771255586
  0
TEXT
  8
5
  6
CONTINUOUS
 62
7
 10
348.653069
 20
22.742557
 40
4.200000
  1
Panel Interface
 41
0.641296
 50
0.000000
 51
0.000000
 72
   5
 73
   0
 11
375.264269
 21
22.742557
  0
TEXT
  8
5
  6
CONTINUOUS
 62
7
 10
348.653069
 20
18.542557
 40
4.200000
  1
Type:MCON-001-066
 41
0.803922
 50
0.000000
 51
0.000000
 72
   5
 73
   0
 11
386.537069
 21
18.542557
  0
TEXT
  8
5
  6
CONTINUOUS
 62
7
 10
348.653069
 20
14.342557
 40
4.200000
  1
                      仕様図　1/1
 41
0.558184
 50
0.000000
 51
0.000000
 72
   5
 73
   0
 11
398.494469
 21
14.342557
  0
TEXT
  8
5
  6
CONTINUOUS
 62
7
 10
318.923576
 20
227.946368
 40
3.000000
  1
USBｺﾈｸﾀ
 41
0.774336
 50
0.000000
 51
0.000000
 72
   5
 73
   0
 11
329.423576
 21
227.946368
  0
TEXT
  8
5
  6
CONTINUOUS
 62
7
 10
338.923576
 20
227.946368
 40
3.000000
  1
MIUSB1-A-B
 41
0.863247
 50
0.000000
 51
0.000000
 72
   5
 73
   0
 11
355.834576
 21
227.946368
  0
TEXT
  8
5
  6
CONTINUOUS
 62
7
 10
378.923576
 20
227.946368
 40
3.000000
  1
MADOKA
 41
1.028831
 50
0.000000
 51
0.000000
 72
   5
 73
   0
 11
390.806576
 21
227.946368
  0
TEXT
  8
5
  6
CONTINUOUS
 62
7
 10
378.923576
 20
222.946368
 40
3.000000
  1
--
 41
0.854701
 50
0.000000
 51
0.000000
 72
   5
 73
   0
 11
381.923576
 21
222.946368
  0
TEXT
  8
5
  6
CONTINUOUS
 62
7
 10
394.548576
 20
222.696368
 40
3.500000
  1
2
 41
1.000000
 50
0.000000
 51
0.000000
 72
   5
 73
   0
 11
396.298576
 21
222.696368
  0
TEXT
  8
5
  6
CONTINUOUS
 62
7
 10
394.548576
 20
227.696368
 40
3.500000
  1
1
 41
1.000000
 50
0.000000
 51
0.000000
 72
   5
 73
   0
 11
396.298576
 21
227.696368
  0
LINE
  8
4
  6
CONTINUOUS
 62
3
 10
319.0572849682
 20
172.6619743881
 11
372.0572849682
 21
172.6619743881
  0
LINE
  8
4
  6
CONTINUOUS
 62
3
 10
372.0572849682
 20
172.6619743881
 11
372.0572849682
 21
64.6619743881
  0
LINE
  8
4
  6
CONTINUOUS
 62
3
 10
319.0572849682
 20
64.6619743881
 11
319.0572849682
 21
172.6619743881
  0
LINE
  8
4
  6
CONTINUOUS
 62
3
 10
372.0572849682
 20
64.6619743881
 11
319.0572849682
 21
64.6619743881
  0
CIRCLE
  8
4
  6
CONTINUOUS
 62
3
 10
325.5572849682
 20
177.1619743881
 40
1.5000000000
  0
CIRCLE
  8
4
  6
CONTINUOUS
 62
3
 10
365.5572849682
 20
177.1619743881
 40
1.5000000000
  0
CIRCLE
  8
4
  6
CONTINUOUS
 62
3
 10
325.5572849682
 20
60.1619743881
 40
1.5000000000
  0
CIRCLE
  8
4
  6
CONTINUOUS
 62
3
 10
365.5572849682
 20
60.1619743881
 40
1.5000000000
  0
CIRCLE
  8
4
  6
CONTINUOUS
 62
3
 10
345.5572849682
 20
177.1619743881
 40
2.2500000000
  0
CIRCLE
  8
4
  6
CONTINUOUS
 62
3
 10
345.5572849682
 20
60.1619743881
 40
2.2500000000
  0
DIMENSION
  8
4
  6
CONTINUOUS
 62
5
  2
*D7
 10
325.5572849682
 20
183.8554232121
 11
322.3072849682
 21
186.6054232121
  70
0
 13
319.0572849682
 23
172.6619743881
 14
325.5572849682
 24
175.6619743881
 50
0.000000
  0
DIMENSION
  8
4
  6
CONTINUOUS
 62
5
  2
*D8
 10
345.5572849682
 20
183.8554232121
 11
335.5572849682
 21
186.6054232121
  70
0
 13
325.5572849682
 23
175.6619743881
 14
345.5572849682
 24
174.9119743881
 50
0.000000
  0
DIMENSION
  8
4
  6
CONTINUOUS
 62
5
  2
*D9
 10
365.5572849682
 20
183.8554232121
 11
355.5572849682
 21
186.6054232121
  70
0
 13
345.5572849682
 23
174.9119743881
 14
365.5572849682
 24
175.6619743881
 50
0.000000
  0
DIMENSION
  8
4
  6
CONTINUOUS
 62
5
  2
*D10
 10
372.0572849682
 20
183.8554232121
 11
368.8072849682
 21
186.6054232121
  70
0
 13
365.5572849682
 23
175.6619743881
 14
372.0572849682
 24
172.6619743881
 50
0.000000
  0
DIMENSION
  8
4
  6
CONTINUOUS
 62
5
  2
*D11
 10
372.0572849682
 20
190.8554232121
 11
345.5572849682
 21
193.6054232121
  70
0
 13
319.0572849682
 23
172.6619743881
 14
372.0572849682
 24
172.6619743881
 50
0.000000
  0
DIMENSION
  8
4
  6
CONTINUOUS
 62
5
  2
*D12
 10
324.7064153436
 20
178.3972965655
 11
327.8220422934
 21
178.7219020332
  70
3
 15
326.4081545928
 25
175.9266522108
  0
DIMENSION
  8
4
  6
CONTINUOUS
 62
5
  2
*D13
 10
344.1560871308
 20
178.9224131461
 11
347.7089323390
 21
178.8745495228
  70
3
 15
346.9584828056
 25
175.4015356302
  0
TEXT
  8
4
  6
CONTINUOUS
 62
7
 10
322.885309
 20
36.456062
 40
5.000000
  1
パネルカット図
 41
0.872818
 50
0.000000
 51
0.000000
 72
   5
 73
   0
 11
357.885309
 21
36.456062
  0
TEXT
  8
4
  6
CONTINUOUS
 62
7
 10
322.885309
 20
31.456062
 40
5.000000
  1
推奨板厚 t=1.6以上
 41
0.827967
 50
0.000000
 51
0.000000
 72
   5
 73
   0
 11
367.885309
 21
31.456062
  0
LINE
  8
1
  6
HIDDEN
 62
1
 10
380.0572849682
 20
44.4119743881
 11
380.0572849682
 21
199.9119743881
  0
LINE
  8
1
  6
HIDDEN
 62
1
 10
380.0572849682
 20
199.9119743881
 11
311.0572849682
 21
199.9119743881
  0
LINE
  8
1
  6
HIDDEN
 62
1
 10
311.0572849682
 20
199.9119743881
 11
311.0572849682
 21
44.4119743881
  0
LINE
  8
1
  6
HIDDEN
 62
1
 10
380.0572849682
 20
44.4119743881
 11
311.0572849682
 21
44.4119743881
  0
DIMENSION
  8
1
  6
CONTINUOUS
 62
5
  2
*D14
 10
306.8614186851
 20
64.6619743881
 11
304.3614186851
 21
62.4119743881
  70
0
 13
367.0572849682
 23
60.1619743881
 14
319.0572849682
 24
64.6619743881
 50
90.000000
  0
DIMENSION
  8
1
  6
CONTINUOUS
 62
5
  2
*D15
 10
306.8614186851
 20
172.6619743881
 11
304.1114186851
 21
118.6619743881
  70
0
 13
319.0572849682
 23
64.6619743881
 14
319.0572849682
 24
172.6619743881
 50
90.000000
  0
DIMENSION
  8
1
  6
CONTINUOUS
 62
5
  2
*D16
 10
306.8614186851
 20
177.1619743881
 11
304.3614186851
 21
174.9119743881
  70
0
 13
319.0572849682
 23
172.6619743881
 14
367.0572849682
 24
177.1619743881
 50
90.000000
  0
DIMENSION
  8
1
  6
CONTINUOUS
 62
5
  2
*D17
 10
299.8614186851
 20
177.1619743881
 11
297.1114186851
 21
118.6619743881
  70
0
 13
367.0572849682
 23
60.1619743881
 14
367.0572849682
 24
177.1619743881
 50
90.000000
  0
DIMENSION
  8
1
  6
CONTINUOUS
 62
5
  2
*D18
 10
387.7005190311
 20
64.6619743881
 11
384.9505190311
 21
54.5369743881
  70
0
 13
380.0572849682
 23
44.4119743881
 14
372.0572849682
 24
64.6619743881
 50
90.000000
  0
DIMENSION
  8
1
  6
CONTINUOUS
 62
5
  2
*D19
 10
387.7005190311
 20
172.6619743881
 11
384.9505190311
 21
118.6619743881
  70
0
 13
372.0572849682
 23
64.6619743881
 14
372.0572849682
 24
172.6619743881
 50
90.000000
  0
DIMENSION
  8
1
  6
CONTINUOUS
 62
5
  2
*D20
 10
387.7005190311
 20
199.9119743881
 11
384.9505190311
 21
186.2869743881
  70
0
 13
372.0572849682
 23
172.6619743881
 14
380.0572849682
 24
199.9119743881
 50
90.000000
  0
INSERT
  8
1
  6
CONTINUOUS
 62
5
  2
LTEX1
 10
323.9116262976
 20
44.4119743881
  0
TEXT
  8
5
  6
CONTINUOUS
 62
7
 10
338.923576
 20
217.946368
 40
3.000000
  1
DGC-15PS
 41
0.907707
 50
0.000000
 51
0.000000
 72
   5
 73
   0
 11
353.056576
 21
217.946368
  0
TEXT
  8
5
  6
CONTINUOUS
 62
7
 10
318.923576
 20
217.946368
 40
3.000000
  1
ｼﾞｪﾝﾀﾞﾁｬﾝｼﾞｬ
 41
0.762389
 50
0.000000
 51
0.000000
 72
   5
 73
   0
 11
336.923576
 21
217.946368
  0
TEXT
  8
5
  6
CONTINUOUS
 62
7
 10
338.923576
 20
222.946368
 40
3.000000
  1
M3×8 小ワｾﾑｽ
 41
0.863014
 50
0.000000
 51
0.000000
 72
   5
 73
   0
 11
359.713576
 21
222.946368
  0
TEXT
  8
5
  6
CONTINUOUS
 62
7
 10
318.923576
 20
222.946368
 40
3.000000
  1
ﾋﾞｽ
 41
0.815217
 50
0.000000
 51
0.000000
 72
   5
 73
   0
 11
323.423576
 21
222.946368
  0
LINE
  8
1
  6
HIDDEN
 62
1
 10
176.1105182328
 20
171.3525214540
 11
176.1105182328
 21
188.3525214540
  0
LINE
  8
1
  6
HIDDEN
 62
1
 10
210.7105182328
 20
189.3525214540
 11
209.9105182328
 21
189.3525214540
  0
LINE
  8
1
  6
HIDDEN
 62
1
 10
206.9105182328
 20
189.3525214540
 11
180.9105182328
 21
189.3525214540
  0
LINE
  8
1
  6
HIDDEN
 62
1
 10
177.9105182328
 20
189.3525214540
 11
177.1105182328
 21
189.3525214540
  0
LINE
  8
1
  6
HIDDEN
 62
1
 10
211.7105182328
 20
188.3525214540
 11
211.7105182328
 21
171.3525214540
  0
LINE
  8
1
  6
HIDDEN
 62
1
 10
210.7105182328
 20
170.3525214540
 11
209.9105182328
 21
170.3525214540
  0
LINE
  8
1
  6
HIDDEN
 62
1
 10
206.9105182328
 20
170.3525214540
 11
180.9105182328
 21
170.3525214540
  0
LINE
  8
1
  6
HIDDEN
 62
1
 10
177.9105182328
 20
170.3525214540
 11
177.1105182328
 21
170.3525214540
  0
LINE
  8
1
  6
CONTINUOUS
 62
1
 10
182.5105182328
 20
187.7525214540
 11
182.5105182328
 21
171.9525214540
  0
LINE
  8
1
  6
CONTINUOUS
 62
1
 10
204.8105182328
 20
188.2525214540
 11
183.0105182328
 21
188.2525214540
  0
LINE
  8
1
  6
CONTINUOUS
 62
1
 10
205.3105182328
 20
171.9525214540
 11
205.3105182328
 21
187.7525214540
  0
LINE
  8
1
  6
CONTINUOUS
 62
1
 10
204.8105182328
 20
171.4525214540
 11
183.0105182328
 21
171.4525214540
  0
ARC
  8
1
  6
HIDDEN
 62
1
 10
177.1105182328
 20
188.3525214540
 40
1.0000000000
 50
90.0000000000
 51
180.0000000000
  0
ARC
  8
1
  6
HIDDEN
 62
1
 10
177.1105182328
 20
171.3525214540
 40
1.0000000000
 50
180.0000000000
 51
270.0000000000
  0
ARC
  8
1
  6
HIDDEN
 62
1
 10
210.7105182328
 20
171.3525214540
 40
1.0000000000
 50
270.0000000000
 51
0.0000000000
  0
ARC
  8
1
  6
HIDDEN
 62
1
 10
210.7105182328
 20
188.3525214540
 40
1.0000000000
 50
0.0000000000
 51
90.0000000000
  0
LINE
  8
1
  6
HIDDEN
 62
1
 10
209.9105182328
 20
189.3525214540
 11
209.9105182328
 21
187.3525214540
  0
LINE
  8
1
  6
HIDDEN
 62
1
 10
209.9105182328
 20
187.3525214540
 11
206.9105182328
 21
187.3525214540
  0
LINE
  8
1
  6
HIDDEN
 62
1
 10
206.9105182328
 20
187.3525214540
 11
206.9105182328
 21
189.3525214540
  0
LINE
  8
1
  6
HIDDEN
 62
1
 10
209.9105182328
 20
170.3525214540
 11
209.9105182328
 21
172.3525214540
  0
LINE
  8
1
  6
HIDDEN
 62
1
 10
209.9105182328
 20
172.3525214540
 11
206.9105182328
 21
172.3525214540
  0
LINE
  8
1
  6
HIDDEN
 62
1
 10
206.9105182328
 20
172.3525214540
 11
206.9105182328
 21
170.3525214540
  0
LINE
  8
1
  6
HIDDEN
 62
1
 10
177.9105182328
 20
170.3525214540
 11
177.9105182328
 21
172.3525214540
  0
LINE
  8
1
  6
HIDDEN
 62
1
 10
177.9105182328
 20
172.3525214540
 11
180.9105182328
 21
172.3525214540
  0
LINE
  8
1
  6
HIDDEN
 62
1
 10
180.9105182328
 20
172.3525214540
 11
180.9105182328
 21
170.3525214540
  0
LINE
  8
1
  6
HIDDEN
 62
1
 10
177.9105182328
 20
189.3525214540
 11
177.9105182328
 21
187.3525214540
  0
LINE
  8
1
  6
HIDDEN
 62
1
 10
177.9105182328
 20
187.3525214540
 11
180.9105182328
 21
187.3525214540
  0
LINE
  8
1
  6
HIDDEN
 62
1
 10
180.9105182328
 20
187.3525214540
 11
180.9105182328
 21
189.3525214540
  0
ARC
  8
1
  6
CONTINUOUS
 62
1
 10
183.0105182328
 20
171.9525214540
 40
0.5000000000
 50
180.0000000000
 51
270.0000000000
  0
ARC
  8
1
  6
CONTINUOUS
 62
1
 10
183.0105182328
 20
187.7525214540
 40
0.5000000000
 50
90.0000000000
 51
180.0000000000
  0
ARC
  8
1
  6
CONTINUOUS
 62
1
 10
204.8105182328
 20
187.7525214540
 40
0.5000000000
 50
0.0000000000
 51
90.0000000000
  0
ARC
  8
1
  6
CONTINUOUS
 62
1
 10
204.8105182328
 20
171.9525214540
 40
0.5000000000
 50
270.0000000000
 51
0.0000000000
  0
LINE
  8
2
  6
CONTINUOUS
 62
1
 10
192.1705182328
 20
174.9425199540
 11
192.1705182328
 21
179.8525219540
  0
LINE
  8
2
  6
CONTINUOUS
 62
1
 10
192.8105182328
 20
174.3025249540
 11
194.0105182328
 21
174.3025249540
  0
LINE
  8
2
  6
CONTINUOUS
 62
1
 10
193.6305192328
 20
174.8025249540
 11
193.6305192328
 21
184.9025189540
  0
LINE
  8
2
  6
CONTINUOUS
 62
1
 10
194.0105182328
 20
174.3025249540
 11
194.0105182328
 21
179.8525219540
  0
LINE
  8
2
  6
CONTINUOUS
 62
1
 10
192.0905182328
 20
173.6525189540
 11
193.0505172328
 21
173.6525189540
  0
LINE
  8
2
  6
CONTINUOUS
 62
1
 10
193.6305192328
 20
174.8025249540
 11
192.6705182328
 21
174.8025249540
  0
LINE
  8
2
  6
CONTINUOUS
 62
1
 10
194.0105182328
 20
176.9425199540
 11
195.3905182328
 21
176.9425199540
  0
LINE
  8
2
  6
CONTINUOUS
 62
1
 10
194.0105182328
 20
175.7625219540
 11
195.3905182328
 21
175.7625219540
  0
LINE
  8
2
  6
CONTINUOUS
 62
1
 10
194.0105182328
 20
179.4425199540
 11
195.3905182328
 21
179.4425199540
  0
LINE
  8
2
  6
CONTINUOUS
 62
1
 10
194.0105182328
 20
178.2625219540
 11
195.3905182328
 21
178.2625219540
  0
LINE
  8
2
  6
CONTINUOUS
 62
1
 10
195.3905182328
 20
178.2625219540
 11
195.3905182328
 21
179.4425199540
  0
LINE
  8
2
  6
CONTINUOUS
 62
1
 10
195.3905182328
 20
175.7625219540
 11
195.3905182328
 21
176.9425199540
  0
LINE
  8
2
  6
CONTINUOUS
 62
1
 10
191.9905172328
 20
174.1525189540
 11
191.9905172328
 21
176.1429939540
  0
LINE
  8
2
  6
CONTINUOUS
 62
1
 10
191.9905172328
 20
174.1525189540
 11
193.1005212328
 21
174.1525189540
  0
LINE
  8
2
  6
CONTINUOUS
 62
1
 10
192.1405172328
 20
176.2244989540
 11
192.0514902328
 21
176.1354719540
  0
LINE
  8
2
  6
CONTINUOUS
 62
1
 10
193.2005172328
 20
174.2525159540
 11
193.0505172328
 21
174.1025159540
  0
LINE
  8
2
  6
CONTINUOUS
 62
1
 10
193.0505172328
 20
174.1025199540
 11
193.0505172328
 21
173.6025199540
  0
LINE
  8
2
  6
CONTINUOUS
 62
1
 10
195.0505182328
 20
174.1025199540
 11
195.0505182328
 21
173.6025199540
  0
LINE
  8
2
  6
CONTINUOUS
 62
1
 10
194.9005172328
 20
174.2525209540
 11
193.2005172328
 21
174.2525209540
  0
LINE
  8
2
  6
CONTINUOUS
 62
1
 10
194.9005182328
 20
174.2525189540
 11
195.0505182328
 21
174.1025189540
  0
LINE
  8
2
  6
CONTINUOUS
 62
1
 10
192.1405192328
 20
176.8525139540
 11
192.1405192328
 21
177.4805349540
  0
LINE
  8
2
  6
CONTINUOUS
 62
1
 10
192.1405202328
 20
177.4805329540
 11
192.0514902328
 21
177.5695629540
  0
LINE
  8
2
  6
CONTINUOUS
 62
1
 10
192.1405192328
 20
176.8525219540
 11
192.1405192328
 21
176.2244989540
  0
LINE
  8
2
  6
CONTINUOUS
 62
1
 10
192.1405172328
 20
176.2245049540
 11
192.0514872328
 21
176.1354739540
  0
LINE
  8
2
  6
CONTINUOUS
 62
1
 10
191.5128112328
 20
175.6629899540
 11
191.5800572328
 21
175.8805809540
  0
LINE
  8
2
  6
CONTINUOUS
 62
1
 10
191.8071852328
 20
176.0860389540
 11
192.0514882328
 21
176.1354709540
  0
LINE
  8
2
  6
CONTINUOUS
 62
1
 10
191.6222382328
 20
176.1506429540
 11
191.7381202328
 21
176.1740909540
  0
LINE
  8
2
  6
CONTINUOUS
 62
1
 10
191.5128092328
 20
178.0420489540
 11
191.5800552328
 21
177.8244599540
  0
LINE
  8
2
  6
CONTINUOUS
 62
1
 10
191.8071852328
 20
177.6189959540
 11
192.0514882328
 21
177.5695629540
  0
LINE
  8
2
  6
CONTINUOUS
 62
1
 10
191.6222372328
 20
177.5543909540
 11
191.7381192328
 21
177.5309439540
  0
LINE
  8
2
  6
CONTINUOUS
 62
1
 10
192.0514902328
 20
177.5695649540
 11
191.5105182328
 21
177.5028967116
  0
LINE
  8
2
  6
CONTINUOUS
 62
1
 10
192.0514902328
 20
176.1354759540
 11
191.5105182328
 21
176.2021433509
  0
LINE
  8
2
  6
CONTINUOUS
 62
1
 10
195.9605182328
 20
176.8525219540
 11
195.9605182328
 21
176.2244989540
  0
LINE
  8
2
  6
CONTINUOUS
 62
1
 10
195.9605192328
 20
176.2245029540
 11
196.0495482328
 21
176.1354739540
  0
LINE
  8
2
  6
CONTINUOUS
 62
1
 10
195.9605182328
 20
176.8525139540
 11
195.9605182328
 21
177.4805349540
  0
LINE
  8
2
  6
CONTINUOUS
 62
1
 10
195.9605162328
 20
177.4805369540
 11
196.0495452328
 21
177.5695659540
  0
LINE
  8
2
  6
CONTINUOUS
 62
1
 10
196.5882242328
 20
178.0420479540
 11
196.5209782328
 21
177.8244589540
  0
LINE
  8
2
  6
CONTINUOUS
 62
1
 10
196.4788002328
 20
177.5543929540
 11
196.3629182328
 21
177.5309459540
  0
LINE
  8
2
  6
CONTINUOUS
 62
1
 10
196.5882232328
 20
175.6629939540
 11
196.5209772328
 21
175.8805849540
  0
LINE
  8
2
  6
CONTINUOUS
 62
1
 10
196.2938542328
 20
176.0860419540
 11
196.0495492328
 21
176.1354749540
  0
LINE
  8
2
  6
CONTINUOUS
 62
1
 10
196.4788012328
 20
176.1506459540
 11
196.3629192328
 21
176.1740939540
  0
LINE
  8
2
  6
CONTINUOUS
 62
1
 10
196.0495452328
 20
176.1354729540
 11
196.6105172328
 21
176.2046049540
  0
LINE
  8
2
  6
CONTINUOUS
 62
1
 10
196.0495462328
 20
177.5695709540
 11
196.6105162328
 21
177.5004389540
  0
LINE
  8
2
  6
CONTINUOUS
 62
1
 10
196.2938532328
 20
177.6189959540
 11
196.0495482328
 21
177.5695629540
  0
LINE
  8
2
  6
CONTINUOUS
 62
1
 10
191.9905172328
 20
177.5620479540
 11
191.9905172328
 21
179.8525219540
  0
LINE
  8
2
  6
CONTINUOUS
 62
1
 10
195.0505182328
 20
173.6525189540
 11
196.4622762328
 21
173.6525189540
  0
LINE
  8
2
  6
CONTINUOUS
 62
1
 10
195.0005182328
 20
174.1525189540
 11
196.6105182328
 21
174.1525189540
  0
LINE
  8
2
  6
CONTINUOUS
 62
1
 10
194.5105182328
 20
178.6025239540
 11
194.5105182328
 21
178.3525219540
  0
LINE
  8
2
  6
CONTINUOUS
 62
1
 10
194.1427452328
 20
178.3525219540
 11
194.5105182328
 21
178.3525219540
  0
LINE
  8
2
  6
CONTINUOUS
 62
1
 10
194.4636702328
 20
178.6025239540
 11
194.5105182328
 21
178.6025239540
  0
LINE
  8
2
  6
CONTINUOUS
 62
1
 10
194.5105182328
 20
179.1025239540
 11
194.5105182328
 21
179.3525239540
  0
LINE
  8
2
  6
CONTINUOUS
 62
1
 10
194.4636702328
 20
179.1025239540
 11
194.5105182328
 21
179.1025239540
  0
LINE
  8
2
  6
CONTINUOUS
 62
1
 10
194.1427452328
 20
179.3525239540
 11
194.5105182328
 21
179.3525239540
  0
LINE
  8
2
  6
CONTINUOUS
 62
1
 10
194.0105182328
 20
179.2587719540
 11
194.1139682328
 21
179.3065119540
  0
LINE
  8
2
  6
CONTINUOUS
 62
1
 10
194.0105172328
 20
178.4462739540
 11
194.1139682328
 21
178.3985329540
  0
LINE
  8
2
  6
CONTINUOUS
 62
1
 10
194.5105182328
 20
176.1025239540
 11
194.5105182328
 21
175.8525199540
  0
LINE
  8
2
  6
CONTINUOUS
 62
1
 10
194.1427452328
 20
175.8525199540
 11
194.5105182328
 21
175.8525199540
  0
LINE
  8
2
  6
CONTINUOUS
 62
1
 10
194.4636702328
 20
176.1025199540
 11
194.5105182328
 21
176.1025199540
  0
LINE
  8
2
  6
CONTINUOUS
 62
1
 10
194.5105182328
 20
176.6025239540
 11
194.5105182328
 21
176.8525239540
  0
LINE
  8
2
  6
CONTINUOUS
 62
1
 10
194.4636702328
 20
176.6025239540
 11
194.5105182328
 21
176.6025239540
  0
LINE
  8
2
  6
CONTINUOUS
 62
1
 10
194.1427452328
 20
176.8525239540
 11
194.5105182328
 21
176.8525239540
  0
LINE
  8
2
  6
CONTINUOUS
 62
1
 10
194.0105182328
 20
176.7587709540
 11
194.1139692328
 21
176.8065109540
  0
LINE
  8
2
  6
CONTINUOUS
 62
1
 10
194.0105192328
 20
175.9462719540
 11
194.1139682328
 21
175.8985329540
  0
LINE
  8
2
  6
CONTINUOUS
 62
1
 10
192.1705182328
 20
184.7625239540
 11
192.1705182328
 21
179.8525219540
  0
LINE
  8
2
  6
CONTINUOUS
 62
1
 10
192.8105182328
 20
185.4025189540
 11
194.0105182328
 21
185.4025189540
  0
LINE
  8
2
  6
CONTINUOUS
 62
1
 10
192.6705182328
 20
184.9025189540
 11
192.6705182328
 21
174.8025249540
  0
LINE
  8
2
  6
CONTINUOUS
 62
1
 10
194.0105182328
 20
185.4025189540
 11
194.0105182328
 21
179.8525219540
  0
LINE
  8
2
  6
CONTINUOUS
 62
1
 10
192.0905182328
 20
186.0525229540
 11
193.0505172328
 21
186.0525229540
  0
LINE
  8
2
  6
CONTINUOUS
 62
1
 10
193.6305192328
 20
184.9025189540
 11
192.6705182328
 21
184.9025189540
  0
LINE
  8
2
  6
CONTINUOUS
 62
1
 10
194.0105182328
 20
182.7625239540
 11
195.3905182328
 21
182.7625239540
  0
LINE
  8
2
  6
CONTINUOUS
 62
1
 10
194.0105182328
 20
183.9425219540
 11
195.3905182328
 21
183.9425219540
  0
LINE
  8
2
  6
CONTINUOUS
 62
1
 10
194.0105182328
 20
180.2625219540
 11
195.3905182328
 21
180.2625219540
  0
LINE
  8
2
  6
CONTINUOUS
 62
1
 10
194.0105182328
 20
181.4425219540
 11
195.3905182328
 21
181.4425219540
  0
LINE
  8
2
  6
CONTINUOUS
 62
1
 10
195.3905182328
 20
181.4425219540
 11
195.3905182328
 21
180.2625219540
  0
LINE
  8
2
  6
CONTINUOUS
 62
1
 10
195.3905182328
 20
183.9425219540
 11
195.3905182328
 21
182.7625239540
  0
LINE
  8
2
  6
CONTINUOUS
 62
1
 10
191.9905172328
 20
185.5525229540
 11
191.9905172328
 21
183.5620499540
  0
LINE
  8
2
  6
CONTINUOUS
 62
1
 10
191.9905172328
 20
185.5525229540
 11
193.1005212328
 21
185.5525229540
  0
LINE
  8
2
  6
CONTINUOUS
 62
1
 10
192.1405182328
 20
183.4805429540
 11
192.0514892328
 21
183.5695719540
  0
LINE
  8
2
  6
CONTINUOUS
 62
1
 10
193.2005182328
 20
185.4525259540
 11
193.0505182328
 21
185.6025259540
  0
LINE
  8
2
  6
CONTINUOUS
 62
1
 10
193.0505172328
 20
185.6025219540
 11
193.0505172328
 21
186.1025219540
  0
LINE
  8
2
  6
CONTINUOUS
 62
1
 10
195.0505182328
 20
185.6025219540
 11
195.0505182328
 21
186.1025219540
  0
LINE
  8
2
  6
CONTINUOUS
 62
1
 10
194.9005172328
 20
185.4525219540
 11
193.2005172328
 21
185.4525219540
  0
LINE
  8
2
  6
CONTINUOUS
 62
1
 10
194.9005182328
 20
185.4525249540
 11
195.0505182328
 21
185.6025249540
  0
LINE
  8
2
  6
CONTINUOUS
 62
1
 10
192.1405192328
 20
182.8525279540
 11
192.1405192328
 21
182.2245059540
  0
LINE
  8
2
  6
CONTINUOUS
 62
1
 10
192.1405182328
 20
182.2245089540
 11
192.0514892328
 21
182.1354789540
  0
LINE
  8
2
  6
CONTINUOUS
 62
1
 10
192.1405192328
 20
182.8525219540
 11
192.1405192328
 21
183.4805429540
  0
LINE
  8
2
  6
CONTINUOUS
 62
1
 10
192.1405162328
 20
183.4805379540
 11
192.0514872328
 21
183.5695669540
  0
LINE
  8
2
  6
CONTINUOUS
 62
1
 10
191.5128112328
 20
184.0420519540
 11
191.5800562328
 21
183.8244629540
  0
LINE
  8
2
  6
CONTINUOUS
 62
1
 10
191.8071852328
 20
183.6190059540
 11
192.0514872328
 21
183.5695739540
  0
LINE
  8
2
  6
CONTINUOUS
 62
1
 10
191.6222372328
 20
183.5544019540
 11
191.7381202328
 21
183.5309539540
  0
LINE
  8
2
  6
CONTINUOUS
 62
1
 10
191.5128092328
 20
181.6629959540
 11
191.5800542328
 21
181.8805849540
  0
LINE
  8
2
  6
CONTINUOUS
 62
1
 10
191.8071842328
 20
182.0860489540
 11
192.0514872328
 21
182.1354819540
  0
LINE
  8
2
  6
CONTINUOUS
 62
1
 10
191.6222372328
 20
182.1506519540
 11
191.7381192328
 21
182.1740999540
  0
LINE
  8
2
  6
CONTINUOUS
 62
1
 10
192.0514902328
 20
182.1354799540
 11
191.5105182328
 21
182.2021472320
  0
LINE
  8
2
  6
CONTINUOUS
 62
1
 10
192.0514902328
 20
183.5695689540
 11
191.5105182328
 21
183.5029007116
  0
LINE
  8
2
  6
CONTINUOUS
 62
1
 10
195.9605182328
 20
182.8525219540
 11
195.9605182328
 21
183.4805429540
  0
LINE
  8
2
  6
CONTINUOUS
 62
1
 10
195.9605202328
 20
183.4805409540
 11
196.0495492328
 21
183.5695699540
  0
LINE
  8
2
  6
CONTINUOUS
 62
1
 10
195.9605182328
 20
182.8525279540
 11
195.9605182328
 21
182.2245059540
  0
LINE
  8
2
  6
CONTINUOUS
 62
1
 10
195.9605192328
 20
182.2245069540
 11
196.0495482328
 21
182.1354779540
  0
LINE
  8
2
  6
CONTINUOUS
 62
1
 10
196.5882252328
 20
181.6629949540
 11
196.5209792328
 21
181.8805859540
  0
LINE
  8
2
  6
CONTINUOUS
 62
1
 10
196.4788012328
 20
182.1506509540
 11
196.3629192328
 21
182.1740989540
  0
LINE
  8
2
  6
CONTINUOUS
 62
1
 10
196.5882242328
 20
184.0420479540
 11
196.5209782328
 21
183.8244569540
  0
LINE
  8
2
  6
CONTINUOUS
 62
1
 10
196.2938522328
 20
183.6190029540
 11
196.0495482328
 21
183.5695699540
  0
LINE
  8
2
  6
CONTINUOUS
 62
1
 10
196.4787982328
 20
183.5543999540
 11
196.3629172328
 21
183.5309519540
  0
LINE
  8
2
  6
CONTINUOUS
 62
1
 10
196.0495442328
 20
183.5695679540
 11
196.6105162328
 21
183.5004349540
  0
LINE
  8
2
  6
CONTINUOUS
 62
1
 10
196.0495462328
 20
182.1354709540
 11
196.6105182328
 21
182.2046039540
  0
LINE
  8
2
  6
CONTINUOUS
 62
1
 10
196.2938532328
 20
182.0860469540
 11
196.0495492328
 21
182.1354799540
  0
LINE
  8
2
  6
CONTINUOUS
 62
1
 10
191.9905172328
 20
182.1429959540
 11
191.9905172328
 21
179.8525219540
  0
LINE
  8
2
  6
CONTINUOUS
 62
1
 10
195.0505182328
 20
186.0525229540
 11
196.4622762328
 21
186.0525229540
  0
LINE
  8
2
  6
CONTINUOUS
 62
1
 10
195.0005182328
 20
185.5525229540
 11
196.6105182328
 21
185.5525229540
  0
LINE
  8
2
  6
CONTINUOUS
 62
1
 10
194.5105182328
 20
181.1025199540
 11
194.5105182328
 21
181.3525199540
  0
LINE
  8
2
  6
CONTINUOUS
 62
1
 10
194.1427452328
 20
181.3525199540
 11
194.5105182328
 21
181.3525199540
  0
LINE
  8
2
  6
CONTINUOUS
 62
1
 10
194.4636702328
 20
181.1025199540
 11
194.5105182328
 21
181.1025199540
  0
LINE
  8
2
  6
CONTINUOUS
 62
1
 10
194.5105182328
 20
180.6025199540
 11
194.5105182328
 21
180.3525199540
  0
LINE
  8
2
  6
CONTINUOUS
 62
1
 10
194.4636702328
 20
180.6025199540
 11
194.5105182328
 21
180.6025199540
  0
LINE
  8
2
  6
CONTINUOUS
 62
1
 10
194.1427452328
 20
180.3525199540
 11
194.5105182328
 21
180.3525199540
  0
LINE
  8
2
  6
CONTINUOUS
 62
1
 10
194.0105192328
 20
180.4462719540
 11
194.1139682328
 21
180.3985319540
  0
LINE
  8
2
  6
CONTINUOUS
 62
1
 10
194.0105192328
 20
181.2587709540
 11
194.1139692328
 21
181.3065109540
  0
LINE
  8
2
  6
CONTINUOUS
 62
1
 10
194.5105182328
 20
183.6025199540
 11
194.5105182328
 21
183.8525199540
  0
LINE
  8
2
  6
CONTINUOUS
 62
1
 10
194.1427452328
 20
183.8525199540
 11
194.5105182328
 21
183.8525199540
  0
LINE
  8
2
  6
CONTINUOUS
 62
1
 10
194.4636702328
 20
183.6025199540
 11
194.5105182328
 21
183.6025199540
  0
LINE
  8
2
  6
CONTINUOUS
 62
1
 10
194.5105182328
 20
183.1025199540
 11
194.5105182328
 21
182.8525199540
  0
LINE
  8
2
  6
CONTINUOUS
 62
1
 10
194.4636702328
 20
183.1025199540
 11
194.5105182328
 21
183.1025199540
  0
LINE
  8
2
  6
CONTINUOUS
 62
1
 10
194.1427452328
 20
182.8525199540
 11
194.5105182328
 21
182.8525199540
  0
LINE
  8
2
  6
CONTINUOUS
 62
1
 10
194.0105182328
 20
182.9462709540
 11
194.1139682328
 21
182.8985309540
  0
LINE
  8
2
  6
CONTINUOUS
 62
1
 10
194.0105202328
 20
183.7587699540
 11
194.1139692328
 21
183.8065099540
  0
ARC
  8
2
  6
CONTINUOUS
 62
1
 10
192.8105182328
 20
174.9425199540
 40
0.6400000000
 50
179.9999960000
 51
270.0000050000
  0
ARC
  8
2
  6
CONTINUOUS
 62
1
 10
192.0905182328
 20
174.2525209540
 40
0.6000000000
 50
194.8351115820
 51
270.0000050000
  0
ARC
  8
2
  6
CONTINUOUS
 62
1
 10
196.2905172328
 20
173.9225199540
 40
0.3200000000
 50
270.0000090000
 51
359.9999970000
  0
ARC
  8
2
  6
CONTINUOUS
 62
1
 10
191.7213982328
 20
175.6605779540
 40
0.5000000000
 50
101.4389220000
 51
114.9457536051
  0
ARC
  8
2
  6
CONTINUOUS
 62
1
 10
191.8666802328
 20
175.7919979540
 40
0.3000000000
 50
101.4389220000
 51
162.8263110000
  0
ARC
  8
2
  6
CONTINUOUS
 62
1
 10
191.7213982328
 20
178.0444619540
 40
0.5000000000
 50
245.0542463949
 51
258.5610770000
  0
ARC
  8
2
  6
CONTINUOUS
 62
1
 10
191.8666802328
 20
177.9130379540
 40
0.3000000000
 50
197.1736870000
 51
258.5610770000
  0
ARC
  8
2
  6
CONTINUOUS
 62
1
 10
196.3796382328
 20
178.0444639540
 40
0.5000000000
 50
281.4389230000
 51
297.5006860000
  0
ARC
  8
2
  6
CONTINUOUS
 62
1
 10
196.1105172328
 20
178.1896799540
 40
0.5000000000
 50
342.8263130000
 51
0.0000040000
  0
ARC
  8
2
  6
CONTINUOUS
 62
1
 10
196.2343562328
 20
177.9130379540
 40
0.3000000000
 50
281.4389230000
 51
342.8263130000
  0
ARC
  8
2
  6
CONTINUOUS
 62
1
 10
196.3796382328
 20
175.6605779540
 40
0.5000000000
 50
62.4993140000
 51
78.5610780000
  0
ARC
  8
2
  6
CONTINUOUS
 62
1
 10
196.1105172328
 20
175.5153559540
 40
0.5000000000
 50
0.0000040000
 51
17.1736890000
  0
ARC
  8
2
  6
CONTINUOUS
 62
1
 10
196.2343562328
 20
175.7919979540
 40
0.3000000000
 50
17.1736890000
 51
78.5610780000
  0
ARC
  8
2
  6
CONTINUOUS
 62
1
 10
194.4636702328
 20
178.8525239540
 40
0.2500000000
 50
90.0000090000
 51
180.0000030000
  0
ARC
  8
2
  6
CONTINUOUS
 62
1
 10
194.1427452328
 20
178.8525239540
 40
0.5000000000
 50
254.6655340000
 51
269.9999910000
  0
ARC
  8
2
  6
CONTINUOUS
 62
1
 10
193.9105172328
 20
178.8525239540
 40
0.6500000000
 50
337.3801390000
 51
0.0000040000
  0
ARC
  8
2
  6
CONTINUOUS
 62
1
 10
194.4636702328
 20
178.8525239540
 40
0.2500000000
 50
179.9999960000
 51
269.9999910000
  0
ARC
  8
2
  6
CONTINUOUS
 62
1
 10
194.3234762328
 20
178.8525239540
 40
0.5000000000
 50
90.0000090000
 51
114.7724080000
  0
ARC
  8
2
  6
CONTINUOUS
 62
1
 10
194.1427452328
 20
178.8525239540
 40
0.5000000000
 50
90.0000090000
 51
105.3344680000
  0
ARC
  8
2
  6
CONTINUOUS
 62
1
 10
193.9105172328
 20
178.8525239540
 40
0.6500000000
 50
0.0000040000
 51
22.6198700000
  0
ARC
  8
2
  6
CONTINUOUS
 62
1
 10
194.3234762328
 20
178.8525239540
 40
0.5000000000
 50
245.2275920000
 51
269.9999910000
  0
ARC
  8
2
  6
CONTINUOUS
 62
1
 10
194.3234762328
 20
176.3525239540
 40
0.5000000000
 50
245.2275920000
 51
269.9999910000
  0
ARC
  8
2
  6
CONTINUOUS
 62
1
 10
194.4636702328
 20
176.3525239540
 40
0.2500000000
 50
90.0000090000
 51
180.0000030000
  0
ARC
  8
2
  6
CONTINUOUS
 62
1
 10
194.1427452328
 20
176.3525239540
 40
0.5000000000
 50
254.6655340000
 51
269.9999910000
  0
ARC
  8
2
  6
CONTINUOUS
 62
1
 10
193.9105172328
 20
176.3525239540
 40
0.6500000000
 50
337.3801390000
 51
0.0000040000
  0
ARC
  8
2
  6
CONTINUOUS
 62
1
 10
194.4636702328
 20
176.3525239540
 40
0.2500000000
 50
179.9999960000
 51
269.9999910000
  0
ARC
  8
2
  6
CONTINUOUS
 62
1
 10
194.3234762328
 20
176.3525239540
 40
0.5000000000
 50
90.0000090000
 51
114.7724080000
  0
ARC
  8
2
  6
CONTINUOUS
 62
1
 10
194.1427452328
 20
176.3525239540
 40
0.5000000000
 50
90.0000090000
 51
105.3344680000
  0
ARC
  8
2
  6
CONTINUOUS
 62
1
 10
193.9105172328
 20
176.3525239540
 40
0.6500000000
 50
0.0000040000
 51
22.6198700000
  0
ARC
  8
2
  6
CONTINUOUS
 62
1
 10
193.9105172328
 20
183.3525199540
 40
0.6500000000
 50
337.3801320000
 51
359.9999970000
  0
ARC
  8
2
  6
CONTINUOUS
 62
1
 10
194.1427452328
 20
183.3525199540
 40
0.5000000000
 50
254.6655340000
 51
269.9999910000
  0
ARC
  8
2
  6
CONTINUOUS
 62
1
 10
192.8105182328
 20
184.7625239540
 40
0.6400000000
 50
90.0000000000
 51
180.0000030000
  0
ARC
  8
2
  6
CONTINUOUS
 62
1
 10
192.0905182328
 20
185.4525219540
 40
0.6000000000
 50
90.0000000000
 51
165.1648884180
  0
ARC
  8
2
  6
CONTINUOUS
 62
1
 10
196.2905172328
 20
185.7825239540
 40
0.3200000000
 50
359.9999970000
 51
90.0000000000
  0
ARC
  8
2
  6
CONTINUOUS
 62
1
 10
191.7213982328
 20
184.0444659540
 40
0.5000000000
 50
245.0542463949
 51
258.5610770000
  0
ARC
  8
2
  6
CONTINUOUS
 62
1
 10
191.8666802328
 20
183.9130439540
 40
0.3000000000
 50
197.1736870000
 51
258.5610770000
  0
ARC
  8
2
  6
CONTINUOUS
 62
1
 10
191.7213982328
 20
181.6605819540
 40
0.5000000000
 50
101.4389220000
 51
114.9457536051
  0
ARC
  8
2
  6
CONTINUOUS
 62
1
 10
191.8666802328
 20
181.7920059540
 40
0.3000000000
 50
101.4389220000
 51
162.8263110000
  0
ARC
  8
2
  6
CONTINUOUS
 62
1
 10
196.3796382328
 20
181.6605779540
 40
0.5000000000
 50
62.4993140000
 51
78.5610780000
  0
ARC
  8
2
  6
CONTINUOUS
 62
1
 10
196.1105172328
 20
181.5153639540
 40
0.5000000000
 50
359.9999970000
 51
17.1736890000
  0
ARC
  8
2
  6
CONTINUOUS
 62
1
 10
196.2343562328
 20
181.7920059540
 40
0.3000000000
 50
17.1736890000
 51
78.5610780000
  0
ARC
  8
2
  6
CONTINUOUS
 62
1
 10
196.3796382328
 20
184.0444659540
 40
0.5000000000
 50
281.4389230000
 51
297.5006860000
  0
ARC
  8
2
  6
CONTINUOUS
 62
1
 10
196.1105172328
 20
184.1896859540
 40
0.5000000000
 50
342.8263130000
 51
359.9999970000
  0
ARC
  8
2
  6
CONTINUOUS
 62
1
 10
196.2343562328
 20
183.9130439540
 40
0.3000000000
 50
281.4389230000
 51
342.8263130000
  0
ARC
  8
2
  6
CONTINUOUS
 62
1
 10
194.4636702328
 20
180.8525199540
 40
0.2500000000
 50
179.9999960000
 51
269.9999910000
  0
ARC
  8
2
  6
CONTINUOUS
 62
1
 10
194.1427452328
 20
180.8525199540
 40
0.5000000000
 50
90.0000030000
 51
105.3344680000
  0
ARC
  8
2
  6
CONTINUOUS
 62
1
 10
193.9105172328
 20
180.8525199540
 40
0.6500000000
 50
359.9999970000
 51
22.6198630000
  0
ARC
  8
2
  6
CONTINUOUS
 62
1
 10
194.4636702328
 20
180.8525199540
 40
0.2500000000
 50
90.0000030000
 51
180.0000030000
  0
ARC
  8
2
  6
CONTINUOUS
 62
1
 10
194.3234762328
 20
180.8525199540
 40
0.5000000000
 50
245.2275920000
 51
269.9999910000
  0
ARC
  8
2
  6
CONTINUOUS
 62
1
 10
194.1427452328
 20
180.8525199540
 40
0.5000000000
 50
254.6655340000
 51
269.9999910000
  0
ARC
  8
2
  6
CONTINUOUS
 62
1
 10
193.9105172328
 20
180.8525199540
 40
0.6500000000
 50
337.3801320000
 51
359.9999970000
  0
ARC
  8
2
  6
CONTINUOUS
 62
1
 10
194.3234762328
 20
180.8525199540
 40
0.5000000000
 50
90.0000090000
 51
114.7724080000
  0
ARC
  8
2
  6
CONTINUOUS
 62
1
 10
194.3234762328
 20
183.3525199540
 40
0.5000000000
 50
90.0000090000
 51
114.7724080000
  0
ARC
  8
2
  6
CONTINUOUS
 62
1
 10
194.4636702328
 20
183.3525199540
 40
0.2500000000
 50
179.9999960000
 51
269.9999910000
  0
ARC
  8
2
  6
CONTINUOUS
 62
1
 10
194.1427452328
 20
183.3525199540
 40
0.5000000000
 50
90.0000030000
 51
105.3344680000
  0
ARC
  8
2
  6
CONTINUOUS
 62
1
 10
193.9105172328
 20
183.3525199540
 40
0.6500000000
 50
359.9999970000
 51
22.6198630000
  0
ARC
  8
2
  6
CONTINUOUS
 62
1
 10
194.4636702328
 20
183.3525199540
 40
0.2500000000
 50
90.0000030000
 51
180.0000030000
  0
ARC
  8
2
  6
CONTINUOUS
 62
1
 10
194.3234762328
 20
183.3525199540
 40
0.5000000000
 50
245.2275920000
 51
269.9999910000
  0
LINE
  8
2
  6
CONTINUOUS
 62
1
 10
196.6105172328
 20
185.7825239372
 11
196.6105172328
 21
173.9225199540
  0
LINE
  8
1
  6
CONTINUOUS
 62
1
 10
191.5105182328
 20
173.6025214540
 11
191.5105182328
 21
186.1025214540
  0
LINE
  8
1
  6
CONTINUOUS
 62
1
 10
191.5105182328
 20
186.1025214540
 11
196.9105182328
 21
186.1025214540
  0
LINE
  8
1
  6
CONTINUOUS
 62
1
 10
196.9105182328
 20
186.1025214540
 11
196.9105182328
 21
173.6025214540
  0
LINE
  8
1
  6
CONTINUOUS
 62
1
 10
196.9105182328
 20
173.6025214540
 11
191.5105182328
 21
173.6025214540
  0
POINT
  8
3
  6
CONTINUOUS
 62
7
 10
193.9105182328
 20
179.8525214540
  0
LINE
  8
3
  6
CONTINUOUS
 62
7
 10
207.8105182328
 20
151.1025214517
 11
180.0105182328
 21
151.1025214517
  0
LINE
  8
3
  6
CONTINUOUS
 62
7
 10
207.8105182328
 20
151.1025214517
 11
207.8105182328
 21
162.6025214517
  0
LINE
  8
3
  6
CONTINUOUS
 62
7
 10
207.8105182328
 20
162.6025214517
 11
180.0105182328
 21
162.6025214517
  0
LINE
  8
3
  6
CONTINUOUS
 62
7
 10
180.0105182328
 20
162.6025214517
 11
180.0105182328
 21
151.1025214517
  0
POINT
  8
3
  6
CONTINUOUS
 62
10
 10
193.9105182328
 20
156.8525214517
  0
POINT
  8
3
  6
CONTINUOUS
 62
7
 10
193.9105182328
 20
156.8525214517
  0
LINE
  8
1
  6
CONTINUOUS
 62
5
 10
183.5855397328
 20
160.7625474517
 11
204.2355117328
 21
160.7625474517
  0
LINE
  8
1
  6
CONTINUOUS
 62
5
 10
183.8913107328
 20
159.9775464517
 11
203.9297137328
 21
159.9775464517
  0
LINE
  8
1
  6
CONTINUOUS
 62
5
 10
184.1198797328
 20
153.7275464517
 11
203.7011107328
 21
153.7275464517
  0
LINE
  8
1
  6
CONTINUOUS
 62
5
 10
183.8542097328
 20
152.9425464517
 11
203.9668117328
 21
152.9425464517
  0
LINE
  8
1
  6
CONTINUOUS
 62
5
 10
182.3950607328
 20
158.3722464517
 11
182.6236407328
 21
155.1222464517
  0
LINE
  8
1
  6
CONTINUOUS
 62
5
 10
181.5905177328
 20
158.6221564517
 11
181.8591977328
 21
154.8021664517
  0
LINE
  8
1
  6
HIDDEN
 62
5
 10
176.3605187328
 20
150.6525264517
 11
211.4605177328
 21
150.6525264517
  0
LINE
  8
1
  6
HIDDEN
 62
5
 10
176.3605187328
 20
163.0525164517
 11
211.4605177328
 21
163.0525164517
  0
LINE
  8
1
  6
CONTINUOUS
 62
5
 10
205.1974067328
 20
155.1222454517
 11
205.4260097328
 21
158.3722464517
  0
LINE
  8
1
  6
CONTINUOUS
 62
5
 10
205.9618207328
 20
154.8021654517
 11
206.2305237328
 21
158.6221654517
  0
LINE
  8
1
  6
HIDDEN
 62
5
 10
213.4605177328
 20
161.0525164517
 11
213.4605177328
 21
152.6525264517
  0
LINE
  8
1
  6
HIDDEN
 62
5
 10
174.3605187328
 20
161.0525164517
 11
174.3605187328
 21
152.6525264517
  0
ARC
  8
1
  6
CONTINUOUS
 62
5
 10
203.7011107328
 20
155.2275464517
 40
1.5000000000
 50
269.9989600000
 51
355.9769700000
  0
ARC
  8
1
  6
CONTINUOUS
 62
5
 10
203.9297137328
 20
158.4775464517
 40
1.5000000000
 50
355.9769700000
 51
90.0004530000
  0
ARC
  8
1
  6
CONTINUOUS
 62
5
 10
184.1198797328
 20
155.2275464517
 40
1.5000000000
 50
184.0219500000
 51
269.9999600000
  0
ARC
  8
1
  6
CONTINUOUS
 62
5
 10
183.8913107328
 20
158.4775464517
 40
1.4999900000
 50
90.0001190000
 51
184.0219300000
  0
ARC
  8
1
  6
CONTINUOUS
 62
5
 10
204.2355117328
 20
158.7625464517
 40
2.0000000000
 50
355.9769700000
 51
90.0006720000
  0
ARC
  8
1
  6
CONTINUOUS
 62
5
 10
203.9668117328
 20
154.9425464517
 40
2.0000000000
 50
269.9990000000
 51
355.9769700000
  0
ARC
  8
1
  6
CONTINUOUS
 62
5
 10
183.8542097328
 20
154.9425464517
 40
2.0000000000
 50
184.0219500000
 51
269.9999600000
  0
ARC
  8
1
  6
CONTINUOUS
 62
5
 10
183.5855397328
 20
158.7625464517
 40
2.0000100000
 50
89.9999820000
 51
184.0219300000
  0
CIRCLE
  8
1
  6
CONTINUOUS
 62
5
 10
185.6605187328
 20
155.4325464517
 40
0.5000000000
  0
CIRCLE
  8
1
  6
CONTINUOUS
 62
5
 10
185.6605187328
 20
155.4325464517
 40
0.7500000000
  0
CIRCLE
  8
1
  6
CONTINUOUS
 62
5
 10
187.0355187328
 20
158.2725464517
 40
0.7500000000
  0
CIRCLE
  8
1
  6
CONTINUOUS
 62
5
 10
187.0355187328
 20
158.2725464517
 40
0.5000000000
  0
CIRCLE
  8
1
  6
CONTINUOUS
 62
5
 10
188.4105187328
 20
155.4325464517
 40
0.7500000000
  0
CIRCLE
  8
1
  6
CONTINUOUS
 62
5
 10
188.4105187328
 20
155.4325464517
 40
0.5000000000
  0
CIRCLE
  8
1
  6
CONTINUOUS
 62
5
 10
184.2855187328
 20
158.2725464517
 40
0.7500000000
  0
CIRCLE
  8
1
  6
CONTINUOUS
 62
5
 10
184.2855187328
 20
158.2725464517
 40
0.5000000000
  0
CIRCLE
  8
1
  6
CONTINUOUS
 62
5
 10
202.1605187328
 20
155.4325464517
 40
0.7500000000
  0
CIRCLE
  8
1
  6
CONTINUOUS
 62
5
 10
202.1605187328
 20
155.4325464517
 40
0.5000000000
  0
CIRCLE
  8
1
  6
CONTINUOUS
 62
5
 10
199.4105187328
 20
155.4325464517
 40
0.7500000000
  0
CIRCLE
  8
1
  6
CONTINUOUS
 62
5
 10
199.4105187328
 20
155.4325464517
 40
0.5000000000
  0
CIRCLE
  8
1
  6
CONTINUOUS
 62
5
 10
203.5355187328
 20
158.2725464517
 40
0.5000000000
  0
CIRCLE
  8
1
  6
CONTINUOUS
 62
5
 10
203.5355187328
 20
158.2725464517
 40
0.7500000000
  0
CIRCLE
  8
1
  6
CONTINUOUS
 62
5
 10
200.7855187328
 20
158.2725464517
 40
0.7500000000
  0
CIRCLE
  8
1
  6
CONTINUOUS
 62
5
 10
200.7855187328
 20
158.2725464517
 40
0.5000000000
  0
ARC
  8
1
  6
HIDDEN
 62
5
 10
176.3605187328
 20
161.0525164517
 40
2.0000000000
 50
90.0000030000
 51
180.0000100000
  0
ARC
  8
1
  6
HIDDEN
 62
5
 10
211.4605177328
 20
161.0525164517
 40
2.0000000000
 50
0.0000000000
 51
90.0000030000
  0
ARC
  8
1
  6
HIDDEN
 62
5
 10
211.4605177328
 20
152.6525264517
 40
2.0000000000
 50
270.0000000000
 51
0.0000000000
  0
ARC
  8
1
  6
HIDDEN
 62
5
 10
176.3605187328
 20
152.6525264517
 40
2.0000000000
 50
179.9999900000
 51
270.0000000000
  0
CIRCLE
  8
1
  6
CONTINUOUS
 62
5
 10
198.0355187328
 20
158.2725464517
 40
0.7500000000
  0
CIRCLE
  8
1
  6
CONTINUOUS
 62
5
 10
198.0355187328
 20
158.2725464517
 40
0.5000000000
  0
CIRCLE
  8
1
  6
CONTINUOUS
 62
5
 10
196.6605187328
 20
155.4325464517
 40
0.7500000000
  0
CIRCLE
  8
1
  6
CONTINUOUS
 62
5
 10
196.6605187328
 20
155.4325464517
 40
0.5000000000
  0
CIRCLE
  8
1
  6
CONTINUOUS
 62
5
 10
195.2855187328
 20
158.2725464517
 40
0.7500000000
  0
CIRCLE
  8
1
  6
CONTINUOUS
 62
5
 10
195.2855187328
 20
158.2725464517
 40
0.5000000000
  0
CIRCLE
  8
1
  6
CONTINUOUS
 62
5
 10
193.9105187328
 20
155.4325464517
 40
0.7500000000
  0
CIRCLE
  8
1
  6
CONTINUOUS
 62
5
 10
193.9105187328
 20
155.4325464517
 40
0.5000000000
  0
CIRCLE
  8
1
  6
CONTINUOUS
 62
5
 10
192.5355187328
 20
158.2725464517
 40
0.7500000000
  0
CIRCLE
  8
1
  6
CONTINUOUS
 62
5
 10
192.5355187328
 20
158.2725464517
 40
0.5000000000
  0
CIRCLE
  8
1
  6
CONTINUOUS
 62
5
 10
191.1605187328
 20
155.4325464517
 40
0.7500000000
  0
CIRCLE
  8
1
  6
CONTINUOUS
 62
5
 10
191.1605187328
 20
155.4325464517
 40
0.5000000000
  0
CIRCLE
  8
1
  6
CONTINUOUS
 62
5
 10
189.7855187328
 20
158.2725464517
 40
0.7500000000
  0
CIRCLE
  8
1
  6
CONTINUOUS
 62
5
 10
189.7855187328
 20
158.2725464517
 40
0.5000000000
  0
LINE
  8
3
  6
CONTINUOUS
 62
5
 10
213.1705187328
 20
156.8525214517
 11
211.8705187328
 21
159.1041875015
  0
LINE
  8
3
  6
CONTINUOUS
 62
5
 10
211.8705187328
 20
159.1041875015
 11
209.2705187328
 21
159.1041875015
  0
LINE
  8
3
  6
CONTINUOUS
 62
5
 10
209.2705187328
 20
159.1041875015
 11
207.9705187328
 21
156.8525214517
  0
LINE
  8
3
  6
CONTINUOUS
 62
5
 10
207.9705187328
 20
156.8525214517
 11
209.2705187328
 21
154.6008554019
  0
LINE
  8
3
  6
CONTINUOUS
 62
5
 10
209.2705187328
 20
154.6008554019
 11
211.8705187328
 21
154.6008554019
  0
LINE
  8
3
  6
CONTINUOUS
 62
5
 10
211.8705187328
 20
154.6008554019
 11
213.1705187328
 21
156.8525214517
  0
CIRCLE
  8
3
  6
CONTINUOUS
 62
5
 10
210.5705187328
 20
156.8525214517
 40
1.1500000000
  0
LINE
  8
3
  6
CONTINUOUS
 62
5
 10
179.8505187328
 20
156.8525364517
 11
178.5505187328
 21
159.1042025015
  0
LINE
  8
3
  6
CONTINUOUS
 62
5
 10
178.5505187328
 20
159.1042025015
 11
175.9505187328
 21
159.1042025015
  0
LINE
  8
3
  6
CONTINUOUS
 62
5
 10
175.9505187328
 20
159.1042025015
 11
174.6505187328
 21
156.8525364517
  0
LINE
  8
3
  6
CONTINUOUS
 62
5
 10
174.6505187328
 20
156.8525364517
 11
175.9505187328
 21
154.6008704019
  0
LINE
  8
3
  6
CONTINUOUS
 62
5
 10
175.9505187328
 20
154.6008704019
 11
178.5505187328
 21
154.6008704019
  0
LINE
  8
3
  6
CONTINUOUS
 62
5
 10
178.5505187328
 20
154.6008704019
 11
179.8505187328
 21
156.8525364517
  0
CIRCLE
  8
3
  6
CONTINUOUS
 62
5
 10
177.2505187328
 20
156.8525364517
 40
1.1500000000
  0
POINT
  8
3
  6
CONTINUOUS
 62
5
 10
193.9105182328
 20
156.8525214517
  0
LINE
  8
3
  6
CONTINUOUS
 62
7
 10
207.8105182328
 20
131.1025214517
 11
180.0105182328
 21
131.1025214517
  0
LINE
  8
3
  6
CONTINUOUS
 62
7
 10
207.8105182328
 20
131.1025214517
 11
207.8105182328
 21
142.6025214517
  0
LINE
  8
3
  6
CONTINUOUS
 62
7
 10
207.8105182328
 20
142.6025214517
 11
180.0105182328
 21
142.6025214517
  0
LINE
  8
3
  6
CONTINUOUS
 62
7
 10
180.0105182328
 20
142.6025214517
 11
180.0105182328
 21
131.1025214517
  0
POINT
  8
3
  6
CONTINUOUS
 62
10
 10
193.9105182328
 20
136.8525214517
  0
POINT
  8
3
  6
CONTINUOUS
 62
7
 10
193.9105182328
 20
136.8525214517
  0
LINE
  8
1
  6
CONTINUOUS
 62
5
 10
183.5855397328
 20
140.7625474517
 11
204.2355117328
 21
140.7625474517
  0
LINE
  8
1
  6
CONTINUOUS
 62
5
 10
183.8913107328
 20
139.9775464517
 11
203.9297137328
 21
139.9775464517
  0
LINE
  8
1
  6
CONTINUOUS
 62
5
 10
184.1198797328
 20
133.7275464517
 11
203.7011107328
 21
133.7275464517
  0
LINE
  8
1
  6
CONTINUOUS
 62
5
 10
183.8542097328
 20
132.9425464517
 11
203.9668117328
 21
132.9425464517
  0
LINE
  8
1
  6
CONTINUOUS
 62
5
 10
182.3950607328
 20
138.3722464517
 11
182.6236407328
 21
135.1222464517
  0
LINE
  8
1
  6
CONTINUOUS
 62
5
 10
181.5905177328
 20
138.6221564517
 11
181.8591977328
 21
134.8021664517
  0
LINE
  8
1
  6
HIDDEN
 62
5
 10
176.3605187328
 20
130.6525264517
 11
211.4605177328
 21
130.6525264517
  0
LINE
  8
1
  6
HIDDEN
 62
5
 10
176.3605187328
 20
143.0525164517
 11
211.4605177328
 21
143.0525164517
  0
LINE
  8
1
  6
CONTINUOUS
 62
5
 10
205.1974067328
 20
135.1222454517
 11
205.4260097328
 21
138.3722464517
  0
LINE
  8
1
  6
CONTINUOUS
 62
5
 10
205.9618207328
 20
134.8021654517
 11
206.2305237328
 21
138.6221654517
  0
LINE
  8
1
  6
HIDDEN
 62
5
 10
213.4605177328
 20
141.0525164517
 11
213.4605177328
 21
132.6525264517
  0
LINE
  8
1
  6
HIDDEN
 62
5
 10
174.3605187328
 20
141.0525164517
 11
174.3605187328
 21
132.6525264517
  0
ARC
  8
1
  6
CONTINUOUS
 62
5
 10
203.7011107328
 20
135.2275464517
 40
1.5000000000
 50
269.9989600000
 51
355.9769700000
  0
ARC
  8
1
  6
CONTINUOUS
 62
5
 10
203.9297137328
 20
138.4775464517
 40
1.5000000000
 50
355.9769700000
 51
90.0004530000
  0
ARC
  8
1
  6
CONTINUOUS
 62
5
 10
184.1198797328
 20
135.2275464517
 40
1.5000000000
 50
184.0219500000
 51
269.9999600000
  0
ARC
  8
1
  6
CONTINUOUS
 62
5
 10
183.8913107328
 20
138.4775464517
 40
1.4999900000
 50
90.0001190000
 51
184.0219300000
  0
ARC
  8
1
  6
CONTINUOUS
 62
5
 10
204.2355117328
 20
138.7625464517
 40
2.0000000000
 50
355.9769700000
 51
90.0006720000
  0
ARC
  8
1
  6
CONTINUOUS
 62
5
 10
203.9668117328
 20
134.9425464517
 40
2.0000000000
 50
269.9990000000
 51
355.9769700000
  0
ARC
  8
1
  6
CONTINUOUS
 62
5
 10
183.8542097328
 20
134.9425464517
 40
2.0000000000
 50
184.0219500000
 51
269.9999600000
  0
ARC
  8
1
  6
CONTINUOUS
 62
5
 10
183.5855397328
 20
138.7625464517
 40
2.0000100000
 50
89.9999820000
 51
184.0219300000
  0
CIRCLE
  8
1
  6
CONTINUOUS
 62
5
 10
185.6605187328
 20
135.4325464517
 40
0.5000000000
  0
CIRCLE
  8
1
  6
CONTINUOUS
 62
5
 10
185.6605187328
 20
135.4325464517
 40
0.7500000000
  0
CIRCLE
  8
1
  6
CONTINUOUS
 62
5
 10
187.0355187328
 20
138.2725464517
 40
0.7500000000
  0
CIRCLE
  8
1
  6
CONTINUOUS
 62
5
 10
187.0355187328
 20
138.2725464517
 40
0.5000000000
  0
CIRCLE
  8
1
  6
CONTINUOUS
 62
5
 10
188.4105187328
 20
135.4325464517
 40
0.7500000000
  0
CIRCLE
  8
1
  6
CONTINUOUS
 62
5
 10
188.4105187328
 20
135.4325464517
 40
0.5000000000
  0
CIRCLE
  8
1
  6
CONTINUOUS
 62
5
 10
184.2855187328
 20
138.2725464517
 40
0.7500000000
  0
CIRCLE
  8
1
  6
CONTINUOUS
 62
5
 10
184.2855187328
 20
138.2725464517
 40
0.5000000000
  0
CIRCLE
  8
1
  6
CONTINUOUS
 62
5
 10
202.1605187328
 20
135.4325464517
 40
0.7500000000
  0
CIRCLE
  8
1
  6
CONTINUOUS
 62
5
 10
202.1605187328
 20
135.4325464517
 40
0.5000000000
  0
CIRCLE
  8
1
  6
CONTINUOUS
 62
5
 10
199.4105187328
 20
135.4325464517
 40
0.7500000000
  0
CIRCLE
  8
1
  6
CONTINUOUS
 62
5
 10
199.4105187328
 20
135.4325464517
 40
0.5000000000
  0
CIRCLE
  8
1
  6
CONTINUOUS
 62
5
 10
203.5355187328
 20
138.2725464517
 40
0.5000000000
  0
CIRCLE
  8
1
  6
CONTINUOUS
 62
5
 10
203.5355187328
 20
138.2725464517
 40
0.7500000000
  0
CIRCLE
  8
1
  6
CONTINUOUS
 62
5
 10
200.7855187328
 20
138.2725464517
 40
0.7500000000
  0
CIRCLE
  8
1
  6
CONTINUOUS
 62
5
 10
200.7855187328
 20
138.2725464517
 40
0.5000000000
  0
ARC
  8
1
  6
HIDDEN
 62
5
 10
176.3605187328
 20
141.0525164517
 40
2.0000000000
 50
90.0000030000
 51
180.0000100000
  0
ARC
  8
1
  6
HIDDEN
 62
5
 10
211.4605177328
 20
141.0525164517
 40
2.0000000000
 50
0.0000000000
 51
90.0000030000
  0
ARC
  8
1
  6
HIDDEN
 62
5
 10
211.4605177328
 20
132.6525264517
 40
2.0000000000
 50
270.0000000000
 51
0.0000000000
  0
ARC
  8
1
  6
HIDDEN
 62
5
 10
176.3605187328
 20
132.6525264517
 40
2.0000000000
 50
179.9999900000
 51
270.0000000000
  0
CIRCLE
  8
1
  6
CONTINUOUS
 62
5
 10
198.0355187328
 20
138.2725464517
 40
0.7500000000
  0
CIRCLE
  8
1
  6
CONTINUOUS
 62
5
 10
198.0355187328
 20
138.2725464517
 40
0.5000000000
  0
CIRCLE
  8
1
  6
CONTINUOUS
 62
5
 10
196.6605187328
 20
135.4325464517
 40
0.7500000000
  0
CIRCLE
  8
1
  6
CONTINUOUS
 62
5
 10
196.6605187328
 20
135.4325464517
 40
0.5000000000
  0
CIRCLE
  8
1
  6
CONTINUOUS
 62
5
 10
195.2855187328
 20
138.2725464517
 40
0.7500000000
  0
CIRCLE
  8
1
  6
CONTINUOUS
 62
5
 10
195.2855187328
 20
138.2725464517
 40
0.5000000000
  0
CIRCLE
  8
1
  6
CONTINUOUS
 62
5
 10
193.9105187328
 20
135.4325464517
 40
0.7500000000
  0
CIRCLE
  8
1
  6
CONTINUOUS
 62
5
 10
193.9105187328
 20
135.4325464517
 40
0.5000000000
  0
CIRCLE
  8
1
  6
CONTINUOUS
 62
5
 10
192.5355187328
 20
138.2725464517
 40
0.7500000000
  0
CIRCLE
  8
1
  6
CONTINUOUS
 62
5
 10
192.5355187328
 20
138.2725464517
 40
0.5000000000
  0
CIRCLE
  8
1
  6
CONTINUOUS
 62
5
 10
191.1605187328
 20
135.4325464517
 40
0.7500000000
  0
CIRCLE
  8
1
  6
CONTINUOUS
 62
5
 10
191.1605187328
 20
135.4325464517
 40
0.5000000000
  0
CIRCLE
  8
1
  6
CONTINUOUS
 62
5
 10
189.7855187328
 20
138.2725464517
 40
0.7500000000
  0
CIRCLE
  8
1
  6
CONTINUOUS
 62
5
 10
189.7855187328
 20
138.2725464517
 40
0.5000000000
  0
LINE
  8
3
  6
CONTINUOUS
 62
5
 10
213.1705187328
 20
136.8525214517
 11
211.8705187328
 21
139.1041875015
  0
LINE
  8
3
  6
CONTINUOUS
 62
5
 10
211.8705187328
 20
139.1041875015
 11
209.2705187328
 21
139.1041875015
  0
LINE
  8
3
  6
CONTINUOUS
 62
5
 10
209.2705187328
 20
139.1041875015
 11
207.9705187328
 21
136.8525214517
  0
LINE
  8
3
  6
CONTINUOUS
 62
5
 10
207.9705187328
 20
136.8525214517
 11
209.2705187328
 21
134.6008554019
  0
LINE
  8
3
  6
CONTINUOUS
 62
5
 10
209.2705187328
 20
134.6008554019
 11
211.8705187328
 21
134.6008554019
  0
LINE
  8
3
  6
CONTINUOUS
 62
5
 10
211.8705187328
 20
134.6008554019
 11
213.1705187328
 21
136.8525214517
  0
CIRCLE
  8
3
  6
CONTINUOUS
 62
5
 10
210.5705187328
 20
136.8525214517
 40
1.1500000000
  0
LINE
  8
3
  6
CONTINUOUS
 62
5
 10
179.8505187328
 20
136.8525364517
 11
178.5505187328
 21
139.1042025015
  0
LINE
  8
3
  6
CONTINUOUS
 62
5
 10
178.5505187328
 20
139.1042025015
 11
175.9505187328
 21
139.1042025015
  0
LINE
  8
3
  6
CONTINUOUS
 62
5
 10
175.9505187328
 20
139.1042025015
 11
174.6505187328
 21
136.8525364517
  0
LINE
  8
3
  6
CONTINUOUS
 62
5
 10
174.6505187328
 20
136.8525364517
 11
175.9505187328
 21
134.6008704019
  0
LINE
  8
3
  6
CONTINUOUS
 62
5
 10
175.9505187328
 20
134.6008704019
 11
178.5505187328
 21
134.6008704019
  0
LINE
  8
3
  6
CONTINUOUS
 62
5
 10
178.5505187328
 20
134.6008704019
 11
179.8505187328
 21
136.8525364517
  0
CIRCLE
  8
3
  6
CONTINUOUS
 62
5
 10
177.2505187328
 20
136.8525364517
 40
1.1500000000
  0
POINT
  8
3
  6
CONTINUOUS
 62
5
 10
193.9105182328
 20
136.8525214517
  0
LINE
  8
1
  6
CONTINUOUS
 62
5
 10
180.4105182328
 20
119.3525214517
 11
180.4105182328
 21
94.3525214517
  0
LINE
  8
1
  6
CONTINUOUS
 62
5
 10
206.4105182328
 20
120.3525214517
 11
181.4105182328
 21
120.3525214517
  0
LINE
  8
1
  6
CONTINUOUS
 62
5
 10
207.4105182328
 20
94.3525214517
 11
207.4105182328
 21
119.3525214517
  0
LINE
  8
1
  6
CONTINUOUS
 62
5
 10
206.4105182328
 20
93.3525214517
 11
181.4105182328
 21
93.3525214517
  0
POINT
  8
3
  6
CONTINUOUS
 62
5
 10
193.9105182328
 20
106.8525214517
  0
ARC
  8
3
  6
CONTINUOUS
 62
5
 10
193.9105182328
 20
100.0525214517
 40
2.6500000000
 50
0.0000000000
 51
180.0000000000
  0
LINE
  8
3
  6
CONTINUOUS
 62
5
 10
196.5605182328
 20
100.0525214517
 11
196.5605182328
 21
97.4025214517
  0
LINE
  8
3
  6
CONTINUOUS
 62
5
 10
196.5605182328
 20
97.4025214517
 11
191.2605182328
 21
97.4025214517
  0
LINE
  8
3
  6
CONTINUOUS
 62
5
 10
191.2605182328
 20
97.4025214517
 11
191.2605182328
 21
100.0525214517
  0
LINE
  8
3
  6
CONTINUOUS
 62
5
 10
188.6105182327
 20
107.6025214517
 11
186.4105182328
 21
107.6025214517
  0
LINE
  8
3
  6
CONTINUOUS
 62
5
 10
186.4105182328
 20
107.6025214517
 11
186.4105182328
 21
116.3025214517
  0
LINE
  8
3
  6
CONTINUOUS
 62
5
 10
186.4105182328
 20
116.3025214517
 11
188.6105182327
 21
116.3025214517
  0
LINE
  8
3
  6
CONTINUOUS
 62
5
 10
188.6105182327
 20
116.3025214517
 11
188.6105182327
 21
107.6025214517
  0
LINE
  8
3
  6
CONTINUOUS
 62
5
 10
201.4105182328
 20
108.4525214517
 11
199.2105182328
 21
108.4525214517
  0
LINE
  8
3
  6
CONTINUOUS
 62
5
 10
199.2105182328
 20
108.4525214517
 11
199.2105182328
 21
115.4525214517
  0
LINE
  8
3
  6
CONTINUOUS
 62
5
 10
199.2105182328
 20
115.4525214517
 11
201.4105182328
 21
115.4525214517
  0
LINE
  8
3
  6
CONTINUOUS
 62
5
 10
201.4105182328
 20
115.4525214517
 11
201.4105182328
 21
108.4525214517
  0
LINE
  8
1
  6
HIDDEN
 62
5
 10
181.6105182328
 20
95.8025214517
 11
181.6105182328
 21
117.9025214517
  0
LINE
  8
1
  6
HIDDEN
 62
5
 10
181.6105182328
 20
117.9025214517
 11
206.2105182328
 21
117.9025214514
  0
LINE
  8
1
  6
HIDDEN
 62
5
 10
206.2105182328
 20
117.9025214517
 11
206.2105182328
 21
95.8025214517
  0
LINE
  8
1
  6
HIDDEN
 62
5
 10
206.2105182328
 20
95.8025214519
 11
181.6105182328
 21
95.8025214517
  0
LINE
  8
1
  6
CONTINUOUS
 62
5
 10
181.9105182328
 20
118.3525214517
 11
181.9105182328
 21
95.3525214517
  0
LINE
  8
1
  6
CONTINUOUS
 62
5
 10
205.4105182328
 20
118.8525214517
 11
182.4105182328
 21
118.8525214517
  0
LINE
  8
1
  6
CONTINUOUS
 62
5
 10
205.9105182328
 20
118.3525214517
 11
205.9105182328
 21
95.3525214517
  0
LINE
  8
1
  6
CONTINUOUS
 62
5
 10
182.4105182328
 20
94.8525214517
 11
205.4105182328
 21
94.8525214517
  0
ARC
  8
1
  6
CONTINUOUS
 62
5
 10
181.4105182328
 20
94.3525214517
 40
1.0000000000
 50
180.0000000000
 51
270.0000000000
  0
ARC
  8
1
  6
CONTINUOUS
 62
5
 10
181.4105182328
 20
119.3525214517
 40
1.0000000000
 50
90.0000000000
 51
180.0000000000
  0
ARC
  8
1
  6
CONTINUOUS
 62
5
 10
206.4105182328
 20
119.3525214517
 40
1.0000000000
 50
0.0000000000
 51
90.0000000000
  0
ARC
  8
1
  6
CONTINUOUS
 62
5
 10
206.4105182328
 20
94.3525214517
 40
1.0000000000
 50
270.0000000000
 51
0.0000000000
  0
ARC
  8
1
  6
CONTINUOUS
 62
5
 10
205.4105182328
 20
95.3525214517
 40
0.5000000000
 50
270.0000000000
 51
0.0000000000
  0
ARC
  8
1
  6
CONTINUOUS
 62
5
 10
182.4105182328
 20
95.3525214517
 40
0.5000000000
 50
180.0000000000
 51
270.0000000000
  0
ARC
  8
1
  6
CONTINUOUS
 62
5
 10
182.4105182328
 20
118.3525214517
 40
0.5000000000
 50
90.0000000000
 51
180.0000000000
  0
ARC
  8
1
  6
CONTINUOUS
 62
5
 10
205.4105182328
 20
118.3525214517
 40
0.5000000000
 50
0.0000000000
 51
90.0000000000
  0
LINE
  8
1
  6
CONTINUOUS
 62
7
 10
182.4105182328
 20
171.3525214540
 11
182.4105182328
 21
188.3525214540
  0
LINE
  8
1
  6
CONTINUOUS
 62
7
 10
182.4105182328
 20
188.3525214540
 11
205.4105182328
 21
188.3525214540
  0
LINE
  8
1
  6
CONTINUOUS
 62
7
 10
205.4105182328
 20
171.3525214540
 11
182.4105182328
 21
171.3525214540
  0
LINE
  8
1
  6
CONTINUOUS
 62
7
 10
205.4105182328
 20
188.3525214540
 11
205.4105182328
 21
171.3525214540
  0
CIRCLE
  8
3
  6
CONTINUOUS
 62
6
 10
208.4105182328
 20
179.8525214540
 40
3.0285714286
  0
LINE
  8
3
  6
CONTINUOUS
 62
6
 10
207.0720661112
 20
178.5140693324
 11
209.7489703543
 21
181.1909735755
  0
LINE
  8
3
  6
CONTINUOUS
 62
6
 10
209.7489703543
 20
178.5140693324
 11
207.0720661112
 21
181.1909735755
  0
CIRCLE
  8
3
  6
CONTINUOUS
 62
6
 10
208.4105182328
 20
179.8525214540
 40
2.6500000000
  0
CIRCLE
  8
3
  6
CONTINUOUS
 62
6
 10
179.4105182328
 20
179.8525214540
 40
3.0285714286
  0
LINE
  8
3
  6
CONTINUOUS
 62
6
 10
178.0720661112
 20
178.5140693324
 11
180.7489703543
 21
181.1909735755
  0
LINE
  8
3
  6
CONTINUOUS
 62
6
 10
180.7489703543
 20
178.5140693324
 11
178.0720661112
 21
181.1909735755
  0
CIRCLE
  8
3
  6
CONTINUOUS
 62
6
 10
179.4105182328
 20
179.8525214540
 40
2.6500000000
  0
POINT
  8
3
  6
CONTINUOUS
 62
7
 10
193.9105182328
 20
179.8525214540
  0
INSERT
  8
3
  6
CONTINUOUS
 62
5
  2
BALN6
 10
200.8166330539
 20
183.8500721262
  0
INSERT
  8
3
  6
CONTINUOUS
 62
5
  2
BALN7
 10
208.4105182328
 20
179.8525214540
  0
INSERT
  8
3
  6
CONTINUOUS
 62
5
  2
BALN8
 10
213.4605177328
 20
159.2840628985
  0
INSERT
  8
3
  6
CONTINUOUS
 62
5
  2
BALN9
 10
213.4605177328
 20
139.2840628985
  0
INSERT
  8
3
  6
CONTINUOUS
 62
5
  2
LTEX2
 10
202.4723793047
 20
136.5891162123
  0
TEXT
  8
1
  6
CONTINUOUS
 62
7
 10
251.013311
 20
194.935966
 40
3.000000
  1
USB中継は表裏を
 41
0.846501
 50
0.000000
 51
0.000000
 72
   5
 73
   0
 11
273.513311
 21
194.935966
  0
TEXT
  8
1
  6
CONTINUOUS
 62
7
 10
251.013311
 20
191.935966
 40
3.000000
  1
変えることが可能です。
 41
0.866142
 50
0.000000
 51
0.000000
 72
   5
 73
   0
 11
284.013311
 21
191.935966
  0
LINE
  8
1
  6
CONTINUOUS
 62
1
 10
249.8153334729
 20
188.3525214540
 11
249.8153334729
 21
171.3525214540
  0
LINE
  8
1
  6
CONTINUOUS
 62
1
 10
284.4153334729
 20
170.3525214540
 11
283.6153334729
 21
170.3525214540
  0
LINE
  8
1
  6
CONTINUOUS
 62
1
 10
280.6153334729
 20
170.3525214540
 11
254.6153334729
 21
170.3525214540
  0
LINE
  8
1
  6
CONTINUOUS
 62
1
 10
251.6153334729
 20
170.3525214540
 11
250.8153334729
 21
170.3525214540
  0
LINE
  8
1
  6
CONTINUOUS
 62
1
 10
285.4153334729
 20
171.3525214540
 11
285.4153334729
 21
188.3525214540
  0
LINE
  8
1
  6
CONTINUOUS
 62
1
 10
284.4153334729
 20
189.3525214540
 11
283.6153334729
 21
189.3525214540
  0
LINE
  8
1
  6
CONTINUOUS
 62
1
 10
280.6153334729
 20
189.3525214540
 11
254.6153334729
 21
189.3525214540
  0
LINE
  8
1
  6
CONTINUOUS
 62
1
 10
251.6153334729
 20
189.3525214540
 11
250.8153334729
 21
189.3525214540
  0
LINE
  8
1
  6
CONTINUOUS
 62
1
 10
256.2153334729
 20
171.9525214540
 11
256.2153334729
 21
187.7525214540
  0
LINE
  8
1
  6
CONTINUOUS
 62
1
 10
278.5153334729
 20
171.4525214540
 11
256.7153334729
 21
171.4525214540
  0
LINE
  8
1
  6
CONTINUOUS
 62
1
 10
279.0153334729
 20
187.7525214540
 11
279.0153334729
 21
171.9525214540
  0
LINE
  8
1
  6
CONTINUOUS
 62
1
 10
278.5153334729
 20
188.2525214540
 11
256.7153334729
 21
188.2525214540
  0
CIRCLE
  8
1
  6
CONTINUOUS
 62
1
 10
253.1153334729
 20
179.8525214540
 40
1.5000000000
  0
CIRCLE
  8
1
  6
CONTINUOUS
 62
1
 10
282.1153334729
 20
179.8525214540
 40
1.5000000000
  0
ARC
  8
1
  6
CONTINUOUS
 62
1
 10
250.8153334729
 20
171.3525214540
 40
1.0000000000
 50
180.0000000000
 51
270.0000000000
  0
ARC
  8
1
  6
CONTINUOUS
 62
1
 10
250.8153334729
 20
188.3525214540
 40
1.0000000000
 50
90.0000000000
 51
180.0000000000
  0
ARC
  8
1
  6
CONTINUOUS
 62
1
 10
284.4153334729
 20
188.3525214540
 40
1.0000000000
 50
0.0000000000
 51
90.0000000000
  0
ARC
  8
1
  6
CONTINUOUS
 62
1
 10
284.4153334729
 20
171.3525214540
 40
1.0000000000
 50
270.0000000000
 51
0.0000000000
  0
LINE
  8
1
  6
CONTINUOUS
 62
1
 10
283.6153334729
 20
170.3525214540
 11
283.6153334729
 21
172.3525214540
  0
LINE
  8
1
  6
CONTINUOUS
 62
1
 10
283.6153334729
 20
172.3525214540
 11
280.6153334729
 21
172.3525214540
  0
LINE
  8
1
  6
CONTINUOUS
 62
1
 10
280.6153334729
 20
172.3525214540
 11
280.6153334729
 21
170.3525214540
  0
LINE
  8
1
  6
CONTINUOUS
 62
1
 10
283.6153334729
 20
189.3525214540
 11
283.6153334729
 21
187.3525214540
  0
LINE
  8
1
  6
CONTINUOUS
 62
1
 10
283.6153334729
 20
187.3525214540
 11
280.6153334729
 21
187.3525214540
  0
LINE
  8
1
  6
CONTINUOUS
 62
1
 10
280.6153334729
 20
187.3525214540
 11
280.6153334729
 21
189.3525214540
  0
LINE
  8
1
  6
CONTINUOUS
 62
1
 10
251.6153334729
 20
189.3525214540
 11
251.6153334729
 21
187.3525214540
  0
LINE
  8
1
  6
CONTINUOUS
 62
1
 10
251.6153334729
 20
187.3525214540
 11
254.6153334729
 21
187.3525214540
  0
LINE
  8
1
  6
CONTINUOUS
 62
1
 10
254.6153334729
 20
187.3525214540
 11
254.6153334729
 21
189.3525214540
  0
LINE
  8
1
  6
CONTINUOUS
 62
1
 10
251.6153334729
 20
170.3525214540
 11
251.6153334729
 21
172.3525214540
  0
LINE
  8
1
  6
CONTINUOUS
 62
1
 10
251.6153334729
 20
172.3525214540
 11
254.6153334729
 21
172.3525214540
  0
LINE
  8
1
  6
CONTINUOUS
 62
1
 10
254.6153334729
 20
172.3525214540
 11
254.6153334729
 21
170.3525214540
  0
ARC
  8
1
  6
CONTINUOUS
 62
1
 10
256.7153334729
 20
187.7525214540
 40
0.5000000000
 50
90.0000000000
 51
180.0000000000
  0
ARC
  8
1
  6
CONTINUOUS
 62
1
 10
256.7153334729
 20
171.9525214540
 40
0.5000000000
 50
180.0000000000
 51
270.0000000000
  0
ARC
  8
1
  6
CONTINUOUS
 62
1
 10
278.5153334729
 20
171.9525214540
 40
0.5000000000
 50
270.0000000000
 51
0.0000000000
  0
ARC
  8
1
  6
CONTINUOUS
 62
1
 10
278.5153334729
 20
187.7525214540
 40
0.5000000000
 50
0.0000000000
 51
90.0000000000
  0
LINE
  8
3
  6
CONTINUOUS
 62
1
 10
263.5771101682
 20
175.3407447587
 11
261.8935567776
 21
177.0242981493
  0
LINE
  8
3
  6
CONTINUOUS
 62
1
 10
263.7040340498
 20
175.7388208771
 11
262.3266328960
 21
177.1162220308
  0
LINE
  8
3
  6
CONTINUOUS
 62
1
 10
270.0603334729
 20
175.2675214540
 11
269.1653334729
 21
175.2675214540
  0
LINE
  8
3
  6
CONTINUOUS
 62
1
 10
264.6653334729
 20
175.2675214540
 11
263.7538868635
 21
175.2675214540
  0
LINE
  8
3
  6
CONTINUOUS
 62
1
 10
265.1653334729
 20
175.4725214540
 11
268.6653334729
 21
175.4725214540
  0
LINE
  8
3
  6
CONTINUOUS
 62
1
 10
265.1653334729
 20
175.5333381101
 11
268.6653334729
 21
175.5333381101
  0
LINE
  8
3
  6
CONTINUOUS
 62
1
 10
269.6353334729
 20
175.6275214540
 11
269.1653334729
 21
175.6275214540
  0
LINE
  8
3
  6
CONTINUOUS
 62
1
 10
264.6653334729
 20
175.6275214540
 11
263.9727346266
 21
175.6275214540
  0
LINE
  8
3
  6
CONTINUOUS
 62
1
 10
267.4053334729
 20
177.0525214540
 11
264.8253334729
 21
177.0525214540
  0
LINE
  8
3
  6
CONTINUOUS
 62
1
 10
270.3103334729
 20
184.1875214540
 11
270.3103334729
 21
175.5175214540
  0
LINE
  8
3
  6
CONTINUOUS
 62
1
 10
267.2053334729
 20
177.5525214540
 11
265.0253334729
 21
177.5525214540
  0
LINE
  8
3
  6
CONTINUOUS
 62
1
 10
270.0153334729
 20
183.6975214540
 11
270.0153334729
 21
176.0075214540
  0
LINE
  8
3
  6
CONTINUOUS
 62
1
 10
268.7152236100
 20
178.1025214540
 11
267.7053334729
 21
178.1025214540
  0
LINE
  8
3
  6
CONTINUOUS
 62
1
 10
264.5253334729
 20
178.1025214540
 11
263.5154433358
 21
178.1025214540
  0
LINE
  8
3
  6
CONTINUOUS
 62
1
 10
268.7152236100
 20
179.1025214540
 11
267.7053334729
 21
179.1025214540
  0
LINE
  8
3
  6
CONTINUOUS
 62
1
 10
264.5253334729
 20
179.1025214540
 11
263.5154433358
 21
179.1025214540
  0
LINE
  8
3
  6
CONTINUOUS
 62
1
 10
268.7153334729
 20
181.6025214540
 11
268.7153334729
 21
180.6025214540
  0
LINE
  8
3
  6
CONTINUOUS
 62
1
 10
268.7153334729
 20
179.1025214540
 11
268.7153334729
 21
178.1025214540
  0
LINE
  8
3
  6
CONTINUOUS
 62
1
 10
267.7053334729
 20
182.3525214540
 11
267.7053334729
 21
177.3525214540
  0
LINE
  8
3
  6
CONTINUOUS
 62
1
 10
267.2053334729
 20
182.1525214540
 11
267.2053334729
 21
177.5525214540
  0
LINE
  8
3
  6
CONTINUOUS
 62
1
 10
268.7152236100
 20
180.6025214540
 11
267.7053334729
 21
180.6025214540
  0
LINE
  8
3
  6
CONTINUOUS
 62
1
 10
264.5253334729
 20
180.6025214540
 11
263.5154433358
 21
180.6025214540
  0
LINE
  8
3
  6
CONTINUOUS
 62
1
 10
268.7152236100
 20
181.6025214540
 11
267.7053334729
 21
181.6025214540
  0
LINE
  8
3
  6
CONTINUOUS
 62
1
 10
264.5253334729
 20
181.6025214540
 11
263.5154433358
 21
181.6025214540
  0
LINE
  8
3
  6
CONTINUOUS
 62
1
 10
265.0253334729
 20
182.1525214540
 11
267.2053334729
 21
182.1525214540
  0
LINE
  8
3
  6
CONTINUOUS
 62
1
 10
267.4053334729
 20
182.6525214540
 11
264.8253334729
 21
182.6525214540
  0
LINE
  8
3
  6
CONTINUOUS
 62
1
 10
265.0253334729
 20
177.5525214540
 11
265.0253334729
 21
182.1525214540
  0
LINE
  8
3
  6
CONTINUOUS
 62
1
 10
264.5253334729
 20
177.3525214540
 11
264.5253334729
 21
182.3525214540
  0
LINE
  8
3
  6
CONTINUOUS
 62
1
 10
265.1653334729
 20
183.7774894985
 11
268.6653334729
 21
183.7774894985
  0
LINE
  8
3
  6
CONTINUOUS
 62
1
 10
265.1653334729
 20
183.8329399791
 11
268.6653334729
 21
183.8329399791
  0
LINE
  8
3
  6
CONTINUOUS
 62
1
 10
263.9727346266
 20
184.0775214540
 11
264.6653334729
 21
184.0775214540
  0
LINE
  8
3
  6
CONTINUOUS
 62
1
 10
269.1653334729
 20
184.0775214540
 11
269.6353334729
 21
184.0775214540
  0
LINE
  8
3
  6
CONTINUOUS
 62
1
 10
265.1653334729
 20
184.1717047978
 11
268.6653334729
 21
184.1717047978
  0
LINE
  8
3
  6
CONTINUOUS
 62
1
 10
265.1653334729
 20
184.2325214540
 11
268.6653334729
 21
184.2325214540
  0
LINE
  8
3
  6
CONTINUOUS
 62
1
 10
263.7538868635
 20
184.4375214540
 11
264.6653334729
 21
184.4375214540
  0
LINE
  8
3
  6
CONTINUOUS
 62
1
 10
269.1653334729
 20
184.4375214540
 11
270.0603334729
 21
184.4375214540
  0
LINE
  8
3
  6
CONTINUOUS
 62
1
 10
263.5153334729
 20
181.6025214540
 11
263.5153334729
 21
180.6025214540
  0
LINE
  8
3
  6
CONTINUOUS
 62
1
 10
263.5153334729
 20
179.1025214540
 11
263.5153334729
 21
178.1025214540
  0
LINE
  8
3
  6
CONTINUOUS
 62
1
 10
262.2153334729
 20
177.3849226077
 11
262.2153334729
 21
182.3201203003
  0
LINE
  8
3
  6
CONTINUOUS
 62
1
 10
262.3266328960
 20
182.5888208771
 11
263.7040340498
 21
183.9662220308
  0
LINE
  8
3
  6
CONTINUOUS
 62
1
 10
261.8203334729
 20
177.2010748446
 11
261.8203334729
 21
182.5039680634
  0
LINE
  8
3
  6
CONTINUOUS
 62
1
 10
261.8935567776
 20
182.6807447587
 11
263.5771101682
 21
184.3642981493
  0
ARC
  8
3
  6
CONTINUOUS
 62
1
 10
270.0603334729
 20
184.1875214540
 40
0.2500000000
 50
0.0000000000
 51
90.0000000000
  0
ARC
  8
3
  6
CONTINUOUS
 62
1
 10
270.0603334729
 20
175.5175214540
 40
0.2500000000
 50
270.0000000000
 51
0.0000000000
  0
ARC
  8
3
  6
CONTINUOUS
 62
1
 10
263.7538868635
 20
184.1875214540
 40
0.2500000000
 50
90.0000000000
 51
135.0000000000
  0
ARC
  8
3
  6
CONTINUOUS
 62
1
 10
262.0703334729
 20
182.5039680634
 40
0.2500000000
 50
135.0000000000
 51
180.0000000000
  0
ARC
  8
3
  6
CONTINUOUS
 62
1
 10
263.7538868635
 20
175.5175214540
 40
0.2500000000
 50
225.0000000000
 51
270.0000000000
  0
ARC
  8
3
  6
CONTINUOUS
 62
1
 10
262.0703334729
 20
177.2010748446
 40
0.2500000000
 50
180.0000000000
 51
225.0000000000
  0
ARC
  8
3
  6
CONTINUOUS
 62
1
 10
267.4053334729
 20
182.3525214540
 40
0.3000000000
 50
0.0000000000
 51
90.0000000000
  0
ARC
  8
3
  6
CONTINUOUS
 62
1
 10
267.4053334729
 20
177.3525214540
 40
0.3000000000
 50
270.0000000000
 51
0.0000000000
  0
ARC
  8
3
  6
CONTINUOUS
 62
1
 10
264.8253334729
 20
177.3525214540
 40
0.3000000000
 50
180.0000000000
 51
270.0000000000
  0
ARC
  8
3
  6
CONTINUOUS
 62
1
 10
264.8253334729
 20
182.3525214540
 40
0.3000000000
 50
90.0000000000
 51
180.0000000000
  0
ARC
  8
3
  6
CONTINUOUS
 62
1
 10
263.9727346266
 20
183.6975214540
 40
0.3800000000
 50
90.0000000000
 51
135.0000000000
  0
ARC
  8
3
  6
CONTINUOUS
 62
1
 10
262.5953334729
 20
182.3201203003
 40
0.3800000000
 50
135.0000000000
 51
180.0000000000
  0
ARC
  8
3
  6
CONTINUOUS
 62
1
 10
262.5953334729
 20
177.3849226077
 40
0.3800000000
 50
180.0000000000
 51
225.0000000000
  0
ARC
  8
3
  6
CONTINUOUS
 62
1
 10
263.9727346266
 20
176.0075214540
 40
0.3800000000
 50
225.0000000000
 51
270.0000000000
  0
ARC
  8
3
  6
CONTINUOUS
 62
1
 10
269.6353334729
 20
183.6975214540
 40
0.3800000000
 50
0.0000000000
 51
90.0000000000
  0
ARC
  8
3
  6
CONTINUOUS
 62
1
 10
269.6353334729
 20
176.0075214540
 40
0.3800000000
 50
270.0000000000
 51
0.0000000000
  0
LINE
  8
3
  6
CONTINUOUS
 62
1
 10
265.1653334729
 20
175.9275534095
 11
268.6653334729
 21
175.9275534095
  0
LINE
  8
3
  6
CONTINUOUS
 62
1
 10
265.1653334729
 20
175.8721029289
 11
268.6653334729
 21
175.8721029289
  0
LINE
  8
3
  6
CONTINUOUS
 62
1
 10
264.6653334729
 20
184.0775214540
 11
264.6653334729
 21
184.4375214540
  0
LINE
  8
3
  6
CONTINUOUS
 62
1
 10
265.1653334729
 20
183.7775214540
 11
265.1653334728
 21
184.4375214540
  0
LINE
  8
3
  6
CONTINUOUS
 62
1
 10
268.6653334729
 20
184.4375214540
 11
268.6653334729
 21
183.7775214540
  0
LINE
  8
3
  6
CONTINUOUS
 62
1
 10
268.6653334729
 20
175.9275534095
 11
268.6653334729
 21
175.2675214540
  0
LINE
  8
3
  6
CONTINUOUS
 62
1
 10
269.1653334729
 20
175.2675214540
 11
269.1653334729
 21
175.6275214540
  0
LINE
  8
3
  6
CONTINUOUS
 62
1
 10
265.1653334729
 20
175.2675214540
 11
265.1653334729
 21
175.9275534095
  0
LINE
  8
3
  6
CONTINUOUS
 62
1
 10
264.6653334729
 20
175.2675214540
 11
264.6653334729
 21
175.6275214540
  0
LINE
  8
1
  6
CONTINUOUS
 62
1
 10
263.6503334729
 20
175.2675214540
 11
261.8203334729
 21
177.0975214540
  0
LINE
  8
1
  6
CONTINUOUS
 62
1
 10
261.8203334729
 20
177.0975214540
 11
261.8203334729
 21
182.6075214540
  0
LINE
  8
1
  6
CONTINUOUS
 62
1
 10
261.8203334729
 20
182.6075214540
 11
263.6503334729
 21
184.4375214540
  0
LINE
  8
1
  6
CONTINUOUS
 62
1
 10
263.6503334729
 20
184.4375214540
 11
270.3103334729
 21
184.4375214540
  0
LINE
  8
1
  6
CONTINUOUS
 62
1
 10
270.3103334729
 20
184.4375214540
 11
270.3103334729
 21
175.2675214540
  0
LINE
  8
1
  6
CONTINUOUS
 62
1
 10
270.3103334729
 20
175.2675214540
 11
263.6503334729
 21
175.2675214540
  0
POINT
  8
3
  6
CONTINUOUS
 62
7
 10
267.6153334729
 20
179.8525214540
  0
INSERT
  8
3
  6
CONTINUOUS
 62
7
  2
S2
 10
309.0147335960
 20
234.6482531231
  0
INSERT
  8
3
  6
CONTINUOUS
 62
7
  2
S3
 10
9.0000000000
 20
262.0000000000
  0
TEXT
  8
3
  6
CONTINUOUS
 62
7
 10
14.500000
 20
260.750000
 40
2.500000
  1
'10,2,16
 41
0.770713
 50
0.000000
 51
0.000000
 72
   5
 73
   0
 11
24.500000
 21
260.750000
  0
TEXT
  8
3
  6
CONTINUOUS
 62
7
 10
26.603970
 20
259.939618
 40
4.000000
  1
ﾊﾟﾈﾙ「M0051B066」変更 A→B
 41
0.792683
 50
0.000000
 51
0.000000
 72
   5
 73
   0
 11
78.603970
 21
259.939618
  0
TEXT
  8
3
  6
CONTINUOUS
 62
7
 10
90.750000
 20
260.750000
 40
2.500000
  1
Yamada
 41
0.779221
 50
0.000000
 51
0.000000
 72
   5
 73
   0
 11
98.250000
 21
260.750000
  0
CIRCLE
  8
1
  6
HIDDEN
 62
6
 10
213.1605182328
 20
91.3525214538
 40
2.0000000000
  0
CIRCLE
  8
1
  6
HIDDEN
 62
6
 10
213.1605182328
 20
91.3525214538
 40
4.0000000000
  0
INSERT
  8
1
  6
CONTINUOUS
 62
7
  2
S4
 10
213.1605182328
 20
101.3525214525
  0
INSERT
  8
1
  6
CONTINUOUS
 62
5
  2
LTEX3
 10
217.1605182328
 20
91.3525214526
  0
INSERT
  8
1
  6
CONTINUOUS
 62
7
  2
S5
 10
253.1816052311
 20
82.0992534622
  0
INSERT
  8
3
  6
CONTINUOUS
 62
5
  2
BALN10
 10
207.4105182328
 20
108.9163718686
  0
POINT
  8
5
  6
CONTINUOUS
 62
6
 10
9.0000000000
 20
267.0000000000
  0
POINT
  8
5
  6
CONTINUOUS
 62
6
 10
9.0000000000
 20
267.0000000000
  0
POINT
  8
5
  6
CONTINUOUS
 62
6
 10
9.0000000000
 20
267.0000000000
  0
POINT
  8
5
  6
CONTINUOUS
 62
6
 10
9.0000000000
 20
267.0000000000
  0
POINT
  8
5
  6
CONTINUOUS
 62
6
 10
8.9999999999
 20
267.0000000000
  0
LINE
  8
1
  6
CONTINUOUS
 62
7
 10
11.4999999999
 20
265.0000000000
 11
6.4999999999
 21
265.0000000000
  0
TEXT
  8
1
  6
CONTINUOUS
 62
7
 10
7.904400
 20
264.621673
 40
3.300000
  1
C
 41
1.328000
 50
0.000000
 51
0.000000
 72
   5
 73
   0
 11
10.095600
 21
264.621673
  0
LINE
  8
1
  6
CONTINUOUS
 62
7
 10
8.9999999999
 20
269.0000000000
 11
6.4999999999
 21
265.0000000000
  0
LINE
  8
1
  6
CONTINUOUS
 62
7
 10
8.9999999999
 20
269.0000000000
 11
11.4999999999
 21
265.0000000000
  0
POINT
  8
1
  6
CONTINUOUS
 62
7
 10
8.9999999999
 20
267.0000000000
  0
TEXT
  8
1
  6
CONTINUOUS
 62
7
 10
14.836500
 20
265.500000
 40
3.000000
  1
'22.3.23
 41
0.599037
 50
0.000000
 51
0.000000
 72
   5
 73
   0
 11
24.163500
 21
265.500000
  0
TEXT
  8
1
  6
CONTINUOUS
 62
7
 10
28.160983
 20
265.056979
 40
4.000000
  1
PB追加に伴う変更
 41
0.854701
 50
0.000000
 51
0.000000
 72
   5
 73
   0
 11
60.160983
 21
265.056979
  0
TEXT
  8
1
  6
CONTINUOUS
 62
7
 10
91.000000
 20
265.250000
 40
3.500000
  1
山田
 41
0.921659
 50
0.000000
 51
0.000000
 72
   5
 73
   0
 11
98.000000
 21
265.250000
  0
TEXT
  8
3
  6
CONTINUOUS
 62
7
 10
199.677280
 20
271.219728
 40
5.000000
  1
型番仕様
 41
0.886918
 50
0.000000
 51
0.000000
 72
   5
 73
   0
 11
219.677280
 21
271.219728
  0
TEXT
  8
3
  6
CONTINUOUS
 62
7
 10
199.677280
 20
265.219728
 40
5.000000
  1
MCON-001-066 %%uPB
 41
0.759109
 50
0.000000
 51
0.000000
 72
   5
 73
   0
 11
237.177280
 21
265.219728
  0
POINT
  8
5
  6
CONTINUOUS
 62
6
 10
228.4721692345
 20
252.8416386812
  0
POINT
  8
5
  6
CONTINUOUS
 62
6
 10
228.4721692345
 20
252.8416386812
  0
POINT
  8
1
  6
CONTINUOUS
 62
6
 10
228.4721692345
 20
252.8416386812
  0
POINT
  8
5
  6
CONTINUOUS
 62
6
 10
228.4721692345
 20
252.8416386812
  0
INSERT
  8
1
  6
CONTINUOUS
 62
7
  2
S6
 10
228.4721692345
 20
252.8416386812
  0
LINE
  8
1
  6
CONTINUOUS
 62
7
 10
235.4063824333
 20
265.1360180234
 11
235.4063824333
 21
255.0860076792
  0
TEXT
  8
1
  6
CONTINUOUS
 62
7
 10
234.229490
 20
250.320856
 40
3.500000
  1
①ﾍﾞｰｽ,②ｶﾊﾞｰ材質
 41
0.806452
 50
0.000000
 51
0.000000
 72
   5
 73
   0
 11
263.979490
 21
250.320856
  0
TEXT
  8
1
  6
CONTINUOUS
 62
7
 10
234.229490
 20
246.820856
 40
3.500000
  1
無印:ｱﾙﾐﾀﾞｲｷｬｽﾄ
 41
0.786164
 50
0.000000
 51
0.000000
 72
   5
 73
   0
 11
260.479490
 21
246.820856
  0
TEXT
  8
1
  6
CONTINUOUS
 62
7
 10
234.229490
 20
243.320856
 40
3.500000
  1
PB:PBT(UL:V-0)
 41
0.760043
 50
0.000000
 51
0.000000
 72
   5
 73
   0
 11
258.729490
 21
243.320856
  0
POINT
  8
5
  6
CONTINUOUS
 62
6
 10
309.3313851285
 20
266.8545250502
  0
POINT
  8
5
  6
CONTINUOUS
 62
6
 10
309.3313851285
 20
266.8545250502
  0
POINT
  8
1
  6
CONTINUOUS
 62
6
 10
309.3313851285
 20
266.8545250502
  0
POINT
  8
5
  6
CONTINUOUS
 62
6
 10
309.3313851285
 20
266.8545250502
  0
INSERT
  8
1
  6
CONTINUOUS
 62
7
  2
S7
 10
309.3313851285
 20
266.8545250502
  0
TEXT
  8
5
  6
CONTINUOUS
 62
7
 10
338.753123
 20
268.474804
 40
3.000000
  1
ｱﾙﾐﾀﾞｲｷｬｽﾄ銀色塗装
 41
0.833541
 50
0.000000
 51
0.000000
 72
   5
 73
   0
 11
366.785123
 21
268.474804
  0
TEXT
  8
5
  6
CONTINUOUS
 62
7
 10
338.753123
 20
265.474804
 40
3.000000
  1
又は
 41
0.921659
 50
0.000000
 51
0.000000
 72
   5
 73
   0
 11
344.753123
 21
265.474804
  0
TEXT
  8
5
  6
CONTINUOUS
 62
7
 10
338.753123
 20
262.474804
 40
3.000000
  1
PBT 黒色(UL  V-0)
 41
0.751838
 50
0.000000
 51
0.000000
 72
   5
 73
   0
 11
363.293123
 21
262.474804
  0
INSERT
  8
3
  6
CONTINUOUS
 62
7
  2
S8
 10
303.4973368413
 20
234.6482531231
  0
POINT
  8
5
  6
CONTINUOUS
 62
6
 10
137.2868002249
 20
38.5097255163
  0
POINT
  8
5
  6
CONTINUOUS
 62
6
 10
137.2868002249
 20
38.5097255163
  0
POINT
  8
1
  6
CONTINUOUS
 62
6
 10
137.2868002249
 20
38.5097255163
  0
POINT
  8
5
  6
CONTINUOUS
 62
6
 10
137.2868002249
 20
38.5097255163
  0
INSERT
  8
1
  6
CONTINUOUS
 62
7
  2
S9
 10
137.2868002249
 20
38.5097255163
  0
INSERT
  8
3
  6
CONTINUOUS
 62
5
  2
LTEX4
 10
88.2645106558
 20
17.3439335173
  0
INSERT
  8
3
  6
CONTINUOUS
 62
5
  2
LTEX5
 10
39.2645106558
 20
18.7789024664
  0
INSERT
  8
3
  6
CONTINUOUS
 62
5
  2
LTEX6
 10
134.5962334454
 20
86.7605564293
  0
ENDSEC
  0
EOF
