  0
SECTION
  2
HEADER
  9
$ACADVER
  1
AC1009
  9
$DWGCODEPAGE
  3
dos932
  9
$INSBASE
 10
202.7500000000
 20
-21.6122944226
  9
$EXTMIN
 10
-436.3592774924
 20
-373.0664330087
  9
$EXTMAX
 10
841.8592774924
 20
329.8418441634
  9
$LIMMIN
 10
-436.3592774924
 20
-373.0664330087
  9
$LIMMAX
 10
841.8592774924
 20
329.8418441634
  9
$VIEWCTR
 10
0.0000000000
 20
0.0000000000
  9
$VIEWSIZE
 40
0.0000000000
  9
$SNAPMODE
 70
     0
  9
$SNAPUNIT
 10
20.0
 20
20.0
  9
$SNAPBASE
 10
0.000000
 20
0.000000
  9
$SNAPANG
 50
0.0
  9
$SNAPSTYLE
 70
     0
  9
$SNAPISOPAIR
 70
     0
  9
$GRIDMODE
 70
     0
  9
$GRIDUNIT
 10
10.000000
 20
10.000000
  9
$ORTHOMODE
 70
     0
  9
$REGENMODE
 70
     0
  9
$FILLMODE
 70
     1
  9
$QTEXTMODE
 70
     0
  9
$DRAGMODE
 70
     1
  9
$LTSCALE
 40
1.0
  9
$OSMODE
 70
     0
  9
$ATTMODE
 70
     1
  9
$TEXTSIZE
 40
4.000000
  9
$TRACEWID
 40
0.05
  9
$TEXTSTYLE
  7
STANDARD
  9
$CLAYER
  8
3
  9
$CELTYPE
  6
CONTINUOUS
  9
$CECOLOR
  62
7
  9
$DIMSCALE
 40
1.0000000000
  9
$DIMASZ
 40
2.0000000000
  9
$DIMEXO
 40
0.5000000000
  9
$DIMDLI
 40
7.000000
  9
$DIMRND
 40
0.0
  9
$DIMDLE
 40
0.0
  9
$DIMEXE
 40
1.0000000000
  9
$DIMTP
 40
0.0
  9
$DIMTM
 40
0.0
  9
$DIMTXT
 40
3.500000
  9
$DIMCEN
 40
0.09
  9
$DIMTSZ
 40
0.0
  9
$DIMTOL
 70
     0
  9
$DIMLIM
 70
     0
  9
$DIMTIH
 70
     0
  9
$DIMTOH
 70
     0
  9
$DIMSE1
 70
     0
  9
$DIMSE2
 70
     0
  9
$DIMTAD
 70
     1
  9
$DIMZIN
 70
     0
  9
$DIMBLK
  1

  9
$DIMASO
 70
     1
  9
$DIMSHO
 70
     0
  9
$DIMPOST
  1

  9
$DIMAPOST
  1

  9
$DIMALT
 70
     0
  9
$DIMALTD
 70
     3
  9
$DIMCLRD
 70
     5
  9
$DIMCLRE
 70
     5
  9
$DIMCLRT
 70
     7
  9
$DIMALTF
 40
25.4
  9
$DIMLFAC
 40
1.0
  9
$DIMTOFL
 70
     0
  9
$DIMTVP
 40
0.0
  9
$DIMTIX
 70
     0
  9
$DIMSOXD
 70
     0
  9
$DIMSAH
 70
     0
  9
$LUNITS
 70
     2
  9
$LUPREC
 70
     4
  9
$AXISMODE
 70
     0
  9
$AXISUNIT
 10
0.0
 20
0.0
  9
$SKETCHINC
 40
0.1
  9
$FILLETRAD
 40
0.0
  9
$AUNITS
 70
     0
  9
$AUPREC
 70
     0
  9
$MENU
  1
ACAD
  9
$ELEVATION
 40
0.0
  9
$THICKNESS
 40
0.0
  9
$VIEWDIR
 10
0.0
 20
0.0
 30
1.0
  9
$LIMCHECK
 70
     0
  9
$BLIPMODE
 70
     1
  9
$CHAMFERA
 40
0.0
  9
$CHAMFERB
 40
0.0
  9
$FASTZOOM
 70
     1
  9
$SKPOLY
 70
     0
  9
$TDCREATE
 40
2460019.0000000051
  9
$TDUPDATE
 40
2460019.0000000051
  9
$TDINDWG
 40
0.0000000000
  9
$TDUSRTIMER
 40
0.0000000000
  9
$USRTIMER
 70
     1
  9
$ANGBASE
 50
0.0
  9
$ANGDIR
 70
     0
  9
$PDMODE
 70
     65
  9
$PDSIZE
 40
0.2
  9
$PLINEWID
 40
0.0
  9
$COORDS
 70
     2
  9
$USERI1
 70
     0
  9
$USERI2
 70
     0
  9
$USERI3
 70
     0
  9
$USERI4
 70
     0
  9
$USERI5
 70
     0
  9
$USERR1
 40
0.0
  9
$USERR2
 40
0.0
  9
$USERR3
 40
0.0
  9
$USERR4
 40
0.0
  9
$USERR5
 40
0.0
  0
ENDSEC
  0
SECTION
  2
TABLES
  0
TABLE
  2
LTYPE
 70
     9
  0
LTYPE
  2
CONTINUOUS
 70
    64
  3
Solid line
 72
    65
 73
     0
 40
0.0
  0
LTYPE
  2
DASHED
 70
    64
  3
__ __ __ __ __ __ __ __ __ __ __ __ __ __ __
 72
    65
 73
     2
 40
3.0
 49
2.0
 49
-1.0
  0
LTYPE
  2
HIDDEN
 70
    64
  3
_ _ _ _ _ _ _ _ _ _ _ _ _ _ _ _ _ _ _ _ _ _ _
 72
    65
 73
     2
 40
1.5
 49
1.0
 49
-0.5
  0
LTYPE
  2
CENTER
 70
    64
  3
____ _ ____ _ ____ _ ____ _ ____ _ ____ _ ____
 72
    65
 73
     4
 40
24.0
 49
20.0
 49
-1.0
 49
2.0
 49
-1.0
  0
LTYPE
  2
PHANTOM
 70
    64
  3
_____ _ _ _____ _ _ _____ _ _ _____ _ _ ____
 72
    65
 73
     6
 40
27.0
 49
20.0
 49
-1.0
 49
2.0
 49
-1.0
 49
2.0
 49
-1.0
  0
LTYPE
  2
DOT
 70
    64
  3
...............................................
 72
    65
 73
     2
 40
1.5
 49
0.5
 49
-1.0
  0
LTYPE
  2
DASHDOT
 70
    64
  3
__ . __ . __ . __ . __ . __ . __ . __ . __ . __
 72
    65
 73
     4
 40
8.5
 49
6.0
 49
-1.0
 49
0.5
 49
-1.0
  0
LTYPE
  2
DIVIDE
 70
    64
  3
__ . . __ . . __ . . __ . . __ . . __ . . __
 72
    65
 73
     6
 40
10.0
 49
6.0
 49
-1.0
 49
0.5
 49
-1.0
 49
0.5
 49
-1.0
  0
LTYPE
  2
BORDER
 70
    64
  3
__ __ . __ __ . __ __ . __ __ . __ __ . __ __
 72
    65
 73
     6
 40
15.5
 49
6.0
 49
-1.0
 49
6.0
 49
-1.0
 49
0.5
 49
-1.0
  0
ENDTAB
  0
TABLE
  2
LAYER
 70
  7
  0
LAYER
  2
0
 70
    64
 62
     7
  6
CONTINUOUS
  0
LAYER
  2
1
 70
    64
 62
     7
  6
CONTINUOUS
  0
LAYER
  2
2
 70
    64
 62
     7
  6
CONTINUOUS
  0
LAYER
  2
3
 70
    64
 62
     7
  6
CONTINUOUS
  0
LAYER
  2
4
 70
    64
 62
     7
  6
CONTINUOUS
  0
LAYER
  2
5
 70
    64
 62
     7
  6
CONTINUOUS
  0
LAYER
  2
DEFPOINTS
 70
     0
 62
    -7
  6
CONTINUOUS
  0
ENDTAB
  0
TABLE
  2
STYLE
 70
     1
  0
STYLE
  2
STANDARD
 70
    64
 40
0.0
 41
1.0
 71
     0
 42
4.000000
  3
TXT
  4
EXTFONT
 50
0.0
  0
ENDTAB
  0
TABLE
  2
VIEW
 70
     0
  0
ENDTAB
  0
ENDSEC
  0
SECTION
  2
BLOCKS
  0
BLOCK
  8
0
  2
CI
 70
   0
 10
0.0
 20
0.0
  0
CIRCLE
  8
0
  62
0
 10
0.0
 20
0.0
 40
0.1666666666
  0
ENDBLK
  8
0
  0
BLOCK
  8
5
  2
S0
 70
     0
 10
0.0000000000
 20
0.0000000000
  3
S0
  0
POINT
  8
5
  6
CONTINUOUS
 62
6
 10
-6.5000000000
 20
-6.5000000000
  0
LINE
  8
5
  6
CONTINUOUS
 62
6
 10
4.5000000000
 20
4.5000000000
 11
402.5000000000
 21
4.5000000000
  0
LINE
  8
5
  6
CONTINUOUS
 62
6
 10
4.5000000000
 20
4.5000000000
 11
4.5000000000
 21
279.5000000000
  0
LINE
  8
5
  6
CONTINUOUS
 62
6
 10
44.5000000000
 20
284.0000000000
 11
44.5000000000
 21
279.5000000000
  0
LINE
  8
5
  6
CONTINUOUS
 62
6
 10
44.5000000000
 20
4.5000000000
 11
44.5000000000
 21
0.0000000000
  0
LINE
  8
5
  6
CONTINUOUS
 62
6
 10
84.5000000000
 20
284.0000000000
 11
84.5000000000
 21
279.5000000000
  0
LINE
  8
5
  6
CONTINUOUS
 62
6
 10
124.5000000000
 20
284.0000000000
 11
124.5000000000
 21
279.5000000000
  0
LINE
  8
5
  6
CONTINUOUS
 62
6
 10
164.5000000000
 20
284.0000000000
 11
164.5000000000
 21
279.5000000000
  0
LINE
  8
5
  6
CONTINUOUS
 62
6
 10
204.5000000000
 20
284.0000000000
 11
204.5000000000
 21
279.5000000000
  0
LINE
  8
5
  6
CONTINUOUS
 62
6
 10
244.5000000000
 20
284.0000000000
 11
244.5000000000
 21
279.5000000000
  0
LINE
  8
5
  6
CONTINUOUS
 62
6
 10
84.5000000000
 20
4.5000000000
 11
84.5000000000
 21
0.0000000000
  0
LINE
  8
5
  6
CONTINUOUS
 62
6
 10
124.5000000000
 20
4.5000000000
 11
124.5000000000
 21
0.0000000000
  0
LINE
  8
5
  6
CONTINUOUS
 62
6
 10
164.5000000000
 20
4.5000000000
 11
164.5000000000
 21
0.0000000000
  0
LINE
  8
5
  6
CONTINUOUS
 62
6
 10
204.5000000000
 20
4.5000000000
 11
204.5000000000
 21
0.0000000000
  0
LINE
  8
5
  6
CONTINUOUS
 62
6
 10
244.5000000000
 20
4.5000000000
 11
244.5000000000
 21
0.0000000000
  0
LINE
  8
5
  6
CONTINUOUS
 62
6
 10
0.0000000000
 20
239.5000000000
 11
4.5000000000
 21
239.5000000000
  0
LINE
  8
5
  6
CONTINUOUS
 62
6
 10
402.5000000000
 20
239.5000000000
 11
407.0000000000
 21
239.5000000000
  0
LINE
  8
5
  6
CONTINUOUS
 62
6
 10
0.0000000000
 20
199.5000000000
 11
4.5000000000
 21
199.5000000000
  0
LINE
  8
5
  6
CONTINUOUS
 62
6
 10
0.0000000000
 20
159.5000000000
 11
4.5000000000
 21
159.5000000000
  0
LINE
  8
5
  6
CONTINUOUS
 62
6
 10
0.0000000000
 20
119.5000000000
 11
4.5000000000
 21
119.5000000000
  0
LINE
  8
5
  6
CONTINUOUS
 62
6
 10
402.5000000000
 20
199.5000000000
 11
407.0000000000
 21
199.5000000000
  0
LINE
  8
5
  6
CONTINUOUS
 62
6
 10
402.5000000000
 20
159.5000000000
 11
407.0000000000
 21
159.5000000000
  0
LINE
  8
5
  6
CONTINUOUS
 62
6
 10
402.5000000000
 20
119.5000000000
 11
407.0000000000
 21
119.5000000000
  0
TEXT
  8
5
  6
CONTINUOUS
 62
6
 10
23.500000
 20
279.500000
 40
4.000000
  1
1
 41
1.000000
 50
0.000000
 51
0.000000
 72
   5
 73
   0
 11
25.500000
 21
279.500000
  0
TEXT
  8
5
  6
CONTINUOUS
 62
6
 10
23.500000
 20
0.500000
 40
4.000000
  1
1
 41
1.000000
 50
0.000000
 51
0.000000
 72
   5
 73
   0
 11
25.500000
 21
0.500000
  0
TEXT
  8
5
  6
CONTINUOUS
 62
6
 10
63.500000
 20
279.500000
 40
4.000000
  1
2
 41
1.000000
 50
0.000000
 51
0.000000
 72
   5
 73
   0
 11
65.500000
 21
279.500000
  0
TEXT
  8
5
  6
CONTINUOUS
 62
6
 10
103.500000
 20
279.500000
 40
4.000000
  1
3
 41
1.000000
 50
0.000000
 51
0.000000
 72
   5
 73
   0
 11
105.500000
 21
279.500000
  0
TEXT
  8
5
  6
CONTINUOUS
 62
6
 10
143.500000
 20
279.500000
 40
4.000000
  1
4
 41
1.000000
 50
0.000000
 51
0.000000
 72
   5
 73
   0
 11
145.500000
 21
279.500000
  0
TEXT
  8
5
  6
CONTINUOUS
 62
6
 10
183.500000
 20
279.500000
 40
4.000000
  1
5
 41
1.000000
 50
0.000000
 51
0.000000
 72
   5
 73
   0
 11
185.500000
 21
279.500000
  0
TEXT
  8
5
  6
CONTINUOUS
 62
6
 10
223.500000
 20
279.500000
 40
4.000000
  1
6
 41
1.000000
 50
0.000000
 51
0.000000
 72
   5
 73
   0
 11
225.500000
 21
279.500000
  0
TEXT
  8
5
  6
CONTINUOUS
 62
6
 10
263.500000
 20
279.500000
 40
4.000000
  1
7
 41
1.000000
 50
0.000000
 51
0.000000
 72
   5
 73
   0
 11
265.500000
 21
279.500000
  0
TEXT
  8
5
  6
CONTINUOUS
 62
6
 10
63.500000
 20
0.500000
 40
4.000000
  1
2
 41
1.000000
 50
0.000000
 51
0.000000
 72
   5
 73
   0
 11
65.500000
 21
0.500000
  0
TEXT
  8
5
  6
CONTINUOUS
 62
6
 10
103.500000
 20
0.500000
 40
4.000000
  1
3
 41
1.000000
 50
0.000000
 51
0.000000
 72
   5
 73
   0
 11
105.500000
 21
0.500000
  0
TEXT
  8
5
  6
CONTINUOUS
 62
6
 10
143.500000
 20
0.500000
 40
4.000000
  1
4
 41
1.000000
 50
0.000000
 51
0.000000
 72
   5
 73
   0
 11
145.500000
 21
0.500000
  0
TEXT
  8
5
  6
CONTINUOUS
 62
6
 10
183.500000
 20
0.500000
 40
4.000000
  1
5
 41
1.000000
 50
0.000000
 51
0.000000
 72
   5
 73
   0
 11
185.500000
 21
0.500000
  0
TEXT
  8
5
  6
CONTINUOUS
 62
6
 10
223.500000
 20
0.500000
 40
4.000000
  1
6
 41
1.000000
 50
0.000000
 51
0.000000
 72
   5
 73
   0
 11
225.500000
 21
0.500000
  0
TEXT
  8
5
  6
CONTINUOUS
 62
6
 10
263.500000
 20
0.500000
 40
4.000000
  1
7
 41
1.000000
 50
0.000000
 51
0.000000
 72
   5
 73
   0
 11
265.500000
 21
0.500000
  0
TEXT
  8
5
  6
CONTINUOUS
 62
6
 10
1.626773
 20
257.454143
 40
4.000000
  1
A
 41
1.266000
 50
0.000000
 51
0.000000
 72
   5
 73
   0
 11
4.158773
 21
257.454143
  0
TEXT
  8
5
  6
CONTINUOUS
 62
6
 10
402.786513
 20
257.492354
 40
4.000000
  1
A
 41
1.266000
 50
0.000000
 51
0.000000
 72
   5
 73
   0
 11
405.318513
 21
257.492354
  0
TEXT
  8
5
  6
CONTINUOUS
 62
6
 10
1.610773
 20
217.454143
 40
4.000000
  1
B
 41
1.274000
 50
0.000000
 51
0.000000
 72
   5
 73
   0
 11
4.158773
 21
217.454143
  0
TEXT
  8
5
  6
CONTINUOUS
 62
6
 10
1.502773
 20
177.454143
 40
4.000000
  1
C
 41
1.328000
 50
0.000000
 51
0.000000
 72
   5
 73
   0
 11
4.158773
 21
177.454143
  0
TEXT
  8
5
  6
CONTINUOUS
 62
6
 10
1.566773
 20
137.454143
 40
4.000000
  1
D
 41
1.296000
 50
0.000000
 51
0.000000
 72
   5
 73
   0
 11
4.158773
 21
137.454143
  0
TEXT
  8
5
  6
CONTINUOUS
 62
6
 10
1.894773
 20
97.454143
 40
4.000000
  1
E
 41
1.132000
 50
0.000000
 51
0.000000
 72
   5
 73
   0
 11
4.158773
 21
97.454143
  0
TEXT
  8
5
  6
CONTINUOUS
 62
6
 10
402.786513
 20
217.492354
 40
4.000000
  1
B
 41
1.274000
 50
0.000000
 51
0.000000
 72
   5
 73
   0
 11
405.334513
 21
217.492354
  0
TEXT
  8
5
  6
CONTINUOUS
 62
6
 10
402.786513
 20
177.492354
 40
4.000000
  1
C
 41
1.328000
 50
0.000000
 51
0.000000
 72
   5
 73
   0
 11
405.442513
 21
177.492354
  0
TEXT
  8
5
  6
CONTINUOUS
 62
6
 10
402.786513
 20
137.492354
 40
4.000000
  1
D
 41
1.296000
 50
0.000000
 51
0.000000
 72
   5
 73
   0
 11
405.378513
 21
137.492354
  0
TEXT
  8
5
  6
CONTINUOUS
 62
6
 10
402.786513
 20
97.492354
 40
4.000000
  1
E
 41
1.132000
 50
0.000000
 51
0.000000
 72
   5
 73
   0
 11
405.050513
 21
97.492354
  0
LINE
  8
5
  6
CONTINUOUS
 62
6
 10
347.5000000000
 20
29.5000000000
 11
347.5000000000
 21
4.5000000000
  0
LINE
  8
5
  6
CONTINUOUS
 62
6
 10
347.5000000000
 20
14.5000000000
 11
402.5000000000
 21
14.5000000000
  0
LINE
  8
5
  6
CONTINUOUS
 62
6
 10
347.5000000000
 20
7.5000000000
 11
281.5000000000
 21
7.5000000000
  0
LINE
  8
5
  6
CONTINUOUS
 62
6
 10
303.5000000000
 20
4.5000000000
 11
303.5000000000
 21
21.0000000000
  0
LINE
  8
5
  6
CONTINUOUS
 62
6
 10
336.5000000000
 20
17.0000000000
 11
336.5000000000
 21
4.5000000000
  0
LINE
  8
5
  6
CONTINUOUS
 62
6
 10
325.5000000000
 20
4.5000000000
 11
325.4999999999
 21
21.0000000000
  0
LINE
  8
5
  6
CONTINUOUS
 62
6
 10
314.5000000000
 20
17.0000000000
 11
314.5000000000
 21
4.5000000000
  0
TEXT
  8
5
  6
CONTINUOUS
 62
6
 10
294.250000
 20
4.750000
 40
2.500000
  1
Design
 41
0.779221
 50
0.000000
 51
0.000000
 72
   5
 73
   0
 11
301.750000
 21
4.750000
  0
TEXT
  8
5
  6
CONTINUOUS
 62
6
 10
305.875000
 20
4.750000
 40
2.500000
  1
Draft
 41
0.786164
 50
0.000000
 51
0.000000
 72
   5
 73
   0
 11
312.125000
 21
4.750000
  0
TEXT
  8
5
  6
CONTINUOUS
 62
6
 10
316.875000
 20
4.750000
 40
2.500000
  1
Check
 41
0.786164
 50
0.000000
 51
0.000000
 72
   5
 73
   0
 11
323.125000
 21
4.750000
  0
LINE
  8
5
  6
CONTINUOUS
 62
6
 10
281.5000000000
 20
29.5000000000
 11
402.5000000000
 21
29.5000000000
  0
LINE
  8
5
  6
CONTINUOUS
 62
6
 10
281.5000000000
 20
17.0000000000
 11
347.5000000000
 21
17.0000000000
  0
LINE
  8
5
  6
CONTINUOUS
 62
6
 10
392.5000000000
 20
14.5000000000
 11
392.5000000000
 21
4.5000000000
  0
TEXT
  8
5
  6
CONTINUOUS
 62
6
 10
395.520000
 20
5.000000
 40
2.000000
  1
SIZE
 41
0.788845
 50
0.000000
 51
0.000000
 72
   5
 73
   0
 11
399.480000
 21
5.000000
  0
LINE
  8
5
  6
CONTINUOUS
 62
6
 10
392.5000000000
 20
7.5000000000
 11
402.5000000000
 21
7.5000000000
  0
TEXT
  8
5
  6
CONTINUOUS
 62
6
 10
394.005000
 20
8.500000
 40
5.000000
  1
Ａ３
 41
0.644240
 50
0.000000
 51
0.000000
 72
   5
 73
   0
 11
400.995000
 21
8.500000
  0
TEXT
  8
5
  6
CONTINUOUS
 62
6
 10
338.875000
 20
4.750000
 40
2.500000
  1
Scale
 41
0.786164
 50
0.000000
 51
0.000000
 72
   5
 73
   0
 11
345.125000
 21
4.750000
  0
TEXT
  8
5
  6
CONTINUOUS
 62
6
 10
338.250000
 20
9.750000
 40
5.000000
  1
1/1
 41
0.815217
 50
0.000000
 51
0.000000
 72
   5
 73
   0
 11
345.750000
 21
9.750000
  0
TEXT
  8
5
  6
CONTINUOUS
 62
6
 10
326.625000
 20
4.750000
 40
2.500000
  1
Confirm
 41
0.774336
 50
0.000000
 51
0.000000
 72
   5
 73
   0
 11
335.375000
 21
4.750000
  0
TEXT
  8
5
  6
CONTINUOUS
 62
6
 10
284.500000
 20
4.750000
 40
2.500000
  1
Date
 41
0.796813
 50
0.000000
 51
0.000000
 72
   5
 73
   0
 11
289.500000
 21
4.750000
  0
TEXT
  8
5
  6
CONTINUOUS
 62
6
 10
283.250000
 20
12.462500
 40
3.000000
  1
2009/
 41
0.786164
 50
0.000000
 51
0.000000
 72
   5
 73
   0
 11
290.750000
 21
12.462500
  0
TEXT
  8
5
  6
CONTINUOUS
 62
6
 10
283.250000
 20
9.037500
 40
3.000000
  1
07/08
 41
0.786164
 50
0.000000
 51
0.000000
 72
   5
 73
   0
 11
290.750000
 21
9.037500
  0
LINE
  8
5
  6
CONTINUOUS
 62
6
 10
292.5000000000
 20
17.0000000000
 11
292.5000000000
 21
4.5000000000
  0
LINE
  8
5
  6
CONTINUOUS
 62
6
 10
281.5000000000
 20
4.5000000000
 11
281.5000000000
 21
29.5000000000
  0
TEXT
  8
5
  6
CONTINUOUS
 62
6
 10
281.755293
 20
18.213190
 40
2.000000
  1
Material
 41
0.638921
 50
0.000000
 51
0.000000
 72
   5
 73
   0
 11
288.387293
 21
18.213190
  0
LINE
  8
5
  6
CONTINUOUS
 62
6
 10
288.5000000000
 20
21.0000000000
 11
288.5000000000
 21
17.0000000000
  0
TEXT
  8
5
  6
CONTINUOUS
 62
6
 10
303.605000
 20
18.000000
 40
2.000000
  1
Process
 41
0.751106
 50
0.000000
 51
0.000000
 72
   5
 73
   0
 11
310.395000
 21
18.000000
  0
LINE
  8
5
  6
CONTINUOUS
 62
6
 10
310.5000000000
 20
21.0000000000
 11
310.5000000000
 21
17.0000000000
  0
TEXT
  8
5
  6
CONTINUOUS
 62
6
 10
325.773000
 20
18.000000
 40
2.000000
  1
Amount
 41
0.838182
 50
0.000000
 51
0.000000
 72
   5
 73
   0
 11
332.227000
 21
18.000000
  0
LINE
  8
5
  6
CONTINUOUS
 62
6
 10
332.4999999999
 20
21.0000000000
 11
332.4999999999
 21
17.0000000000
  0
LINE
  8
5
  6
CONTINUOUS
 62
6
 10
347.5000000000
 20
21.0000000000
 11
281.5000000000
 21
21.0000000000
  0
POINT
  8
5
  6
CONTINUOUS
 62
6
 10
289.5000000000
 20
19.0000000000
  0
POINT
  8
5
  6
CONTINUOUS
 62
6
 10
311.5000000000
 20
19.0000000000
  0
POINT
  8
5
  6
CONTINUOUS
 62
6
 10
339.9999999999
 20
19.0000000000
  0
POINT
  8
5
  6
CONTINUOUS
 62
6
 10
298.0000000000
 20
12.2500000000
  0
POINT
  8
5
  6
CONTINUOUS
 62
6
 10
309.0000000000
 20
12.2500000000
  0
POINT
  8
5
  6
CONTINUOUS
 62
6
 10
320.0000000000
 20
12.2500000000
  0
POINT
  8
5
  6
CONTINUOUS
 62
6
 10
331.0000000000
 20
12.2500000000
  0
POINT
  8
5
  6
CONTINUOUS
 62
6
 10
0.0000000000
 20
0.0000000000
  0
TEXT
  8
5
  6
CONTINUOUS
 62
7
 10
301.099806
 20
20.780083
 40
4.000000
  1
MADOKA SYSTEM co,.ltd
 41
0.778201
 50
0.000000
 51
0.000000
 72
   5
 73
   0
 11
344.367806
 21
20.780083
  0
LINE
  8
5
  6
CONTINUOUS
 62
6
 10
284.5000000000
 20
284.0000000000
 11
284.5000000000
 21
279.5000000000
  0
LINE
  8
5
  6
CONTINUOUS
 62
6
 10
284.5000000000
 20
4.5000000000
 11
284.5000000000
 21
0.0000000000
  0
TEXT
  8
5
  6
CONTINUOUS
 62
6
 10
303.500000
 20
279.500000
 40
4.000000
  1
8
 41
1.000000
 50
0.000000
 51
0.000000
 72
   5
 73
   0
 11
305.500000
 21
279.500000
  0
TEXT
  8
5
  6
CONTINUOUS
 62
6
 10
303.500000
 20
0.500000
 40
4.000000
  1
8
 41
1.000000
 50
0.000000
 51
0.000000
 72
   5
 73
   0
 11
305.500000
 21
0.500000
  0
LINE
  8
5
  6
CONTINUOUS
 62
6
 10
324.5000000000
 20
284.0000000000
 11
324.5000000000
 21
279.5000000000
  0
LINE
  8
5
  6
CONTINUOUS
 62
6
 10
324.5000000000
 20
4.5000000000
 11
324.5000000000
 21
0.0000000000
  0
TEXT
  8
5
  6
CONTINUOUS
 62
6
 10
343.500000
 20
279.500000
 40
4.000000
  1
9
 41
1.000000
 50
0.000000
 51
0.000000
 72
   5
 73
   0
 11
345.500000
 21
279.500000
  0
TEXT
  8
5
  6
CONTINUOUS
 62
6
 10
343.500000
 20
0.500000
 40
4.000000
  1
9
 41
1.000000
 50
0.000000
 51
0.000000
 72
   5
 73
   0
 11
345.500000
 21
0.500000
  0
LINE
  8
5
  6
CONTINUOUS
 62
6
 10
364.5000000000
 20
284.0000000000
 11
364.5000000000
 21
279.5000000000
  0
LINE
  8
5
  6
CONTINUOUS
 62
6
 10
364.5000000000
 20
4.5000000000
 11
364.5000000000
 21
0.0000000000
  0
TEXT
  8
5
  6
CONTINUOUS
 62
6
 10
382.500000
 20
279.500000
 40
4.000000
  1
10
 41
0.854701
 50
0.000000
 51
0.000000
 72
   5
 73
   0
 11
386.500000
 21
279.500000
  0
TEXT
  8
5
  6
CONTINUOUS
 62
6
 10
382.500000
 20
0.500000
 40
4.000000
  1
10
 41
0.854701
 50
0.000000
 51
0.000000
 72
   5
 73
   0
 11
386.500000
 21
0.500000
  0
LINE
  8
5
  6
CONTINUOUS
 62
6
 10
0.0000000000
 20
79.5000000000
 11
4.5000000000
 21
79.5000000000
  0
LINE
  8
5
  6
CONTINUOUS
 62
6
 10
402.5000000000
 20
79.5000000000
 11
407.0000000000
 21
79.5000000000
  0
LINE
  8
5
  6
CONTINUOUS
 62
6
 10
0.0000000000
 20
39.5000000000
 11
4.5000000000
 21
39.5000000000
  0
LINE
  8
5
  6
CONTINUOUS
 62
6
 10
402.5000000000
 20
39.5000000000
 11
407.0000000000
 21
39.5000000000
  0
TEXT
  8
5
  6
CONTINUOUS
 62
6
 10
1.954773
 20
57.454143
 40
4.000000
  1
F
 41
1.102000
 50
0.000000
 51
0.000000
 72
   5
 73
   0
 11
4.158773
 21
57.454143
  0
TEXT
  8
5
  6
CONTINUOUS
 62
6
 10
402.786513
 20
57.492354
 40
4.000000
  1
F
 41
1.102000
 50
0.000000
 51
0.000000
 72
   5
 73
   0
 11
404.990513
 21
57.492354
  0
TEXT
  8
5
  6
CONTINUOUS
 62
6
 10
1.438773
 20
17.454143
 40
4.000000
  1
G
 41
1.360000
 50
0.000000
 51
0.000000
 72
   5
 73
   0
 11
4.158773
 21
17.454143
  0
TEXT
  8
5
  6
CONTINUOUS
 62
6
 10
402.786513
 20
17.492354
 40
4.000000
  1
G
 41
1.360000
 50
0.000000
 51
0.000000
 72
   5
 73
   0
 11
405.506513
 21
17.492354
  0
LINE
  8
5
  6
CONTINUOUS
 62
6
 10
4.5000000000
 20
279.5000000000
 11
402.5000000000
 21
279.5000000000
  0
LINE
  8
5
  6
CONTINUOUS
 62
6
 10
402.5000000000
 20
279.5000000000
 11
402.5000000000
 21
4.5000000000
  0
POINT
  8
5
  6
CONTINUOUS
 62
6
 10
353.5000000000
 20
20.5000000000
  0
POINT
  8
5
  6
CONTINUOUS
 62
6
 10
353.5000000000
 20
8.0000000000
  0
LINE
  8
5
  6
CONTINUOUS
 62
6
 10
347.5000000000
 20
26.5000000000
 11
402.5000000000
 21
26.5000000000
  0
LINE
  8
5
  6
CONTINUOUS
 62
6
 10
347.5000000000
 20
11.5000000000
 11
392.5000000000
 21
11.5000000000
  0
TEXT
  8
5
  6
CONTINUOUS
 62
7
 10
362.928500
 20
26.250000
 40
3.500000
  1
Document Name
 41
0.807728
 50
0.000000
 51
0.000000
 72
   5
 73
   0
 11
387.071500
 21
26.250000
  0
TEXT
  8
5
  6
CONTINUOUS
 62
7
 10
359.678500
 20
11.250000
 40
3.500000
  1
Document No.
 41
0.749428
 50
0.000000
 51
0.000000
 72
   5
 73
   0
 11
380.321500
 21
11.250000
  0
ENDBLK
  8
0
  0
BLOCK
  8
1
  2
*D0
 70
     1
 10
0.0000000000
 20
0.0000000000
  3
*D0
  0
LINE
  8
1
  6
BYBLOCK
 62
5
 10
127.9661466639
 20
94.3244525436
 11
127.9661466639
 21
99.7193009011
  0
LINE
  8
1
  6
BYBLOCK
 62
5
 10
111.4661466639
 20
94.3244525436
 11
111.4661466639
 21
99.7193009011
  0
LINE
  8
1
  6
BYBLOCK
 62
5
 10
111.4661466639
 20
98.7193009011
 11
127.9661466639
 21
98.7193009011
  0
SOLID
  8
1
  6
CONTINUOUS
 62
5
 10
126.0342950114
 20
98.2016628109
 11
126.0342950114
 21
99.2369389913
 12
127.9661466639
 22
98.7193009011
 13
127.9661466639
 23
98.7193009011
  0
SOLID
  8
1
  6
CONTINUOUS
 62
5
 10
113.3979983165
 20
99.2369389913
 11
113.3979983165
 21
98.2016628109
 12
111.4661466639
 22
98.7193009011
 13
111.4661466639
 23
98.7193009011
  0
TEXT
  8
1
  6
CONTINUOUS
 62
7
 10
116.216147
 20
99.719301
 40
3.500000
  1
16.5
 41
0.796813
 50
0.000000
 51
0.000000
 72
   5
 73
   0
 11
123.216147
 21
99.719301
  0
POINT
  8
DEFPOINTS
  6
BYBLOCK
 62
5
 10
127.9661466639
 20
93.8244525436
  0
POINT
  8
DEFPOINTS
  6
BYBLOCK
 62
5
 10
111.4661466639
 20
93.8244525436
  0
POINT
  8
DEFPOINTS
  6
BYBLOCK
 62
5
 10
111.4661466639
 20
98.7193009011
  0
ENDBLK
  8
0
  0
BLOCK
  8
1
  2
*D1
 70
     1
 10
0.0000000000
 20
0.0000000000
  3
*D1
  0
LINE
  8
1
  6
BYBLOCK
 62
5
 10
27.2645106558
 20
27.5484212565
 11
19.9779016700
 21
27.5484212565
  0
LINE
  8
1
  6
BYBLOCK
 62
5
 10
28.2645106558
 20
36.5484212565
 11
19.9779016700
 21
36.5484212565
  0
LINE
  8
1
  6
BYBLOCK
 62
5
 10
20.9779016700
 20
36.5484212565
 11
20.9779016700
 21
27.5484212565
  0
SOLID
  8
1
  6
CONTINUOUS
 62
5
 10
20.4602635798
 20
29.4802729091
 11
21.4955397602
 21
29.4802729091
 12
20.9779016700
 22
27.5484212565
 13
20.9779016700
 23
27.5484212565
  0
SOLID
  8
1
  6
CONTINUOUS
 62
5
 10
21.4955397602
 20
34.6165696039
 11
20.4602635798
 21
34.6165696039
 12
20.9779016700
 22
36.5484212565
 13
20.9779016700
 23
36.5484212565
  0
TEXT
  8
1
  6
CONTINUOUS
 62
7
 10
19.977902
 20
31.173421
 40
3.500000
  1
9
 41
1.000000
 50
90.000000
 51
0.000000
 72
   5
 73
   0
 11
19.977902
 21
32.923421
  0
POINT
  8
DEFPOINTS
  6
BYBLOCK
 62
5
 10
27.7645106558
 20
27.5484212565
  0
POINT
  8
DEFPOINTS
  6
BYBLOCK
 62
5
 10
28.7645106558
 20
36.5484212565
  0
POINT
  8
DEFPOINTS
  6
BYBLOCK
 62
5
 10
20.9779016700
 20
36.5484212565
  0
ENDBLK
  8
0
  0
BLOCK
  8
1
  2
*D2
 70
     1
 10
0.0000000000
 20
0.0000000000
  3
*D2
  0
LINE
  8
1
  6
BYBLOCK
 62
5
 10
29.2645106558
 20
37.0484212565
 11
19.7383253733
 21
37.0484212565
  0
LINE
  8
1
  6
BYBLOCK
 62
5
 10
35.7645106558
 20
51.5484212565
 11
19.7383253733
 21
51.5484212565
  0
LINE
  8
1
  6
BYBLOCK
 62
5
 10
20.7383253733
 20
51.5484212565
 11
20.7383253733
 21
37.0484212565
  0
SOLID
  8
1
  6
CONTINUOUS
 62
5
 10
20.2206872831
 20
38.9802729091
 11
21.2559634635
 21
38.9802729091
 12
20.7383253733
 22
37.0484212565
 13
20.7383253733
 23
37.0484212565
  0
SOLID
  8
1
  6
CONTINUOUS
 62
5
 10
21.2559634635
 20
49.6165696039
 11
20.2206872831
 21
49.6165696039
 12
20.7383253733
 22
51.5484212565
 13
20.7383253733
 23
51.5484212565
  0
TEXT
  8
1
  6
CONTINUOUS
 62
7
 10
19.738325
 20
40.798421
 40
3.500000
  1
14.5
 41
0.796813
 50
90.000000
 51
0.000000
 72
   5
 73
   0
 11
19.738325
 21
47.798421
  0
POINT
  8
DEFPOINTS
  6
BYBLOCK
 62
5
 10
29.7645106558
 20
37.0484212565
  0
POINT
  8
DEFPOINTS
  6
BYBLOCK
 62
5
 10
36.2645106558
 20
51.5484212565
  0
POINT
  8
DEFPOINTS
  6
BYBLOCK
 62
5
 10
20.7383253733
 20
51.5484212565
  0
ENDBLK
  8
0
  0
BLOCK
  8
1
  2
*D3
 70
     1
 10
0.0000000000
 20
0.0000000000
  3
*D3
  0
LINE
  8
1
  6
BYBLOCK
 62
5
 10
27.2645106558
 20
27.5484212565
 11
12.2316014101
 21
27.5484212565
  0
LINE
  8
1
  6
BYBLOCK
 62
5
 10
35.7645106558
 20
51.5484212565
 11
12.2316014101
 21
51.5484212565
  0
LINE
  8
1
  6
BYBLOCK
 62
5
 10
13.2316014101
 20
51.5484212565
 11
13.2316014101
 21
27.5484212565
  0
SOLID
  8
1
  6
CONTINUOUS
 62
5
 10
12.7139633199
 20
29.4802729091
 11
13.7492395003
 21
29.4802729091
 12
13.2316014101
 22
27.5484212565
 13
13.2316014101
 23
27.5484212565
  0
SOLID
  8
1
  6
CONTINUOUS
 62
5
 10
13.7492395003
 20
49.6165696039
 11
12.7139633199
 21
49.6165696039
 12
13.2316014101
 22
51.5484212565
 13
13.2316014101
 23
51.5484212565
  0
TEXT
  8
1
  6
CONTINUOUS
 62
7
 10
12.231601
 20
37.798421
 40
3.500000
  1
24
 41
0.854701
 50
90.000000
 51
0.000000
 72
   5
 73
   0
 11
12.231601
 21
41.298421
  0
POINT
  8
DEFPOINTS
  6
BYBLOCK
 62
5
 10
27.7645106558
 20
27.5484212565
  0
POINT
  8
DEFPOINTS
  6
BYBLOCK
 62
5
 10
36.2645106558
 20
51.5484212565
  0
POINT
  8
DEFPOINTS
  6
BYBLOCK
 62
5
 10
13.2316014101
 20
51.5484212565
  0
ENDBLK
  8
0
  0
BLOCK
  8
1
  2
*D4
 70
     1
 10
0.0000000000
 20
0.0000000000
  3
*D4
  0
LINE
  8
1
  6
BYBLOCK
 62
5
 10
27.2645106558
 20
220.1025214537
 11
16.2916228022
 21
220.1025214537
  0
LINE
  8
1
  6
BYBLOCK
 62
5
 10
27.2645106558
 20
64.6025214537
 11
16.2916228022
 21
64.6025214537
  0
LINE
  8
1
  6
BYBLOCK
 62
5
 10
17.2916228022
 20
64.6025214537
 11
17.2916228022
 21
220.1025214537
  0
SOLID
  8
1
  6
CONTINUOUS
 62
5
 10
17.8092608924
 20
218.1706698011
 11
16.7739847120
 21
218.1706698011
 12
17.2916228022
 22
220.1025214537
 13
17.2916228022
 23
220.1025214537
  0
SOLID
  8
1
  6
CONTINUOUS
 62
5
 10
16.7739847120
 20
66.5343731063
 11
17.8092608924
 21
66.5343731063
 12
17.2916228022
 22
64.6025214537
 13
17.2916228022
 23
64.6025214537
  0
TEXT
  8
1
  6
CONTINUOUS
 62
7
 10
16.291623
 20
136.102521
 40
5.000000
  1
155.5
 41
0.786164
 50
90.000000
 51
0.000000
 72
   5
 73
   0
 11
16.291623
 21
148.602521
  0
POINT
  8
DEFPOINTS
  6
BYBLOCK
 62
5
 10
27.7645106558
 20
220.1025214537
  0
POINT
  8
DEFPOINTS
  6
BYBLOCK
 62
5
 10
27.7645106558
 20
64.6025214537
  0
POINT
  8
DEFPOINTS
  6
BYBLOCK
 62
5
 10
17.2916228022
 20
64.6025214537
  0
ENDBLK
  8
0
  0
BLOCK
  8
1
  2
*D5
 70
     1
 10
0.0000000000
 20
0.0000000000
  3
*D5
  0
LINE
  8
1
  6
BYBLOCK
 62
5
 10
27.7645106558
 20
220.6025214537
 11
27.7645106558
 21
225.0648547044
  0
LINE
  8
1
  6
BYBLOCK
 62
5
 10
96.7645106558
 20
220.6025214537
 11
96.7645106558
 21
225.0648547044
  0
LINE
  8
1
  6
BYBLOCK
 62
5
 10
96.7645106558
 20
224.0648547044
 11
27.7645106558
 21
224.0648547044
  0
SOLID
  8
1
  6
CONTINUOUS
 62
5
 10
29.6963623084
 20
224.5824927946
 11
29.6963623084
 21
223.5472166142
 12
27.7645106558
 22
224.0648547044
 13
27.7645106558
 23
224.0648547044
  0
SOLID
  8
1
  6
CONTINUOUS
 62
5
 10
94.8326590033
 20
223.5472166142
 11
94.8326590033
 21
224.5824927946
 12
96.7645106558
 22
224.0648547044
 13
96.7645106558
 23
224.0648547044
  0
TEXT
  8
1
  6
CONTINUOUS
 62
7
 10
59.764511
 20
225.064855
 40
5.000000
  1
69
 41
0.854701
 50
0.000000
 51
0.000000
 72
   5
 73
   0
 11
64.764511
 21
225.064855
  0
POINT
  8
DEFPOINTS
  6
BYBLOCK
 62
5
 10
27.7645106558
 20
220.1025214537
  0
POINT
  8
DEFPOINTS
  6
BYBLOCK
 62
5
 10
96.7645106558
 20
220.1025214537
  0
POINT
  8
DEFPOINTS
  6
BYBLOCK
 62
5
 10
96.7645106558
 20
224.0648547044
  0
ENDBLK
  8
0
  0
BLOCK
  8
5
  2
S1
 70
     0
 10
312.9235759729
 20
221.9463679840
  3
S1
  0
LINE
  8
5
  6
CONTINUOUS
 62
6
 10
312.9235759729
 20
271.9463679840
 11
312.9235759729
 21
276.9463679840
  0
LINE
  8
5
  6
CONTINUOUS
 62
6
 10
312.9235759729
 20
276.9463679840
 11
317.9235759729
 21
276.9463679840
  0
LINE
  8
5
  6
CONTINUOUS
 62
6
 10
317.9235759729
 20
276.9463679840
 11
337.9235759729
 21
276.9463679840
  0
LINE
  8
5
  6
CONTINUOUS
 62
6
 10
337.9235759729
 20
276.9463679840
 11
377.9235759729
 21
276.9463679840
  0
LINE
  8
5
  6
CONTINUOUS
 62
6
 10
377.9235759729
 20
276.9463679840
 11
392.9235759729
 21
276.9463679840
  0
LINE
  8
5
  6
CONTINUOUS
 62
6
 10
392.9235759729
 20
276.9463679840
 11
397.9235759729
 21
276.9463679840
  0
LINE
  8
5
  6
CONTINUOUS
 62
6
 10
397.9235759729
 20
276.9463679840
 11
397.9235759729
 21
271.9463679840
  0
LINE
  8
5
  6
CONTINUOUS
 62
6
 10
397.9235759729
 20
271.9463679840
 11
392.9235759729
 21
271.9463679840
  0
LINE
  8
5
  6
CONTINUOUS
 62
6
 10
392.9235759729
 20
271.9463679840
 11
377.9235759729
 21
271.9463679840
  0
LINE
  8
5
  6
CONTINUOUS
 62
6
 10
377.9235759729
 20
271.9463679840
 11
337.9235759729
 21
271.9463679840
  0
LINE
  8
5
  6
CONTINUOUS
 62
6
 10
337.9235759729
 20
271.9463679840
 11
317.9235759729
 21
271.9463679840
  0
LINE
  8
5
  6
CONTINUOUS
 62
6
 10
317.9235759729
 20
271.9463679840
 11
312.9235759729
 21
271.9463679840
  0
LINE
  8
5
  6
CONTINUOUS
 62
6
 10
317.9235759729
 20
276.9463679840
 11
317.9235759729
 21
271.9463679840
  0
LINE
  8
5
  6
CONTINUOUS
 62
6
 10
337.9235759729
 20
276.9463679840
 11
337.9235759729
 21
271.9463679840
  0
LINE
  8
5
  6
CONTINUOUS
 62
6
 10
377.9235759729
 20
276.9463679840
 11
377.9235759729
 21
271.9463679840
  0
LINE
  8
5
  6
CONTINUOUS
 62
6
 10
392.9235759729
 20
276.9463679840
 11
392.9235759729
 21
271.9463679840
  0
TEXT
  8
5
  6
CONTINUOUS
 62
7
 10
313.123576
 20
273.296368
 40
2.300000
  1
項番
 41
0.921659
 50
0.000000
 51
0.000000
 72
   5
 73
   0
 11
317.723576
 21
273.296368
  0
TEXT
  8
5
  6
CONTINUOUS
 62
7
 10
322.931576
 20
272.946368
 40
3.000000
  1
品　　名
 41
0.737916
 50
0.000000
 51
0.000000
 72
   5
 73
   0
 11
332.915576
 21
272.946368
  0
TEXT
  8
5
  6
CONTINUOUS
 62
7
 10
342.770576
 20
272.946368
 40
3.000000
  1
定  格 / 型  番 / 材　質
 41
0.686277
 50
0.000000
 51
0.000000
 72
   5
 73
   0
 11
373.076576
 21
272.946368
  0
TEXT
  8
5
  6
CONTINUOUS
 62
7
 10
380.226076
 20
272.946368
 40
3.000000
  1
メーカー
 41
0.768293
 50
0.000000
 51
0.000000
 72
   5
 73
   0
 11
390.621076
 21
272.946368
  0
TEXT
  8
5
  6
CONTINUOUS
 62
7
 10
393.123576
 20
273.296368
 40
2.300000
  1
数量
 41
0.921659
 50
0.000000
 51
0.000000
 72
   5
 73
   0
 11
397.723576
 21
273.296368
  0
LINE
  8
5
  6
CONTINUOUS
 62
6
 10
312.9235759729
 20
266.9463679840
 11
312.9235759729
 21
271.9463679840
  0
LINE
  8
5
  6
CONTINUOUS
 62
6
 10
312.9235759729
 20
271.9463679840
 11
317.9235759729
 21
271.9463679840
  0
LINE
  8
5
  6
CONTINUOUS
 62
6
 10
317.9235759729
 20
271.9463679840
 11
337.9235759729
 21
271.9463679840
  0
LINE
  8
5
  6
CONTINUOUS
 62
6
 10
337.9235759729
 20
271.9463679840
 11
377.9235759729
 21
271.9463679840
  0
LINE
  8
5
  6
CONTINUOUS
 62
6
 10
377.9235759729
 20
271.9463679840
 11
392.9235759729
 21
271.9463679840
  0
LINE
  8
5
  6
CONTINUOUS
 62
6
 10
392.9235759729
 20
271.9463679840
 11
397.9235759729
 21
271.9463679840
  0
LINE
  8
5
  6
CONTINUOUS
 62
6
 10
397.9235759729
 20
271.9463679840
 11
397.9235759729
 21
266.9463679840
  0
LINE
  8
5
  6
CONTINUOUS
 62
6
 10
397.9235759729
 20
266.9463679840
 11
392.9235759729
 21
266.9463679840
  0
LINE
  8
5
  6
CONTINUOUS
 62
6
 10
392.9235759729
 20
266.9463679840
 11
377.9235759729
 21
266.9463679840
  0
LINE
  8
5
  6
CONTINUOUS
 62
6
 10
337.9235759729
 20
266.9463679840
 11
317.9235759729
 21
266.9463679840
  0
LINE
  8
5
  6
CONTINUOUS
 62
6
 10
317.9235759729
 20
266.9463679840
 11
312.9235759729
 21
266.9463679840
  0
LINE
  8
5
  6
CONTINUOUS
 62
6
 10
317.9235759729
 20
271.9463679840
 11
317.9235759729
 21
266.9463679840
  0
LINE
  8
5
  6
CONTINUOUS
 62
6
 10
337.9235759729
 20
271.9463679840
 11
337.9235759729
 21
266.9463679840
  0
LINE
  8
5
  6
CONTINUOUS
 62
6
 10
377.9235759729
 20
271.9463679840
 11
377.9235759729
 21
266.9463679840
  0
LINE
  8
5
  6
CONTINUOUS
 62
6
 10
392.9235759729
 20
271.9463679840
 11
392.9235759729
 21
266.9463679840
  0
TEXT
  8
5
  6
CONTINUOUS
 62
7
 10
314.548576
 20
267.696368
 40
3.500000
  1
1
 41
1.000000
 50
0.000000
 51
0.000000
 72
   5
 73
   0
 11
316.298576
 21
267.696368
  0
TEXT
  8
5
  6
CONTINUOUS
 62
7
 10
318.923576
 20
267.946368
 40
3.000000
  1
ベース
 41
0.841018
 50
0.000000
 51
0.000000
 72
   5
 73
   0
 11
327.350576
 21
267.946368
  0
TEXT
  8
5
  6
CONTINUOUS
 62
7
 10
394.548576
 20
267.696368
 40
3.500000
  1
1
 41
1.000000
 50
0.000000
 51
0.000000
 72
   5
 73
   0
 11
396.298576
 21
267.696368
  0
LINE
  8
5
  6
CONTINUOUS
 62
6
 10
397.9235759729
 20
261.9463679840
 11
392.9235759729
 21
261.9463679840
  0
LINE
  8
5
  6
CONTINUOUS
 62
6
 10
397.9235759729
 20
256.9463679840
 11
392.9235759729
 21
256.9463679840
  0
LINE
  8
5
  6
CONTINUOUS
 62
6
 10
397.9235759729
 20
251.9463679840
 11
392.9235759729
 21
251.9463679840
  0
LINE
  8
5
  6
CONTINUOUS
 62
6
 10
397.9235759729
 20
246.9463679840
 11
392.9235759729
 21
246.9463679840
  0
LINE
  8
5
  6
CONTINUOUS
 62
6
 10
397.9235759729
 20
241.9463679840
 11
392.9235759729
 21
241.9463679840
  0
LINE
  8
5
  6
CONTINUOUS
 62
6
 10
397.9235759729
 20
236.9463679840
 11
392.9235759729
 21
236.9463679840
  0
LINE
  8
5
  6
CONTINUOUS
 62
6
 10
397.9235759729
 20
231.9463679840
 11
392.9235759729
 21
231.9463679840
  0
LINE
  8
5
  6
CONTINUOUS
 62
6
 10
397.9235759729
 20
226.9463679840
 11
392.9235759729
 21
226.9463679840
  0
LINE
  8
5
  6
CONTINUOUS
 62
6
 10
392.9235759729
 20
261.9463679840
 11
377.9235759729
 21
261.9463679840
  0
LINE
  8
5
  6
CONTINUOUS
 62
6
 10
392.9235759729
 20
256.9463679840
 11
377.9235759729
 21
256.9463679840
  0
LINE
  8
5
  6
CONTINUOUS
 62
6
 10
392.9235759729
 20
251.9463679840
 11
377.9235759729
 21
251.9463679840
  0
LINE
  8
5
  6
CONTINUOUS
 62
6
 10
392.9235759729
 20
246.9463679840
 11
377.9235759729
 21
246.9463679840
  0
LINE
  8
5
  6
CONTINUOUS
 62
6
 10
392.9235759729
 20
241.9463679840
 11
377.9235759729
 21
241.9463679840
  0
LINE
  8
5
  6
CONTINUOUS
 62
6
 10
392.9235759729
 20
236.9463679840
 11
377.9235759729
 21
236.9463679840
  0
LINE
  8
5
  6
CONTINUOUS
 62
6
 10
392.9235759729
 20
231.9463679840
 11
377.9235759729
 21
231.9463679840
  0
LINE
  8
5
  6
CONTINUOUS
 62
6
 10
392.9235759729
 20
226.9463679840
 11
377.9235759729
 21
226.9463679840
  0
LINE
  8
5
  6
CONTINUOUS
 62
6
 10
377.9235759729
 20
261.9463679840
 11
337.9235759729
 21
261.9463679840
  0
LINE
  8
5
  6
CONTINUOUS
 62
6
 10
377.9235759729
 20
256.9463679840
 11
337.9235759729
 21
256.9463679840
  0
LINE
  8
5
  6
CONTINUOUS
 62
6
 10
377.9235759729
 20
251.9463679840
 11
337.9235759729
 21
251.9463679840
  0
LINE
  8
5
  6
CONTINUOUS
 62
6
 10
377.9235759729
 20
246.9463679840
 11
337.9235759729
 21
246.9463679840
  0
LINE
  8
5
  6
CONTINUOUS
 62
6
 10
377.9235759729
 20
241.9463679840
 11
337.9235759729
 21
241.9463679840
  0
LINE
  8
5
  6
CONTINUOUS
 62
6
 10
377.9235759729
 20
236.9463679840
 11
337.9235759729
 21
236.9463679840
  0
LINE
  8
5
  6
CONTINUOUS
 62
6
 10
377.9235759729
 20
231.9463679840
 11
337.9235759729
 21
231.9463679840
  0
LINE
  8
5
  6
CONTINUOUS
 62
6
 10
337.9235759729
 20
261.9463679840
 11
317.9235759729
 21
261.9463679840
  0
LINE
  8
5
  6
CONTINUOUS
 62
6
 10
337.9235759729
 20
256.9463679840
 11
317.9235759729
 21
256.9463679840
  0
LINE
  8
5
  6
CONTINUOUS
 62
6
 10
337.9235759729
 20
251.9463679840
 11
317.9235759729
 21
251.9463679840
  0
LINE
  8
5
  6
CONTINUOUS
 62
6
 10
337.9235759729
 20
246.9463679840
 11
317.9235759729
 21
246.9463679840
  0
LINE
  8
5
  6
CONTINUOUS
 62
6
 10
337.9235759729
 20
241.9463679840
 11
317.9235759729
 21
241.9463679840
  0
LINE
  8
5
  6
CONTINUOUS
 62
6
 10
337.9235759729
 20
236.9463679840
 11
317.9235759729
 21
236.9463679840
  0
LINE
  8
5
  6
CONTINUOUS
 62
6
 10
337.9235759729
 20
231.9463679840
 11
317.9235759729
 21
231.9463679840
  0
LINE
  8
5
  6
CONTINUOUS
 62
6
 10
337.9235759729
 20
226.9463679840
 11
317.9235759729
 21
226.9463679840
  0
LINE
  8
5
  6
CONTINUOUS
 62
6
 10
317.9235759729
 20
261.9463679840
 11
312.9235759729
 21
261.9463679840
  0
LINE
  8
5
  6
CONTINUOUS
 62
6
 10
317.9235759729
 20
256.9463679840
 11
312.9235759729
 21
256.9463679840
  0
LINE
  8
5
  6
CONTINUOUS
 62
6
 10
317.9235759729
 20
251.9463679840
 11
312.9235759729
 21
251.9463679840
  0
LINE
  8
5
  6
CONTINUOUS
 62
6
 10
317.9235759729
 20
246.9463679840
 11
312.9235759729
 21
246.9463679840
  0
LINE
  8
5
  6
CONTINUOUS
 62
6
 10
317.9235759729
 20
241.9463679840
 11
312.9235759729
 21
241.9463679840
  0
LINE
  8
5
  6
CONTINUOUS
 62
6
 10
317.9235759729
 20
236.9463679840
 11
312.9235759729
 21
236.9463679840
  0
LINE
  8
5
  6
CONTINUOUS
 62
6
 10
317.9235759729
 20
231.9463679840
 11
312.9235759729
 21
231.9463679840
  0
LINE
  8
5
  6
CONTINUOUS
 62
6
 10
317.9235759729
 20
226.9463679840
 11
312.9235759729
 21
226.9463679840
  0
TEXT
  8
5
  6
CONTINUOUS
 62
7
 10
314.548576
 20
262.696368
 40
3.500000
  1
2
 41
1.000000
 50
0.000000
 51
0.000000
 72
   5
 73
   0
 11
316.298576
 21
262.696368
  0
TEXT
  8
5
  6
CONTINUOUS
 62
7
 10
314.548576
 20
257.696368
 40
3.500000
  1
3
 41
1.000000
 50
0.000000
 51
0.000000
 72
   5
 73
   0
 11
316.298576
 21
257.696368
  0
TEXT
  8
5
  6
CONTINUOUS
 62
7
 10
314.548576
 20
252.696368
 40
3.500000
  1
4
 41
1.000000
 50
0.000000
 51
0.000000
 72
   5
 73
   0
 11
316.298576
 21
252.696368
  0
TEXT
  8
5
  6
CONTINUOUS
 62
7
 10
314.548576
 20
247.696368
 40
3.500000
  1
5
 41
1.000000
 50
0.000000
 51
0.000000
 72
   5
 73
   0
 11
316.298576
 21
247.696368
  0
TEXT
  8
5
  6
CONTINUOUS
 62
7
 10
314.548576
 20
242.696368
 40
3.500000
  1
6
 41
1.000000
 50
0.000000
 51
0.000000
 72
   5
 73
   0
 11
316.298576
 21
242.696368
  0
TEXT
  8
5
  6
CONTINUOUS
 62
7
 10
314.548576
 20
237.696368
 40
3.500000
  1
7
 41
1.000000
 50
0.000000
 51
0.000000
 72
   5
 73
   0
 11
316.298576
 21
237.696368
  0
TEXT
  8
5
  6
CONTINUOUS
 62
7
 10
314.548576
 20
232.696368
 40
3.500000
  1
8
 41
1.000000
 50
0.000000
 51
0.000000
 72
   5
 73
   0
 11
316.298576
 21
232.696368
  0
TEXT
  8
5
  6
CONTINUOUS
 62
7
 10
314.548576
 20
227.696368
 40
3.500000
  1
9
 41
1.000000
 50
0.000000
 51
0.000000
 72
   5
 73
   0
 11
316.298576
 21
227.696368
  0
TEXT
  8
5
  6
CONTINUOUS
 62
7
 10
318.923576
 20
262.946368
 40
3.000000
  1
カバー
 41
0.833832
 50
0.000000
 51
0.000000
 72
   5
 73
   0
 11
327.278576
 21
262.946368
  0
TEXT
  8
5
  6
CONTINUOUS
 62
7
 10
318.923576
 20
257.946368
 40
3.000000
  1
ロック
 41
0.719162
 50
0.000000
 51
0.000000
 72
   5
 73
   0
 11
326.129576
 21
257.946368
  0
TEXT
  8
5
  6
CONTINUOUS
 62
7
 10
318.923576
 20
252.946368
 40
3.000000
  1
添付品ﾋﾞｽ
 41
0.822804
 50
0.000000
 51
0.000000
 72
   5
 73
   0
 11
332.129576
 21
252.946368
  0
TEXT
  8
5
  6
CONTINUOUS
 62
7
 10
318.923576
 20
242.946368
 40
3.000000
  1
添付品ﾋﾞｽ
 41
0.822804
 50
0.000000
 51
0.000000
 72
   5
 73
   0
 11
332.129576
 21
242.946368
  0
TEXT
  8
5
  6
CONTINUOUS
 62
7
 10
318.923576
 20
237.946368
 40
3.000000
  1
添付品ﾋﾞｽ
 41
0.822804
 50
0.000000
 51
0.000000
 72
   5
 73
   0
 11
332.129576
 21
237.946368
  0
TEXT
  8
5
  6
CONTINUOUS
 62
7
 10
338.923576
 20
257.946368
 40
3.000000
  1
M4×20 脱落防止ビス
 41
0.819085
 50
0.000000
 51
0.000000
 72
   5
 73
   0
 11
366.862576
 21
257.946368
  0
TEXT
  8
5
  6
CONTINUOUS
 62
7
 10
338.923576
 20
252.946368
 40
3.000000
  1
M3×8小ワｾﾑｽ(ﾍﾞｰｽ固定用)
 41
0.831095
 50
0.000000
 51
0.000000
 72
   5
 73
   0
 11
376.048576
 21
252.946368
  0
TEXT
  8
5
  6
CONTINUOUS
 62
7
 10
338.923576
 20
242.946368
 40
3.000000
  1
M5×10ｱﾌﾞｾｯﾄ
 41
0.813247
 50
0.000000
 51
0.000000
 72
   5
 73
   0
 11
357.709576
 21
242.946368
  0
TEXT
  8
5
  6
CONTINUOUS
 62
7
 10
338.923576
 20
237.946368
 40
3.000000
  1
M5 内歯菊座金
 41
0.851365
 50
0.000000
 51
0.000000
 72
   5
 73
   0
 11
358.564576
 21
237.946368
  0
TEXT
  8
5
  6
CONTINUOUS
 62
7
 10
394.548576
 20
262.696368
 40
3.500000
  1
1
 41
1.000000
 50
0.000000
 51
0.000000
 72
   5
 73
   0
 11
396.298576
 21
262.696368
  0
TEXT
  8
5
  6
CONTINUOUS
 62
7
 10
394.548576
 20
257.696368
 40
3.500000
  1
1
 41
1.000000
 50
0.000000
 51
0.000000
 72
   5
 73
   0
 11
396.298576
 21
257.696368
  0
TEXT
  8
5
  6
CONTINUOUS
 62
7
 10
394.548576
 20
252.696368
 40
3.500000
  1
4
 41
1.000000
 50
0.000000
 51
0.000000
 72
   5
 73
   0
 11
396.298576
 21
252.696368
  0
TEXT
  8
5
  6
CONTINUOUS
 62
7
 10
394.548576
 20
242.696368
 40
3.500000
  1
1
 41
1.000000
 50
0.000000
 51
0.000000
 72
   5
 73
   0
 11
396.298576
 21
242.696368
  0
TEXT
  8
5
  6
CONTINUOUS
 62
7
 10
394.548576
 20
237.696368
 40
3.500000
  1
1
 41
1.000000
 50
0.000000
 51
0.000000
 72
   5
 73
   0
 11
396.298576
 21
237.696368
  0
LINE
  8
5
  6
CONTINUOUS
 62
6
 10
312.9235759729
 20
261.9463679840
 11
312.9235759729
 21
266.9463679840
  0
LINE
  8
5
  6
CONTINUOUS
 62
6
 10
312.9235759729
 20
256.9463679840
 11
312.9235759729
 21
261.9463679840
  0
LINE
  8
5
  6
CONTINUOUS
 62
6
 10
312.9235759729
 20
251.9463679840
 11
312.9235759729
 21
256.9463679840
  0
LINE
  8
5
  6
CONTINUOUS
 62
6
 10
312.9235759729
 20
246.9463679840
 11
312.9235759729
 21
251.9463679840
  0
LINE
  8
5
  6
CONTINUOUS
 62
6
 10
312.9235759729
 20
241.9463679840
 11
312.9235759729
 21
246.9463679840
  0
LINE
  8
5
  6
CONTINUOUS
 62
6
 10
312.9235759729
 20
236.9463679840
 11
312.9235759729
 21
241.9463679840
  0
LINE
  8
5
  6
CONTINUOUS
 62
6
 10
312.9235759729
 20
226.9463679840
 11
312.9235759729
 21
231.9463679840
  0
LINE
  8
5
  6
CONTINUOUS
 62
6
 10
317.9235759729
 20
266.9463679840
 11
317.9235759729
 21
261.9463679840
  0
LINE
  8
5
  6
CONTINUOUS
 62
6
 10
317.9235759729
 20
261.9463679840
 11
317.9235759729
 21
256.9463679840
  0
LINE
  8
5
  6
CONTINUOUS
 62
6
 10
317.9235759729
 20
256.9463679840
 11
317.9235759729
 21
251.9463679840
  0
LINE
  8
5
  6
CONTINUOUS
 62
6
 10
317.9235759729
 20
251.9463679840
 11
317.9235759729
 21
246.9463679840
  0
LINE
  8
5
  6
CONTINUOUS
 62
6
 10
317.9235759729
 20
246.9463679840
 11
317.9235759729
 21
241.9463679840
  0
LINE
  8
5
  6
CONTINUOUS
 62
6
 10
317.9235759729
 20
241.9463679840
 11
317.9235759729
 21
236.9463679840
  0
LINE
  8
5
  6
CONTINUOUS
 62
6
 10
317.9235759729
 20
236.9463679840
 11
317.9235759729
 21
231.9463679840
  0
LINE
  8
5
  6
CONTINUOUS
 62
6
 10
317.9235759729
 20
231.9463679840
 11
317.9235759729
 21
226.9463679840
  0
LINE
  8
5
  6
CONTINUOUS
 62
6
 10
337.9235759729
 20
266.9463679840
 11
337.9235759729
 21
261.9463679840
  0
LINE
  8
5
  6
CONTINUOUS
 62
6
 10
337.9235759729
 20
261.9463679840
 11
337.9235759729
 21
256.9463679840
  0
LINE
  8
5
  6
CONTINUOUS
 62
6
 10
337.9235759729
 20
256.9463679840
 11
337.9235759729
 21
251.9463679840
  0
LINE
  8
5
  6
CONTINUOUS
 62
6
 10
337.9235759729
 20
251.9463679840
 11
337.9235759729
 21
246.9463679840
  0
LINE
  8
5
  6
CONTINUOUS
 62
6
 10
337.9235759729
 20
246.9463679840
 11
337.9235759729
 21
241.9463679840
  0
LINE
  8
5
  6
CONTINUOUS
 62
6
 10
337.9235759729
 20
241.9463679840
 11
337.9235759729
 21
236.9463679840
  0
LINE
  8
5
  6
CONTINUOUS
 62
6
 10
337.9235759729
 20
236.9463679840
 11
337.9235759729
 21
231.9463679840
  0
LINE
  8
5
  6
CONTINUOUS
 62
6
 10
337.9235759729
 20
231.9463679840
 11
337.9235759729
 21
226.9463679840
  0
LINE
  8
5
  6
CONTINUOUS
 62
6
 10
377.9235759729
 20
266.9463679840
 11
377.9235759729
 21
261.9463679840
  0
LINE
  8
5
  6
CONTINUOUS
 62
6
 10
377.9235759729
 20
261.9463679840
 11
377.9235759729
 21
256.9463679840
  0
LINE
  8
5
  6
CONTINUOUS
 62
6
 10
377.9235759729
 20
251.9463679840
 11
377.9235759729
 21
246.9463679840
  0
LINE
  8
5
  6
CONTINUOUS
 62
6
 10
377.9235759729
 20
246.9463679840
 11
377.9235759729
 21
241.9463679840
  0
LINE
  8
5
  6
CONTINUOUS
 62
6
 10
377.9235759729
 20
241.9463679840
 11
377.9235759729
 21
236.9463679840
  0
LINE
  8
5
  6
CONTINUOUS
 62
6
 10
377.9235759729
 20
236.9463679840
 11
377.9235759729
 21
231.9463679840
  0
LINE
  8
5
  6
CONTINUOUS
 62
6
 10
377.9235759729
 20
231.9463679840
 11
377.9235759729
 21
226.9463679840
  0
LINE
  8
5
  6
CONTINUOUS
 62
6
 10
392.9235759729
 20
266.9463679840
 11
392.9235759729
 21
261.9463679840
  0
LINE
  8
5
  6
CONTINUOUS
 62
6
 10
392.9235759729
 20
261.9463679840
 11
392.9235759729
 21
256.9463679840
  0
LINE
  8
5
  6
CONTINUOUS
 62
6
 10
392.9235759729
 20
256.9463679840
 11
392.9235759729
 21
251.9463679840
  0
LINE
  8
5
  6
CONTINUOUS
 62
6
 10
392.9235759729
 20
251.9463679840
 11
392.9235759729
 21
246.9463679840
  0
LINE
  8
5
  6
CONTINUOUS
 62
6
 10
392.9235759729
 20
246.9463679840
 11
392.9235759729
 21
241.9463679840
  0
LINE
  8
5
  6
CONTINUOUS
 62
6
 10
392.9235759729
 20
241.9463679840
 11
392.9235759729
 21
236.9463679840
  0
LINE
  8
5
  6
CONTINUOUS
 62
6
 10
392.9235759729
 20
236.9463679840
 11
392.9235759729
 21
231.9463679840
  0
LINE
  8
5
  6
CONTINUOUS
 62
6
 10
392.9235759729
 20
231.9463679840
 11
392.9235759729
 21
226.9463679840
  0
LINE
  8
5
  6
CONTINUOUS
 62
6
 10
397.9235759729
 20
266.9463679840
 11
397.9235759729
 21
261.9463679840
  0
LINE
  8
5
  6
CONTINUOUS
 62
6
 10
397.9235759729
 20
261.9463679840
 11
397.9235759729
 21
256.9463679840
  0
LINE
  8
5
  6
CONTINUOUS
 62
6
 10
397.9235759729
 20
256.9463679840
 11
397.9235759729
 21
251.9463679840
  0
LINE
  8
5
  6
CONTINUOUS
 62
6
 10
397.9235759729
 20
251.9463679840
 11
397.9235759729
 21
246.9463679840
  0
LINE
  8
5
  6
CONTINUOUS
 62
6
 10
397.9235759729
 20
246.9463679840
 11
397.9235759729
 21
241.9463679840
  0
LINE
  8
5
  6
CONTINUOUS
 62
6
 10
397.9235759729
 20
241.9463679840
 11
397.9235759729
 21
236.9463679840
  0
LINE
  8
5
  6
CONTINUOUS
 62
6
 10
397.9235759729
 20
236.9463679840
 11
397.9235759729
 21
231.9463679840
  0
LINE
  8
5
  6
CONTINUOUS
 62
6
 10
397.9235759729
 20
231.9463679840
 11
397.9235759729
 21
226.9463679840
  0
LINE
  8
5
  6
CONTINUOUS
 62
6
 10
397.9235759729
 20
221.9463679840
 11
392.9235759729
 21
221.9463679840
  0
LINE
  8
5
  6
CONTINUOUS
 62
6
 10
392.9235759729
 20
221.9463679840
 11
377.9235759729
 21
221.9463679840
  0
LINE
  8
5
  6
CONTINUOUS
 62
6
 10
377.9235759729
 20
221.9463679840
 11
337.9235759729
 21
221.9463679840
  0
LINE
  8
5
  6
CONTINUOUS
 62
6
 10
337.9235759729
 20
221.9463679840
 11
317.9235759729
 21
221.9463679840
  0
LINE
  8
5
  6
CONTINUOUS
 62
6
 10
317.9235759729
 20
221.9463679840
 11
312.9235759729
 21
221.9463679840
  0
LINE
  8
5
  6
CONTINUOUS
 62
6
 10
312.9235759729
 20
221.9463679840
 11
312.9235759729
 21
226.9463679840
  0
LINE
  8
5
  6
CONTINUOUS
 62
6
 10
317.9235759729
 20
226.9463679840
 11
317.9235759729
 21
221.9463679840
  0
LINE
  8
5
  6
CONTINUOUS
 62
6
 10
337.9235759729
 20
226.9463679840
 11
337.9235759729
 21
221.9463679840
  0
LINE
  8
5
  6
CONTINUOUS
 62
6
 10
377.9235759729
 20
226.9463679840
 11
377.9235759729
 21
221.9463679840
  0
LINE
  8
5
  6
CONTINUOUS
 62
6
 10
392.9235759729
 20
226.9463679840
 11
392.9235759729
 21
221.9463679840
  0
LINE
  8
5
  6
CONTINUOUS
 62
6
 10
397.9235759729
 20
226.9463679840
 11
397.9235759729
 21
221.9463679840
  0
ENDBLK
  8
0
  0
BLOCK
  8
1
  2
BALN0
 70
     0
 10
65.1092980532
 20
67.0636039311
  3
BALN0
  0
SOLID
  8
1
  6
CONTINUOUS
 62
5
 10
67.0995994495
 20
66.8668798809
 11
66.7345875985
 21
65.8980852079
 12
65.1092980532
 22
67.0636039311
 13
65.1092980532
 23
67.0636039311
  0
LINE
  8
1
  6
BYBLOCK
 62
5
 10
65.1092980532
 20
67.0636039311
 11
88.4832927053
 21
58.2570061116
  0
CIRCLE
  8
1
  6
BYBLOCK
 62
5
 10
91.2906440902
 20
57.1992829901
 40
3.0000000000
  0
TEXT
  8
1
  6
CONTINUOUS
 62
7
 10
90.415644
 20
55.449283
 40
3.500000
  1
3
 41
1.000000
 50
0.000000
 51
0.000000
 72
   5
 73
   0
 11
92.165644
 21
55.449283
  0
ENDBLK
  8
0
  0
BLOCK
  8
1
  2
*D6
 70
     1
 10
0.0000000000
 20
0.0000000000
  3
*D6
  0
LINE
  8
1
  6
BYBLOCK
 62
5
 10
142.4822443727
 20
88.0542751045
 11
141.4983420815
 21
85.7560287554
  0
LINE
  8
1
  6
BYBLOCK
 62
5
 10
144.4500489552
 20
92.6507678028
 11
145.4339512464
 21
94.9490141519
  0
SOLID
  8
1
  6
CONTINUOUS
 62
5
 10
142.1978070062
 20
86.0746045803
 11
141.2460791254
 21
86.4820488227
 12
142.4822443727
 22
88.0542751045
 13
142.4822443727
 23
88.0542751045
  0
SOLID
  8
1
  6
CONTINUOUS
 62
5
 10
144.7344863217
 20
94.6304383270
 11
145.6862142025
 21
94.2229940847
 12
144.4500489552
 22
92.6507678028
 13
144.4500489552
 23
92.6507678028
  0
TEXT
  8
1
  6
CONTINUOUS
 62
7
 10
145.999175
 20
98.810194
 40
3.500000
  1
2-M5
 41
0.796813
 50
66.823748
 51
0.000000
 72
   5
 73
   0
 11
148.754102
 21
105.245284
  0
POINT
  8
DEFPOINTS
  6
BYBLOCK
 62
5
 10
142.4822443727
 20
88.0542751045
  0
POINT
  8
DEFPOINTS
  6
BYBLOCK
 62
5
 10
144.4500489552
 20
92.6507678028
  0
LINE
  8
1
  6
BYBLOCK
 62
5
 10
142.4822443727
 20
88.0542751045
 11
149.6734002150
 21
104.8517231924
  0
ENDBLK
  8
0
  0
BLOCK
  8
3
  2
LTEX0
 70
     0
 10
143.4661466639
 20
87.8525214537
  3
LTEX0
  0
SOLID
  8
3
  6
CONTINUOUS
 62
5
 10
143.6084688299
 20
85.8575917805
 11
142.5919364386
 21
86.0537005949
 12
143.4661466639
 22
87.8525214537
 13
143.4661466639
 23
87.8525214537
  0
TEXT
  8
3
  6
CONTINUOUS
 62
7
 10
138.506017
 20
63.141631
 40
5.000000
  1
 ⑥⑦
 41
0.880282
 50
0.000000
 51
0.000000
 72
   5
 73
   0
 11
151.006017
 21
63.141631
  0
LINE
  8
3
  6
BYBLOCK
 62
5
 10
143.4661466639
 20
87.8525214537
 11
138.5060171650
 21
62.1416307173
  0
LINE
  8
3
  6
BYBLOCK
 62
5
 10
138.5060171650
 20
62.1416307173
 11
151.0060171650
 21
62.1416307173
  0
ENDBLK
  8
0
  0
BLOCK
  8
5
  2
S2
 70
     0
 10
0.0000000000
 20
-320.7245888453
  3
S2
  0
POINT
  8
5
  6
CONTINUOUS
 62
6
 10
-6.5000000000
 20
-327.2245888453
  0
LINE
  8
5
  6
CONTINUOUS
 62
6
 10
4.5000000000
 20
-316.2245888453
 11
402.5000000000
 21
-316.2245888453
  0
LINE
  8
5
  6
CONTINUOUS
 62
6
 10
4.5000000000
 20
-316.2245888453
 11
4.5000000000
 21
-41.2245888453
  0
LINE
  8
5
  6
CONTINUOUS
 62
6
 10
44.5000000000
 20
-36.7245888453
 11
44.5000000000
 21
-41.2245888453
  0
LINE
  8
5
  6
CONTINUOUS
 62
6
 10
44.5000000000
 20
-316.2245888453
 11
44.5000000000
 21
-320.7245888453
  0
LINE
  8
5
  6
CONTINUOUS
 62
6
 10
84.5000000000
 20
-36.7245888453
 11
84.5000000000
 21
-41.2245888453
  0
LINE
  8
5
  6
CONTINUOUS
 62
6
 10
124.5000000000
 20
-36.7245888453
 11
124.5000000000
 21
-41.2245888453
  0
LINE
  8
5
  6
CONTINUOUS
 62
6
 10
164.5000000000
 20
-36.7245888453
 11
164.5000000000
 21
-41.2245888453
  0
LINE
  8
5
  6
CONTINUOUS
 62
6
 10
204.5000000000
 20
-36.7245888453
 11
204.5000000000
 21
-41.2245888453
  0
LINE
  8
5
  6
CONTINUOUS
 62
6
 10
244.5000000000
 20
-36.7245888453
 11
244.5000000000
 21
-41.2245888453
  0
LINE
  8
5
  6
CONTINUOUS
 62
6
 10
84.5000000000
 20
-316.2245888453
 11
84.5000000000
 21
-320.7245888453
  0
LINE
  8
5
  6
CONTINUOUS
 62
6
 10
124.5000000000
 20
-316.2245888453
 11
124.5000000000
 21
-320.7245888453
  0
LINE
  8
5
  6
CONTINUOUS
 62
6
 10
164.5000000000
 20
-316.2245888453
 11
164.5000000000
 21
-320.7245888453
  0
LINE
  8
5
  6
CONTINUOUS
 62
6
 10
204.5000000000
 20
-316.2245888453
 11
204.5000000000
 21
-320.7245888453
  0
LINE
  8
5
  6
CONTINUOUS
 62
6
 10
244.5000000000
 20
-316.2245888453
 11
244.5000000000
 21
-320.7245888453
  0
LINE
  8
5
  6
CONTINUOUS
 62
6
 10
0.0000000000
 20
-81.2245888453
 11
4.5000000000
 21
-81.2245888453
  0
LINE
  8
5
  6
CONTINUOUS
 62
6
 10
402.5000000000
 20
-81.2245888453
 11
407.0000000000
 21
-81.2245888453
  0
LINE
  8
5
  6
CONTINUOUS
 62
6
 10
0.0000000000
 20
-121.2245888453
 11
4.5000000000
 21
-121.2245888453
  0
LINE
  8
5
  6
CONTINUOUS
 62
6
 10
0.0000000000
 20
-161.2245888453
 11
4.5000000000
 21
-161.2245888453
  0
LINE
  8
5
  6
CONTINUOUS
 62
6
 10
0.0000000000
 20
-201.2245888453
 11
4.5000000000
 21
-201.2245888453
  0
LINE
  8
5
  6
CONTINUOUS
 62
6
 10
402.5000000000
 20
-121.2245888453
 11
407.0000000000
 21
-121.2245888453
  0
LINE
  8
5
  6
CONTINUOUS
 62
6
 10
402.5000000000
 20
-161.2245888453
 11
407.0000000000
 21
-161.2245888453
  0
LINE
  8
5
  6
CONTINUOUS
 62
6
 10
402.5000000000
 20
-201.2245888453
 11
407.0000000000
 21
-201.2245888453
  0
TEXT
  8
5
  6
CONTINUOUS
 62
6
 10
23.500000
 20
-41.224589
 40
4.000000
  1
1
 41
1.000000
 50
0.000000
 51
0.000000
 72
   5
 73
   0
 11
25.500000
 21
-41.224589
  0
TEXT
  8
5
  6
CONTINUOUS
 62
6
 10
23.500000
 20
-320.224589
 40
4.000000
  1
1
 41
1.000000
 50
0.000000
 51
0.000000
 72
   5
 73
   0
 11
25.500000
 21
-320.224589
  0
TEXT
  8
5
  6
CONTINUOUS
 62
6
 10
63.500000
 20
-41.224589
 40
4.000000
  1
2
 41
1.000000
 50
0.000000
 51
0.000000
 72
   5
 73
   0
 11
65.500000
 21
-41.224589
  0
TEXT
  8
5
  6
CONTINUOUS
 62
6
 10
103.500000
 20
-41.224589
 40
4.000000
  1
3
 41
1.000000
 50
0.000000
 51
0.000000
 72
   5
 73
   0
 11
105.500000
 21
-41.224589
  0
TEXT
  8
5
  6
CONTINUOUS
 62
6
 10
143.500000
 20
-41.224589
 40
4.000000
  1
4
 41
1.000000
 50
0.000000
 51
0.000000
 72
   5
 73
   0
 11
145.500000
 21
-41.224589
  0
TEXT
  8
5
  6
CONTINUOUS
 62
6
 10
183.500000
 20
-41.224589
 40
4.000000
  1
5
 41
1.000000
 50
0.000000
 51
0.000000
 72
   5
 73
   0
 11
185.500000
 21
-41.224589
  0
TEXT
  8
5
  6
CONTINUOUS
 62
6
 10
223.500000
 20
-41.224589
 40
4.000000
  1
6
 41
1.000000
 50
0.000000
 51
0.000000
 72
   5
 73
   0
 11
225.500000
 21
-41.224589
  0
TEXT
  8
5
  6
CONTINUOUS
 62
6
 10
263.500000
 20
-41.224589
 40
4.000000
  1
7
 41
1.000000
 50
0.000000
 51
0.000000
 72
   5
 73
   0
 11
265.500000
 21
-41.224589
  0
TEXT
  8
5
  6
CONTINUOUS
 62
6
 10
63.500000
 20
-320.224589
 40
4.000000
  1
2
 41
1.000000
 50
0.000000
 51
0.000000
 72
   5
 73
   0
 11
65.500000
 21
-320.224589
  0
TEXT
  8
5
  6
CONTINUOUS
 62
6
 10
103.500000
 20
-320.224589
 40
4.000000
  1
3
 41
1.000000
 50
0.000000
 51
0.000000
 72
   5
 73
   0
 11
105.500000
 21
-320.224589
  0
TEXT
  8
5
  6
CONTINUOUS
 62
6
 10
143.500000
 20
-320.224589
 40
4.000000
  1
4
 41
1.000000
 50
0.000000
 51
0.000000
 72
   5
 73
   0
 11
145.500000
 21
-320.224589
  0
TEXT
  8
5
  6
CONTINUOUS
 62
6
 10
183.500000
 20
-320.224589
 40
4.000000
  1
5
 41
1.000000
 50
0.000000
 51
0.000000
 72
   5
 73
   0
 11
185.500000
 21
-320.224589
  0
TEXT
  8
5
  6
CONTINUOUS
 62
6
 10
223.500000
 20
-320.224589
 40
4.000000
  1
6
 41
1.000000
 50
0.000000
 51
0.000000
 72
   5
 73
   0
 11
225.500000
 21
-320.224589
  0
TEXT
  8
5
  6
CONTINUOUS
 62
6
 10
263.500000
 20
-320.224589
 40
4.000000
  1
7
 41
1.000000
 50
0.000000
 51
0.000000
 72
   5
 73
   0
 11
265.500000
 21
-320.224589
  0
TEXT
  8
5
  6
CONTINUOUS
 62
6
 10
1.626773
 20
-63.270446
 40
4.000000
  1
A
 41
1.266000
 50
0.000000
 51
0.000000
 72
   5
 73
   0
 11
4.158773
 21
-63.270446
  0
TEXT
  8
5
  6
CONTINUOUS
 62
6
 10
402.786513
 20
-63.232235
 40
4.000000
  1
A
 41
1.266000
 50
0.000000
 51
0.000000
 72
   5
 73
   0
 11
405.318513
 21
-63.232235
  0
TEXT
  8
5
  6
CONTINUOUS
 62
6
 10
1.610773
 20
-103.270446
 40
4.000000
  1
B
 41
1.274000
 50
0.000000
 51
0.000000
 72
   5
 73
   0
 11
4.158773
 21
-103.270446
  0
TEXT
  8
5
  6
CONTINUOUS
 62
6
 10
1.502773
 20
-143.270446
 40
4.000000
  1
C
 41
1.328000
 50
0.000000
 51
0.000000
 72
   5
 73
   0
 11
4.158773
 21
-143.270446
  0
TEXT
  8
5
  6
CONTINUOUS
 62
6
 10
1.566773
 20
-183.270446
 40
4.000000
  1
D
 41
1.296000
 50
0.000000
 51
0.000000
 72
   5
 73
   0
 11
4.158773
 21
-183.270446
  0
TEXT
  8
5
  6
CONTINUOUS
 62
6
 10
1.894773
 20
-223.270446
 40
4.000000
  1
E
 41
1.132000
 50
0.000000
 51
0.000000
 72
   5
 73
   0
 11
4.158773
 21
-223.270446
  0
TEXT
  8
5
  6
CONTINUOUS
 62
6
 10
402.786513
 20
-103.232235
 40
4.000000
  1
B
 41
1.274000
 50
0.000000
 51
0.000000
 72
   5
 73
   0
 11
405.334513
 21
-103.232235
  0
TEXT
  8
5
  6
CONTINUOUS
 62
6
 10
402.786513
 20
-143.232235
 40
4.000000
  1
C
 41
1.328000
 50
0.000000
 51
0.000000
 72
   5
 73
   0
 11
405.442513
 21
-143.232235
  0
TEXT
  8
5
  6
CONTINUOUS
 62
6
 10
402.786513
 20
-183.232235
 40
4.000000
  1
D
 41
1.296000
 50
0.000000
 51
0.000000
 72
   5
 73
   0
 11
405.378513
 21
-183.232235
  0
TEXT
  8
5
  6
CONTINUOUS
 62
6
 10
402.786513
 20
-223.232235
 40
4.000000
  1
E
 41
1.132000
 50
0.000000
 51
0.000000
 72
   5
 73
   0
 11
405.050513
 21
-223.232235
  0
LINE
  8
5
  6
CONTINUOUS
 62
6
 10
347.5000000000
 20
-291.2245888453
 11
347.5000000000
 21
-316.2245888453
  0
LINE
  8
5
  6
CONTINUOUS
 62
6
 10
347.5000000000
 20
-306.2245888453
 11
402.5000000000
 21
-306.2245888453
  0
LINE
  8
5
  6
CONTINUOUS
 62
6
 10
347.5000000000
 20
-313.2245888453
 11
281.5000000000
 21
-313.2245888453
  0
LINE
  8
5
  6
CONTINUOUS
 62
6
 10
303.5000000000
 20
-316.2245888453
 11
303.5000000000
 21
-299.7245888453
  0
LINE
  8
5
  6
CONTINUOUS
 62
6
 10
336.5000000000
 20
-303.7245888453
 11
336.5000000000
 21
-316.2245888453
  0
LINE
  8
5
  6
CONTINUOUS
 62
6
 10
325.5000000000
 20
-316.2245888453
 11
325.4999999999
 21
-299.7245888453
  0
LINE
  8
5
  6
CONTINUOUS
 62
6
 10
314.5000000000
 20
-303.7245888453
 11
314.5000000000
 21
-316.2245888453
  0
TEXT
  8
5
  6
CONTINUOUS
 62
6
 10
294.523750
 20
-315.974589
 40
2.500000
  1
Design
 41
0.722338
 50
0.000000
 51
0.000000
 72
   5
 73
   0
 11
301.476250
 21
-315.974589
  0
TEXT
  8
5
  6
CONTINUOUS
 62
6
 10
306.338750
 20
-315.974589
 40
2.500000
  1
Draft
 41
0.669497
 50
0.000000
 51
0.000000
 72
   5
 73
   0
 11
311.661250
 21
-315.974589
  0
TEXT
  8
5
  6
CONTINUOUS
 62
6
 10
316.718750
 20
-315.974589
 40
2.500000
  1
Check
 41
0.825472
 50
0.000000
 51
0.000000
 72
   5
 73
   0
 11
323.281250
 21
-315.974589
  0
LINE
  8
5
  6
CONTINUOUS
 62
6
 10
281.5000000000
 20
-291.2245888453
 11
402.5000000000
 21
-291.2245888453
  0
LINE
  8
5
  6
CONTINUOUS
 62
6
 10
281.5000000000
 20
-303.7245888453
 11
347.5000000000
 21
-303.7245888453
  0
LINE
  8
5
  6
CONTINUOUS
 62
6
 10
392.5000000000
 20
-306.2245888453
 11
392.5000000000
 21
-316.2245888453
  0
TEXT
  8
5
  6
CONTINUOUS
 62
6
 10
395.520000
 20
-315.724589
 40
2.000000
  1
SIZE
 41
0.788845
 50
0.000000
 51
0.000000
 72
   5
 73
   0
 11
399.480000
 21
-315.724589
  0
LINE
  8
5
  6
CONTINUOUS
 62
6
 10
392.5000000000
 20
-313.2245888453
 11
402.5000000000
 21
-313.2245888453
  0
TEXT
  8
5
  6
CONTINUOUS
 62
6
 10
394.005000
 20
-312.224589
 40
5.000000
  1
Ａ３
 41
0.644240
 50
0.000000
 51
0.000000
 72
   5
 73
   0
 11
400.995000
 21
-312.224589
  0
TEXT
  8
5
  6
CONTINUOUS
 62
6
 10
339.138750
 20
-315.974589
 40
2.500000
  1
Scale
 41
0.719811
 50
0.000000
 51
0.000000
 72
   5
 73
   0
 11
344.861250
 21
-315.974589
  0
TEXT
  8
5
  6
CONTINUOUS
 62
6
 10
338.250000
 20
-310.974589
 40
5.000000
  1
1/1
 41
0.815217
 50
0.000000
 51
0.000000
 72
   5
 73
   0
 11
345.750000
 21
-310.974589
  0
TEXT
  8
5
  6
CONTINUOUS
 62
6
 10
326.912500
 20
-315.974589
 40
2.500000
  1
Confirm
 41
0.723451
 50
0.000000
 51
0.000000
 72
   5
 73
   0
 11
335.087500
 21
-315.974589
  0
TEXT
  8
5
  6
CONTINUOUS
 62
6
 10
284.528750
 20
-315.974589
 40
2.500000
  1
Date
 41
0.787649
 50
0.000000
 51
0.000000
 72
   5
 73
   0
 11
289.471250
 21
-315.974589
  0
TEXT
  8
5
  6
CONTINUOUS
 62
6
 10
283.250000
 20
-308.262089
 40
3.000000
  1
2009/
 41
0.786164
 50
0.000000
 51
0.000000
 72
   5
 73
   0
 11
290.750000
 21
-308.262089
  0
TEXT
  8
5
  6
CONTINUOUS
 62
6
 10
283.250000
 20
-311.687089
 40
3.000000
  1
07/08
 41
0.786164
 50
0.000000
 51
0.000000
 72
   5
 73
   0
 11
290.750000
 21
-311.687089
  0
LINE
  8
5
  6
CONTINUOUS
 62
6
 10
292.5000000000
 20
-303.7245888453
 11
292.5000000000
 21
-316.2245888453
  0
LINE
  8
5
  6
CONTINUOUS
 62
6
 10
281.5000000000
 20
-316.2245888453
 11
281.5000000000
 21
-291.2245888453
  0
TEXT
  8
5
  6
CONTINUOUS
 62
6
 10
281.755293
 20
-302.511399
 40
2.000000
  1
Material
 41
0.638921
 50
0.000000
 51
0.000000
 72
   5
 73
   0
 11
288.387293
 21
-302.511399
  0
LINE
  8
5
  6
CONTINUOUS
 62
6
 10
288.5000000000
 20
-299.7245888453
 11
288.5000000000
 21
-303.7245888453
  0
TEXT
  8
5
  6
CONTINUOUS
 62
6
 10
303.605000
 20
-302.724589
 40
2.000000
  1
Process
 41
0.751106
 50
0.000000
 51
0.000000
 72
   5
 73
   0
 11
310.395000
 21
-302.724589
  0
LINE
  8
5
  6
CONTINUOUS
 62
6
 10
310.5000000000
 20
-299.7245888453
 11
310.5000000000
 21
-303.7245888453
  0
TEXT
  8
5
  6
CONTINUOUS
 62
6
 10
325.773000
 20
-302.724589
 40
2.000000
  1
Amount
 41
0.838182
 50
0.000000
 51
0.000000
 72
   5
 73
   0
 11
332.227000
 21
-302.724589
  0
LINE
  8
5
  6
CONTINUOUS
 62
6
 10
332.4999999999
 20
-299.7245888453
 11
332.4999999999
 21
-303.7245888453
  0
LINE
  8
5
  6
CONTINUOUS
 62
6
 10
347.5000000000
 20
-299.7245888453
 11
281.5000000000
 21
-299.7245888453
  0
POINT
  8
5
  6
CONTINUOUS
 62
6
 10
289.5000000000
 20
-301.7245888453
  0
POINT
  8
5
  6
CONTINUOUS
 62
6
 10
311.5000000000
 20
-301.7245888453
  0
POINT
  8
5
  6
CONTINUOUS
 62
6
 10
339.9999999999
 20
-301.7245888453
  0
POINT
  8
5
  6
CONTINUOUS
 62
6
 10
298.0000000000
 20
-308.4745888453
  0
POINT
  8
5
  6
CONTINUOUS
 62
6
 10
309.0000000000
 20
-308.4745888453
  0
POINT
  8
5
  6
CONTINUOUS
 62
6
 10
320.0000000000
 20
-308.4745888453
  0
POINT
  8
5
  6
CONTINUOUS
 62
6
 10
331.0000000000
 20
-308.4745888453
  0
POINT
  8
5
  6
CONTINUOUS
 62
6
 10
0.0000000000
 20
-320.7245888453
  0
TEXT
  8
5
  6
CONTINUOUS
 62
7
 10
301.099806
 20
-299.944506
 40
4.000000
  1
MADOKA SYSTEM co,.ltd
 41
0.778201
 50
0.000000
 51
0.000000
 72
   5
 73
   0
 11
344.367806
 21
-299.944506
  0
LINE
  8
5
  6
CONTINUOUS
 62
6
 10
284.5000000000
 20
-36.7245888453
 11
284.5000000000
 21
-41.2245888453
  0
LINE
  8
5
  6
CONTINUOUS
 62
6
 10
284.5000000000
 20
-316.2245888453
 11
284.5000000000
 21
-320.7245888453
  0
TEXT
  8
5
  6
CONTINUOUS
 62
6
 10
303.500000
 20
-41.224589
 40
4.000000
  1
8
 41
1.000000
 50
0.000000
 51
0.000000
 72
   5
 73
   0
 11
305.500000
 21
-41.224589
  0
TEXT
  8
5
  6
CONTINUOUS
 62
6
 10
303.500000
 20
-320.224589
 40
4.000000
  1
8
 41
1.000000
 50
0.000000
 51
0.000000
 72
   5
 73
   0
 11
305.500000
 21
-320.224589
  0
LINE
  8
5
  6
CONTINUOUS
 62
6
 10
324.5000000000
 20
-36.7245888453
 11
324.5000000000
 21
-41.2245888453
  0
LINE
  8
5
  6
CONTINUOUS
 62
6
 10
324.5000000000
 20
-316.2245888453
 11
324.5000000000
 21
-320.7245888453
  0
TEXT
  8
5
  6
CONTINUOUS
 62
6
 10
343.500000
 20
-41.224589
 40
4.000000
  1
9
 41
1.000000
 50
0.000000
 51
0.000000
 72
   5
 73
   0
 11
345.500000
 21
-41.224589
  0
TEXT
  8
5
  6
CONTINUOUS
 62
6
 10
343.500000
 20
-320.224589
 40
4.000000
  1
9
 41
1.000000
 50
0.000000
 51
0.000000
 72
   5
 73
   0
 11
345.500000
 21
-320.224589
  0
LINE
  8
5
  6
CONTINUOUS
 62
6
 10
364.5000000000
 20
-36.7245888453
 11
364.5000000000
 21
-41.2245888453
  0
LINE
  8
5
  6
CONTINUOUS
 62
6
 10
364.5000000000
 20
-316.2245888453
 11
364.5000000000
 21
-320.7245888453
  0
TEXT
  8
5
  6
CONTINUOUS
 62
6
 10
382.500000
 20
-41.224589
 40
4.000000
  1
10
 41
0.854701
 50
0.000000
 51
0.000000
 72
   5
 73
   0
 11
386.500000
 21
-41.224589
  0
TEXT
  8
5
  6
CONTINUOUS
 62
6
 10
382.500000
 20
-320.224589
 40
4.000000
  1
10
 41
0.854701
 50
0.000000
 51
0.000000
 72
   5
 73
   0
 11
386.500000
 21
-320.224589
  0
LINE
  8
5
  6
CONTINUOUS
 62
6
 10
0.0000000000
 20
-241.2245888453
 11
4.5000000000
 21
-241.2245888453
  0
LINE
  8
5
  6
CONTINUOUS
 62
6
 10
402.5000000000
 20
-241.2245888453
 11
407.0000000000
 21
-241.2245888453
  0
LINE
  8
5
  6
CONTINUOUS
 62
6
 10
0.0000000000
 20
-281.2245888453
 11
4.5000000000
 21
-281.2245888453
  0
LINE
  8
5
  6
CONTINUOUS
 62
6
 10
402.5000000000
 20
-281.2245888453
 11
407.0000000000
 21
-281.2245888453
  0
TEXT
  8
5
  6
CONTINUOUS
 62
6
 10
1.954773
 20
-263.270446
 40
4.000000
  1
F
 41
1.102000
 50
0.000000
 51
0.000000
 72
   5
 73
   0
 11
4.158773
 21
-263.270446
  0
TEXT
  8
5
  6
CONTINUOUS
 62
6
 10
402.786513
 20
-263.232235
 40
4.000000
  1
F
 41
1.102000
 50
0.000000
 51
0.000000
 72
   5
 73
   0
 11
404.990513
 21
-263.232235
  0
TEXT
  8
5
  6
CONTINUOUS
 62
6
 10
1.438773
 20
-303.270446
 40
4.000000
  1
G
 41
1.360000
 50
0.000000
 51
0.000000
 72
   5
 73
   0
 11
4.158773
 21
-303.270446
  0
TEXT
  8
5
  6
CONTINUOUS
 62
6
 10
402.786513
 20
-303.232235
 40
4.000000
  1
G
 41
1.360000
 50
0.000000
 51
0.000000
 72
   5
 73
   0
 11
405.506513
 21
-303.232235
  0
LINE
  8
5
  6
CONTINUOUS
 62
6
 10
4.5000000000
 20
-41.2245888453
 11
402.5000000000
 21
-41.2245888453
  0
LINE
  8
5
  6
CONTINUOUS
 62
6
 10
402.5000000000
 20
-41.2245888453
 11
402.5000000000
 21
-316.2245888453
  0
POINT
  8
5
  6
CONTINUOUS
 62
6
 10
353.5000000000
 20
-300.2245888453
  0
POINT
  8
5
  6
CONTINUOUS
 62
6
 10
353.5000000000
 20
-312.7245888453
  0
LINE
  8
5
  6
CONTINUOUS
 62
6
 10
347.5000000000
 20
-294.2245888453
 11
402.5000000000
 21
-294.2245888453
  0
LINE
  8
5
  6
CONTINUOUS
 62
6
 10
347.5000000000
 20
-309.2245888453
 11
392.5000000000
 21
-309.2245888453
  0
TEXT
  8
5
  6
CONTINUOUS
 62
7
 10
362.928500
 20
-294.474589
 40
3.500000
  1
Document Name
 41
0.807728
 50
0.000000
 51
0.000000
 72
   5
 73
   0
 11
387.071500
 21
-294.474589
  0
TEXT
  8
5
  6
CONTINUOUS
 62
7
 10
359.678500
 20
-309.474589
 40
3.500000
  1
Document No.
 41
0.749428
 50
0.000000
 51
0.000000
 72
   5
 73
   0
 11
380.321500
 21
-309.474589
  0
ENDBLK
  8
0
  0
BLOCK
  8
3
  2
BALN1
 70
     0
 10
110.9395553908
 20
197.7445137344
  3
BALN1
  0
SOLID
  8
3
  6
CONTINUOUS
 62
5
 10
109.9794309481
 20
199.4989826154
 11
110.9852976731
 21
199.7439905769
 12
110.9395553908
 22
197.7445137344
 13
110.9395553908
 23
197.7445137344
  0
LINE
  8
3
  6
BYBLOCK
 62
5
 10
110.9395553908
 20
197.7445137344
 11
104.2398643142
 21
225.2497273708
  0
CIRCLE
  8
3
  6
BYBLOCK
 62
5
 10
103.5298857614
 20
228.1645053134
 40
3.0000000000
  0
TEXT
  8
3
  6
CONTINUOUS
 62
7
 10
102.654886
 20
226.414505
 40
3.500000
  1
2
 41
1.000000
 50
0.000000
 51
0.000000
 72
   5
 73
   0
 11
104.404886
 21
226.414505
  0
ENDBLK
  8
0
  0
BLOCK
  8
3
  2
BALN2
 70
     0
 10
130.9399894366
 20
211.8393700363
  3
BALN2
  0
SOLID
  8
3
  6
CONTINUOUS
 62
5
 10
130.6388546845
 20
213.8165695358
 11
131.6677988411
 21
213.7022424073
 12
130.9399894366
 22
211.8393700363
 13
130.9399894366
 23
211.8393700363
  0
LINE
  8
3
  6
BYBLOCK
 62
5
 10
130.9399894366
 20
211.8393700363
 11
132.4225987781
 21
225.1828541094
  0
CIRCLE
  8
3
  6
BYBLOCK
 62
5
 10
132.7538933563
 20
228.1645053134
 40
3.0000000000
  0
TEXT
  8
3
  6
CONTINUOUS
 62
7
 10
131.878893
 20
226.414505
 40
3.500000
  1
1
 41
1.000000
 50
0.000000
 51
0.000000
 72
   5
 73
   0
 11
133.628893
 21
226.414505
  0
ENDBLK
  8
0
  0
BLOCK
  8
3
  2
BALN3
 70
     0
 10
173.9105182328
 20
197.3525214537
  3
BALN3
  0
SOLID
  8
3
  6
CONTINUOUS
 62
5
 10
172.9725529828
 20
199.1189362379
 11
173.9814238906
 21
199.3512641554
 12
173.9105182328
 22
197.3525214537
 13
173.9105182328
 23
197.3525214537
  0
LINE
  8
3
  6
BYBLOCK
 62
5
 10
173.9105182328
 20
197.3525214537
 11
167.4882126774
 21
225.2410219179
  0
CIRCLE
  8
3
  6
BYBLOCK
 62
5
 10
166.8149780704
 20
228.1645053134
 40
3.0000000000
  0
TEXT
  8
3
  6
CONTINUOUS
 62
7
 10
165.939978
 20
226.414505
 40
3.500000
  1
4
 41
1.000000
 50
0.000000
 51
0.000000
 72
   5
 73
   0
 11
167.689978
 21
226.414505
  0
ENDBLK
  8
0
  0
BLOCK
  8
3
  2
BALN4
 70
     0
 10
193.9105182328
 20
197.3525214537
  3
BALN4
  0
SOLID
  8
3
  6
CONTINUOUS
 62
5
 10
193.1296052330
 20
199.1937642097
 11
194.1548491148
 21
199.3375409549
 12
193.9105182328
 22
197.3525214537
 13
193.9105182328
 23
197.3525214537
  0
LINE
  8
3
  6
BYBLOCK
 62
5
 10
193.9105182328
 20
197.3525214537
 11
190.0061825204
 21
225.1935766822
  0
CIRCLE
  8
3
  6
BYBLOCK
 62
5
 10
189.5895495064
 20
228.1645053134
 40
3.0000000000
  0
TEXT
  8
3
  6
CONTINUOUS
 62
7
 10
188.714550
 20
226.414505
 40
3.500000
  1
5
 41
1.000000
 50
0.000000
 51
0.000000
 72
   5
 73
   0
 11
190.464550
 21
226.414505
  0
ENDBLK
  8
0
  0
BLOCK
  8
3
  2
BALN5
 70
     0
 10
205.2240678788
 20
195.9771255586
  3
BALN5
  0
SOLID
  8
3
  6
CONTINUOUS
 62
5
 10
204.9068082572
 20
197.9518018188
 11
205.9366511169
 21
197.8458751750
 12
205.2240678788
 22
195.9771255586
 13
205.2240678788
 23
195.9771255586
  0
LINE
  8
3
  6
BYBLOCK
 62
5
 10
205.2240678788
 20
195.9771255586
 11
208.2278163802
 21
225.1802498676
  0
CIRCLE
  8
3
  6
BYBLOCK
 62
5
 10
208.5347682231
 20
228.1645053134
 40
3.0000000000
  0
TEXT
  8
3
  6
CONTINUOUS
 62
7
 10
207.659768
 20
226.414505
 40
3.500000
  1
8
 41
1.000000
 50
0.000000
 51
0.000000
 72
   5
 73
   0
 11
209.409768
 21
226.414505
  0
ENDBLK
  8
0
  0
BLOCK
  8
3
  2
BALN6
 70
     0
 10
168.5127331788
 20
-62.2502178758
  3
BALN6
  0
SOLID
  8
3
  6
CONTINUOUS
 62
5
 10
170.5063076262
 20
-62.0900276049
 11
170.3193144300
 21
-63.1082762555
 12
168.5127331788
 22
-62.2502178758
 13
168.5127331788
 23
-62.2502178758
  0
LINE
  8
3
  6
BYBLOCK
 62
5
 10
168.5127331788
 20
-62.2502178758
 11
178.1729576848
 21
-64.0242406112
  0
CIRCLE
  8
3
  6
BYBLOCK
 62
5
 10
181.1236156922
 20
-64.5661052838
 40
3.0000000000
  0
TEXT
  8
3
  6
CONTINUOUS
 62
7
 10
178.873616
 20
-66.066105
 40
3.000000
  1
911
 41
0.815217
 50
0.000000
 51
0.000000
 72
   5
 73
   0
 11
183.373616
 21
-66.066105
  0
ENDBLK
  8
0
  0
BLOCK
  8
3
  2
BALN7
 70
     0
 10
165.6521871208
 20
-64.5661052838
  3
BALN7
  0
SOLID
  8
3
  6
CONTINUOUS
 62
5
 10
167.5556255712
 20
-65.1800450733
 11
166.9936432786
 21
-66.0495119632
 12
165.6521871208
 22
-64.5661052838
 13
165.6521871208
 23
-64.5661052838
  0
LINE
  8
3
  6
BYBLOCK
 62
5
 10
165.6521871208
 20
-64.5661052838
 11
178.6040941202
 21
-72.9376056528
  0
CIRCLE
  8
3
  6
BYBLOCK
 62
5
 10
181.1236156922
 20
-74.5661052838
 40
3.0000000000
  0
TEXT
  8
3
  6
CONTINUOUS
 62
7
 10
178.873616
 20
-76.066105
 40
3.000000
  1
913
 41
0.815217
 50
0.000000
 51
0.000000
 72
   5
 73
   0
 11
183.373616
 21
-76.066105
  0
ENDBLK
  8
0
  0
BLOCK
  8
3
  2
BALN8
 70
     0
 10
205.5127331788
 20
-62.2502178758
  3
BALN8
  0
SOLID
  8
3
  6
CONTINUOUS
 62
5
 10
207.5063076262
 20
-62.0900276049
 11
207.3193144300
 21
-63.1082762555
 12
205.5127331788
 22
-62.2502178758
 13
205.5127331788
 23
-62.2502178758
  0
LINE
  8
3
  6
BYBLOCK
 62
5
 10
205.5127331788
 20
-62.2502178758
 11
215.1729576848
 21
-64.0242406112
  0
CIRCLE
  8
3
  6
BYBLOCK
 62
5
 10
218.1236156922
 20
-64.5661052838
 40
3.0000000000
  0
TEXT
  8
3
  6
CONTINUOUS
 62
7
 10
215.873616
 20
-66.066105
 40
3.000000
  1
921
 41
0.815217
 50
0.000000
 51
0.000000
 72
   5
 73
   0
 11
220.373616
 21
-66.066105
  0
ENDBLK
  8
0
  0
BLOCK
  8
3
  2
BALN9
 70
     0
 10
202.6521871208
 20
-64.5661052838
  3
BALN9
  0
SOLID
  8
3
  6
CONTINUOUS
 62
5
 10
204.5556255712
 20
-65.1800450733
 11
203.9936432786
 21
-66.0495119632
 12
202.6521871208
 22
-64.5661052838
 13
202.6521871208
 23
-64.5661052838
  0
LINE
  8
3
  6
BYBLOCK
 62
5
 10
202.6521871208
 20
-64.5661052838
 11
215.6040941202
 21
-72.9376056528
  0
CIRCLE
  8
3
  6
BYBLOCK
 62
5
 10
218.1236156922
 20
-74.5661052838
 40
3.0000000000
  0
TEXT
  8
3
  6
CONTINUOUS
 62
7
 10
215.873616
 20
-76.066105
 40
3.000000
  1
923
 41
0.815217
 50
0.000000
 51
0.000000
 72
   5
 73
   0
 11
220.373616
 21
-76.066105
  0
ENDBLK
  8
0
  0
BLOCK
  8
3
  2
BALN10
 70
     0
 10
242.5127331788
 20
-62.2502178758
  3
BALN10
  0
SOLID
  8
3
  6
CONTINUOUS
 62
5
 10
244.5063076262
 20
-62.0900276049
 11
244.3193144300
 21
-63.1082762555
 12
242.5127331788
 22
-62.2502178758
 13
242.5127331788
 23
-62.2502178758
  0
LINE
  8
3
  6
BYBLOCK
 62
5
 10
242.5127331788
 20
-62.2502178758
 11
252.1729576848
 21
-64.0242406112
  0
CIRCLE
  8
3
  6
BYBLOCK
 62
5
 10
255.1236156922
 20
-64.5661052838
 40
3.0000000000
  0
TEXT
  8
3
  6
CONTINUOUS
 62
7
 10
252.873616
 20
-66.066105
 40
3.000000
  1
931
 41
0.815217
 50
0.000000
 51
0.000000
 72
   5
 73
   0
 11
257.373616
 21
-66.066105
  0
ENDBLK
  8
0
  0
BLOCK
  8
3
  2
BALN11
 70
     0
 10
239.6521871208
 20
-64.5661052838
  3
BALN11
  0
SOLID
  8
3
  6
CONTINUOUS
 62
5
 10
241.5556255712
 20
-65.1800450733
 11
240.9936432786
 21
-66.0495119632
 12
239.6521871208
 22
-64.5661052838
 13
239.6521871208
 23
-64.5661052838
  0
LINE
  8
3
  6
BYBLOCK
 62
5
 10
239.6521871208
 20
-64.5661052838
 11
252.6040941202
 21
-72.9376056528
  0
CIRCLE
  8
3
  6
BYBLOCK
 62
5
 10
255.1236156922
 20
-74.5661052838
 40
3.0000000000
  0
TEXT
  8
3
  6
CONTINUOUS
 62
7
 10
252.873616
 20
-76.066105
 40
3.000000
  1
933
 41
0.815217
 50
0.000000
 51
0.000000
 72
   5
 73
   0
 11
257.373616
 21
-76.066105
  0
ENDBLK
  8
0
  0
BLOCK
  8
3
  2
BALN12
 70
     0
 10
279.5127331788
 20
-62.2502178758
  3
BALN12
  0
SOLID
  8
3
  6
CONTINUOUS
 62
5
 10
281.5063076262
 20
-62.0900276049
 11
281.3193144300
 21
-63.1082762555
 12
279.5127331788
 22
-62.2502178758
 13
279.5127331788
 23
-62.2502178758
  0
LINE
  8
3
  6
BYBLOCK
 62
5
 10
279.5127331788
 20
-62.2502178758
 11
289.1729576848
 21
-64.0242406112
  0
CIRCLE
  8
3
  6
BYBLOCK
 62
5
 10
292.1236156922
 20
-64.5661052838
 40
3.0000000000
  0
TEXT
  8
3
  6
CONTINUOUS
 62
7
 10
289.873616
 20
-66.066105
 40
3.000000
  1
941
 41
0.815217
 50
0.000000
 51
0.000000
 72
   5
 73
   0
 11
294.373616
 21
-66.066105
  0
ENDBLK
  8
0
  0
BLOCK
  8
3
  2
BALN13
 70
     0
 10
276.6521871208
 20
-64.5661052838
  3
BALN13
  0
SOLID
  8
3
  6
CONTINUOUS
 62
5
 10
278.5556255712
 20
-65.1800450733
 11
277.9936432786
 21
-66.0495119632
 12
276.6521871208
 22
-64.5661052838
 13
276.6521871208
 23
-64.5661052838
  0
LINE
  8
3
  6
BYBLOCK
 62
5
 10
276.6521871208
 20
-64.5661052838
 11
289.6040941202
 21
-72.9376056528
  0
CIRCLE
  8
3
  6
BYBLOCK
 62
5
 10
292.1236156922
 20
-74.5661052838
 40
3.0000000000
  0
TEXT
  8
3
  6
CONTINUOUS
 62
7
 10
289.873616
 20
-76.066105
 40
3.000000
  1
943
 41
0.815217
 50
0.000000
 51
0.000000
 72
   5
 73
   0
 11
294.373616
 21
-76.066105
  0
ENDBLK
  8
0
  0
BLOCK
  8
3
  2
BALN14
 70
     0
 10
203.5336046922
 20
-95.5661127838
  3
BALN14
  0
SOLID
  8
3
  6
CONTINUOUS
 62
5
 10
205.1233988719
 20
-94.3526242317
 11
205.5171511147
 21
-95.3100979604
 12
203.5336046922
 22
-95.5661127838
 13
203.5336046922
 23
-95.5661127838
  0
LINE
  8
3
  6
BYBLOCK
 62
5
 10
203.5336046922
 20
-95.5661127838
 11
215.3490698847
 21
-90.7071116651
  0
CIRCLE
  8
3
  6
BYBLOCK
 62
5
 10
218.1236156922
 20
-89.5661052838
 40
3.0000000000
  0
TEXT
  8
3
  6
CONTINUOUS
 62
7
 10
215.873616
 20
-91.066105
 40
3.000000
  1
922
 41
0.815217
 50
0.000000
 51
0.000000
 72
   5
 73
   0
 11
220.373616
 21
-91.066105
  0
ENDBLK
  8
0
  0
BLOCK
  8
3
  2
BALN15
 70
     0
 10
240.5335906922
 20
-95.5661127838
  3
BALN15
  0
SOLID
  8
3
  6
CONTINUOUS
 62
5
 10
242.1233848719
 20
-94.3526242317
 11
242.5171371147
 21
-95.3100979604
 12
240.5335906922
 22
-95.5661127838
 13
240.5335906922
 23
-95.5661127838
  0
LINE
  8
3
  6
BYBLOCK
 62
5
 10
240.5335906922
 20
-95.5661127838
 11
252.3490558847
 21
-90.7071116651
  0
CIRCLE
  8
3
  6
BYBLOCK
 62
5
 10
255.1236016922
 20
-89.5661052838
 40
3.0000000000
  0
TEXT
  8
3
  6
CONTINUOUS
 62
7
 10
252.873602
 20
-91.066105
 40
3.000000
  1
932
 41
0.815217
 50
0.000000
 51
0.000000
 72
   5
 73
   0
 11
257.373602
 21
-91.066105
  0
ENDBLK
  8
0
  0
BLOCK
  8
3
  2
BALN16
 70
     0
 10
277.5336056922
 20
-95.5661132838
  3
BALN16
  0
SOLID
  8
3
  6
CONTINUOUS
 62
5
 10
279.1233998719
 20
-94.3526247317
 11
279.5171521147
 21
-95.3100984604
 12
277.5336056922
 22
-95.5661132838
 13
277.5336056922
 23
-95.5661132838
  0
LINE
  8
3
  6
BYBLOCK
 62
5
 10
277.5336056922
 20
-95.5661132838
 11
289.3490708847
 21
-90.7071121651
  0
CIRCLE
  8
3
  6
BYBLOCK
 62
5
 10
292.1236166922
 20
-89.5661057838
 40
3.0000000000
  0
TEXT
  8
3
  6
CONTINUOUS
 62
7
 10
289.873617
 20
-91.066106
 40
3.000000
  1
942
 41
0.815217
 50
0.000000
 51
0.000000
 72
   5
 73
   0
 11
294.373617
 21
-91.066106
  0
ENDBLK
  8
0
  0
BLOCK
  8
3
  2
LTEX1
 70
     0
 10
273.6236156922
 20
-119.0861052838
  3
LTEX1
  0
SOLID
  8
3
  6
CONTINUOUS
 62
5
 10
271.9320131964
 20
-120.1531015332
 11
271.6251468330
 21
-119.1643498936
 12
273.6236156922
 22
-119.0861052838
 13
273.6236156922
 23
-119.0861052838
  0
TEXT
  8
3
  6
CONTINUOUS
 62
7
 10
253.280327
 20
-122.072115
 40
3.000000
  1
#4-40
 41
0.786164
 50
0.000000
 51
0.000000
 72
   5
 73
   0
 11
260.780327
 21
-122.072115
  0
LINE
  8
3
  6
BYBLOCK
 62
5
 10
273.6236156922
 20
-119.0861052838
 11
260.7803271632
 21
-123.0721145977
  0
LINE
  8
3
  6
BYBLOCK
 62
5
 10
260.7803271632
 20
-123.0721145977
 11
253.2803271632
 21
-123.0721145977
  0
ENDBLK
  8
0
  0
BLOCK
  8
3
  2
LTEX2
 70
     0
 10
271.8539856922
 20
-76.3961032838
  3
LTEX2
  0
SOLID
  8
3
  6
CONTINUOUS
 62
5
 10
270.8062933328
 20
-74.6924775267
 11
271.7984703721
 21
-74.3968739200
 12
271.8539856922
 22
-76.3961032838
 13
271.8539856922
 23
-76.3961032838
  0
TEXT
  8
3
  6
CONTINUOUS
 62
7
 10
210.692222
 20
-46.323377
 40
2.500000
  1
D-SUBｼﾞｪﾝﾀﾞｰﾁｪﾝｼﾞｬｰ
 41
0.756369
 50
0.000000
 51
0.000000
 72
   5
 73
   0
 11
234.442222
 21
-46.323377
  0
TEXT
  8
3
  6
CONTINUOUS
 62
7
 10
210.692222
 20
-50.323377
 40
2.500000
  1
%%u出荷時は、表面ﾒｽ、裏面ｵｽ、になっています。%%u
 41
0.848828
 50
0.000000
 51
0.000000
 72
   5
 73
   0
 11
263.192222
 21
-50.323377
  0
TEXT
  8
3
  6
CONTINUOUS
 62
7
 10
210.692222
 20
-54.323377
 40
2.500000
  1
%%uﾕｰｻﾞ様にて表裏入れ替え可能です。%%u
 41
0.847009
 50
0.000000
 51
0.000000
 72
   5
 73
   0
 11
250.692222
 21
-54.323377
  0
LINE
  8
3
  6
BYBLOCK
 62
5
 10
271.8539856922
 20
-76.3961032838
 11
263.1922222747
 21
-47.3233768837
  0
LINE
  8
3
  6
BYBLOCK
 62
5
 10
263.1922222747
 20
-47.3233768837
 11
210.6922222747
 21
-47.3233768837
  0
ENDBLK
  8
0
  0
BLOCK
  8
4
  2
*D7
 70
     1
 10
0.0000000000
 20
0.0000000000
  3
*D7
  0
LINE
  8
4
  6
BYBLOCK
 62
5
 10
319.0572849682
 20
173.1619743881
 11
319.0572849682
 21
184.8554232121
  0
LINE
  8
4
  6
BYBLOCK
 62
5
 10
325.5572849682
 20
176.1619743881
 11
325.5572849682
 21
184.8554232121
  0
LINE
  8
4
  6
BYBLOCK
 62
5
 10
325.5572849682
 20
183.8554232121
 11
319.0572849682
 21
183.8554232121
  0
SOLID
  8
4
  6
CONTINUOUS
 62
5
 10
320.9891366208
 20
184.3730613023
 11
320.9891366208
 21
183.3377851219
 12
319.0572849682
 22
183.8554232121
 13
319.0572849682
 23
183.8554232121
  0
SOLID
  8
4
  6
CONTINUOUS
 62
5
 10
323.6254333156
 20
183.3377851219
 11
323.6254333156
 21
184.3730613023
 12
325.5572849682
 22
183.8554232121
 13
325.5572849682
 23
183.8554232121
  0
TEXT
  8
4
  6
CONTINUOUS
 62
7
 10
319.682285
 20
184.855423
 40
3.500000
  1
6.5
 41
0.815217
 50
0.000000
 51
0.000000
 72
   5
 73
   0
 11
324.932285
 21
184.855423
  0
POINT
  8
DEFPOINTS
  6
BYBLOCK
 62
5
 10
319.0572849682
 20
172.6619743881
  0
POINT
  8
DEFPOINTS
  6
BYBLOCK
 62
5
 10
325.5572849682
 20
175.6619743881
  0
POINT
  8
DEFPOINTS
  6
BYBLOCK
 62
5
 10
325.5572849682
 20
183.8554232121
  0
ENDBLK
  8
0
  0
BLOCK
  8
4
  2
*D8
 70
     1
 10
0.0000000000
 20
0.0000000000
  3
*D8
  0
LINE
  8
4
  6
BYBLOCK
 62
5
 10
345.5572849682
 20
175.4119743881
 11
345.5572849682
 21
184.8554232121
  0
LINE
  8
4
  6
BYBLOCK
 62
5
 10
345.5572849682
 20
183.8554232121
 11
325.5572849682
 21
183.8554232121
  0
SOLID
  8
4
  6
CONTINUOUS
 62
5
 10
327.4891366208
 20
184.3730613023
 11
327.4891366208
 21
183.3377851219
 12
325.5572849682
 22
183.8554232121
 13
325.5572849682
 23
183.8554232121
  0
SOLID
  8
4
  6
CONTINUOUS
 62
5
 10
343.6254333156
 20
183.3377851219
 11
343.6254333156
 21
184.3730613023
 12
345.5572849682
 22
183.8554232121
 13
345.5572849682
 23
183.8554232121
  0
TEXT
  8
4
  6
CONTINUOUS
 62
7
 10
333.807285
 20
184.855423
 40
3.500000
  1
20
 41
0.854701
 50
0.000000
 51
0.000000
 72
   5
 73
   0
 11
337.307285
 21
184.855423
  0
POINT
  8
DEFPOINTS
  6
BYBLOCK
 62
5
 10
325.5572849682
 20
175.6619743881
  0
POINT
  8
DEFPOINTS
  6
BYBLOCK
 62
5
 10
345.5572849682
 20
174.9119743881
  0
POINT
  8
DEFPOINTS
  6
BYBLOCK
 62
5
 10
345.5572849682
 20
183.8554232121
  0
ENDBLK
  8
0
  0
BLOCK
  8
4
  2
*D9
 70
     1
 10
0.0000000000
 20
0.0000000000
  3
*D9
  0
LINE
  8
4
  6
BYBLOCK
 62
5
 10
365.5572849682
 20
176.1619743881
 11
365.5572849682
 21
184.8554232121
  0
LINE
  8
4
  6
BYBLOCK
 62
5
 10
365.5572849682
 20
183.8554232121
 11
345.5572849682
 21
183.8554232121
  0
SOLID
  8
4
  6
CONTINUOUS
 62
5
 10
347.4891366208
 20
184.3730613023
 11
347.4891366208
 21
183.3377851219
 12
345.5572849682
 22
183.8554232121
 13
345.5572849682
 23
183.8554232121
  0
SOLID
  8
4
  6
CONTINUOUS
 62
5
 10
363.6254333156
 20
183.3377851219
 11
363.6254333156
 21
184.3730613023
 12
365.5572849682
 22
183.8554232121
 13
365.5572849682
 23
183.8554232121
  0
TEXT
  8
4
  6
CONTINUOUS
 62
7
 10
353.807285
 20
184.855423
 40
3.500000
  1
20
 41
0.854701
 50
0.000000
 51
0.000000
 72
   5
 73
   0
 11
357.307285
 21
184.855423
  0
POINT
  8
DEFPOINTS
  6
BYBLOCK
 62
5
 10
345.5572849682
 20
174.9119743881
  0
POINT
  8
DEFPOINTS
  6
BYBLOCK
 62
5
 10
365.5572849682
 20
175.6619743881
  0
POINT
  8
DEFPOINTS
  6
BYBLOCK
 62
5
 10
365.5572849682
 20
183.8554232121
  0
ENDBLK
  8
0
  0
BLOCK
  8
4
  2
*D10
 70
     1
 10
0.0000000000
 20
0.0000000000
  3
*D10
  0
LINE
  8
4
  6
BYBLOCK
 62
5
 10
372.0572849682
 20
173.1619743881
 11
372.0572849682
 21
184.8554232121
  0
LINE
  8
4
  6
BYBLOCK
 62
5
 10
372.0572849682
 20
183.8554232121
 11
365.5572849682
 21
183.8554232121
  0
SOLID
  8
4
  6
CONTINUOUS
 62
5
 10
367.4891366208
 20
184.3730613023
 11
367.4891366208
 21
183.3377851219
 12
365.5572849682
 22
183.8554232121
 13
365.5572849682
 23
183.8554232121
  0
SOLID
  8
4
  6
CONTINUOUS
 62
5
 10
370.1254333156
 20
183.3377851219
 11
370.1254333156
 21
184.3730613023
 12
372.0572849682
 22
183.8554232121
 13
372.0572849682
 23
183.8554232121
  0
TEXT
  8
4
  6
CONTINUOUS
 62
7
 10
366.182285
 20
184.855423
 40
3.500000
  1
6.5
 41
0.815217
 50
0.000000
 51
0.000000
 72
   5
 73
   0
 11
371.432285
 21
184.855423
  0
POINT
  8
DEFPOINTS
  6
BYBLOCK
 62
5
 10
365.5572849682
 20
175.6619743881
  0
POINT
  8
DEFPOINTS
  6
BYBLOCK
 62
5
 10
372.0572849682
 20
172.6619743881
  0
POINT
  8
DEFPOINTS
  6
BYBLOCK
 62
5
 10
372.0572849682
 20
183.8554232121
  0
ENDBLK
  8
0
  0
BLOCK
  8
4
  2
*D11
 70
     1
 10
0.0000000000
 20
0.0000000000
  3
*D11
  0
LINE
  8
4
  6
BYBLOCK
 62
5
 10
319.0572849682
 20
184.8554232121
 11
319.0572849682
 21
191.8554232121
  0
LINE
  8
4
  6
BYBLOCK
 62
5
 10
372.0572849682
 20
173.1619743881
 11
372.0572849682
 21
191.8554232121
  0
LINE
  8
4
  6
BYBLOCK
 62
5
 10
372.0572849682
 20
190.8554232121
 11
319.0572849682
 21
190.8554232121
  0
SOLID
  8
4
  6
CONTINUOUS
 62
5
 10
320.9891366208
 20
191.3730613023
 11
320.9891366208
 21
190.3377851219
 12
319.0572849682
 22
190.8554232121
 13
319.0572849682
 23
190.8554232121
  0
SOLID
  8
4
  6
CONTINUOUS
 62
5
 10
370.1254333156
 20
190.3377851219
 11
370.1254333156
 21
191.3730613023
 12
372.0572849682
 22
190.8554232121
 13
372.0572849682
 23
190.8554232121
  0
TEXT
  8
4
  6
CONTINUOUS
 62
7
 10
343.807285
 20
191.855423
 40
3.500000
  1
53
 41
0.854701
 50
0.000000
 51
0.000000
 72
   5
 73
   0
 11
347.307285
 21
191.855423
  0
POINT
  8
DEFPOINTS
  6
BYBLOCK
 62
5
 10
319.0572849682
 20
172.6619743881
  0
POINT
  8
DEFPOINTS
  6
BYBLOCK
 62
5
 10
372.0572849682
 20
172.6619743881
  0
POINT
  8
DEFPOINTS
  6
BYBLOCK
 62
5
 10
372.0572849682
 20
190.8554232121
  0
ENDBLK
  8
0
  0
BLOCK
  8
4
  2
*D12
 70
     1
 10
0.0000000000
 20
0.0000000000
  3
*D12
  0
LINE
  8
4
  6
BYBLOCK
 62
5
 10
324.7064153436
 20
178.3972965655
 11
323.2882993026
 21
180.4561668612
  0
LINE
  8
4
  6
BYBLOCK
 62
5
 10
326.4081545928
 20
175.9266522108
 11
327.8262706338
 21
173.8677819151
  0
SOLID
  8
4
  6
CONTINUOUS
 62
5
 10
323.1842795416
 20
179.6946410071
 11
324.0368792918
 21
180.2818977104
 12
324.7064153436
 22
178.3972965655
 13
324.7064153436
 23
178.3972965655
  0
SOLID
  8
4
  6
CONTINUOUS
 62
5
 10
327.9302903948
 20
174.6293077692
 11
327.0776906446
 21
174.0420510659
 12
326.4081545928
 22
175.9266522108
 13
326.4081545928
 23
175.9266522108
  0
TEXT
  8
4
  6
CONTINUOUS
 62
7
 10
332.437449
 20
168.936014
 40
3.500000
  1
4-M3
 41
0.796813
 50
304.558432
 51
0.000000
 72
   5
 73
   0
 11
336.408174
 21
163.171177
  0
POINT
  8
DEFPOINTS
  6
BYBLOCK
 62
5
 10
324.7064153436
 20
178.3972965655
  0
POINT
  8
DEFPOINTS
  6
BYBLOCK
 62
5
 10
326.4081545928
 20
175.9266522108
  0
LINE
  8
4
  6
BYBLOCK
 62
5
 10
324.7064153436
 20
178.3972965655
 11
335.5846262337
 21
162.6039308436
  0
ENDBLK
  8
0
  0
BLOCK
  8
4
  2
*D13
 70
     1
 10
0.0000000000
 20
0.0000000000
  3
*D13
  0
LINE
  8
4
  6
BYBLOCK
 62
5
 10
344.1560871308
 20
178.9224131461
 11
342.5992006447
 21
180.8784562104
  0
LINE
  8
4
  6
BYBLOCK
 62
5
 10
346.9584828056
 20
175.4015356302
 11
348.5153692917
 21
173.4454925659
  0
SOLID
  8
4
  6
CONTINUOUS
 62
5
 10
342.5480086799
 20
180.1115656577
 11
343.3580265968
 21
180.7562886555
 12
344.1560871308
 22
178.9224131461
 13
344.1560871308
 23
178.9224131461
  0
SOLID
  8
4
  6
CONTINUOUS
 62
5
 10
348.5665612565
 20
174.2123831186
 11
347.7565433396
 21
173.5676601208
 12
346.9584828056
 22
175.4015356302
 13
346.9584828056
 23
175.4015356302
  0
TEXT
  8
4
  6
CONTINUOUS
 62
7
 10
353.582932
 20
168.684470
 40
3.500000
  1
2-φ4.5
 41
0.804598
 50
308.517570
 51
0.000000
 72
   5
 73
   0
 11
361.211676
 21
159.099859
  0
POINT
  8
DEFPOINTS
  6
BYBLOCK
 62
5
 10
344.1560871308
 20
178.9224131461
  0
POINT
  8
DEFPOINTS
  6
BYBLOCK
 62
5
 10
346.9584828056
 20
175.4015356302
  0
LINE
  8
4
  6
BYBLOCK
 62
5
 10
344.1560871308
 20
178.9224131461
 11
360.4292590547
 21
158.4771042800
  0
ENDBLK
  8
0
  0
BLOCK
  8
1
  2
*D14
 70
     1
 10
0.0000000000
 20
0.0000000000
  3
*D14
  0
LINE
  8
1
  6
BYBLOCK
 62
5
 10
366.5572849682
 20
60.1619743881
 11
305.8614186851
 21
60.1619743881
  0
LINE
  8
1
  6
BYBLOCK
 62
5
 10
318.5572849682
 20
64.6619743881
 11
305.8614186851
 21
64.6619743881
  0
LINE
  8
1
  6
BYBLOCK
 62
5
 10
306.8614186851
 20
67.1619743881
 11
306.8614186851
 21
57.6619743881
  0
SOLID
  8
1
  6
CONTINUOUS
 62
5
 10
307.3790567753
 20
58.2301227356
 11
306.3437805949
 21
58.2301227356
 12
306.8614186851
 22
60.1619743881
 13
306.8614186851
 23
60.1619743881
  0
SOLID
  8
1
  6
CONTINUOUS
 62
5
 10
306.3437805949
 20
66.5938260407
 11
307.3790567753
 21
66.5938260407
 12
306.8614186851
 22
64.6619743881
 13
306.8614186851
 23
64.6619743881
  0
TEXT
  8
1
  6
CONTINUOUS
 62
7
 10
305.861419
 20
60.161974
 40
3.000000
  1
4.5
 41
0.815217
 50
90.000000
 51
0.000000
 72
   5
 73
   0
 11
305.861419
 21
64.661974
  0
POINT
  8
DEFPOINTS
  6
BYBLOCK
 62
5
 10
367.0572849682
 20
60.1619743881
  0
POINT
  8
DEFPOINTS
  6
BYBLOCK
 62
5
 10
319.0572849682
 20
64.6619743881
  0
POINT
  8
DEFPOINTS
  6
BYBLOCK
 62
5
 10
306.8614186851
 20
64.6619743881
  0
ENDBLK
  8
0
  0
BLOCK
  8
1
  2
*D15
 70
     1
 10
0.0000000000
 20
0.0000000000
  3
*D15
  0
LINE
  8
1
  6
BYBLOCK
 62
5
 10
318.5572849682
 20
172.6619743881
 11
305.8614186851
 21
172.6619743881
  0
LINE
  8
1
  6
BYBLOCK
 62
5
 10
306.8614186851
 20
172.6619743881
 11
306.8614186851
 21
64.6619743881
  0
SOLID
  8
1
  6
CONTINUOUS
 62
5
 10
306.3437805949
 20
66.5938260407
 11
307.3790567753
 21
66.5938260407
 12
306.8614186851
 22
64.6619743881
 13
306.8614186851
 23
64.6619743881
  0
SOLID
  8
1
  6
CONTINUOUS
 62
5
 10
307.3790567753
 20
170.7301227356
 11
306.3437805949
 21
170.7301227356
 12
306.8614186851
 22
172.6619743881
 13
306.8614186851
 23
172.6619743881
  0
TEXT
  8
1
  6
CONTINUOUS
 62
7
 10
305.861419
 20
116.036974
 40
3.500000
  1
108
 41
0.815217
 50
90.000000
 51
0.000000
 72
   5
 73
   0
 11
305.861419
 21
121.286974
  0
POINT
  8
DEFPOINTS
  6
BYBLOCK
 62
5
 10
319.0572849682
 20
64.6619743881
  0
POINT
  8
DEFPOINTS
  6
BYBLOCK
 62
5
 10
319.0572849682
 20
172.6619743881
  0
POINT
  8
DEFPOINTS
  6
BYBLOCK
 62
5
 10
306.8614186851
 20
172.6619743881
  0
ENDBLK
  8
0
  0
BLOCK
  8
1
  2
*D16
 70
     1
 10
0.0000000000
 20
0.0000000000
  3
*D16
  0
LINE
  8
1
  6
BYBLOCK
 62
5
 10
366.5572849682
 20
177.1619743881
 11
305.8614186851
 21
177.1619743881
  0
LINE
  8
1
  6
BYBLOCK
 62
5
 10
306.8614186851
 20
179.6619743881
 11
306.8614186851
 21
170.1619743881
  0
SOLID
  8
1
  6
CONTINUOUS
 62
5
 10
307.3790567753
 20
170.7301227356
 11
306.3437805949
 21
170.7301227356
 12
306.8614186851
 22
172.6619743881
 13
306.8614186851
 23
172.6619743881
  0
SOLID
  8
1
  6
CONTINUOUS
 62
5
 10
306.3437805949
 20
179.0938260407
 11
307.3790567753
 21
179.0938260407
 12
306.8614186851
 22
177.1619743881
 13
306.8614186851
 23
177.1619743881
  0
TEXT
  8
1
  6
CONTINUOUS
 62
7
 10
304.861419
 20
172.661974
 40
3.000000
  1
4.5
 41
0.815217
 50
90.000000
 51
0.000000
 72
   5
 73
   0
 11
304.861419
 21
177.161974
  0
POINT
  8
DEFPOINTS
  6
BYBLOCK
 62
5
 10
319.0572849682
 20
172.6619743881
  0
POINT
  8
DEFPOINTS
  6
BYBLOCK
 62
5
 10
367.0572849682
 20
177.1619743881
  0
POINT
  8
DEFPOINTS
  6
BYBLOCK
 62
5
 10
306.8614186851
 20
177.1619743881
  0
ENDBLK
  8
0
  0
BLOCK
  8
1
  2
*D17
 70
     1
 10
0.0000000000
 20
0.0000000000
  3
*D17
  0
LINE
  8
1
  6
BYBLOCK
 62
5
 10
305.8614186851
 20
60.1619743881
 11
298.8614186851
 21
60.1619743881
  0
LINE
  8
1
  6
BYBLOCK
 62
5
 10
366.5572849682
 20
177.1619743881
 11
298.8614186851
 21
177.1619743881
  0
LINE
  8
1
  6
BYBLOCK
 62
5
 10
299.8614186851
 20
177.1619743881
 11
299.8614186851
 21
60.1619743881
  0
SOLID
  8
1
  6
CONTINUOUS
 62
5
 10
299.3437805949
 20
62.0938260407
 11
300.3790567753
 21
62.0938260407
 12
299.8614186851
 22
60.1619743881
 13
299.8614186851
 23
60.1619743881
  0
SOLID
  8
1
  6
CONTINUOUS
 62
5
 10
300.3790567753
 20
175.2301227356
 11
299.3437805949
 21
175.2301227356
 12
299.8614186851
 22
177.1619743881
 13
299.8614186851
 23
177.1619743881
  0
TEXT
  8
1
  6
CONTINUOUS
 62
7
 10
298.861419
 20
116.036974
 40
3.500000
  1
117
 41
0.815217
 50
90.000000
 51
0.000000
 72
   5
 73
   0
 11
298.861419
 21
121.286974
  0
POINT
  8
DEFPOINTS
  6
BYBLOCK
 62
5
 10
367.0572849682
 20
60.1619743881
  0
POINT
  8
DEFPOINTS
  6
BYBLOCK
 62
5
 10
367.0572849682
 20
177.1619743881
  0
POINT
  8
DEFPOINTS
  6
BYBLOCK
 62
5
 10
299.8614186851
 20
177.1619743881
  0
ENDBLK
  8
0
  0
BLOCK
  8
1
  2
*D18
 70
     1
 10
0.0000000000
 20
0.0000000000
  3
*D18
  0
LINE
  8
1
  6
BYBLOCK
 62
5
 10
380.5572849682
 20
44.4119743881
 11
388.7005190311
 21
44.4119743881
  0
LINE
  8
1
  6
BYBLOCK
 62
5
 10
372.5572849682
 20
64.6619743881
 11
388.7005190311
 21
64.6619743881
  0
LINE
  8
1
  6
BYBLOCK
 62
5
 10
387.7005190311
 20
64.6619743881
 11
387.7005190311
 21
44.4119743881
  0
SOLID
  8
1
  6
CONTINUOUS
 62
5
 10
387.1828809409
 20
46.3438260407
 11
388.2181571213
 21
46.3438260407
 12
387.7005190311
 22
44.4119743881
 13
387.7005190311
 23
44.4119743881
  0
SOLID
  8
1
  6
CONTINUOUS
 62
5
 10
388.2181571213
 20
62.7301227356
 11
387.1828809409
 21
62.7301227356
 12
387.7005190311
 22
64.6619743881
 13
387.7005190311
 23
64.6619743881
  0
TEXT
  8
1
  6
CONTINUOUS
 62
7
 10
386.700519
 20
50.161974
 40
3.500000
  1
20.25
 41
0.786164
 50
90.000000
 51
0.000000
 72
   5
 73
   0
 11
386.700519
 21
58.911974
  0
POINT
  8
DEFPOINTS
  6
BYBLOCK
 62
5
 10
380.0572849682
 20
44.4119743881
  0
POINT
  8
DEFPOINTS
  6
BYBLOCK
 62
5
 10
372.0572849682
 20
64.6619743881
  0
POINT
  8
DEFPOINTS
  6
BYBLOCK
 62
5
 10
387.7005190311
 20
64.6619743881
  0
ENDBLK
  8
0
  0
BLOCK
  8
1
  2
*D19
 70
     1
 10
0.0000000000
 20
0.0000000000
  3
*D19
  0
LINE
  8
1
  6
BYBLOCK
 62
5
 10
372.5572849682
 20
172.6619743881
 11
388.7005190311
 21
172.6619743881
  0
LINE
  8
1
  6
BYBLOCK
 62
5
 10
387.7005190311
 20
172.6619743881
 11
387.7005190311
 21
64.6619743881
  0
SOLID
  8
1
  6
CONTINUOUS
 62
5
 10
387.1828809409
 20
66.5938260407
 11
388.2181571213
 21
66.5938260407
 12
387.7005190311
 22
64.6619743881
 13
387.7005190311
 23
64.6619743881
  0
SOLID
  8
1
  6
CONTINUOUS
 62
5
 10
388.2181571213
 20
170.7301227356
 11
387.1828809409
 21
170.7301227356
 12
387.7005190311
 22
172.6619743881
 13
387.7005190311
 23
172.6619743881
  0
TEXT
  8
1
  6
CONTINUOUS
 62
7
 10
386.700519
 20
116.036974
 40
3.500000
  1
108
 41
0.815217
 50
90.000000
 51
0.000000
 72
   5
 73
   0
 11
386.700519
 21
121.286974
  0
POINT
  8
DEFPOINTS
  6
BYBLOCK
 62
5
 10
372.0572849682
 20
64.6619743881
  0
POINT
  8
DEFPOINTS
  6
BYBLOCK
 62
5
 10
372.0572849682
 20
172.6619743881
  0
POINT
  8
DEFPOINTS
  6
BYBLOCK
 62
5
 10
387.7005190311
 20
172.6619743881
  0
ENDBLK
  8
0
  0
BLOCK
  8
1
  2
*D20
 70
     1
 10
0.0000000000
 20
0.0000000000
  3
*D20
  0
LINE
  8
1
  6
BYBLOCK
 62
5
 10
380.5572849682
 20
199.9119743881
 11
388.7005190311
 21
199.9119743881
  0
LINE
  8
1
  6
BYBLOCK
 62
5
 10
387.7005190311
 20
199.9119743881
 11
387.7005190311
 21
172.6619743881
  0
SOLID
  8
1
  6
CONTINUOUS
 62
5
 10
387.1828809409
 20
174.5938260407
 11
388.2181571213
 21
174.5938260407
 12
387.7005190311
 22
172.6619743881
 13
387.7005190311
 23
172.6619743881
  0
SOLID
  8
1
  6
CONTINUOUS
 62
5
 10
388.2181571213
 20
197.9801227356
 11
387.1828809409
 21
197.9801227356
 12
387.7005190311
 22
199.9119743881
 13
387.7005190311
 23
199.9119743881
  0
TEXT
  8
1
  6
CONTINUOUS
 62
7
 10
386.700519
 20
181.911974
 40
3.500000
  1
27.25
 41
0.786164
 50
90.000000
 51
0.000000
 72
   5
 73
   0
 11
386.700519
 21
190.661974
  0
POINT
  8
DEFPOINTS
  6
BYBLOCK
 62
5
 10
372.0572849682
 20
172.6619743881
  0
POINT
  8
DEFPOINTS
  6
BYBLOCK
 62
5
 10
380.0572849682
 20
199.9119743881
  0
POINT
  8
DEFPOINTS
  6
BYBLOCK
 62
5
 10
387.7005190311
 20
199.9119743881
  0
ENDBLK
  8
0
  0
BLOCK
  8
1
  2
LTEX3
 70
     0
 10
323.9116262976
 20
44.4119743881
  3
LTEX3
  0
SOLID
  8
1
  6
CONTINUOUS
 62
5
 10
324.7338699055
 20
46.2351352284
 11
325.5352905702
 21
45.5797561870
 12
323.9116262976
 22
44.4119743881
 13
323.9116262976
 23
44.4119743881
  0
TEXT
  8
1
  6
CONTINUOUS
 62
7
 10
328.407128
 20
50.909233
 40
2.500000
  1
製品外形
 41
0.886918
 50
0.000000
 51
0.000000
 72
   5
 73
   0
 11
338.407128
 21
50.909233
  0
LINE
  8
1
  6
BYBLOCK
 62
5
 10
323.9116262976
 20
44.4119743881
 11
328.4071280277
 21
49.9092328564
  0
LINE
  8
1
  6
BYBLOCK
 62
5
 10
328.4071280277
 20
49.9092328564
 11
338.4071280277
 21
49.9092328564
  0
ENDBLK
  8
0
  0
BLOCK
  8
3
  2
*D21
 70
     1
 10
0.0000000000
 20
0.0000000000
  3
*D21
  0
LINE
  8
3
  6
BYBLOCK
 62
5
 10
33.2456447311
 20
-208.8400865140
 11
33.2456447311
 21
-198.3705822804
  0
LINE
  8
3
  6
BYBLOCK
 62
5
 10
50.2456447311
 20
-208.8400865140
 11
50.2456447311
 21
-198.3705822804
  0
LINE
  8
3
  6
BYBLOCK
 62
5
 10
50.2456447311
 20
-199.3705822804
 11
33.2456447311
 21
-199.3705822804
  0
SOLID
  8
3
  6
CONTINUOUS
 62
5
 10
35.1774963837
 20
-198.8529441902
 11
35.1774963837
 21
-199.8882203706
 12
33.2456447311
 22
-199.3705822804
 13
33.2456447311
 23
-199.3705822804
  0
SOLID
  8
3
  6
CONTINUOUS
 62
5
 10
48.3137930785
 20
-199.8882203706
 11
48.3137930785
 21
-198.8529441902
 12
50.2456447311
 22
-199.3705822804
 13
50.2456447311
 23
-199.3705822804
  0
TEXT
  8
3
  6
CONTINUOUS
 62
7
 10
39.745645
 20
-198.370582
 40
4.000000
  1
17
 41
0.854701
 50
0.000000
 51
0.000000
 72
   5
 73
   0
 11
43.745645
 21
-198.370582
  0
POINT
  8
DEFPOINTS
  6
BYBLOCK
 62
5
 10
33.2456447311
 20
-209.3400865140
  0
POINT
  8
DEFPOINTS
  6
BYBLOCK
 62
5
 10
50.2456447311
 20
-209.3400865140
  0
POINT
  8
DEFPOINTS
  6
BYBLOCK
 62
5
 10
50.2456447311
 20
-199.3705822804
  0
ENDBLK
  8
0
  0
BLOCK
  8
3
  2
*D22
 70
     1
 10
0.0000000000
 20
0.0000000000
  3
*D22
  0
LINE
  8
3
  6
BYBLOCK
 62
5
 10
67.2456447311
 20
-208.8400865140
 11
67.2456447311
 21
-198.3705822804
  0
LINE
  8
3
  6
BYBLOCK
 62
5
 10
67.2456447311
 20
-199.3705822804
 11
50.2456447311
 21
-199.3705822804
  0
SOLID
  8
3
  6
CONTINUOUS
 62
5
 10
52.1774963837
 20
-198.8529441902
 11
52.1774963837
 21
-199.8882203706
 12
50.2456447311
 22
-199.3705822804
 13
50.2456447311
 23
-199.3705822804
  0
SOLID
  8
3
  6
CONTINUOUS
 62
5
 10
65.3137930785
 20
-199.8882203706
 11
65.3137930785
 21
-198.8529441902
 12
67.2456447311
 22
-199.3705822804
 13
67.2456447311
 23
-199.3705822804
  0
TEXT
  8
3
  6
CONTINUOUS
 62
7
 10
56.745645
 20
-198.370582
 40
4.000000
  1
17
 41
0.854701
 50
0.000000
 51
0.000000
 72
   5
 73
   0
 11
60.745645
 21
-198.370582
  0
POINT
  8
DEFPOINTS
  6
BYBLOCK
 62
5
 10
50.2456447311
 20
-209.3400865140
  0
POINT
  8
DEFPOINTS
  6
BYBLOCK
 62
5
 10
67.2456447311
 20
-209.3400865140
  0
POINT
  8
DEFPOINTS
  6
BYBLOCK
 62
5
 10
67.2456447311
 20
-199.3705822804
  0
ENDBLK
  8
0
  0
BLOCK
  8
3
  2
*D23
 70
     1
 10
0.0000000000
 20
0.0000000000
  3
*D23
  0
LINE
  8
3
  6
BYBLOCK
 62
5
 10
22.7456447311
 20
-207.0900865140
 11
22.7456447311
 21
-198.3705822804
  0
LINE
  8
3
  6
BYBLOCK
 62
5
 10
33.2456447311
 20
-208.8400865140
 11
33.2456447311
 21
-198.3705822804
  0
LINE
  8
3
  6
BYBLOCK
 62
5
 10
33.2456447311
 20
-199.3705822804
 11
22.7456447311
 21
-199.3705822804
  0
SOLID
  8
3
  6
CONTINUOUS
 62
5
 10
24.6774963837
 20
-198.8529441902
 11
24.6774963837
 21
-199.8882203706
 12
22.7456447311
 22
-199.3705822804
 13
22.7456447311
 23
-199.3705822804
  0
SOLID
  8
3
  6
CONTINUOUS
 62
5
 10
31.3137930785
 20
-199.8882203706
 11
31.3137930785
 21
-198.8529441902
 12
33.2456447311
 22
-199.3705822804
 13
33.2456447311
 23
-199.3705822804
  0
TEXT
  8
3
  6
CONTINUOUS
 62
7
 10
24.495645
 20
-198.370582
 40
3.500000
  1
10.5
 41
0.796813
 50
0.000000
 51
0.000000
 72
   5
 73
   0
 11
31.495645
 21
-198.370582
  0
POINT
  8
DEFPOINTS
  6
BYBLOCK
 62
5
 10
22.7456447311
 20
-207.5900865140
  0
POINT
  8
DEFPOINTS
  6
BYBLOCK
 62
5
 10
33.2456447311
 20
-209.3400865140
  0
POINT
  8
DEFPOINTS
  6
BYBLOCK
 62
5
 10
33.2456447311
 20
-199.3705822804
  0
ENDBLK
  8
0
  0
BLOCK
  8
3
  2
*D24
 70
     1
 10
0.0000000000
 20
0.0000000000
  3
*D24
  0
LINE
  8
3
  6
BYBLOCK
 62
5
 10
77.7456447311
 20
-207.0900865140
 11
77.7456447311
 21
-198.3705822804
  0
LINE
  8
3
  6
BYBLOCK
 62
5
 10
67.2456447311
 20
-208.8400865140
 11
67.2456447311
 21
-198.3705822804
  0
LINE
  8
3
  6
BYBLOCK
 62
5
 10
67.2456447311
 20
-199.3705822804
 11
77.7456447311
 21
-199.3705822804
  0
SOLID
  8
3
  6
CONTINUOUS
 62
5
 10
75.8137930785
 20
-199.8882203706
 11
75.8137930785
 21
-198.8529441902
 12
77.7456447311
 22
-199.3705822804
 13
77.7456447311
 23
-199.3705822804
  0
SOLID
  8
3
  6
CONTINUOUS
 62
5
 10
69.1774963837
 20
-198.8529441902
 11
69.1774963837
 21
-199.8882203706
 12
67.2456447311
 22
-199.3705822804
 13
67.2456447311
 23
-199.3705822804
  0
TEXT
  8
3
  6
CONTINUOUS
 62
7
 10
68.995645
 20
-198.370582
 40
3.500000
  1
10.5
 41
0.796813
 50
0.000000
 51
0.000000
 72
   5
 73
   0
 11
75.995645
 21
-198.370582
  0
POINT
  8
DEFPOINTS
  6
BYBLOCK
 62
5
 10
77.7456447311
 20
-207.5900865140
  0
POINT
  8
DEFPOINTS
  6
BYBLOCK
 62
5
 10
67.2456447311
 20
-209.3400865140
  0
POINT
  8
DEFPOINTS
  6
BYBLOCK
 62
5
 10
67.2456447311
 20
-199.3705822804
  0
ENDBLK
  8
0
  0
BLOCK
  8
3
  2
*D25
 70
     1
 10
0.0000000000
 20
0.0000000000
  3
*D25
  0
LINE
  8
3
  6
BYBLOCK
 62
5
 10
171.6338378359
 20
-271.8147255177
 11
172.1539565727
 21
-274.2600223299
  0
LINE
  8
3
  6
BYBLOCK
 62
5
 10
169.3453153941
 20
-261.0554195442
 11
168.8251966573
 21
-258.6101227320
  0
SOLID
  8
3
  6
CONTINUOUS
 62
5
 10
172.5420662412
 20
-273.5966124850
 11
171.5294432237
 21
-273.8119991006
 12
171.6338378359
 22
-271.8147255177
 13
171.6338378359
 23
-271.8147255177
  0
SOLID
  8
3
  6
CONTINUOUS
 62
5
 10
168.4370869889
 20
-259.2735325769
 11
169.4497100064
 21
-259.0581459613
 12
169.3453153941
 22
-261.0554195442
 13
169.3453153941
 23
-261.0554195442
  0
TEXT
  8
3
  6
CONTINUOUS
 62
7
 10
168.426880
 20
-251.930875
 40
3.500000
  1
φ11
 41
0.854701
 50
282.007955
 51
0.000000
 72
   5
 73
   0
 11
169.883213
 21
-258.777706
  0
POINT
  8
DEFPOINTS
  6
BYBLOCK
 62
5
 10
171.6338378359
 20
-271.8147255177
  0
POINT
  8
DEFPOINTS
  6
BYBLOCK
 62
5
 10
169.3453153941
 20
-261.0554195442
  0
LINE
  8
3
  6
BYBLOCK
 62
5
 10
171.6338378359
 20
-271.8147255177
 11
167.4487615659
 21
-252.1389227864
  0
ENDBLK
  8
0
  0
BLOCK
  8
3
  2
*D26
 70
     1
 10
0.0000000000
 20
0.0000000000
  3
*D26
  0
LINE
  8
3
  6
BYBLOCK
 62
5
 10
235.7895796150
 20
-289.9550730310
 11
240.8380849682
 21
-289.9550730310
  0
LINE
  8
3
  6
BYBLOCK
 62
5
 10
235.7895796150
 20
-242.9151715310
 11
240.8380849682
 21
-242.9151715310
  0
LINE
  8
3
  6
BYBLOCK
 62
5
 10
239.8380849682
 20
-242.9151715310
 11
239.8380849682
 21
-289.9550730310
  0
SOLID
  8
3
  6
CONTINUOUS
 62
5
 10
239.3204468780
 20
-288.0232213784
 11
240.3557230584
 21
-288.0232213784
 12
239.8380849682
 22
-289.9550730310
 13
239.8380849682
 23
-289.9550730310
  0
SOLID
  8
3
  6
CONTINUOUS
 62
5
 10
240.3557230584
 20
-244.8470231835
 11
239.3204468780
 21
-244.8470231835
 12
239.8380849682
 22
-242.9151715310
 13
239.8380849682
 23
-242.9151715310
  0
TEXT
  8
3
  6
CONTINUOUS
 62
7
 10
238.838085
 20
-270.810122
 40
3.500000
  1
47.04
 41
0.786164
 50
90.000000
 51
0.000000
 72
   5
 73
   0
 11
238.838085
 21
-262.060122
  0
POINT
  8
DEFPOINTS
  6
BYBLOCK
 62
5
 10
235.2895796150
 20
-289.9550730310
  0
POINT
  8
DEFPOINTS
  6
BYBLOCK
 62
5
 10
235.2895796150
 20
-242.9151715310
  0
POINT
  8
DEFPOINTS
  6
BYBLOCK
 62
5
 10
239.8380849682
 20
-242.9151715310
  0
ENDBLK
  8
0
  0
BLOCK
  8
3
  2
*D27
 70
     1
 10
0.0000000000
 20
0.0000000000
  3
*D27
  0
LINE
  8
3
  6
BYBLOCK
 62
5
 10
231.7894726150
 20
-293.4350725310
 11
246.5804001763
 21
-293.4350725310
  0
LINE
  8
3
  6
BYBLOCK
 62
5
 10
231.7894726150
 20
-239.4350725310
 11
246.5804001763
 21
-239.4350725310
  0
LINE
  8
3
  6
BYBLOCK
 62
5
 10
245.5804001763
 20
-239.4350725310
 11
245.5804001763
 21
-293.4350725310
  0
SOLID
  8
3
  6
CONTINUOUS
 62
5
 10
245.0627620861
 20
-291.5032208784
 11
246.0980382665
 21
-291.5032208784
 12
245.5804001763
 22
-293.4350725310
 13
245.5804001763
 23
-293.4350725310
  0
SOLID
  8
3
  6
CONTINUOUS
 62
5
 10
246.0980382665
 20
-241.3669241835
 11
245.0627620861
 21
-241.3669241835
 12
245.5804001763
 22
-239.4350725310
 13
245.5804001763
 23
-239.4350725310
  0
TEXT
  8
3
  6
CONTINUOUS
 62
7
 10
244.580400
 20
-268.185073
 40
3.500000
  1
54
 41
0.854701
 50
90.000000
 51
0.000000
 72
   5
 73
   0
 11
244.580400
 21
-264.685073
  0
POINT
  8
DEFPOINTS
  6
BYBLOCK
 62
5
 10
231.2894726150
 20
-293.4350725310
  0
POINT
  8
DEFPOINTS
  6
BYBLOCK
 62
5
 10
231.2894726150
 20
-239.4350725310
  0
POINT
  8
DEFPOINTS
  6
BYBLOCK
 62
5
 10
245.5804001763
 20
-239.4350725310
  0
ENDBLK
  8
0
  0
BLOCK
  8
3
  2
*D28
 70
     1
 10
0.0000000000
 20
0.0000000000
  3
*D28
  0
LINE
  8
3
  6
BYBLOCK
 62
5
 10
192.4895766150
 20
-248.8321725310
 11
192.4895766150
 21
-232.7951225901
  0
LINE
  8
3
  6
BYBLOCK
 62
5
 10
233.4894856150
 20
-246.9351731819
 11
233.4894856150
 21
-232.7951225901
  0
LINE
  8
3
  6
BYBLOCK
 62
5
 10
233.4894856150
 20
-233.7951225901
 11
192.4895766150
 21
-233.7951225901
  0
SOLID
  8
3
  6
CONTINUOUS
 62
5
 10
194.4214282676
 20
-233.2774844999
 11
194.4214282676
 21
-234.3127606803
 12
192.4895766150
 22
-233.7951225901
 13
192.4895766150
 23
-233.7951225901
  0
SOLID
  8
3
  6
CONTINUOUS
 62
5
 10
231.5576339624
 20
-234.3127606803
 11
231.5576339624
 21
-233.2774844999
 12
233.4894856150
 22
-233.7951225901
 13
233.4894856150
 23
-233.7951225901
  0
TEXT
  8
3
  6
CONTINUOUS
 62
7
 10
211.239531
 20
-232.795123
 40
3.500000
  1
41
 41
0.854701
 50
0.000000
 51
0.000000
 72
   5
 73
   0
 11
214.739531
 21
-232.795123
  0
POINT
  8
DEFPOINTS
  6
BYBLOCK
 62
5
 10
192.4895766150
 20
-249.3321725310
  0
POINT
  8
DEFPOINTS
  6
BYBLOCK
 62
5
 10
233.4894856150
 20
-247.4351731819
  0
POINT
  8
DEFPOINTS
  6
BYBLOCK
 62
5
 10
233.4894856150
 20
-233.7951225901
  0
ENDBLK
  8
0
  0
BLOCK
  8
3
  2
*D29
 70
     1
 10
0.0000000000
 20
0.0000000000
  3
*D29
  0
LINE
  8
3
  6
BYBLOCK
 62
5
 10
162.9895766150
 20
-239.9350804373
 11
162.9895766150
 21
-232.1404292711
  0
LINE
  8
3
  6
BYBLOCK
 62
5
 10
177.9895766150
 20
-239.9350725310
 11
177.9895766150
 21
-232.1404292711
  0
LINE
  8
3
  6
BYBLOCK
 62
5
 10
177.9895766150
 20
-233.1404292711
 11
162.9895766150
 21
-233.1404292711
  0
SOLID
  8
3
  6
CONTINUOUS
 62
5
 10
164.9214282676
 20
-232.6227911809
 11
164.9214282676
 21
-233.6580673613
 12
162.9895766150
 22
-233.1404292711
 13
162.9895766150
 23
-233.1404292711
  0
SOLID
  8
3
  6
CONTINUOUS
 62
5
 10
176.0577249624
 20
-233.6580673613
 11
176.0577249624
 21
-232.6227911809
 12
177.9895766150
 22
-233.1404292711
 13
177.9895766150
 23
-233.1404292711
  0
TEXT
  8
3
  6
CONTINUOUS
 62
7
 10
168.739577
 20
-232.140429
 40
3.500000
  1
15
 41
0.854701
 50
0.000000
 51
0.000000
 72
   5
 73
   0
 11
172.239577
 21
-232.140429
  0
POINT
  8
DEFPOINTS
  6
BYBLOCK
 62
5
 10
162.9895766150
 20
-240.4350804373
  0
POINT
  8
DEFPOINTS
  6
BYBLOCK
 62
5
 10
177.9895766150
 20
-240.4350725310
  0
POINT
  8
DEFPOINTS
  6
BYBLOCK
 62
5
 10
177.9895766150
 20
-233.1404292711
  0
ENDBLK
  8
0
  0
BLOCK
  8
3
  2
S3
 70
     0
 10
398.7772659420
 20
-56.1311427691
  3
S3
  0
LINE
  8
3
  6
CONTINUOUS
 62
6
 10
401.2772659420
 20
-58.1311427691
 11
396.2772659420
 21
-58.1311427691
  0
TEXT
  8
3
  6
CONTINUOUS
 62
6
 10
397.726216
 20
-58.509470
 40
3.300000
  1
B
 41
1.274000
 50
0.000000
 51
0.000000
 72
   5
 73
   0
 11
399.828316
 21
-58.509470
  0
LINE
  8
3
  6
CONTINUOUS
 62
6
 10
398.7772659420
 20
-54.1311427691
 11
396.2772659420
 21
-58.1311427691
  0
LINE
  8
3
  6
CONTINUOUS
 62
6
 10
398.7772659420
 20
-54.1311427691
 11
401.2772659420
 21
-58.1311427691
  0
POINT
  8
3
  6
CONTINUOUS
 62
6
 10
398.7772659420
 20
-56.1311427691
  0
ENDBLK
  8
0
  0
BLOCK
  8
3
  2
S4
 70
     0
 10
398.7772659420
 20
-78.6311427691
  3
S4
  0
LINE
  8
3
  6
CONTINUOUS
 62
6
 10
401.2772659420
 20
-80.6311427691
 11
396.2772659420
 21
-80.6311427691
  0
TEXT
  8
3
  6
CONTINUOUS
 62
6
 10
397.726216
 20
-81.009470
 40
3.300000
  1
B
 41
1.274000
 50
0.000000
 51
0.000000
 72
   5
 73
   0
 11
399.828316
 21
-81.009470
  0
LINE
  8
3
  6
CONTINUOUS
 62
6
 10
398.7772659420
 20
-76.6311427691
 11
396.2772659420
 21
-80.6311427691
  0
LINE
  8
3
  6
CONTINUOUS
 62
6
 10
398.7772659420
 20
-76.6311427691
 11
401.2772659420
 21
-80.6311427691
  0
POINT
  8
3
  6
CONTINUOUS
 62
6
 10
398.7772659420
 20
-78.6311427691
  0
ENDBLK
  8
0
  0
BLOCK
  8
3
  2
S5
 70
     0
 10
398.7772659420
 20
-101.1311427691
  3
S5
  0
LINE
  8
3
  6
CONTINUOUS
 62
6
 10
401.2772659420
 20
-103.1311427691
 11
396.2772659420
 21
-103.1311427691
  0
TEXT
  8
3
  6
CONTINUOUS
 62
6
 10
397.726216
 20
-103.509470
 40
3.300000
  1
B
 41
1.274000
 50
0.000000
 51
0.000000
 72
   5
 73
   0
 11
399.828316
 21
-103.509470
  0
LINE
  8
3
  6
CONTINUOUS
 62
6
 10
398.7772659420
 20
-99.1311427691
 11
396.2772659420
 21
-103.1311427691
  0
LINE
  8
3
  6
CONTINUOUS
 62
6
 10
398.7772659420
 20
-99.1311427691
 11
401.2772659420
 21
-103.1311427691
  0
POINT
  8
3
  6
CONTINUOUS
 62
6
 10
398.7772659420
 20
-101.1311427691
  0
ENDBLK
  8
0
  0
BLOCK
  8
3
  2
S6
 70
     0
 10
398.7772659420
 20
-123.6311427691
  3
S6
  0
LINE
  8
3
  6
CONTINUOUS
 62
6
 10
401.2772659420
 20
-125.6311427691
 11
396.2772659420
 21
-125.6311427691
  0
TEXT
  8
3
  6
CONTINUOUS
 62
6
 10
397.726216
 20
-126.009470
 40
3.300000
  1
B
 41
1.274000
 50
0.000000
 51
0.000000
 72
   5
 73
   0
 11
399.828316
 21
-126.009470
  0
LINE
  8
3
  6
CONTINUOUS
 62
6
 10
398.7772659420
 20
-121.6311427691
 11
396.2772659420
 21
-125.6311427691
  0
LINE
  8
3
  6
CONTINUOUS
 62
6
 10
398.7772659420
 20
-121.6311427691
 11
401.2772659420
 21
-125.6311427691
  0
POINT
  8
3
  6
CONTINUOUS
 62
6
 10
398.7772659420
 20
-123.6311427691
  0
ENDBLK
  8
0
  0
BLOCK
  8
3
  2
S7
 70
     0
 10
9.0000000000
 20
-58.7245888453
  3
S7
  0
LINE
  8
3
  6
CONTINUOUS
 62
6
 10
11.5000000000
 20
-60.7245888453
 11
6.5000000000
 21
-60.7245888453
  0
TEXT
  8
3
  6
CONTINUOUS
 62
6
 10
7.948950
 20
-61.102916
 40
3.300000
  1
B
 41
1.274000
 50
0.000000
 51
0.000000
 72
   5
 73
   0
 11
10.051050
 21
-61.102916
  0
LINE
  8
3
  6
CONTINUOUS
 62
6
 10
9.0000000000
 20
-56.7245888453
 11
6.5000000000
 21
-60.7245888453
  0
LINE
  8
3
  6
CONTINUOUS
 62
6
 10
9.0000000000
 20
-56.7245888453
 11
11.5000000000
 21
-60.7245888453
  0
POINT
  8
3
  6
CONTINUOUS
 62
6
 10
9.0000000000
 20
-58.7245888453
  0
ENDBLK
  8
0
  0
BLOCK
  8
1
  2
S8
 70
     0
 10
203.3593508018
 20
247.9505392833
  3
S8
  0
LINE
  8
1
  6
CONTINUOUS
 62
6
 10
205.8593508018
 20
245.9505392833
 11
200.8593508018
 21
245.9505392833
  0
TEXT
  8
1
  6
CONTINUOUS
 62
6
 10
202.263751
 20
245.572212
 40
3.300000
  1
C
 41
1.328000
 50
0.000000
 51
0.000000
 72
   5
 73
   0
 11
204.454951
 21
245.572212
  0
LINE
  8
1
  6
CONTINUOUS
 62
6
 10
203.3593508018
 20
249.9505392833
 11
200.8593508018
 21
245.9505392833
  0
LINE
  8
1
  6
CONTINUOUS
 62
6
 10
203.3593508018
 20
249.9505392833
 11
205.8593508018
 21
245.9505392833
  0
POINT
  8
1
  6
CONTINUOUS
 62
6
 10
203.3593508018
 20
247.9505392833
  0
ENDBLK
  8
0
  0
BLOCK
  8
1
  2
S9
 70
     0
 10
24.7704201752
 20
-103.6333359421
  3
S9
  0
LINE
  8
1
  6
CONTINUOUS
 62
6
 10
27.2704201752
 20
-105.6333359421
 11
22.2704201752
 21
-105.6333359421
  0
TEXT
  8
1
  6
CONTINUOUS
 62
6
 10
23.674820
 20
-106.011663
 40
3.300000
  1
C
 41
1.328000
 50
0.000000
 51
0.000000
 72
   5
 73
   0
 11
25.866020
 21
-106.011663
  0
LINE
  8
1
  6
CONTINUOUS
 62
6
 10
24.7704201752
 20
-101.6333359421
 11
22.2704201752
 21
-105.6333359421
  0
LINE
  8
1
  6
CONTINUOUS
 62
6
 10
24.7704201752
 20
-101.6333359421
 11
27.2704201752
 21
-105.6333359421
  0
POINT
  8
1
  6
CONTINUOUS
 62
6
 10
24.7704201752
 20
-103.6333359421
  0
ENDBLK
  8
0
  0
BLOCK
  8
1
  2
S10
 70
     0
 10
183.4105174579
 20
91.3525214537
  3
S10
  0
CIRCLE
  8
1
  6
HIDDEN
 62
5
 10
183.4105174579
 20
91.3525214537
 40
4.5000000000
  0
LINE
  8
1
  6
HIDDEN
 62
5
 10
186.7855174581
 20
91.3525214537
 11
180.0355174581
 21
91.3525214537
  0
LINE
  8
1
  6
HIDDEN
 62
5
 10
185.6605174581
 20
89.6650214537
 11
181.1605174581
 21
89.6650214537
  0
LINE
  8
1
  6
HIDDEN
 62
5
 10
184.5355174581
 20
87.9775214537
 11
182.2855174581
 21
87.9775214537
  0
LINE
  8
1
  6
HIDDEN
 62
5
 10
183.4105174579
 20
91.3525214537
 11
183.4105174581
 21
94.7275214537
  0
ENDBLK
  8
0
  0
BLOCK
  8
1
  2
LTEX4
 70
     0
 10
197.9105182328
 20
91.3525214537
  3
LTEX4
  0
SOLID
  8
1
  6
CONTINUOUS
 62
5
 10
199.9029220982
 20
91.1783754318
 11
199.5489175839
 21
90.2055046420
 12
197.9105182328
 22
91.3525214537
 13
197.9105182328
 23
91.3525214537
  0
TEXT
  8
1
  6
CONTINUOUS
 62
7
 10
234.064335
 20
79.197009
 40
3.500000
  1
  M4ｱｰｽﾎﾞｽ
 41
0.765697
 50
0.000000
 51
0.000000
 72
   5
 73
   0
 11
251.564335
 21
79.197009
  0
LINE
  8
1
  6
BYBLOCK
 62
5
 10
197.9105182328
 20
91.3525214537
 11
234.0643346497
 21
78.1970085563
  0
LINE
  8
1
  6
BYBLOCK
 62
5
 10
234.0643346497
 20
78.1970085563
 11
251.5643346497
 21
78.1970085563
  0
ENDBLK
  8
0
  0
BLOCK
  8
1
  2
S11
 70
     0
 10
233.9316052311
 20
82.0992534633
  3
S11
  0
LINE
  8
1
  6
CONTINUOUS
 62
6
 10
236.4316052311
 20
80.0992534633
 11
231.4316052311
 21
80.0992534633
  0
TEXT
  8
1
  6
CONTINUOUS
 62
6
 10
232.836005
 20
79.720926
 40
3.300000
  1
C
 41
1.328000
 50
0.000000
 51
0.000000
 72
   5
 73
   0
 11
235.027205
 21
79.720926
  0
LINE
  8
1
  6
CONTINUOUS
 62
6
 10
233.9316052311
 20
84.0992534633
 11
231.4316052311
 21
80.0992534633
  0
LINE
  8
1
  6
CONTINUOUS
 62
6
 10
233.9316052311
 20
84.0992534633
 11
236.4316052311
 21
80.0992534633
  0
POINT
  8
1
  6
CONTINUOUS
 62
6
 10
233.9316052311
 20
82.0992534633
  0
ENDBLK
  8
0
  0
BLOCK
  8
1
  2
LTEX5
 70
     0
 10
54.2456447311
 20
-286.0900865140
  3
LTEX5
  0
SOLID
  8
1
  6
CONTINUOUS
 62
5
 10
56.2380485966
 20
-286.2642325360
 11
55.8840440822
 21
-287.2371033257
 12
54.2456447311
 22
-286.0900865140
 13
54.2456447311
 23
-286.0900865140
  0
TEXT
  8
1
  6
CONTINUOUS
 62
7
 10
90.399461
 20
-298.245599
 40
3.500000
  1
  M4ｱｰｽﾎﾞｽ
 41
0.765697
 50
0.000000
 51
0.000000
 72
   5
 73
   0
 11
107.899461
 21
-298.245599
  0
LINE
  8
1
  6
BYBLOCK
 62
5
 10
54.2456447311
 20
-286.0900865140
 11
90.3994611481
 21
-299.2455994114
  0
LINE
  8
1
  6
BYBLOCK
 62
5
 10
90.3994611481
 20
-299.2455994114
 11
107.8994611481
 21
-299.2455994114
  0
ENDBLK
  8
0
  0
BLOCK
  8
1
  2
S12
 70
     0
 10
90.2667317295
 20
-295.3433545044
  3
S12
  0
LINE
  8
1
  6
CONTINUOUS
 62
6
 10
92.7667317295
 20
-297.3433545044
 11
87.7667317295
 21
-297.3433545044
  0
TEXT
  8
1
  6
CONTINUOUS
 62
6
 10
89.171132
 20
-297.721682
 40
3.300000
  1
C
 41
1.328000
 50
0.000000
 51
0.000000
 72
   5
 73
   0
 11
91.362332
 21
-297.721682
  0
LINE
  8
1
  6
CONTINUOUS
 62
6
 10
90.2667317295
 20
-293.3433545044
 11
87.7667317295
 21
-297.3433545044
  0
LINE
  8
1
  6
CONTINUOUS
 62
6
 10
90.2667317295
 20
-293.3433545044
 11
92.7667317295
 21
-297.3433545044
  0
POINT
  8
1
  6
CONTINUOUS
 62
6
 10
90.2667317295
 20
-295.3433545044
  0
ENDBLK
  8
0
  0
BLOCK
  8
1
  2
S13
 70
     0
 10
39.7456439562
 20
-286.0900865140
  3
S13
  0
CIRCLE
  8
1
  6
HIDDEN
 62
5
 10
39.7456439562
 20
-286.0900865140
 40
4.5000000000
  0
LINE
  8
1
  6
HIDDEN
 62
5
 10
43.1206439564
 20
-286.0900865140
 11
36.3706439564
 21
-286.0900865140
  0
LINE
  8
1
  6
HIDDEN
 62
5
 10
41.9956439564
 20
-287.7775865140
 11
37.4956439564
 21
-287.7775865140
  0
LINE
  8
1
  6
HIDDEN
 62
5
 10
40.8706439564
 20
-289.4650865140
 11
38.6206439564
 21
-289.4650865140
  0
LINE
  8
1
  6
HIDDEN
 62
5
 10
39.7456439562
 20
-286.0900865140
 11
39.7456439564
 21
-282.7150865140
  0
ENDBLK
  8
0
  0
BLOCK
  8
3
  2
LTEX6
 70
     0
 10
134.5962334454
 20
86.7605564293
  3
LTEX6
  0
SOLID
  8
3
  6
CONTINUOUS
 62
5
 10
135.0708243304
 20
84.8176813710
 11
134.0358036791
 21
84.8406818299
 12
134.5962334454
 22
86.7605564293
 13
134.5962334454
 23
86.7605564293
  0
TEXT
  8
3
  6
CONTINUOUS
 62
7
 10
133.340636
 20
31.258654
 40
3.500000
  1
 PBT品はｱｰｽ部(2箇所) 
 41
0.804598
 50
0.000000
 51
0.000000
 72
   5
 73
   0
 11
170.090636
 21
31.258654
  0
TEXT
  8
3
  6
CONTINUOUS
 62
7
 10
133.340636
 20
26.258654
 40
3.500000
  1
%%uは無いです%%u
 41
0.880282
 50
0.000000
 51
0.000000
 72
   5
 73
   0
 11
150.840636
 21
26.258654
  0
LINE
  8
3
  6
BYBLOCK
 62
5
 10
134.5962334454
 20
86.7605564293
 11
133.3406356149
 21
30.2586540591
  0
LINE
  8
3
  6
BYBLOCK
 62
5
 10
133.3406356149
 20
30.2586540591
 11
170.0906356149
 21
30.2586540591
  0
ENDBLK
  8
0
  0
BLOCK
  8
1
  2
S14
 70
     0
 10
137.2868002249
 20
38.5097255163
  3
S14
  0
LINE
  8
1
  6
CONTINUOUS
 62
6
 10
139.7868002249
 20
36.5097255163
 11
134.7868002249
 21
36.5097255163
  0
TEXT
  8
1
  6
CONTINUOUS
 62
6
 10
136.191200
 20
36.131398
 40
3.300000
  1
C
 41
1.328000
 50
0.000000
 51
0.000000
 72
   5
 73
   0
 11
138.382400
 21
36.131398
  0
LINE
  8
1
  6
CONTINUOUS
 62
6
 10
137.2868002249
 20
40.5097255163
 11
134.7868002249
 21
36.5097255163
  0
LINE
  8
1
  6
CONTINUOUS
 62
6
 10
137.2868002249
 20
40.5097255163
 11
139.7868002249
 21
36.5097255163
  0
POINT
  8
1
  6
CONTINUOUS
 62
6
 10
137.2868002249
 20
38.5097255163
  0
ENDBLK
  8
0
  0
BLOCK
  8
3
  2
LTEX7
 70
     0
 10
88.2645106558
 20
17.3439335173
  3
LTEX7
  0
SOLID
  8
3
  6
CONTINUOUS
 62
5
 10
89.9790701192
 20
18.3736353414
 11
90.2642136195
 21
17.3784017236
 12
88.2645106558
 22
17.3439335173
 13
88.2645106558
 23
17.3439335173
  0
TEXT
  8
3
  6
CONTINUOUS
 62
7
 10
133.340636
 20
31.258654
 40
3.500000
  1
 
 41
1.000000
 50
0.000000
 51
0.000000
 72
   5
 73
   0
 11
135.090636
 21
31.258654
  0
LINE
  8
3
  6
BYBLOCK
 62
5
 10
88.2645106558
 20
17.3439335173
 11
133.3406356149
 21
30.2586540591
  0
LINE
  8
3
  6
BYBLOCK
 62
5
 10
133.3406356149
 20
30.2586540591
 11
135.0906356149
 21
30.2586540591
  0
ENDBLK
  8
0
  0
BLOCK
  8
3
  2
LTEX8
 70
     0
 10
39.2645106558
 20
18.7789024664
  3
LTEX8
  0
SOLID
  8
3
  6
CONTINUOUS
 62
5
 10
41.1194376375
 20
19.5267299150
 11
41.2448382684
 21
18.4990765437
 12
39.2645106558
 22
18.7789024664
 13
39.2645106558
 23
18.7789024664
  0
TEXT
  8
3
  6
CONTINUOUS
 62
7
 10
133.340636
 20
31.258654
 40
3.500000
  1
 
 41
1.000000
 50
0.000000
 51
0.000000
 72
   5
 73
   0
 11
135.090636
 21
31.258654
  0
LINE
  8
3
  6
BYBLOCK
 62
5
 10
39.2645106558
 20
18.7789024664
 11
133.3406356149
 21
30.2586540591
  0
LINE
  8
3
  6
BYBLOCK
 62
5
 10
133.3406356149
 20
30.2586540591
 11
135.0906356149
 21
30.2586540591
  0
ENDBLK
  8
0
  0
BLOCK
  8
1
  2
S15
 70
     0
 10
309.3313851285
 20
266.8545250502
  3
S15
  0
LINE
  8
1
  6
CONTINUOUS
 62
6
 10
311.8313851285
 20
264.8545250502
 11
306.8313851285
 21
264.8545250502
  0
TEXT
  8
1
  6
CONTINUOUS
 62
6
 10
308.235785
 20
264.476198
 40
3.300000
  1
C
 41
1.328000
 50
0.000000
 51
0.000000
 72
   5
 73
   0
 11
310.426985
 21
264.476198
  0
LINE
  8
1
  6
CONTINUOUS
 62
6
 10
309.3313851285
 20
268.8545250502
 11
306.8313851285
 21
264.8545250502
  0
LINE
  8
1
  6
CONTINUOUS
 62
6
 10
309.3313851285
 20
268.8545250502
 11
311.8313851285
 21
264.8545250502
  0
POINT
  8
1
  6
CONTINUOUS
 62
6
 10
309.3313851285
 20
266.8545250502
  0
ENDBLK
  8
0
  0
BLOCK
  8
1
  2
S16
 70
     0
 10
309.5748265258
 20
234.4474089991
  3
S16
  0
LINE
  8
1
  6
CONTINUOUS
 62
6
 10
312.0748265258
 20
232.4474089991
 11
307.0748265258
 21
232.4474089991
  0
TEXT
  8
1
  6
CONTINUOUS
 62
6
 10
308.479227
 20
232.069082
 40
3.300000
  1
C
 41
1.328000
 50
0.000000
 51
0.000000
 72
   5
 73
   0
 11
310.670427
 21
232.069082
  0
LINE
  8
1
  6
CONTINUOUS
 62
6
 10
309.5748265258
 20
236.4474089991
 11
307.0748265258
 21
232.4474089991
  0
LINE
  8
1
  6
CONTINUOUS
 62
6
 10
309.5748265258
 20
236.4474089991
 11
312.0748265258
 21
232.4474089991
  0
POINT
  8
1
  6
CONTINUOUS
 62
6
 10
309.5748265258
 20
234.4474089991
  0
ENDBLK
  8
0
  0
ENDSEC
  0
SECTION
  2
ENTITIES
  0
LINE
  8
1
  6
CONTINUOUS
 62
7
 10
95.7645106558
 20
65.6025214537
 11
95.7645106558
 21
209.4775214537
  0
LINE
  8
1
  6
CONTINUOUS
 62
7
 10
28.7645106558
 20
209.4775214537
 11
28.7645106558
 21
65.6025214537
  0
LINE
  8
1
  6
CONTINUOUS
 62
7
 10
96.7645106558
 20
64.6025214537
 11
96.7645106558
 21
220.1025214537
  0
LINE
  8
1
  6
CONTINUOUS
 62
7
 10
27.7645106558
 20
220.1025214537
 11
27.7645106558
 21
64.6025214537
  0
LINE
  8
1
  6
DASHDOT
 62
1
 10
101.7645106558
 20
213.1025214537
 11
22.7645106558
 21
213.1025214537
  0
LINE
  8
1
  6
CONTINUOUS
 62
7
 10
96.7645106558
 20
64.6025214537
 11
76.7270138153
 21
64.6025214537
  0
LINE
  8
1
  6
CONTINUOUS
 62
7
 10
47.8020074964
 20
64.6025214537
 11
27.7645106558
 21
64.6025214537
  0
LINE
  8
1
  6
CONTINUOUS
 62
7
 10
28.7645106558
 20
65.6025214537
 11
45.5659395189
 21
65.6025214537
  0
LINE
  8
1
  6
CONTINUOUS
 62
7
 10
78.9630817928
 20
65.6025214537
 11
95.7645106558
 21
65.6025214537
  0
LINE
  8
1
  6
CONTINUOUS
 62
7
 10
124.4661466639
 20
207.1025214537
 11
124.4661466639
 21
65.6025214537
  0
CIRCLE
  8
1
  6
CONTINUOUS
 62
7
 10
121.4661466639
 20
213.1025214537
 40
2.0000000000
  0
ARC
  8
1
  6
CONTINUOUS
 62
7
 10
121.4661466639
 20
213.1025214537
 40
6.0000000000
 50
90.0000000000
 51
270.0000000000
  0
LINE
  8
1
  6
CONTINUOUS
 62
7
 10
124.4661466639
 20
207.1025214537
 11
121.4661466639
 21
207.1025214537
  0
LINE
  8
1
  6
CONTINUOUS
 62
7
 10
124.4661466639
 20
219.1025214537
 11
121.4661466639
 21
219.1025214537
  0
LINE
  8
1
  6
CONTINUOUS
 62
7
 10
133.4661466639
 20
220.1025214537
 11
133.4661466639
 21
64.6025214537
  0
LINE
  8
1
  6
CONTINUOUS
 62
7
 10
28.7645106558
 20
207.1025214537
 11
28.7645106558
 21
219.1025214537
  0
LINE
  8
1
  6
CONTINUOUS
 62
7
 10
28.7645106558
 20
219.1025214537
 11
33.7645106558
 21
219.1025214537
  0
LINE
  8
1
  6
CONTINUOUS
 62
7
 10
33.7645106558
 20
219.1025214537
 11
33.7645106558
 21
207.1025214537
  0
LINE
  8
1
  6
CONTINUOUS
 62
7
 10
33.7645106558
 20
207.1025214537
 11
28.7645106558
 21
207.1025214537
  0
LINE
  8
1
  6
CONTINUOUS
 62
7
 10
95.7645106558
 20
219.1025214537
 11
90.7645106558
 21
219.1025214537
  0
LINE
  8
1
  6
CONTINUOUS
 62
7
 10
90.7645106558
 20
219.1025214537
 11
90.7645106558
 21
207.1025214537
  0
LINE
  8
1
  6
CONTINUOUS
 62
7
 10
90.7645106558
 20
207.1025214537
 11
95.7645106558
 21
207.1025214537
  0
LINE
  8
1
  6
CONTINUOUS
 62
7
 10
95.7645106558
 20
207.1025214537
 11
95.7645106558
 21
219.1025214537
  0
LINE
  8
1
  6
CONTINUOUS
 62
7
 10
90.7645106558
 20
207.1025214537
 11
90.7645106558
 21
206.1025214537
  0
LINE
  8
1
  6
CONTINUOUS
 62
7
 10
33.7645106558
 20
206.1025214537
 11
33.7645106558
 21
207.1025214537
  0
LINE
  8
1
  6
CONTINUOUS
 62
7
 10
96.7645106558
 20
220.1025214537
 11
27.7645106558
 21
220.1025214537
  0
LINE
  8
1
  6
CONTINUOUS
 62
7
 10
96.7645106558
 20
27.5484212565
 11
27.7645106558
 21
27.5484212565
  0
LINE
  8
1
  6
CONTINUOUS
 62
7
 10
28.7645106558
 20
36.5484212565
 11
95.7645106558
 21
36.5484212565
  0
LINE
  8
1
  6
CONTINUOUS
 62
7
 10
133.4661466639
 20
64.6025214537
 11
124.4661466639
 21
65.6025214537
  0
LINE
  8
1
  6
CONTINUOUS
 62
7
 10
133.4661466639
 20
220.1025214537
 11
124.4661466639
 21
219.1025214537
  0
LINE
  8
1
  6
CONTINUOUS
 62
7
 10
28.7645106558
 20
36.5484212565
 11
27.7645106558
 21
27.5484212565
  0
LINE
  8
1
  6
CONTINUOUS
 62
7
 10
95.7645106558
 20
36.5484212565
 11
96.7645106558
 21
27.5484212565
  0
LINE
  8
1
  6
HIDDEN
 62
7
 10
124.4661466639
 20
206.1025214537
 11
127.9661466639
 21
206.1025214537
  0
LINE
  8
1
  6
HIDDEN
 62
7
 10
127.9661466639
 20
206.1025214537
 11
127.9661466639
 21
219.4914103426
  0
LINE
  8
1
  6
HIDDEN
 62
7
 10
34.7645106558
 20
33.5484212565
 11
34.7645106558
 21
36.5484212565
  0
LINE
  8
1
  6
HIDDEN
 62
7
 10
89.7645106558
 20
33.5484212565
 11
34.7645106558
 21
33.5484212565
  0
LINE
  8
1
  6
HIDDEN
 62
7
 10
89.7645106558
 20
33.5484212565
 11
89.7645106558
 21
36.5484212565
  0
LINE
  8
1
  6
HIDDEN
 62
7
 10
85.5145106558
 20
33.5484212565
 11
85.5145106558
 21
29.5484212565
  0
LINE
  8
1
  6
HIDDEN
 62
7
 10
85.5145106558
 20
29.5484212565
 11
84.0145106559
 21
29.5484212565
  0
LINE
  8
1
  6
HIDDEN
 62
7
 10
80.5145106559
 20
29.5484212565
 11
79.0145106558
 21
29.5484212565
  0
LINE
  8
1
  6
HIDDEN
 62
7
 10
79.0145106558
 20
29.5484212565
 11
79.0145106558
 21
33.5484212565
  0
LINE
  8
1
  6
HIDDEN
 62
7
 10
80.5145106559
 20
29.5484212565
 11
80.5145106556
 21
27.5484212565
  0
LINE
  8
1
  6
HIDDEN
 62
7
 10
84.0145106559
 20
29.5484212565
 11
84.0145106558
 21
27.5484212565
  0
LINE
  8
1
  6
HIDDEN
 62
7
 10
39.0145106558
 20
33.5484212565
 11
39.0145106558
 21
29.5484212565
  0
LINE
  8
1
  6
HIDDEN
 62
7
 10
39.0145106558
 20
29.5484212565
 11
40.5145106558
 21
29.5484212565
  0
LINE
  8
1
  6
HIDDEN
 62
7
 10
44.0145106558
 20
29.5484212565
 11
45.5145106558
 21
29.5484212565
  0
LINE
  8
1
  6
HIDDEN
 62
7
 10
45.5145106558
 20
29.5484212565
 11
45.5145106558
 21
33.5484212565
  0
LINE
  8
1
  6
HIDDEN
 62
7
 10
44.0145106558
 20
29.5484212565
 11
44.0145106561
 21
27.5484212565
  0
LINE
  8
1
  6
HIDDEN
 62
7
 10
40.5145106558
 20
29.5484212565
 11
40.5145106559
 21
27.5484212565
  0
LINE
  8
1
  6
HIDDEN
 62
7
 10
60.2645106558
 20
33.5484212565
 11
60.2645106558
 21
27.5484212565
  0
LINE
  8
1
  6
HIDDEN
 62
7
 10
64.2645106558
 20
33.5484212565
 11
64.2645106558
 21
27.5484212565
  0
LINE
  8
1
  6
HIDDEN
 62
7
 10
63.9145106558
 20
33.5484212565
 11
63.9145106558
 21
27.5484212565
  0
LINE
  8
1
  6
HIDDEN
 62
7
 10
60.6145106558
 20
33.5484212565
 11
60.6145106558
 21
27.5484212565
  0
LINE
  8
1
  6
HIDDEN
 62
7
 10
124.4661466639
 20
201.1025214537
 11
127.9661466639
 21
201.1025214537
  0
LINE
  8
1
  6
HIDDEN
 62
7
 10
127.9661466639
 20
200.4775214537
 11
127.9661466639
 21
76.6025214537
  0
LINE
  8
1
  6
HIDDEN
 62
7
 10
127.9661466639
 20
76.6025214537
 11
124.4661466639
 21
76.6025214537
  0
LINE
  8
1
  6
HIDDEN
 62
7
 10
127.9661466639
 20
85.3525214537
 11
133.4661466639
 21
85.3525214537
  0
LINE
  8
1
  6
HIDDEN
 62
7
 10
127.9661466639
 20
192.3525214537
 11
133.4661466639
 21
192.3525214537
  0
LINE
  8
1
  6
HIDDEN
 62
7
 10
127.9661466639
 20
83.6025214537
 11
131.9661466639
 21
83.6025214537
  0
LINE
  8
1
  6
HIDDEN
 62
7
 10
131.9661466639
 20
83.6025214537
 11
131.9661466639
 21
82.1025214537
  0
LINE
  8
1
  6
HIDDEN
 62
7
 10
131.9661466639
 20
78.6025214537
 11
131.9661466639
 21
77.1025214537
  0
LINE
  8
1
  6
HIDDEN
 62
7
 10
131.9661466639
 20
77.1025214537
 11
127.9661466639
 21
77.1025214537
  0
LINE
  8
1
  6
HIDDEN
 62
7
 10
131.9661466639
 20
78.6025214537
 11
133.4661466639
 21
78.6025214535
  0
LINE
  8
1
  6
HIDDEN
 62
7
 10
131.9661466639
 20
82.1025214537
 11
133.4661466639
 21
82.1025214648
  0
LINE
  8
1
  6
HIDDEN
 62
7
 10
127.9661466639
 20
194.1025214537
 11
131.9661466639
 21
194.1025214537
  0
LINE
  8
1
  6
HIDDEN
 62
7
 10
131.9661466639
 20
194.1025214537
 11
131.9661466639
 21
195.6025214537
  0
LINE
  8
1
  6
HIDDEN
 62
7
 10
131.9661466639
 20
199.1025214537
 11
131.9661466639
 21
200.6025214537
  0
LINE
  8
1
  6
HIDDEN
 62
7
 10
131.9661466639
 20
200.6025214537
 11
127.9661466639
 21
200.6025214537
  0
LINE
  8
1
  6
HIDDEN
 62
7
 10
131.9661466639
 20
199.1025214537
 11
133.4661466639
 21
199.1025214539
  0
LINE
  8
1
  6
HIDDEN
 62
7
 10
131.9661466639
 20
195.6025214537
 11
133.4661466639
 21
195.6025214425
  0
ARC
  8
2
  6
HIDDEN
 62
5
 10
121.4661466639
 20
213.1025214537
 40
6.0000000000
 50
294.6243183522
 51
164.1092389898
  0
LINE
  8
2
  6
HIDDEN
 62
5
 10
123.9661466639
 20
207.6481653964
 11
123.9661466639
 21
207.1025214537
  0
LINE
  8
2
  6
CONTINUOUS
 62
5
 10
123.9661466639
 20
207.1025214537
 11
123.9661466639
 21
65.6025214537
  0
LINE
  8
2
  6
CONTINUOUS
 62
5
 10
115.8202125868
 20
65.6025214537
 11
123.9661466639
 21
65.6025214537
  0
LINE
  8
2
  6
CONTINUOUS
 62
5
 10
109.4661466639
 20
61.6025214537
 11
109.4661466639
 21
192.4775214537
  0
LINE
  8
2
  6
CONTINUOUS
 62
5
 10
123.9661466639
 20
206.1025214537
 11
113.2892089437
 21
206.1025214537
  0
CIRCLE
  8
2
  6
CONTINUOUS
 62
5
 10
121.4661466639
 20
213.1025214537
 40
2.0000000000
  0
LINE
  8
2
  6
CONTINUOUS
 62
5
 10
29.7645106558
 20
206.1025214537
 11
33.9645106558
 21
206.1025214537
  0
LINE
  8
2
  6
CONTINUOUS
 62
5
 10
33.9645106558
 20
206.1025214537
 11
33.9645106558
 21
219.1025214537
  0
LINE
  8
2
  6
CONTINUOUS
 62
5
 10
33.9645106558
 20
219.1025214537
 11
90.5645106558
 21
219.1025214537
  0
LINE
  8
2
  6
CONTINUOUS
 62
5
 10
90.5645106558
 20
219.1025214537
 11
90.5645106558
 21
206.1025214537
  0
LINE
  8
2
  6
CONTINUOUS
 62
5
 10
90.5645106558
 20
206.1025214537
 11
94.7645106558
 21
206.1025214537
  0
LINE
  8
2
  6
CONTINUOUS
 62
5
 10
94.7645106558
 20
206.1025214537
 11
94.7645106558
 21
65.6025214537
  0
LINE
  8
2
  6
CONTINUOUS
 62
5
 10
78.9630817928
 20
65.6025214537
 11
94.7645106558
 21
65.6025214537
  0
LINE
  8
2
  6
CONTINUOUS
 62
5
 10
45.5659395189
 20
65.6025214537
 11
29.7645106558
 21
65.6025214537
  0
LINE
  8
2
  6
CONTINUOUS
 62
5
 10
29.7645106558
 20
65.6025214537
 11
29.7645106558
 21
206.1025214537
  0
LINE
  8
2
  6
CONTINUOUS
 62
5
 10
49.3906030156
 20
62.0590341874
 11
48.1384182961
 21
64.1460087200
  0
LINE
  8
2
  6
CONTINUOUS
 62
5
 10
72.5659395189
 20
60.6025214537
 11
51.9630817928
 21
60.6025214537
  0
ARC
  8
2
  6
CONTINUOUS
 62
5
 10
45.5659395189
 20
62.6025214537
 40
3.0000000000
 50
30.9637565321
 51
90.0000000000
  0
ARC
  8
2
  6
CONTINUOUS
 62
5
 10
51.9630817928
 20
63.6025214537
 40
3.0000000000
 50
210.9637565321
 51
270.0000000000
  0
LINE
  8
2
  6
CONTINUOUS
 62
5
 10
75.1384182961
 20
62.0590341874
 11
76.3906030156
 21
64.1460087200
  0
ARC
  8
2
  6
CONTINUOUS
 62
5
 10
78.9630817928
 20
62.6025214537
 40
3.0000000000
 50
90.0000000000
 51
149.0362434679
  0
ARC
  8
2
  6
CONTINUOUS
 62
5
 10
72.5659395189
 20
63.6025214537
 40
3.0000000000
 50
270.0000000000
 51
329.0362434679
  0
LINE
  8
2
  6
HIDDEN
 62
5
 10
109.4661466639
 20
70.7525214537
 11
111.4661466639
 21
70.7525214537
  0
LINE
  8
2
  6
HIDDEN
 62
5
 10
111.4661466639
 20
71.1025214537
 11
109.4661466639
 21
71.1025214537
  0
LINE
  8
2
  6
HIDDEN
 62
5
 10
111.4661466639
 20
71.3525214537
 11
123.9661466639
 21
71.3525214537
  0
LINE
  8
2
  6
HIDDEN
 62
5
 10
109.4661466639
 20
67.4525214537
 11
111.4661466639
 21
67.4525214537
  0
LINE
  8
2
  6
HIDDEN
 62
5
 10
111.4661466639
 20
67.1025214537
 11
109.4661466639
 21
67.1025214537
  0
LINE
  8
2
  6
HIDDEN
 62
5
 10
111.4661466639
 20
66.8525214537
 11
123.9661466639
 21
66.8525214537
  0
LINE
  8
2
  6
HIDDEN
 62
5
 10
111.4661466639
 20
71.3525214537
 11
111.4661466639
 21
66.8525214537
  0
LINE
  8
1
  6
HIDDEN
 62
7
 10
124.4661466639
 20
71.1025214537
 11
133.4661466639
 21
71.1025214537
  0
LINE
  8
1
  6
HIDDEN
 62
7
 10
124.4661466639
 20
70.7525214537
 11
133.4661466639
 21
70.7525214537
  0
LINE
  8
1
  6
HIDDEN
 62
7
 10
124.4661466639
 20
67.4525214537
 11
133.4661466639
 21
67.4525214537
  0
LINE
  8
1
  6
HIDDEN
 62
7
 10
124.4661466639
 20
67.1025214537
 11
133.4661466639
 21
67.1025214537
  0
LINE
  8
2
  6
CONTINUOUS
 62
5
 10
113.9632592050
 20
64.3453028064
 11
112.7175903934
 21
61.2311307773
  0
LINE
  8
2
  6
CONTINUOUS
 62
5
 10
111.7891137025
 20
60.6025214537
 11
110.4661466639
 21
60.6025214537
  0
LINE
  8
2
  6
CONTINUOUS
 62
5
 10
36.2645106558
 20
51.5484212565
 11
88.2645106558
 21
51.5484212565
  0
LINE
  8
2
  6
CONTINUOUS
 62
5
 10
94.7645106558
 20
43.5484212565
 11
94.7645106558
 21
37.0484212565
  0
LINE
  8
2
  6
CONTINUOUS
 62
5
 10
94.7645106558
 20
37.0484212565
 11
29.7645106558
 21
37.0484212565
  0
LINE
  8
2
  6
CONTINUOUS
 62
5
 10
29.7645106558
 20
37.0484212565
 11
29.7645106558
 21
43.5484212565
  0
LINE
  8
2
  6
CONTINUOUS
 62
5
 10
94.7645106558
 20
43.5484212565
 11
88.2645106558
 21
51.5484212565
  0
LINE
  8
2
  6
CONTINUOUS
 62
5
 10
36.2645106558
 20
51.5484212565
 11
29.7645106558
 21
43.5484212565
  0
LINE
  8
2
  6
CONTINUOUS
 62
5
 10
33.8539337328
 20
206.1025214537
 11
36.2645106558
 21
192.4775214537
  0
LINE
  8
2
  6
CONTINUOUS
 62
5
 10
36.2645106558
 20
192.4775214537
 11
88.2645106558
 21
192.4775214537
  0
LINE
  8
2
  6
CONTINUOUS
 62
5
 10
88.2645106558
 20
192.4775214537
 11
90.6750875789
 21
206.1025214537
  0
LINE
  8
2
  6
CONTINUOUS
 62
5
 10
88.2645106558
 20
192.4775214537
 11
88.2645106558
 21
65.6025214537
  0
LINE
  8
2
  6
CONTINUOUS
 62
5
 10
36.2645106558
 20
65.6025214537
 11
36.2645106558
 21
192.4775214537
  0
LINE
  8
2
  6
CONTINUOUS
 62
5
 10
45.5659395189
 20
51.5484212565
 11
45.5659395189
 21
46.5484212565
  0
LINE
  8
2
  6
CONTINUOUS
 62
5
 10
45.5659395189
 20
46.5484212565
 11
51.9630817928
 21
48.5484212565
  0
LINE
  8
2
  6
CONTINUOUS
 62
5
 10
51.9630817928
 20
48.5484212565
 11
72.5659395189
 21
48.5484212565
  0
LINE
  8
2
  6
CONTINUOUS
 62
5
 10
72.5659395189
 20
48.5484212565
 11
78.9630817928
 21
46.5484212565
  0
LINE
  8
2
  6
CONTINUOUS
 62
5
 10
78.9630817928
 20
46.5484212565
 11
78.9630817928
 21
51.5484212565
  0
LINE
  8
2
  6
CONTINUOUS
 62
5
 10
51.9630817928
 20
51.5484212565
 11
51.9630817928
 21
48.5484212565
  0
LINE
  8
2
  6
CONTINUOUS
 62
5
 10
72.5659395189
 20
51.5484212565
 11
72.5659395189
 21
48.5484212565
  0
LINE
  8
2
  6
CONTINUOUS
 62
5
 10
45.5659395189
 20
46.5484212565
 11
78.9630817928
 21
46.5484212565
  0
ARC
  8
2
  6
CONTINUOUS
 62
5
 10
110.4661466639
 20
61.6025214537
 40
1.0000000000
 50
180.0000000000
 51
270.0000000000
  0
ARC
  8
2
  6
CONTINUOUS
 62
5
 10
111.7891137025
 20
61.6025214537
 40
1.0000000000
 50
270.0000000000
 51
338.1985905136
  0
ARC
  8
2
  6
CONTINUOUS
 62
5
 10
115.8202125868
 20
63.6025214537
 40
2.0000000000
 50
90.0000000000
 51
158.1985905136
  0
LINE
  8
1
  6
CONTINUOUS
 62
7
 10
96.7645106558
 20
27.5484212565
 11
27.7645106558
 21
27.5484212565
  0
LINE
  8
2
  6
CONTINUOUS
 62
5
 10
124.9661466639
 20
204.3525214537
 11
123.9661466639
 21
204.3525214537
  0
LINE
  8
2
  6
CONTINUOUS
 62
5
 10
124.9661466639
 20
204.3525214537
 11
124.9661466639
 21
203.8525214537
  0
LINE
  8
2
  6
CONTINUOUS
 62
5
 10
124.9661466639
 20
203.8525214537
 11
123.9661466639
 21
203.8525214537
  0
LINE
  8
2
  6
HIDDEN
 62
5
 10
123.9661466639
 20
203.8525214537
 11
114.7351177630
 21
203.8525214537
  0
LINE
  8
2
  6
CONTINUOUS
 62
5
 10
123.9661466639
 20
73.3525214537
 11
124.9661466639
 21
73.3525214537
  0
LINE
  8
2
  6
CONTINUOUS
 62
5
 10
124.9661466639
 20
73.3525214537
 11
124.9661466639
 21
73.8525214537
  0
LINE
  8
2
  6
CONTINUOUS
 62
5
 10
124.9661466639
 20
73.8525214537
 11
123.9661466639
 21
73.8525214537
  0
LINE
  8
2
  6
HIDDEN
 62
5
 10
123.9661466639
 20
73.8525214537
 11
111.4661466639
 21
73.8525214537
  0
LINE
  8
1
  6
CONTINUOUS
 62
7
 10
219.9105182328
 20
201.1025214537
 11
167.9105182328
 21
201.1025214537
  0
LINE
  8
1
  6
CONTINUOUS
 62
7
 10
221.4105182328
 20
78.1025214537
 11
221.4105182328
 21
199.6025214537
  0
LINE
  8
1
  6
CONTINUOUS
 62
7
 10
167.9105182328
 20
76.6025214537
 11
219.9105182328
 21
76.6025214537
  0
LINE
  8
1
  6
CONTINUOUS
 62
7
 10
166.4105182328
 20
78.1025214537
 11
166.4105182328
 21
199.6025214537
  0
LINE
  8
1
  6
CONTINUOUS
 62
7
 10
223.4105182328
 20
75.6025214537
 11
223.4105182328
 21
202.1025214537
  0
LINE
  8
1
  6
CONTINUOUS
 62
7
 10
222.4105182328
 20
203.1025214537
 11
165.4105182328
 21
203.1025214537
  0
LINE
  8
1
  6
CONTINUOUS
 62
7
 10
164.4105182328
 20
75.6025214537
 11
164.4105182328
 21
202.1025214537
  0
LINE
  8
1
  6
CONTINUOUS
 62
7
 10
165.4105182328
 20
74.6025214537
 11
222.4105182328
 21
74.6025214537
  0
ARC
  8
1
  6
CONTINUOUS
 62
7
 10
167.9105182328
 20
199.6025214537
 40
1.5000000000
 50
90.0000000000
 51
180.0000000000
  0
ARC
  8
1
  6
CONTINUOUS
 62
7
 10
219.9105182328
 20
199.6025214537
 40
1.5000000000
 50
0.0000000000
 51
90.0000000000
  0
ARC
  8
1
  6
CONTINUOUS
 62
7
 10
219.9105182328
 20
78.1025214537
 40
1.5000000000
 50
270.0000000000
 51
0.0000000000
  0
ARC
  8
1
  6
CONTINUOUS
 62
7
 10
167.9105182328
 20
78.1025214537
 40
1.5000000000
 50
180.0000000000
 51
270.0000000000
  0
CIRCLE
  8
1
  6
HIDDEN
 62
3
 10
173.9105182328
 20
197.3525214537
 40
1.7500000000
  0
CIRCLE
  8
1
  6
HIDDEN
 62
3
 10
173.9105182328
 20
197.3525214537
 40
3.2500000000
  0
CIRCLE
  8
1
  6
HIDDEN
 62
3
 10
213.9105182328
 20
197.3525214537
 40
1.7500000000
  0
CIRCLE
  8
1
  6
HIDDEN
 62
3
 10
213.9105182328
 20
197.3525214537
 40
3.2500000000
  0
LINE
  8
1
  6
HIDDEN
 62
3
 10
216.9105182328
 20
192.3525214537
 11
219.9105182328
 21
192.3525214537
  0
LINE
  8
1
  6
HIDDEN
 62
3
 10
168.9105182328
 20
192.3525214537
 11
216.9105182328
 21
192.3525214537
  0
CIRCLE
  8
1
  6
HIDDEN
 62
3
 10
173.9105182328
 20
80.3525214537
 40
1.7500000000
  0
CIRCLE
  8
1
  6
HIDDEN
 62
3
 10
173.9105182328
 20
80.3525214537
 40
3.2500000000
  0
CIRCLE
  8
1
  6
HIDDEN
 62
3
 10
213.9105182328
 20
80.3525214537
 40
1.7500000000
  0
CIRCLE
  8
1
  6
HIDDEN
 62
3
 10
213.9105182328
 20
80.3525214537
 40
3.2500000000
  0
CIRCLE
  8
1
  6
HIDDEN
 62
3
 10
193.9105182328
 20
197.3525214537
 40
2.0000000000
  0
LINE
  8
1
  6
CONTINUOUS
 62
7
 10
225.4105182328
 20
75.6025214537
 11
225.4105182328
 21
202.1025214537
  0
LINE
  8
1
  6
CONTINUOUS
 62
7
 10
222.4105182328
 20
205.1025214537
 11
165.4105182328
 21
205.1025214537
  0
LINE
  8
1
  6
CONTINUOUS
 62
7
 10
162.4105182328
 20
75.6025214537
 11
162.4105182328
 21
202.1025214537
  0
LINE
  8
1
  6
CONTINUOUS
 62
7
 10
165.4105182328
 20
72.6025214537
 11
222.4105182328
 21
72.6025214537
  0
LINE
  8
1
  6
CONTINUOUS
 62
7
 10
227.4105182328
 20
65.6025214537
 11
227.4105182328
 21
209.4775214537
  0
LINE
  8
1
  6
CONTINUOUS
 62
7
 10
160.4105182328
 20
209.4775214537
 11
160.4105182328
 21
65.6025214537
  0
LINE
  8
1
  6
CONTINUOUS
 62
7
 10
228.4105182328
 20
64.6025214537
 11
228.4105182328
 21
220.1025214537
  0
LINE
  8
1
  6
CONTINUOUS
 62
7
 10
159.4105182328
 20
220.1025214537
 11
159.4105182328
 21
64.6025214537
  0
ARC
  8
1
  6
CONTINUOUS
 62
7
 10
165.4105182328
 20
202.1025214537
 40
1.0000000000
 50
90.0000000000
 51
180.0000000000
  0
ARC
  8
1
  6
CONTINUOUS
 62
7
 10
222.4105182328
 20
202.1025214537
 40
1.0000000000
 50
0.0000000000
 51
90.0000000000
  0
ARC
  8
1
  6
CONTINUOUS
 62
7
 10
222.4105182328
 20
75.6025214537
 40
1.0000000000
 50
270.0000000000
 51
0.0000000000
  0
ARC
  8
1
  6
CONTINUOUS
 62
7
 10
165.4105182328
 20
75.6025214537
 40
1.0000000000
 50
180.0000000000
 51
270.0000000000
  0
LINE
  8
1
  6
HIDDEN
 62
3
 10
219.9105182328
 20
182.3525214537
 11
219.9105182328
 21
192.3525214537
  0
ARC
  8
1
  6
CONTINUOUS
 62
7
 10
165.4105182328
 20
202.1025214537
 40
3.0000000000
 50
90.0000000000
 51
180.0000000000
  0
ARC
  8
1
  6
CONTINUOUS
 62
7
 10
222.4105182328
 20
202.1025214537
 40
3.0000000000
 50
0.0000000000
 51
90.0000000000
  0
ARC
  8
1
  6
CONTINUOUS
 62
7
 10
222.4105182328
 20
75.6025214537
 40
3.0000000000
 50
270.0000000000
 51
0.0000000000
  0
ARC
  8
1
  6
CONTINUOUS
 62
7
 10
165.4105182328
 20
75.6025214537
 40
3.0000000000
 50
180.0000000000
 51
270.0000000000
  0
LINE
  8
1
  6
DASHDOT
 62
1
 10
230.4105182328
 20
213.1025214537
 11
157.4105182328
 21
213.1025214537
  0
LINE
  8
1
  6
CONTINUOUS
 62
7
 10
228.4105182328
 20
64.6025214537
 11
159.4105182328
 21
64.6025214537
  0
LINE
  8
1
  6
CONTINUOUS
 62
7
 10
160.4105182328
 20
65.6025214537
 11
227.4105182328
 21
65.6025214537
  0
LINE
  8
1
  6
CONTINUOUS
 62
7
 10
160.4105182328
 20
207.1025214537
 11
160.4105182328
 21
219.1025214537
  0
LINE
  8
1
  6
CONTINUOUS
 62
7
 10
160.4105182328
 20
219.1025214537
 11
165.4105182328
 21
219.1025214537
  0
LINE
  8
1
  6
CONTINUOUS
 62
7
 10
165.4105182328
 20
219.1025214537
 11
165.4105182328
 21
207.1025214537
  0
LINE
  8
1
  6
CONTINUOUS
 62
7
 10
165.4105182328
 20
207.1025214537
 11
160.4105182328
 21
207.1025214537
  0
LINE
  8
1
  6
CONTINUOUS
 62
7
 10
227.4105182328
 20
219.1025214537
 11
222.4105182328
 21
219.1025214537
  0
LINE
  8
1
  6
CONTINUOUS
 62
7
 10
222.4105182328
 20
219.1025214537
 11
222.4105182328
 21
207.1025214537
  0
LINE
  8
1
  6
CONTINUOUS
 62
7
 10
222.4105182328
 20
207.1025214537
 11
227.4105182328
 21
207.1025214537
  0
LINE
  8
1
  6
CONTINUOUS
 62
7
 10
227.4105182328
 20
207.1025214537
 11
227.4105182328
 21
219.1025214537
  0
LINE
  8
1
  6
CONTINUOUS
 62
7
 10
222.4105182328
 20
207.1025214537
 11
222.4105182328
 21
206.1025214537
  0
LINE
  8
1
  6
CONTINUOUS
 62
7
 10
222.4105182328
 20
206.1025214537
 11
165.4105182328
 21
206.1025214537
  0
LINE
  8
1
  6
CONTINUOUS
 62
7
 10
165.4105182328
 20
206.1025214537
 11
165.4105182328
 21
207.1025214537
  0
LINE
  8
1
  6
CONTINUOUS
 62
7
 10
228.4105182328
 20
220.1025214537
 11
159.4105182328
 21
220.1025214537
  0
CIRCLE
  8
1
  6
HIDDEN
 62
3
 10
193.9105182328
 20
197.3525214537
 40
1.6500000000
  0
CIRCLE
  8
1
  6
HIDDEN
 62
3
 10
193.9105182328
 20
80.3525214537
 40
2.0000000000
  0
CIRCLE
  8
1
  6
HIDDEN
 62
3
 10
193.9105182328
 20
80.3525214537
 40
1.6500000000
  0
CIRCLE
  8
1
  6
HIDDEN
 62
7
 10
193.9105182328
 20
69.1025214537
 40
2.0000000000
  0
CIRCLE
  8
1
  6
CONTINUOUS
 62
7
 10
193.9105182328
 20
69.1025214537
 40
1.6500000000
  0
INSERT
  8
5
  6
CONTINUOUS
 62
7
  2
S0
 10
0.0000000000
 20
0.0000000000
  0
TEXT
  8
5
  6
CONTINUOUS
 62
7
 10
349.684277
 20
5.000000
 40
6.000000
  1
M0051A064C
 41
0.765697
 50
0.000000
 51
0.000000
 72
   5
 73
   0
 11
379.684277
 21
5.000000
  0
TEXT
  8
5
  6
CONTINUOUS
 62
7
 10
293.500000
 20
10.750000
 40
3.000000
  1
Yamada
 41
0.779221
 50
0.000000
 51
0.000000
 72
   5
 73
   0
 11
302.500000
 21
10.750000
  0
TEXT
  8
5
  6
CONTINUOUS
 62
7
 10
304.500000
 20
10.750000
 40
3.000000
  1
Yamada
 41
0.779221
 50
0.000000
 51
0.000000
 72
   5
 73
   0
 11
313.500000
 21
10.750000
  0
TEXT
  8
1
  6
CONTINUOUS
 62
7
 10
178.408984
 20
56.344007
 40
4.000000
  1
内 部 図
 41
0.854701
 50
0.000000
 51
0.000000
 72
   5
 73
   0
 11
194.408984
 21
56.344007
  0
DIMENSION
  8
1
  6
CONTINUOUS
 62
5
  2
*D0
 10
111.4661466639
 20
98.7193009011
 11
119.7161466639
 21
101.4693009011
  70
0
 13
127.9661466639
 23
93.8244525436
 14
111.4661466639
 24
93.8244525436
 50
0.000000
  0
CIRCLE
  8
1
  6
CONTINUOUS
 62
5
 10
137.4661466639
 20
187.3525214537
 40
2.0000000000
  0
LINE
  8
1
  6
CONTINUOUS
 62
5
 10
135.9661466638
 20
187.3525214537
 11
138.9661466638
 21
187.3525214537
  0
LINE
  8
1
  6
CONTINUOUS
 62
5
 10
136.4661466638
 20
186.6025214537
 11
138.4661466638
 21
186.6025214537
  0
LINE
  8
1
  6
CONTINUOUS
 62
5
 10
136.9661466638
 20
185.8525214537
 11
137.9661466638
 21
185.8525214537
  0
LINE
  8
1
  6
CONTINUOUS
 62
5
 10
137.4661466639
 20
187.3525214537
 11
137.4661466638
 21
188.8525214537
  0
LINE
  8
1
  6
HIDDEN
 62
3
 10
219.9105182328
 20
182.3525214537
 11
216.9105182328
 21
182.3525214537
  0
LINE
  8
1
  6
HIDDEN
 62
3
 10
216.9105182328
 20
182.3525214537
 11
216.9105182328
 21
192.3525214537
  0
LINE
  8
1
  6
CONTINUOUS
 62
7
 10
133.4661466639
 20
192.3525214537
 11
148.4661466639
 21
192.3525214537
  0
LINE
  8
1
  6
CONTINUOUS
 62
7
 10
148.4661466639
 20
192.3525214537
 11
148.4661466639
 21
182.3525214537
  0
LINE
  8
1
  6
CONTINUOUS
 62
7
 10
148.4661466639
 20
182.3525214537
 11
133.4661466639
 21
182.3525214537
  0
CIRCLE
  8
1
  6
CONTINUOUS
 62
7
 10
143.4661466639
 20
187.3525214537
 40
2.0000000000
  0
CIRCLE
  8
1
  6
HIDDEN
 62
7
 10
143.4661466639
 20
187.3525214537
 40
2.5000000000
  0
CIRCLE
  8
1
  6
HIDDEN
 62
5
 10
137.4661466639
 20
90.3525214537
 40
2.0000000000
  0
LINE
  8
1
  6
HIDDEN
 62
5
 10
135.9661466638
 20
90.3525214537
 11
138.9661466638
 21
90.3525214537
  0
LINE
  8
1
  6
HIDDEN
 62
5
 10
136.4661466638
 20
89.6025214537
 11
138.4661466638
 21
89.6025214537
  0
LINE
  8
1
  6
HIDDEN
 62
5
 10
136.9661466638
 20
88.8525214537
 11
137.9661466638
 21
88.8525214537
  0
LINE
  8
1
  6
HIDDEN
 62
5
 10
137.4661466639
 20
90.3525214537
 11
137.4661466638
 21
91.8525214537
  0
LINE
  8
1
  6
CONTINUOUS
 62
7
 10
133.4661466639
 20
95.3525214537
 11
148.4661466639
 21
95.3525214537
  0
LINE
  8
1
  6
CONTINUOUS
 62
7
 10
148.4661466639
 20
95.3525214537
 11
148.4661466639
 21
85.3525214537
  0
LINE
  8
1
  6
CONTINUOUS
 62
7
 10
148.4661466639
 20
85.3525214537
 11
133.4661466639
 21
85.3525214537
  0
CIRCLE
  8
1
  6
CONTINUOUS
 62
7
 10
143.4661466639
 20
90.3525214537
 40
2.0000000000
  0
CIRCLE
  8
1
  6
HIDDEN
 62
7
 10
143.4661466639
 20
90.3525214537
 40
2.5000000000
  0
DIMENSION
  8
1
  6
CONTINUOUS
 62
5
  2
*D1
 10
20.9779016700
 20
36.5484212565
 11
18.2279016700
 21
32.0484212565
  70
0
 13
27.7645106558
 23
27.5484212565
 14
28.7645106558
 24
36.5484212565
 50
90.000000
  0
DIMENSION
  8
1
  6
CONTINUOUS
 62
5
  2
*D2
 10
20.7383253733
 20
51.5484212565
 11
17.9883253733
 21
44.2984212565
  70
0
 13
29.7645106558
 23
37.0484212565
 14
36.2645106558
 24
51.5484212565
 50
90.000000
  0
DIMENSION
  8
1
  6
CONTINUOUS
 62
5
  2
*D3
 10
13.2316014101
 20
51.5484212565
 11
10.4816014101
 21
39.5484212565
  70
0
 13
27.7645106558
 23
27.5484212565
 14
36.2645106558
 24
51.5484212565
 50
90.000000
  0
LINE
  8
1
  6
CONTINUOUS
 62
7
 10
36.2645106558
 20
27.5484212565
 11
36.2645106558
 21
12.5484212565
  0
LINE
  8
1
  6
CONTINUOUS
 62
7
 10
36.2645106558
 20
12.5484212565
 11
39.2645106558
 21
12.5484212565
  0
LINE
  8
1
  6
CONTINUOUS
 62
7
 10
39.2645106558
 20
12.5484212565
 11
39.2645106558
 21
27.5484212565
  0
LINE
  8
1
  6
CONTINUOUS
 62
7
 10
88.2645106558
 20
27.5484212565
 11
88.2645106558
 21
12.5484212565
  0
LINE
  8
1
  6
CONTINUOUS
 62
7
 10
88.2645106558
 20
12.5484212565
 11
85.2645106558
 21
12.5484212565
  0
LINE
  8
1
  6
CONTINUOUS
 62
7
 10
85.2645106558
 20
12.5484212565
 11
85.2645106558
 21
27.5484212565
  0
LINE
  8
1
  6
HIDDEN
 62
3
 10
167.9105182328
 20
85.3525214537
 11
170.9105182328
 21
85.3525214537
  0
LINE
  8
1
  6
HIDDEN
 62
3
 10
218.9105182328
 20
85.3525214537
 11
170.9105182328
 21
85.3525214537
  0
LINE
  8
1
  6
HIDDEN
 62
3
 10
167.9105182328
 20
95.3525214537
 11
170.9105182328
 21
95.3525214537
  0
LINE
  8
3
  6
HIDDEN
 62
3
 10
170.9105182328
 20
95.3525214537
 11
170.9105182328
 21
85.3525214537
  0
LINE
  8
1
  6
HIDDEN
 62
3
 10
167.9105182328
 20
95.3525214537
 11
167.9105182328
 21
85.3525214537
  0
LINE
  8
1
  6
HIDDEN
 62
3
 10
219.9105182328
 20
86.3525214537
 11
219.9105182328
 21
182.3525214537
  0
LINE
  8
1
  6
HIDDEN
 62
3
 10
167.9105182328
 20
191.3525214537
 11
167.9105182328
 21
95.3525214537
  0
LINE
  8
2
  6
CONTINUOUS
 62
5
 10
115.6954338248
 20
214.7453462552
 11
109.4661466639
 21
192.4775214537
  0
LINE
  8
2
  6
HIDDEN
 62
5
 10
114.7351177630
 20
203.8525214537
 11
111.4661466639
 21
192.2022453229
  0
LINE
  8
2
  6
HIDDEN
 62
5
 10
111.4661466639
 20
192.2022453229
 11
111.4661466639
 21
73.8525214537
  0
DIMENSION
  8
1
  6
CONTINUOUS
 62
5
  2
*D4
 10
17.2916228022
 20
64.6025214537
 11
13.7916228022
 21
142.3525214537
  70
0
 13
27.7645106558
 23
220.1025214537
 14
27.7645106558
 24
64.6025214537
 50
90.000000
  0
DIMENSION
  8
1
  6
CONTINUOUS
 62
5
  2
*D5
 10
96.7645106558
 20
224.0648547044
 11
62.2645106558
 21
227.5648547044
  70
0
 13
27.7645106558
 23
220.1025214537
 14
96.7645106558
 24
220.1025214537
 50
0.000000
  0
LINE
  8
2
  6
CONTINUOUS
 62
5
 10
31.5145106558
 20
37.0484212565
 11
31.5145106558
 21
36.0484212565
  0
LINE
  8
2
  6
CONTINUOUS
 62
5
 10
31.5145106558
 20
36.0484212565
 11
32.0145106558
 21
36.0484212565
  0
LINE
  8
2
  6
CONTINUOUS
 62
5
 10
32.0145106558
 20
36.0484212565
 11
32.0145106558
 21
37.0484212565
  0
LINE
  8
2
  6
CONTINUOUS
 62
5
 10
93.0145106558
 20
37.0484212565
 11
93.0145106558
 21
36.0484212565
  0
LINE
  8
2
  6
CONTINUOUS
 62
5
 10
93.0145106558
 20
36.0484212565
 11
92.5145106558
 21
36.0484212565
  0
LINE
  8
2
  6
CONTINUOUS
 62
5
 10
92.5145106558
 20
36.0484212565
 11
92.5145106558
 21
37.0484212565
  0
ARC
  8
1
  6
HIDDEN
 62
3
 10
168.9105182328
 20
191.3525214537
 40
1.0000000000
 50
90.0000000000
 51
180.0000000000
  0
ARC
  8
1
  6
HIDDEN
 62
3
 10
218.9105182328
 20
86.3525214537
 40
1.0000000000
 50
270.0000000000
 51
0.0000000000
  0
CIRCLE
  8
1
  6
CONTINUOUS
 62
7
 10
62.2645106558
 20
69.1025214537
 40
4.0000000000
  0
LINE
  8
1
  6
CONTINUOUS
 62
7
 10
60.4967437029
 20
70.8702884066
 11
64.0322776088
 21
67.3347545007
  0
LINE
  8
1
  6
CONTINUOUS
 62
7
 10
60.4967437029
 20
67.3347545007
 11
64.0322776088
 21
70.8702884066
  0
CIRCLE
  8
1
  6
CONTINUOUS
 62
7
 10
62.2645106558
 20
69.1025214537
 40
3.5000000000
  0
POINT
  8
1
  6
CONTINUOUS
 62
7
 10
62.2645106558
 20
51.5484212565
  0
LINE
  8
1
  6
CONTINUOUS
 62
7
 10
58.7645106558
 20
51.5484212586
 11
65.7645106558
 21
51.5484212543
  0
LINE
  8
1
  6
CONTINUOUS
 62
7
 10
61.4478439892
 20
54.2317545903
 11
63.0811773225
 21
54.2317545893
  0
ARC
  8
1
  6
CONTINUOUS
 62
7
 10
61.4478439892
 20
51.5484212570
 40
2.6833333333
 50
90.0000000000
 51
179.9999999648
  0
ARC
  8
1
  6
CONTINUOUS
 62
7
 10
63.0811773225
 20
51.5484212560
 40
2.6833333333
 50
359.9999999648
 51
90.0000000000
  0
POINT
  8
1
  6
CONTINUOUS
 62
7
 10
62.2645106558
 20
51.5484212565
  0
POINT
  8
1
  6
CONTINUOUS
 62
7
 10
62.2645106558
 20
51.5484212565
  0
POINT
  8
1
  6
CONTINUOUS
 62
7
 10
109.4661466639
 20
69.1025214537
  0
LINE
  8
1
  6
CONTINUOUS
 62
7
 10
109.4690741866
 20
65.5995939289
 11
109.4690741909
 21
72.5995939289
  0
LINE
  8
1
  6
CONTINUOUS
 62
7
 10
106.7857408549
 20
68.2829272622
 11
106.7857408559
 21
69.9162605955
  0
ARC
  8
1
  6
CONTINUOUS
 62
7
 10
109.4690741882
 20
68.2829272622
 40
2.6833333333
 50
180.0000000000
 51
269.9999999648
  0
ARC
  8
1
  6
CONTINUOUS
 62
7
 10
109.4690741892
 20
69.9162605955
 40
2.6833333333
 50
89.9999999648
 51
180.0000000000
  0
POINT
  8
1
  6
CONTINUOUS
 62
7
 10
109.4661466639
 20
69.1025214537
  0
POINT
  8
1
  6
CONTINUOUS
 62
7
 10
109.4661466639
 20
69.1025214537
  0
LINE
  8
3
  6
CONTINUOUS
 62
7
 10
221.1605182328
 20
77.8525214539
 11
221.1605182328
 21
199.8525214535
  0
LINE
  8
3
  6
CONTINUOUS
 62
7
 10
220.1605182328
 20
200.8525214535
 11
167.6605182328
 21
200.8525214539
  0
LINE
  8
3
  6
CONTINUOUS
 62
7
 10
166.6605182328
 20
77.8525214535
 11
166.6605182328
 21
199.8525214539
  0
LINE
  8
3
  6
CONTINUOUS
 62
7
 10
220.1605182328
 20
76.8525214539
 11
167.6605182328
 21
76.8525214535
  0
LINE
  8
3
  6
CONTINUOUS
 62
7
 10
167.6605182328
 20
200.8525214539
 11
166.6605182328
 21
199.8525214539
  0
LINE
  8
3
  6
CONTINUOUS
 62
7
 10
221.1605182328
 20
199.8525214535
 11
220.1605182328
 21
200.8525214535
  0
LINE
  8
3
  6
CONTINUOUS
 62
7
 10
221.1605182328
 20
77.8525214539
 11
220.1605182328
 21
76.8525214539
  0
LINE
  8
3
  6
CONTINUOUS
 62
7
 10
167.6605182328
 20
76.8525214535
 11
166.6605182328
 21
77.8525214535
  0
CIRCLE
  8
3
  6
CONTINUOUS
 62
6
 10
193.9105182328
 20
197.3525214536
 40
3.9000000000
  0
LINE
  8
3
  6
CONTINUOUS
 62
6
 10
192.1869454536
 20
199.0760942328
 11
195.6340910119
 21
195.6289486745
  0
LINE
  8
3
  6
CONTINUOUS
 62
6
 10
192.1869454536
 20
195.6289486745
 11
195.6340910119
 21
199.0760942328
  0
CIRCLE
  8
3
  6
CONTINUOUS
 62
6
 10
193.9105182328
 20
197.3525214536
 40
3.4125000000
  0
CIRCLE
  8
3
  6
CONTINUOUS
 62
6
 10
193.9105182328
 20
80.3525214537
 40
3.9000000000
  0
LINE
  8
3
  6
CONTINUOUS
 62
6
 10
192.1869454536
 20
82.0760942328
 11
195.6340910119
 21
78.6289486745
  0
LINE
  8
3
  6
CONTINUOUS
 62
6
 10
192.1869454536
 20
78.6289486745
 11
195.6340910119
 21
82.0760942328
  0
CIRCLE
  8
3
  6
CONTINUOUS
 62
6
 10
193.9105182328
 20
80.3525214537
 40
3.4125000000
  0
INSERT
  8
5
  6
CONTINUOUS
 62
7
  2
S1
 10
312.9235759729
 20
221.9463679840
  0
LINE
  8
5
  6
CONTINUOUS
 62
6
 10
13.5000000000
 20
254.5000000000
 11
13.5000000000
 21
279.5000000000
  0
LINE
  8
5
  6
CONTINUOUS
 62
6
 10
25.5000000000
 20
254.5000000000
 11
25.5000000000
 21
279.5000000000
  0
LINE
  8
5
  6
CONTINUOUS
 62
6
 10
90.0000000000
 20
254.5000000000
 11
90.0000000000
 21
279.5000000000
  0
LINE
  8
5
  6
CONTINUOUS
 62
6
 10
99.0000000000
 20
279.5000000000
 11
99.0000000000
 21
254.5000000000
  0
TEXT
  8
5
  6
CONTINUOUS
 62
6
 10
16.534500
 20
255.500000
 40
3.000000
  1
Date
 41
0.787649
 50
0.000000
 51
0.000000
 72
   5
 73
   0
 11
22.465500
 21
255.500000
  0
TEXT
  8
5
  6
CONTINUOUS
 62
6
 10
6.292500
 20
255.500000
 40
3.000000
  1
Rev.
 41
0.719124
 50
0.000000
 51
0.000000
 72
   5
 73
   0
 11
11.707500
 21
255.500000
  0
TEXT
  8
5
  6
CONTINUOUS
 62
6
 10
27.000000
 20
255.500000
 40
3.000000
  1
Content
 41
0.746681
 50
0.000000
 51
0.000000
 72
   5
 73
   0
 11
37.125000
 21
255.500000
  0
TEXT
  8
5
  6
CONTINUOUS
 62
6
 10
90.972000
 20
255.500000
 40
3.000000
  1
Name
 41
0.937052
 50
0.000000
 51
0.000000
 72
   5
 73
   0
 11
98.028000
 21
255.500000
  0
LINE
  8
5
  6
CONTINUOUS
 62
6
 10
4.5000000000
 20
259.5000000000
 11
99.0000000000
 21
259.5000000000
  0
LINE
  8
5
  6
CONTINUOUS
 62
6
 10
4.5000000000
 20
264.5000000000
 11
99.0000000000
 21
264.5000000000
  0
LINE
  8
5
  6
CONTINUOUS
 62
6
 10
4.5000000000
 20
269.5000000000
 11
99.0000000000
 21
269.5000000000
  0
LINE
  8
5
  6
CONTINUOUS
 62
6
 10
4.5000000000
 20
274.5000000000
 11
99.0000000000
 21
274.5000000000
  0
LINE
  8
5
  6
CONTINUOUS
 62
6
 10
4.5000000000
 20
254.5000000000
 11
99.0000000000
 21
254.5000000000
  0
POINT
  8
5
  6
CONTINUOUS
 62
6
 10
9.0000000000
 20
262.0000000000
  0
POINT
  8
5
  6
CONTINUOUS
 62
6
 10
9.0000000000
 20
267.0000000000
  0
POINT
  8
5
  6
CONTINUOUS
 62
6
 10
9.0000000000
 20
272.0000000000
  0
POINT
  8
5
  6
CONTINUOUS
 62
6
 10
9.0000000000
 20
277.0000000000
  0
POINT
  8
5
  6
CONTINUOUS
 62
6
 10
19.5000000000
 20
277.0000000000
  0
POINT
  8
5
  6
CONTINUOUS
 62
6
 10
19.5000000000
 20
272.0000000000
  0
POINT
  8
5
  6
CONTINUOUS
 62
6
 10
19.5000000000
 20
267.0000000000
  0
POINT
  8
5
  6
CONTINUOUS
 62
6
 10
19.5000000000
 20
262.0000000000
  0
POINT
  8
5
  6
CONTINUOUS
 62
6
 10
94.5000000000
 20
262.0000000000
  0
POINT
  8
5
  6
CONTINUOUS
 62
6
 10
94.5000000000
 20
267.0000000000
  0
POINT
  8
5
  6
CONTINUOUS
 62
6
 10
94.5000000000
 20
272.0000000000
  0
POINT
  8
5
  6
CONTINUOUS
 62
6
 10
94.5000000000
 20
277.0000000000
  0
POINT
  8
5
  6
CONTINUOUS
 62
6
 10
25.5000000000
 20
277.0000000000
  0
POINT
  8
5
  6
CONTINUOUS
 62
6
 10
25.5000000000
 20
272.0000000000
  0
POINT
  8
5
  6
CONTINUOUS
 62
6
 10
25.5000000000
 20
267.0000000000
  0
POINT
  8
5
  6
CONTINUOUS
 62
6
 10
25.5000000000
 20
262.0000000000
  0
INSERT
  8
1
  6
CONTINUOUS
 62
5
  2
BALN0
 10
65.1092980532
 20
67.0636039311
  0
TEXT
  8
5
  6
CONTINUOUS
 62
7
 10
338.923576
 20
247.946368
 40
3.000000
  1
M4×8小ワｾﾑｽ(ﾊﾟﾈﾙ固定用)
 41
0.833177
 50
0.000000
 51
0.000000
 72
   5
 73
   0
 11
376.141576
 21
247.946368
  0
TEXT
  8
5
  6
CONTINUOUS
 62
7
 10
318.923576
 20
247.946368
 40
3.000000
  1
添付品ﾋﾞｽ
 41
0.822804
 50
0.000000
 51
0.000000
 72
   5
 73
   0
 11
332.129576
 21
247.946368
  0
TEXT
  8
5
  6
CONTINUOUS
 62
7
 10
394.548576
 20
247.696368
 40
3.500000
  1
2
 41
1.000000
 50
0.000000
 51
0.000000
 72
   5
 73
   0
 11
396.298576
 21
247.696368
  0
LINE
  8
5
  6
CONTINUOUS
 62
6
 10
377.9235759729
 20
256.9463679840
 11
377.9235759729
 21
251.9463679840
  0
LINE
  8
3
  6
CONTINUOUS
 62
7
 10
221.1605182328
 20
77.8525214539
 11
221.1605182328
 21
199.8525214535
  0
LINE
  8
3
  6
CONTINUOUS
 62
7
 10
221.1605182328
 20
199.8525214535
 11
220.1605182328
 21
200.8525214535
  0
LINE
  8
3
  6
CONTINUOUS
 62
7
 10
220.1605182328
 20
200.8525214535
 11
167.6605182328
 21
200.8525214539
  0
LINE
  8
3
  6
CONTINUOUS
 62
7
 10
167.6605182328
 20
200.8525214539
 11
166.6605182328
 21
199.8525214539
  0
LINE
  8
3
  6
CONTINUOUS
 62
7
 10
166.6605182328
 20
77.8525214535
 11
166.6605182328
 21
199.8525214539
  0
LINE
  8
3
  6
CONTINUOUS
 62
7
 10
167.6605182328
 20
76.8525214535
 11
166.6605182328
 21
77.8525214535
  0
LINE
  8
3
  6
CONTINUOUS
 62
7
 10
220.1605182328
 20
76.8525214539
 11
167.6605182328
 21
76.8525214535
  0
LINE
  8
3
  6
CONTINUOUS
 62
7
 10
221.1605182328
 20
77.8525214539
 11
220.1605182328
 21
76.8525214539
  0
DIMENSION
  8
1
  6
CONTINUOUS
 62
5
  2
*D6
 10
142.4822443727
 20
88.0542751045
 11
140.9380756799
 21
91.4348139740
  70
3
 15
144.4500489552
 25
92.6507678028
  0
LINE
  8
5
  6
CONTINUOUS
 62
6
 10
377.9235759729
 20
226.9463679840
 11
337.9235759729
 21
226.9463679840
  0
TEXT
  8
5
  6
CONTINUOUS
 62
7
 10
313.673576
 20
222.696368
 40
3.500000
  1
10
 41
0.854701
 50
0.000000
 51
0.000000
 72
   5
 73
   0
 11
317.173576
 21
222.696368
  0
LINE
  8
5
  6
CONTINUOUS
 62
6
 10
312.9235759729
 20
216.9463679840
 11
312.9235759729
 21
221.9463679840
  0
LINE
  8
5
  6
CONTINUOUS
 62
6
 10
317.9235759729
 20
216.9463679840
 11
312.9235759729
 21
216.9463679840
  0
LINE
  8
5
  6
CONTINUOUS
 62
6
 10
317.9235759729
 20
221.9463679840
 11
317.9235759729
 21
216.9463679840
  0
LINE
  8
5
  6
CONTINUOUS
 62
6
 10
337.9235759729
 20
216.9463679840
 11
317.9235759729
 21
216.9463679840
  0
LINE
  8
5
  6
CONTINUOUS
 62
6
 10
337.9235759729
 20
221.9463679840
 11
337.9235759729
 21
216.9463679840
  0
LINE
  8
5
  6
CONTINUOUS
 62
6
 10
377.9235759729
 20
221.9463679840
 11
377.9235759729
 21
216.9463679840
  0
LINE
  8
5
  6
CONTINUOUS
 62
6
 10
392.9235759729
 20
221.9463679840
 11
392.9235759729
 21
216.9463679840
  0
LINE
  8
5
  6
CONTINUOUS
 62
6
 10
397.9235759729
 20
221.9463679840
 11
397.9235759729
 21
216.9463679840
  0
LINE
  8
5
  6
CONTINUOUS
 62
6
 10
397.9235759729
 20
216.9463679840
 11
392.9235759729
 21
216.9463679840
  0
LINE
  8
5
  6
CONTINUOUS
 62
6
 10
392.9235759729
 20
216.9463679840
 11
377.9235759729
 21
216.9463679840
  0
LINE
  8
5
  6
CONTINUOUS
 62
6
 10
312.9235759728
 20
211.9463679840
 11
312.9235759728
 21
216.9463679840
  0
LINE
  8
5
  6
CONTINUOUS
 62
6
 10
317.9235759728
 20
211.9463679840
 11
312.9235759728
 21
211.9463679840
  0
LINE
  8
5
  6
CONTINUOUS
 62
6
 10
317.9235759728
 20
216.9463679840
 11
317.9235759728
 21
211.9463679840
  0
LINE
  8
5
  6
CONTINUOUS
 62
6
 10
337.9235759728
 20
211.9463679840
 11
317.9235759728
 21
211.9463679840
  0
LINE
  8
5
  6
CONTINUOUS
 62
6
 10
337.9235759728
 20
216.9463679840
 11
337.9235759728
 21
211.9463679840
  0
LINE
  8
5
  6
CONTINUOUS
 62
6
 10
377.9235759728
 20
216.9463679840
 11
377.9235759728
 21
211.9463679840
  0
LINE
  8
5
  6
CONTINUOUS
 62
6
 10
392.9235759728
 20
216.9463679840
 11
392.9235759728
 21
211.9463679840
  0
LINE
  8
5
  6
CONTINUOUS
 62
6
 10
397.9235759728
 20
216.9463679840
 11
397.9235759728
 21
211.9463679840
  0
LINE
  8
5
  6
CONTINUOUS
 62
6
 10
397.9235759728
 20
211.9463679840
 11
392.9235759728
 21
211.9463679840
  0
LINE
  8
5
  6
CONTINUOUS
 62
6
 10
392.9235759728
 20
211.9463679840
 11
377.9235759728
 21
211.9463679840
  0
LINE
  8
5
  6
CONTINUOUS
 62
6
 10
377.9235759728
 20
211.9463679840
 11
337.9235759728
 21
211.9463679840
  0
LINE
  8
5
  6
CONTINUOUS
 62
6
 10
312.9235759727
 20
206.9463679840
 11
312.9235759727
 21
211.9463679840
  0
LINE
  8
5
  6
CONTINUOUS
 62
6
 10
317.9235759727
 20
206.9463679840
 11
312.9235759727
 21
206.9463679840
  0
LINE
  8
5
  6
CONTINUOUS
 62
6
 10
317.9235759727
 20
211.9463679840
 11
317.9235759727
 21
206.9463679840
  0
LINE
  8
5
  6
CONTINUOUS
 62
6
 10
337.9235759727
 20
206.9463679840
 11
317.9235759727
 21
206.9463679840
  0
LINE
  8
5
  6
CONTINUOUS
 62
6
 10
337.9235759727
 20
211.9463679840
 11
337.9235759727
 21
206.9463679840
  0
LINE
  8
5
  6
CONTINUOUS
 62
6
 10
377.9235759727
 20
211.9463679840
 11
377.9235759727
 21
206.9463679840
  0
LINE
  8
5
  6
CONTINUOUS
 62
6
 10
392.9235759727
 20
211.9463679840
 11
392.9235759727
 21
206.9463679840
  0
LINE
  8
5
  6
CONTINUOUS
 62
6
 10
397.9235759727
 20
211.9463679840
 11
397.9235759727
 21
206.9463679840
  0
LINE
  8
5
  6
CONTINUOUS
 62
6
 10
397.9235759727
 20
206.9463679840
 11
392.9235759727
 21
206.9463679840
  0
LINE
  8
5
  6
CONTINUOUS
 62
6
 10
392.9235759727
 20
206.9463679840
 11
377.9235759727
 21
206.9463679840
  0
LINE
  8
5
  6
CONTINUOUS
 62
6
 10
377.9235759727
 20
206.9463679840
 11
337.9235759727
 21
206.9463679840
  0
TEXT
  8
5
  6
CONTINUOUS
 62
7
 10
313.673576
 20
217.696368
 40
3.500000
  1
11
 41
0.854701
 50
0.000000
 51
0.000000
 72
   5
 73
   0
 11
317.173576
 21
217.696368
  0
TEXT
  8
5
  6
CONTINUOUS
 62
7
 10
313.673576
 20
212.696368
 40
3.500000
  1
12
 41
0.854701
 50
0.000000
 51
0.000000
 72
   5
 73
   0
 11
317.173576
 21
212.696368
  0
TEXT
  8
5
  6
CONTINUOUS
 62
7
 10
313.673576
 20
207.696368
 40
3.500000
  1
13
 41
0.854701
 50
0.000000
 51
0.000000
 72
   5
 73
   0
 11
317.173576
 21
207.696368
  0
TEXT
  8
5
  6
CONTINUOUS
 62
7
 10
318.923576
 20
232.946368
 40
3.000000
  1
パネル
 41
0.877246
 50
0.000000
 51
0.000000
 72
   5
 73
   0
 11
327.713576
 21
232.946368
  0
TEXT
  8
5
  6
CONTINUOUS
 62
7
 10
338.923576
 20
232.696368
 40
3.500000
  1
M0051B064B (SPCCt=1.6)
 41
0.757104
 50
0.000000
 51
0.000000
 72
   5
 73
   0
 11
377.532076
 21
232.696368
  0
TEXT
  8
5
  6
CONTINUOUS
 62
7
 10
394.548576
 20
232.696368
 40
3.500000
  1
1
 41
1.000000
 50
0.000000
 51
0.000000
 72
   5
 73
   0
 11
396.298576
 21
232.696368
  0
TEXT
  8
5
  6
CONTINUOUS
 62
7
 10
378.923576
 20
267.946368
 40
3.000000
  1
MADOKA
 41
1.028831
 50
0.000000
 51
0.000000
 72
   5
 73
   0
 11
390.806576
 21
267.946368
  0
TEXT
  8
5
  6
CONTINUOUS
 62
7
 10
378.923576
 20
262.946368
 40
3.000000
  1
MADOKA
 41
1.028831
 50
0.000000
 51
0.000000
 72
   5
 73
   0
 11
390.806576
 21
262.946368
  0
TEXT
  8
5
  6
CONTINUOUS
 62
7
 10
378.923576
 20
232.946368
 40
3.000000
  1
MADOKA
 41
1.028831
 50
0.000000
 51
0.000000
 72
   5
 73
   0
 11
390.806576
 21
232.946368
  0
TEXT
  8
5
  6
CONTINUOUS
 62
7
 10
378.923576
 20
237.946368
 40
3.000000
  1
--
 41
0.854701
 50
0.000000
 51
0.000000
 72
   5
 73
   0
 11
381.923576
 21
237.946368
  0
TEXT
  8
5
  6
CONTINUOUS
 62
7
 10
378.923576
 20
242.946368
 40
3.000000
  1
--
 41
0.854701
 50
0.000000
 51
0.000000
 72
   5
 73
   0
 11
381.923576
 21
242.946368
  0
TEXT
  8
5
  6
CONTINUOUS
 62
7
 10
378.923576
 20
247.946368
 40
3.000000
  1
--
 41
0.854701
 50
0.000000
 51
0.000000
 72
   5
 73
   0
 11
381.923576
 21
247.946368
  0
TEXT
  8
5
  6
CONTINUOUS
 62
7
 10
378.923576
 20
252.946368
 40
3.000000
  1
--
 41
0.854701
 50
0.000000
 51
0.000000
 72
   5
 73
   0
 11
381.923576
 21
252.946368
  0
TEXT
  8
5
  6
CONTINUOUS
 62
7
 10
378.923576
 20
257.946368
 40
3.000000
  1
--
 41
0.854701
 50
0.000000
 51
0.000000
 72
   5
 73
   0
 11
381.923576
 21
257.946368
  0
TEXT
  8
5
  6
CONTINUOUS
 62
7
 10
393.673576
 20
217.696368
 40
3.500000
  1
--
 41
0.854701
 50
0.000000
 51
0.000000
 72
   5
 73
   0
 11
397.173576
 21
217.696368
  0
LINE
  8
3
  6
CONTINUOUS
 62
7
 10
221.1605182328
 20
77.8525214539
 11
221.1605182328
 21
199.8525214535
  0
LINE
  8
3
  6
CONTINUOUS
 62
7
 10
220.1605182328
 20
200.8525214535
 11
167.6605182328
 21
200.8525214539
  0
LINE
  8
3
  6
CONTINUOUS
 62
7
 10
166.6605182328
 20
77.8525214535
 11
166.6605182328
 21
199.8525214539
  0
LINE
  8
3
  6
CONTINUOUS
 62
7
 10
220.1605182328
 20
76.8525214539
 11
167.6605182328
 21
76.8525214535
  0
LINE
  8
3
  6
CONTINUOUS
 62
7
 10
167.6605182328
 20
200.8525214539
 11
166.6605182328
 21
199.8525214539
  0
LINE
  8
3
  6
CONTINUOUS
 62
7
 10
221.1605182328
 20
199.8525214535
 11
220.1605182328
 21
200.8525214535
  0
LINE
  8
3
  6
CONTINUOUS
 62
7
 10
221.1605182328
 20
77.8525214539
 11
220.1605182328
 21
76.8525214539
  0
LINE
  8
3
  6
CONTINUOUS
 62
7
 10
167.6605182328
 20
76.8525214535
 11
166.6605182328
 21
77.8525214535
  0
LINE
  8
5
  6
CONTINUOUS
 62
6
 10
377.9235759729
 20
216.9463679840
 11
337.9235759729
 21
216.9463679840
  0
TEXT
  8
5
  6
CONTINUOUS
 62
7
 10
378.923576
 20
217.946368
 40
3.000000
  1
--
 41
0.854701
 50
0.000000
 51
0.000000
 72
   5
 73
   0
 11
381.923576
 21
217.946368
  0
TEXT
  8
5
  6
CONTINUOUS
 62
7
 10
318.923576
 20
212.946368
 40
3.000000
  1
--
 41
0.854701
 50
0.000000
 51
0.000000
 72
   5
 73
   0
 11
321.923576
 21
212.946368
  0
TEXT
  8
5
  6
CONTINUOUS
 62
7
 10
338.923576
 20
212.946368
 40
3.000000
  1
--
 41
0.854701
 50
0.000000
 51
0.000000
 72
   5
 73
   0
 11
341.923576
 21
212.946368
  0
TEXT
  8
5
  6
CONTINUOUS
 62
7
 10
378.923576
 20
212.946368
 40
3.000000
  1
--
 41
0.854701
 50
0.000000
 51
0.000000
 72
   5
 73
   0
 11
381.923576
 21
212.946368
  0
TEXT
  8
5
  6
CONTINUOUS
 62
7
 10
393.673576
 20
212.696368
 40
3.500000
  1
--
 41
0.854701
 50
0.000000
 51
0.000000
 72
   5
 73
   0
 11
397.173576
 21
212.696368
  0
TEXT
  8
5
  6
CONTINUOUS
 62
7
 10
318.923576
 20
207.696368
 40
3.500000
  1
--
 41
0.854701
 50
0.000000
 51
0.000000
 72
   5
 73
   0
 11
322.423576
 21
207.696368
  0
TEXT
  8
5
  6
CONTINUOUS
 62
7
 10
338.923576
 20
207.946368
 40
3.000000
  1
--
 41
0.854701
 50
0.000000
 51
0.000000
 72
   5
 73
   0
 11
341.923576
 21
207.946368
  0
TEXT
  8
5
  6
CONTINUOUS
 62
7
 10
378.923576
 20
207.946368
 40
3.000000
  1
--
 41
0.854701
 50
0.000000
 51
0.000000
 72
   5
 73
   0
 11
381.923576
 21
207.946368
  0
TEXT
  8
5
  6
CONTINUOUS
 62
7
 10
393.673576
 20
207.696368
 40
3.500000
  1
--
 41
0.854701
 50
0.000000
 51
0.000000
 72
   5
 73
   0
 11
397.173576
 21
207.696368
  0
INSERT
  8
3
  6
CONTINUOUS
 62
5
  2
LTEX0
 10
143.4661466639
 20
87.8525214537
  0
LINE
  8
5
  6
CONTINUOUS
 62
6
 10
312.9235759729
 20
231.9463679840
 11
312.9235759729
 21
236.9463679840
  0
INSERT
  8
5
  6
CONTINUOUS
 62
7
  2
S2
 10
0.0000000000
 20
-320.7245888453
  0
TEXT
  8
5
  6
CONTINUOUS
 62
7
 10
348.653069
 20
-297.982032
 40
4.200000
  1
Panel Interface
 41
0.641296
 50
0.000000
 51
0.000000
 72
   5
 73
   0
 11
375.264269
 21
-297.982032
  0
TEXT
  8
5
  6
CONTINUOUS
 62
7
 10
348.653069
 20
-302.182032
 40
4.200000
  1
Type:MCON-001-064*****
 41
0.790666
 50
0.000000
 51
0.000000
 72
   5
 73
   0
 11
397.037069
 21
-302.182032
  0
TEXT
  8
5
  6
CONTINUOUS
 62
7
 10
348.653069
 20
-306.382032
 40
4.200000
  1
                      仕様図　2/2
 41
0.558184
 50
0.000000
 51
0.000000
 72
   5
 73
   0
 11
398.494469
 21
-306.382032
  0
TEXT
  8
5
  6
CONTINUOUS
 62
7
 10
293.125000
 20
-309.974589
 40
3.000000
  1
Yamada
 41
0.844156
 50
0.000000
 51
0.000000
 72
   5
 73
   0
 11
302.875000
 21
-309.974589
  0
TEXT
  8
5
  6
CONTINUOUS
 62
7
 10
304.125000
 20
-309.974589
 40
3.000000
  1
Yamada
 41
0.844156
 50
0.000000
 51
0.000000
 72
   5
 73
   0
 11
313.875000
 21
-309.974589
  0
LINE
  8
5
  6
CONTINUOUS
 62
6
 10
13.5000000000
 20
-66.2245888453
 11
13.5000000000
 21
-41.2245888453
  0
LINE
  8
5
  6
CONTINUOUS
 62
6
 10
25.5000000000
 20
-66.2245888453
 11
25.5000000000
 21
-41.2245888453
  0
LINE
  8
5
  6
CONTINUOUS
 62
6
 10
90.0000000000
 20
-66.2245888453
 11
90.0000000000
 21
-41.2245888453
  0
LINE
  8
5
  6
CONTINUOUS
 62
6
 10
99.0000000000
 20
-41.2245888453
 11
99.0000000000
 21
-66.2245888453
  0
TEXT
  8
5
  6
CONTINUOUS
 62
6
 10
16.534500
 20
-65.224589
 40
3.000000
  1
Date
 41
0.787649
 50
0.000000
 51
0.000000
 72
   5
 73
   0
 11
22.465500
 21
-65.224589
  0
TEXT
  8
5
  6
CONTINUOUS
 62
6
 10
6.292500
 20
-65.224589
 40
3.000000
  1
Rev.
 41
0.719124
 50
0.000000
 51
0.000000
 72
   5
 73
   0
 11
11.707500
 21
-65.224589
  0
TEXT
  8
5
  6
CONTINUOUS
 62
6
 10
27.000000
 20
-65.224589
 40
3.000000
  1
Content
 41
0.746681
 50
0.000000
 51
0.000000
 72
   5
 73
   0
 11
37.125000
 21
-65.224589
  0
TEXT
  8
5
  6
CONTINUOUS
 62
6
 10
90.972000
 20
-65.224589
 40
3.000000
  1
Name
 41
0.937052
 50
0.000000
 51
0.000000
 72
   5
 73
   0
 11
98.028000
 21
-65.224589
  0
LINE
  8
5
  6
CONTINUOUS
 62
6
 10
4.5000000000
 20
-61.2245888453
 11
99.0000000000
 21
-61.2245888453
  0
LINE
  8
5
  6
CONTINUOUS
 62
6
 10
4.5000000000
 20
-56.2245888453
 11
99.0000000000
 21
-56.2245888453
  0
LINE
  8
5
  6
CONTINUOUS
 62
6
 10
4.5000000000
 20
-51.2245888453
 11
99.0000000000
 21
-51.2245888453
  0
LINE
  8
5
  6
CONTINUOUS
 62
6
 10
4.5000000000
 20
-46.2245888453
 11
99.0000000000
 21
-46.2245888453
  0
LINE
  8
5
  6
CONTINUOUS
 62
6
 10
4.5000000000
 20
-66.2245888453
 11
99.0000000000
 21
-66.2245888453
  0
POINT
  8
5
  6
CONTINUOUS
 62
6
 10
9.0000000000
 20
-58.7245888453
  0
POINT
  8
5
  6
CONTINUOUS
 62
6
 10
9.0000000000
 20
-53.7245888453
  0
POINT
  8
5
  6
CONTINUOUS
 62
6
 10
9.0000000000
 20
-48.7245888453
  0
POINT
  8
5
  6
CONTINUOUS
 62
6
 10
9.0000000000
 20
-43.7245888453
  0
POINT
  8
5
  6
CONTINUOUS
 62
6
 10
19.5000000000
 20
-43.7245888453
  0
POINT
  8
5
  6
CONTINUOUS
 62
6
 10
19.5000000000
 20
-48.7245888453
  0
POINT
  8
5
  6
CONTINUOUS
 62
6
 10
19.5000000000
 20
-53.7245888453
  0
POINT
  8
5
  6
CONTINUOUS
 62
6
 10
19.5000000000
 20
-58.7245888453
  0
POINT
  8
5
  6
CONTINUOUS
 62
6
 10
94.5000000000
 20
-58.7245888453
  0
POINT
  8
5
  6
CONTINUOUS
 62
6
 10
94.5000000000
 20
-53.7245888453
  0
POINT
  8
5
  6
CONTINUOUS
 62
6
 10
94.5000000000
 20
-48.7245888453
  0
POINT
  8
5
  6
CONTINUOUS
 62
6
 10
94.5000000000
 20
-43.7245888453
  0
POINT
  8
5
  6
CONTINUOUS
 62
6
 10
25.5000000000
 20
-43.7245888453
  0
POINT
  8
5
  6
CONTINUOUS
 62
6
 10
25.5000000000
 20
-48.7245888453
  0
POINT
  8
5
  6
CONTINUOUS
 62
6
 10
25.5000000000
 20
-53.7245888453
  0
POINT
  8
5
  6
CONTINUOUS
 62
6
 10
25.5000000000
 20
-58.7245888453
  0
INSERT
  8
3
  6
CONTINUOUS
 62
5
  2
BALN1
 10
110.9395553908
 20
197.7445137344
  0
INSERT
  8
3
  6
CONTINUOUS
 62
5
  2
BALN2
 10
130.9399894366
 20
211.8393700363
  0
INSERT
  8
3
  6
CONTINUOUS
 62
5
  2
BALN3
 10
173.9105182328
 20
197.3525214537
  0
INSERT
  8
3
  6
CONTINUOUS
 62
5
  2
BALN4
 10
193.9105182328
 20
197.3525214537
  0
INSERT
  8
3
  6
CONTINUOUS
 62
5
  2
BALN5
 10
205.2240678788
 20
195.9771255586
  0
TEXT
  8
5
  6
CONTINUOUS
 62
7
 10
348.653069
 20
22.742557
 40
4.200000
  1
Panel Interface
 41
0.641296
 50
0.000000
 51
0.000000
 72
   5
 73
   0
 11
375.264269
 21
22.742557
  0
TEXT
  8
5
  6
CONTINUOUS
 62
7
 10
348.653069
 20
18.542557
 40
4.200000
  1
Type:MCON-001-064*****
 41
0.790666
 50
0.000000
 51
0.000000
 72
   5
 73
   0
 11
397.037069
 21
18.542557
  0
TEXT
  8
5
  6
CONTINUOUS
 62
7
 10
348.653069
 20
14.342557
 40
4.200000
  1
                      仕様図　1/2
 41
0.558184
 50
0.000000
 51
0.000000
 72
   5
 73
   0
 11
398.494469
 21
14.342557
  0
TEXT
  8
5
  6
CONTINUOUS
 62
7
 10
349.684277
 20
-315.724589
 40
6.000000
  1
M0051A064C
 41
0.765697
 50
0.000000
 51
0.000000
 72
   5
 73
   0
 11
379.684277
 21
-315.724589
  0
LINE
  8
5
  6
CONTINUOUS
 62
6
 10
310.9077307347
 20
-53.5697931239
 11
310.9077307347
 21
-48.5697931239
  0
LINE
  8
5
  6
CONTINUOUS
 62
6
 10
310.9077307347
 20
-48.5697931239
 11
315.9077307347
 21
-48.5697931239
  0
LINE
  8
5
  6
CONTINUOUS
 62
6
 10
315.9077307347
 20
-48.5697931239
 11
335.9077307347
 21
-48.5697931239
  0
LINE
  8
5
  6
CONTINUOUS
 62
6
 10
335.9077307347
 20
-48.5697931239
 11
375.9077307347
 21
-48.5697931239
  0
LINE
  8
5
  6
CONTINUOUS
 62
6
 10
375.9077307347
 20
-48.5697931239
 11
390.9077307347
 21
-48.5697931239
  0
LINE
  8
5
  6
CONTINUOUS
 62
6
 10
390.9077307347
 20
-48.5697931239
 11
395.9077307347
 21
-48.5697931239
  0
LINE
  8
5
  6
CONTINUOUS
 62
6
 10
395.9077307347
 20
-48.5697931239
 11
395.9077307347
 21
-53.5697931239
  0
LINE
  8
5
  6
CONTINUOUS
 62
6
 10
395.9077307347
 20
-53.5697931239
 11
390.9077307347
 21
-53.5697931239
  0
LINE
  8
5
  6
CONTINUOUS
 62
6
 10
390.9077307347
 20
-53.5697931239
 11
375.9077307347
 21
-53.5697931239
  0
LINE
  8
5
  6
CONTINUOUS
 62
6
 10
375.9077307347
 20
-53.5697931239
 11
335.9077307347
 21
-53.5697931239
  0
LINE
  8
5
  6
CONTINUOUS
 62
6
 10
335.9077307347
 20
-53.5697931239
 11
315.9077307347
 21
-53.5697931239
  0
LINE
  8
5
  6
CONTINUOUS
 62
6
 10
315.9077307347
 20
-53.5697931239
 11
310.9077307347
 21
-53.5697931239
  0
LINE
  8
5
  6
CONTINUOUS
 62
6
 10
315.9077307347
 20
-48.5697931239
 11
315.9077307347
 21
-53.5697931239
  0
LINE
  8
5
  6
CONTINUOUS
 62
6
 10
335.9077307347
 20
-48.5697931239
 11
335.9077307347
 21
-53.5697931239
  0
LINE
  8
5
  6
CONTINUOUS
 62
6
 10
375.9077307347
 20
-48.5697931239
 11
375.9077307347
 21
-53.5697931239
  0
LINE
  8
5
  6
CONTINUOUS
 62
6
 10
390.9077307347
 20
-48.5697931239
 11
390.9077307347
 21
-53.5697931239
  0
TEXT
  8
5
  6
CONTINUOUS
 62
7
 10
311.107731
 20
-52.219793
 40
2.300000
  1
項番
 41
0.921659
 50
0.000000
 51
0.000000
 72
   5
 73
   0
 11
315.707731
 21
-52.219793
  0
TEXT
  8
5
  6
CONTINUOUS
 62
7
 10
320.915731
 20
-52.569793
 40
3.000000
  1
品　　名
 41
0.737916
 50
0.000000
 51
0.000000
 72
   5
 73
   0
 11
330.899731
 21
-52.569793
  0
TEXT
  8
5
  6
CONTINUOUS
 62
7
 10
340.754731
 20
-52.569793
 40
3.000000
  1
定  格 / 型  番 / 材　質
 41
0.686277
 50
0.000000
 51
0.000000
 72
   5
 73
   0
 11
371.060731
 21
-52.569793
  0
TEXT
  8
5
  6
CONTINUOUS
 62
7
 10
378.210231
 20
-52.569793
 40
3.000000
  1
メーカー
 41
0.768293
 50
0.000000
 51
0.000000
 72
   5
 73
   0
 11
388.605231
 21
-52.569793
  0
TEXT
  8
5
  6
CONTINUOUS
 62
7
 10
391.107731
 20
-52.219793
 40
2.300000
  1
数量
 41
0.921659
 50
0.000000
 51
0.000000
 72
   5
 73
   0
 11
395.707731
 21
-52.219793
  0
LINE
  8
5
  6
CONTINUOUS
 62
6
 10
310.9077307347
 20
-58.5697931239
 11
310.9077307347
 21
-53.5697931239
  0
LINE
  8
5
  6
CONTINUOUS
 62
6
 10
310.9077307347
 20
-53.5697931239
 11
315.9077307347
 21
-53.5697931239
  0
LINE
  8
5
  6
CONTINUOUS
 62
6
 10
315.9077307347
 20
-53.5697931239
 11
335.9077307347
 21
-53.5697931239
  0
LINE
  8
5
  6
CONTINUOUS
 62
6
 10
335.9077307347
 20
-53.5697931239
 11
375.9077307347
 21
-53.5697931239
  0
LINE
  8
5
  6
CONTINUOUS
 62
6
 10
375.9077307347
 20
-53.5697931239
 11
390.9077307347
 21
-53.5697931239
  0
LINE
  8
5
  6
CONTINUOUS
 62
6
 10
390.9077307347
 20
-53.5697931239
 11
395.9077307347
 21
-53.5697931239
  0
LINE
  8
5
  6
CONTINUOUS
 62
6
 10
395.9077307347
 20
-53.5697931239
 11
395.9077307347
 21
-58.5697931239
  0
LINE
  8
5
  6
CONTINUOUS
 62
6
 10
395.9077307347
 20
-58.5697931239
 11
390.9077307347
 21
-58.5697931239
  0
LINE
  8
5
  6
CONTINUOUS
 62
6
 10
390.9077307347
 20
-58.5697931239
 11
375.9077307347
 21
-58.5697931239
  0
LINE
  8
5
  6
CONTINUOUS
 62
6
 10
375.9077307347
 20
-58.5697931239
 11
335.9077307347
 21
-58.5697931239
  0
LINE
  8
5
  6
CONTINUOUS
 62
6
 10
335.9077307347
 20
-58.5697931239
 11
315.9077307347
 21
-58.5697931239
  0
LINE
  8
5
  6
CONTINUOUS
 62
6
 10
315.9077307347
 20
-58.5697931239
 11
310.9077307347
 21
-58.5697931239
  0
LINE
  8
5
  6
CONTINUOUS
 62
6
 10
315.9077307347
 20
-53.5697931239
 11
315.9077307347
 21
-58.5697931239
  0
LINE
  8
5
  6
CONTINUOUS
 62
6
 10
335.9077307347
 20
-53.5697931239
 11
335.9077307347
 21
-58.5697931239
  0
LINE
  8
5
  6
CONTINUOUS
 62
6
 10
375.9077307347
 20
-53.5697931239
 11
375.9077307347
 21
-58.5697931239
  0
LINE
  8
5
  6
CONTINUOUS
 62
6
 10
390.9077307347
 20
-53.5697931239
 11
390.9077307347
 21
-58.5697931239
  0
TEXT
  8
5
  6
CONTINUOUS
 62
7
 10
311.157731
 20
-57.569793
 40
3.000000
  1
911
 41
0.815217
 50
0.000000
 51
0.000000
 72
   5
 73
   0
 11
315.657731
 21
-57.569793
  0
TEXT
  8
5
  6
CONTINUOUS
 62
7
 10
316.907731
 20
-57.569793
 40
3.000000
  1
DSUBﾊﾟﾈﾙ
 41
0.905395
 50
0.000000
 51
0.000000
 72
   5
 73
   0
 11
331.004731
 21
-57.569793
  0
TEXT
  8
5
  6
CONTINUOUS
 62
7
 10
336.907731
 20
-58.069793
 40
4.000000
  1
M0051B500B
 41
0.765697
 50
0.000000
 51
0.000000
 72
   5
 73
   0
 11
356.907731
 21
-58.069793
  0
TEXT
  8
5
  6
CONTINUOUS
 62
7
 10
392.532731
 20
-57.819793
 40
3.500000
  1
1
 41
1.000000
 50
0.000000
 51
0.000000
 72
   5
 73
   0
 11
394.282731
 21
-57.819793
  0
LINE
  8
5
  6
CONTINUOUS
 62
6
 10
395.9077307347
 20
-63.5697931239
 11
390.9077307347
 21
-63.5697931239
  0
LINE
  8
5
  6
CONTINUOUS
 62
6
 10
390.9077307347
 20
-63.5697931239
 11
375.9077307347
 21
-63.5697931239
  0
LINE
  8
5
  6
CONTINUOUS
 62
6
 10
375.9077307347
 20
-63.5697931239
 11
335.9077307347
 21
-63.5697931239
  0
LINE
  8
5
  6
CONTINUOUS
 62
6
 10
335.9077307347
 20
-63.5697931239
 11
315.9077307347
 21
-63.5697931239
  0
LINE
  8
5
  6
CONTINUOUS
 62
6
 10
315.9077307347
 20
-63.5697931239
 11
310.9077307347
 21
-63.5697931239
  0
TEXT
  8
5
  6
CONTINUOUS
 62
7
 10
311.907731
 20
-62.569793
 40
3.000000
  1
--
 41
0.854701
 50
0.000000
 51
0.000000
 72
   5
 73
   0
 11
314.907731
 21
-62.569793
  0
TEXT
  8
5
  6
CONTINUOUS
 62
7
 10
311.157731
 20
-67.569793
 40
3.000000
  1
913
 41
0.815217
 50
0.000000
 51
0.000000
 72
   5
 73
   0
 11
315.657731
 21
-67.569793
  0
TEXT
  8
5
  6
CONTINUOUS
 62
7
 10
316.907731
 20
-62.569793
 40
3.000000
  1
--
 41
0.854701
 50
0.000000
 51
0.000000
 72
   5
 73
   0
 11
319.907731
 21
-62.569793
  0
TEXT
  8
5
  6
CONTINUOUS
 62
7
 10
316.907731
 20
-67.569793
 40
3.000000
  1
ﾋﾞｽ
 41
0.761957
 50
0.000000
 51
0.000000
 72
   5
 73
   0
 11
321.113731
 21
-67.569793
  0
TEXT
  8
5
  6
CONTINUOUS
 62
7
 10
336.907731
 20
-67.569793
 40
3.000000
  1
M3×8 小ワｾﾑｽ
 41
0.863014
 50
0.000000
 51
0.000000
 72
   5
 73
   0
 11
357.697731
 21
-67.569793
  0
TEXT
  8
5
  6
CONTINUOUS
 62
7
 10
391.657731
 20
-62.819793
 40
3.500000
  1
--
 41
0.854701
 50
0.000000
 51
0.000000
 72
   5
 73
   0
 11
395.157731
 21
-62.819793
  0
TEXT
  8
5
  6
CONTINUOUS
 62
7
 10
392.532731
 20
-67.819793
 40
3.500000
  1
2
 41
1.000000
 50
0.000000
 51
0.000000
 72
   5
 73
   0
 11
394.282731
 21
-67.819793
  0
LINE
  8
5
  6
CONTINUOUS
 62
6
 10
310.9077307347
 20
-63.5697931239
 11
310.9077307347
 21
-58.5697931239
  0
LINE
  8
5
  6
CONTINUOUS
 62
6
 10
310.9077307347
 20
-68.5697931239
 11
310.9077307347
 21
-63.5697931239
  0
LINE
  8
5
  6
CONTINUOUS
 62
6
 10
315.9077307347
 20
-58.5697931239
 11
315.9077307347
 21
-63.5697931239
  0
LINE
  8
5
  6
CONTINUOUS
 62
6
 10
315.9077307347
 20
-63.5697931239
 11
315.9077307347
 21
-68.5697931239
  0
LINE
  8
5
  6
CONTINUOUS
 62
6
 10
335.9077307347
 20
-58.5697931239
 11
335.9077307347
 21
-63.5697931239
  0
LINE
  8
5
  6
CONTINUOUS
 62
6
 10
335.9077307347
 20
-63.5697931239
 11
335.9077307347
 21
-68.5697931239
  0
LINE
  8
5
  6
CONTINUOUS
 62
6
 10
375.9077307347
 20
-58.5697931239
 11
375.9077307347
 21
-63.5697931239
  0
LINE
  8
5
  6
CONTINUOUS
 62
6
 10
375.9077307347
 20
-63.5697931239
 11
375.9077307347
 21
-68.5697931239
  0
LINE
  8
5
  6
CONTINUOUS
 62
6
 10
390.9077307347
 20
-58.5697931239
 11
390.9077307347
 21
-63.5697931239
  0
LINE
  8
5
  6
CONTINUOUS
 62
6
 10
390.9077307347
 20
-63.5697931239
 11
390.9077307347
 21
-68.5697931239
  0
LINE
  8
5
  6
CONTINUOUS
 62
6
 10
395.9077307347
 20
-58.5697931239
 11
395.9077307347
 21
-63.5697931239
  0
LINE
  8
5
  6
CONTINUOUS
 62
6
 10
395.9077307347
 20
-63.5697931239
 11
395.9077307347
 21
-68.5697931239
  0
TEXT
  8
5
  6
CONTINUOUS
 62
7
 10
336.907731
 20
-62.569793
 40
3.000000
  1
--
 41
0.854701
 50
0.000000
 51
0.000000
 72
   5
 73
   0
 11
339.907731
 21
-62.569793
  0
LINE
  8
5
  6
CONTINUOUS
 62
6
 10
300.9077307347
 20
-53.5697931239
 11
300.9077307347
 21
-48.5697931239
  0
LINE
  8
5
  6
CONTINUOUS
 62
6
 10
300.9077307347
 20
-48.5697931239
 11
310.9077307347
 21
-48.5697931239
  0
LINE
  8
5
  6
CONTINUOUS
 62
6
 10
310.9077307347
 20
-53.5697931239
 11
305.9077307347
 21
-53.5697931239
  0
LINE
  8
5
  6
CONTINUOUS
 62
6
 10
310.9077307347
 20
-48.5697931239
 11
310.9077307347
 21
-53.5697931239
  0
TEXT
  8
5
  6
CONTINUOUS
 62
7
 10
303.445950
 20
-52.569793
 40
3.000000
  1
型番
 41
0.921659
 50
0.000000
 51
0.000000
 72
   5
 73
   0
 11
309.445950
 21
-52.569793
  0
LINE
  8
5
  6
CONTINUOUS
 62
6
 10
300.9077307347
 20
-58.5697931239
 11
300.9077307347
 21
-53.5697931239
  0
LINE
  8
5
  6
CONTINUOUS
 62
6
 10
300.9077307347
 20
-53.5697931239
 11
310.9077307347
 21
-53.5697931239
  0
LINE
  8
5
  6
CONTINUOUS
 62
6
 10
310.9077307347
 20
-53.5697931239
 11
310.9077307347
 21
-58.5697931239
  0
TEXT
  8
5
  6
CONTINUOUS
 62
7
 10
302.445950
 20
-58.069793
 40
4.000000
  1
D*00
 41
0.796813
 50
0.000000
 51
0.000000
 72
   5
 73
   0
 11
310.445950
 21
-58.069793
  0
LINE
  8
5
  6
CONTINUOUS
 62
6
 10
300.9077307347
 20
-63.5697931239
 11
300.9077307347
 21
-58.5697931239
  0
LINE
  8
5
  6
CONTINUOUS
 62
6
 10
300.9077307347
 20
-68.5697931239
 11
300.9077307347
 21
-63.5697931239
  0
LINE
  8
5
  6
CONTINUOUS
 62
6
 10
310.9077307347
 20
-58.5697931239
 11
310.9077307347
 21
-63.5697931239
  0
LINE
  8
5
  6
CONTINUOUS
 62
6
 10
310.9077307347
 20
-63.5697931239
 11
310.9077307347
 21
-68.5697931239
  0
LINE
  8
5
  6
CONTINUOUS
 62
6
 10
395.9077307347
 20
-68.5697931239
 11
390.9077307347
 21
-68.5697931239
  0
LINE
  8
5
  6
CONTINUOUS
 62
6
 10
390.9077307347
 20
-68.5697931239
 11
375.9077307347
 21
-68.5697931239
  0
LINE
  8
5
  6
CONTINUOUS
 62
6
 10
375.9077307347
 20
-68.5697931239
 11
335.9077307347
 21
-68.5697931239
  0
LINE
  8
5
  6
CONTINUOUS
 62
6
 10
335.9077307347
 20
-68.5697931239
 11
315.9077307347
 21
-68.5697931239
  0
LINE
  8
5
  6
CONTINUOUS
 62
6
 10
315.9077307347
 20
-68.5697931239
 11
310.9077307347
 21
-68.5697931239
  0
LINE
  8
5
  6
CONTINUOUS
 62
6
 10
310.9077307347
 20
-68.5697931239
 11
300.9077307347
 21
-68.5697931239
  0
LINE
  8
3
  6
CONTINUOUS
 62
10
 10
279.3736156922
 20
-74.8161052838
 11
279.3736156922
 21
-116.3161052838
  0
LINE
  8
3
  6
CONTINUOUS
 62
10
 10
279.3736156922
 20
-74.8161052838
 11
267.8736156922
 21
-74.8161052838
  0
LINE
  8
3
  6
CONTINUOUS
 62
10
 10
267.8736156922
 20
-74.8161052838
 11
267.8736156922
 21
-116.3161052838
  0
LINE
  8
3
  6
CONTINUOUS
 62
10
 10
267.8736156922
 20
-116.3161052838
 11
279.3736156922
 21
-116.3161052838
  0
POINT
  8
3
  6
CONTINUOUS
 62
10
 10
273.6236156922
 20
-95.5661052838
  0
LINE
  8
3
  6
CONTINUOUS
 62
7
 10
266.1236156922
 20
-68.5661052838
 11
281.1236156922
 21
-68.5661052838
  0
LINE
  8
3
  6
CONTINUOUS
 62
7
 10
281.1236156922
 20
-68.5661052838
 11
281.1236156922
 21
-122.5661052838
  0
LINE
  8
3
  6
CONTINUOUS
 62
7
 10
281.1236156922
 20
-122.5661052838
 11
266.1236156922
 21
-122.5661052838
  0
LINE
  8
3
  6
CONTINUOUS
 62
7
 10
266.1236156922
 20
-122.5661052838
 11
266.1236156922
 21
-68.5661052838
  0
POINT
  8
3
  6
CONTINUOUS
 62
7
 10
273.6236156922
 20
-95.5661052838
  0
LINE
  8
3
  6
CONTINUOUS
 62
10
 10
242.3736156922
 20
-81.6661052838
 11
242.3736156922
 21
-109.4661052838
  0
LINE
  8
3
  6
CONTINUOUS
 62
10
 10
242.3736156922
 20
-81.6661052838
 11
230.8736156922
 21
-81.6661052838
  0
LINE
  8
3
  6
CONTINUOUS
 62
10
 10
230.8736156922
 20
-81.6661052838
 11
230.8736156922
 21
-109.4661052838
  0
LINE
  8
3
  6
CONTINUOUS
 62
10
 10
230.8736156922
 20
-109.4661052838
 11
242.3736156922
 21
-109.4661052838
  0
POINT
  8
3
  6
CONTINUOUS
 62
10
 10
236.6236156922
 20
-95.5661052838
  0
LINE
  8
3
  6
CONTINUOUS
 62
7
 10
229.1236156922
 20
-68.5661052838
 11
244.1236156922
 21
-68.5661052838
  0
LINE
  8
3
  6
CONTINUOUS
 62
7
 10
244.1236156922
 20
-68.5661052838
 11
244.1236156922
 21
-122.5661052838
  0
LINE
  8
3
  6
CONTINUOUS
 62
7
 10
244.1236156922
 20
-122.5661052838
 11
229.1236156922
 21
-122.5661052838
  0
LINE
  8
3
  6
CONTINUOUS
 62
7
 10
229.1236156922
 20
-122.5661052838
 11
229.1236156922
 21
-68.5661052838
  0
POINT
  8
3
  6
CONTINUOUS
 62
7
 10
236.6236156922
 20
-95.5661052838
  0
LINE
  8
3
  6
CONTINUOUS
 62
10
 10
205.3736156922
 20
-85.8161052838
 11
205.3736156922
 21
-105.3161052838
  0
LINE
  8
3
  6
CONTINUOUS
 62
10
 10
205.3736156922
 20
-85.8161052838
 11
193.8736156922
 21
-85.8161052838
  0
LINE
  8
3
  6
CONTINUOUS
 62
10
 10
193.8736156922
 20
-85.8161052838
 11
193.8736156922
 21
-105.3161052838
  0
LINE
  8
3
  6
CONTINUOUS
 62
10
 10
193.8736156922
 20
-105.3161052838
 11
205.3736156922
 21
-105.3161052838
  0
POINT
  8
3
  6
CONTINUOUS
 62
10
 10
199.6236156922
 20
-95.5661052838
  0
LINE
  8
3
  6
CONTINUOUS
 62
7
 10
192.1236156922
 20
-68.5661052838
 11
207.1236156922
 21
-68.5661052838
  0
LINE
  8
3
  6
CONTINUOUS
 62
7
 10
207.1236156922
 20
-68.5661052838
 11
207.1236156922
 21
-122.5661052838
  0
LINE
  8
3
  6
CONTINUOUS
 62
7
 10
207.1236156922
 20
-122.5661052838
 11
192.1236156922
 21
-122.5661052838
  0
LINE
  8
3
  6
CONTINUOUS
 62
7
 10
192.1236156922
 20
-122.5661052838
 11
192.1236156922
 21
-68.5661052838
  0
POINT
  8
3
  6
CONTINUOUS
 62
7
 10
199.6236156922
 20
-95.5661052838
  0
POINT
  8
3
  6
CONTINUOUS
 62
10
 10
162.6236156922
 20
-95.5661052838
  0
LINE
  8
3
  6
CONTINUOUS
 62
7
 10
155.1236156922
 20
-68.5661052838
 11
170.1236156922
 21
-68.5661052838
  0
LINE
  8
3
  6
CONTINUOUS
 62
7
 10
170.1236156922
 20
-68.5661052838
 11
170.1236156922
 21
-122.5661052838
  0
LINE
  8
3
  6
CONTINUOUS
 62
7
 10
170.1236156922
 20
-122.5661052838
 11
155.1236156922
 21
-122.5661052838
  0
LINE
  8
3
  6
CONTINUOUS
 62
7
 10
155.1236156922
 20
-122.5661052838
 11
155.1236156922
 21
-68.5661052838
  0
POINT
  8
3
  6
CONTINUOUS
 62
7
 10
162.6236156922
 20
-95.5661052838
  0
CIRCLE
  8
3
  6
CONTINUOUS
 62
6
 10
162.6236156922
 20
-64.5661052838
 40
3.0285714286
  0
LINE
  8
3
  6
CONTINUOUS
 62
6
 10
161.2851635707
 20
-63.2276531623
 11
163.9620678137
 21
-65.9045574053
  0
LINE
  8
3
  6
CONTINUOUS
 62
6
 10
161.2851635707
 20
-65.9045574053
 11
163.9620678137
 21
-63.2276531623
  0
CIRCLE
  8
3
  6
CONTINUOUS
 62
6
 10
162.6236156922
 20
-64.5661052838
 40
2.6500000000
  0
CIRCLE
  8
3
  6
CONTINUOUS
 62
6
 10
199.6236156922
 20
-64.5661052838
 40
3.0285714286
  0
LINE
  8
3
  6
CONTINUOUS
 62
6
 10
198.2851635707
 20
-63.2276531623
 11
200.9620678137
 21
-65.9045574053
  0
LINE
  8
3
  6
CONTINUOUS
 62
6
 10
198.2851635707
 20
-65.9045574053
 11
200.9620678137
 21
-63.2276531623
  0
CIRCLE
  8
3
  6
CONTINUOUS
 62
6
 10
199.6236156922
 20
-64.5661052838
 40
2.6500000000
  0
CIRCLE
  8
3
  6
CONTINUOUS
 62
6
 10
236.6236156922
 20
-64.5661052838
 40
3.0285714286
  0
LINE
  8
3
  6
CONTINUOUS
 62
6
 10
235.2851635707
 20
-63.2276531623
 11
237.9620678137
 21
-65.9045574053
  0
LINE
  8
3
  6
CONTINUOUS
 62
6
 10
235.2851635707
 20
-65.9045574053
 11
237.9620678137
 21
-63.2276531623
  0
CIRCLE
  8
3
  6
CONTINUOUS
 62
6
 10
236.6236156922
 20
-64.5661052838
 40
2.6500000000
  0
CIRCLE
  8
3
  6
CONTINUOUS
 62
6
 10
273.6236156922
 20
-64.5661052838
 40
3.0285714286
  0
LINE
  8
3
  6
CONTINUOUS
 62
6
 10
272.2851635707
 20
-63.2276531623
 11
274.9620678137
 21
-65.9045574053
  0
LINE
  8
3
  6
CONTINUOUS
 62
6
 10
272.2851635707
 20
-65.9045574053
 11
274.9620678137
 21
-63.2276531623
  0
CIRCLE
  8
3
  6
CONTINUOUS
 62
6
 10
273.6236156922
 20
-64.5661052838
 40
2.6500000000
  0
CIRCLE
  8
3
  6
CONTINUOUS
 62
6
 10
162.6236156922
 20
-126.5661052838
 40
3.0285714286
  0
LINE
  8
3
  6
CONTINUOUS
 62
6
 10
161.2851635707
 20
-125.2276531623
 11
163.9620678137
 21
-127.9045574053
  0
LINE
  8
3
  6
CONTINUOUS
 62
6
 10
161.2851635707
 20
-127.9045574053
 11
163.9620678137
 21
-125.2276531623
  0
CIRCLE
  8
3
  6
CONTINUOUS
 62
6
 10
162.6236156922
 20
-126.5661052838
 40
2.6500000000
  0
CIRCLE
  8
3
  6
CONTINUOUS
 62
6
 10
199.6236156922
 20
-126.5661052838
 40
3.0285714286
  0
LINE
  8
3
  6
CONTINUOUS
 62
6
 10
198.2851635707
 20
-125.2276531623
 11
200.9620678137
 21
-127.9045574053
  0
LINE
  8
3
  6
CONTINUOUS
 62
6
 10
198.2851635707
 20
-127.9045574053
 11
200.9620678137
 21
-125.2276531623
  0
CIRCLE
  8
3
  6
CONTINUOUS
 62
6
 10
199.6236156922
 20
-126.5661052838
 40
2.6500000000
  0
CIRCLE
  8
3
  6
CONTINUOUS
 62
6
 10
236.6236156922
 20
-126.5661052838
 40
3.0285714286
  0
LINE
  8
3
  6
CONTINUOUS
 62
6
 10
235.2851635707
 20
-125.2276531623
 11
237.9620678137
 21
-127.9045574053
  0
LINE
  8
3
  6
CONTINUOUS
 62
6
 10
235.2851635707
 20
-127.9045574053
 11
237.9620678137
 21
-125.2276531623
  0
CIRCLE
  8
3
  6
CONTINUOUS
 62
6
 10
236.6236156922
 20
-126.5661052838
 40
2.6500000000
  0
CIRCLE
  8
3
  6
CONTINUOUS
 62
6
 10
273.6236156922
 20
-126.5661052838
 40
3.0285714286
  0
LINE
  8
3
  6
CONTINUOUS
 62
6
 10
272.2851635707
 20
-125.2276531623
 11
274.9620678137
 21
-127.9045574053
  0
LINE
  8
3
  6
CONTINUOUS
 62
6
 10
272.2851635707
 20
-127.9045574053
 11
274.9620678137
 21
-125.2276531623
  0
CIRCLE
  8
3
  6
CONTINUOUS
 62
6
 10
273.6236156922
 20
-126.5661052838
 40
2.6500000000
  0
TEXT
  8
3
  6
CONTINUOUS
 62
7
 10
157.623616
 20
-139.566105
 40
5.000000
  1
DL00
 41
0.796813
 50
0.000000
 51
0.000000
 72
   5
 73
   0
 11
167.623616
 21
-139.566105
  0
TEXT
  8
3
  6
CONTINUOUS
 62
7
 10
157.623616
 20
-144.566105
 40
5.000000
  1
DC00
 41
0.796813
 50
0.000000
 51
0.000000
 72
   5
 73
   0
 11
167.623616
 21
-144.566105
  0
TEXT
  8
3
  6
CONTINUOUS
 62
7
 10
157.623616
 20
-149.566105
 40
5.000000
  1
DR00
 41
0.796813
 50
0.000000
 51
0.000000
 72
   5
 73
   0
 11
167.623616
 21
-149.566105
  0
TEXT
  8
3
  6
CONTINUOUS
 62
7
 10
194.623616
 20
-139.566105
 40
5.000000
  1
DL09
 41
0.796813
 50
0.000000
 51
0.000000
 72
   5
 73
   0
 11
204.623616
 21
-139.566105
  0
TEXT
  8
3
  6
CONTINUOUS
 62
7
 10
194.623616
 20
-144.566105
 40
5.000000
  1
DC09
 41
0.796813
 50
0.000000
 51
0.000000
 72
   5
 73
   0
 11
204.623616
 21
-144.566105
  0
TEXT
  8
3
  6
CONTINUOUS
 62
7
 10
194.623616
 20
-149.566105
 40
5.000000
  1
DR09
 41
0.796813
 50
0.000000
 51
0.000000
 72
   5
 73
   0
 11
204.623616
 21
-149.566105
  0
TEXT
  8
3
  6
CONTINUOUS
 62
7
 10
231.623616
 20
-139.566105
 40
5.000000
  1
DL15
 41
0.796813
 50
0.000000
 51
0.000000
 72
   5
 73
   0
 11
241.623616
 21
-139.566105
  0
TEXT
  8
3
  6
CONTINUOUS
 62
7
 10
231.623616
 20
-144.566105
 40
5.000000
  1
DC15
 41
0.796813
 50
0.000000
 51
0.000000
 72
   5
 73
   0
 11
241.623616
 21
-144.566105
  0
TEXT
  8
3
  6
CONTINUOUS
 62
7
 10
231.623616
 20
-149.566105
 40
5.000000
  1
DR15
 41
0.796813
 50
0.000000
 51
0.000000
 72
   5
 73
   0
 11
241.623616
 21
-149.566105
  0
TEXT
  8
3
  6
CONTINUOUS
 62
7
 10
268.623616
 20
-139.566105
 40
5.000000
  1
DL25
 41
0.796813
 50
0.000000
 51
0.000000
 72
   5
 73
   0
 11
278.623616
 21
-139.566105
  0
TEXT
  8
3
  6
CONTINUOUS
 62
7
 10
268.623616
 20
-144.566105
 40
5.000000
  1
DC25
 41
0.796813
 50
0.000000
 51
0.000000
 72
   5
 73
   0
 11
278.623616
 21
-144.566105
  0
TEXT
  8
3
  6
CONTINUOUS
 62
7
 10
268.623616
 20
-149.566105
 40
5.000000
  1
DR25
 41
0.796813
 50
0.000000
 51
0.000000
 72
   5
 73
   0
 11
278.623616
 21
-149.566105
  0
LINE
  8
1
  6
CONTINUOUS
 62
5
 10
195.7136046922
 20
-101.7160842838
 11
195.7136046922
 21
-89.4161122838
  0
LINE
  8
1
  6
CONTINUOUS
 62
5
 10
196.4986056922
 20
-101.4103132838
 11
196.4986056922
 21
-89.7219102838
  0
LINE
  8
1
  6
CONTINUOUS
 62
5
 10
202.7486056922
 20
-101.1817442838
 11
202.7486056922
 21
-89.9505132838
  0
LINE
  8
1
  6
CONTINUOUS
 62
5
 10
203.5336046922
 20
-101.4474132838
 11
203.5336046922
 21
-89.6848122838
  0
LINE
  8
1
  6
CONTINUOUS
 62
5
 10
198.1039056922
 20
-102.9065632838
 11
201.3539056922
 21
-102.6779832838
  0
LINE
  8
1
  6
CONTINUOUS
 62
5
 10
197.8539956922
 20
-103.7111062838
 11
201.6739856922
 21
-103.4424262838
  0
LINE
  8
1
  6
HIDDEN
 62
5
 10
205.8236256922
 20
-108.9661052838
 11
205.8236256922
 21
-82.1661052838
  0
LINE
  8
1
  6
HIDDEN
 62
5
 10
193.4236356922
 20
-108.9661052838
 11
193.4236356922
 21
-82.1661052838
  0
LINE
  8
1
  6
CONTINUOUS
 62
5
 10
201.3539066922
 20
-88.4542132838
 11
198.1039056922
 21
-88.2256102838
  0
LINE
  8
1
  6
CONTINUOUS
 62
5
 10
201.6739866922
 20
-87.6898052838
 11
197.8539856922
 21
-87.4211022838
  0
LINE
  8
1
  6
HIDDEN
 62
5
 10
195.4236356922
 20
-80.1661052838
 11
203.8236256922
 21
-80.1661052838
  0
LINE
  8
1
  6
HIDDEN
 62
5
 10
195.4236356922
 20
-110.9661052838
 11
203.8236256922
 21
-110.9661052838
  0
ARC
  8
1
  6
CONTINUOUS
 62
5
 10
201.2486056922
 20
-89.9505132838
 40
1.5000000000
 50
359.9989600000
 51
85.9769700000
  0
ARC
  8
1
  6
CONTINUOUS
 62
5
 10
197.9986056922
 20
-89.7219102838
 40
1.5000000000
 50
85.9769700000
 51
180.0004530000
  0
ARC
  8
1
  6
CONTINUOUS
 62
5
 10
201.2486056922
 20
-101.1817442838
 40
1.5000000000
 50
274.0219500000
 51
359.9999600000
  0
ARC
  8
1
  6
CONTINUOUS
 62
5
 10
197.9986056922
 20
-101.4103132838
 40
1.4999900000
 50
180.0001190000
 51
274.0219300000
  0
ARC
  8
1
  6
CONTINUOUS
 62
5
 10
197.7136056922
 20
-89.4161122838
 40
2.0000000000
 50
85.9769700000
 51
180.0006720000
  0
ARC
  8
1
  6
CONTINUOUS
 62
5
 10
201.5336056922
 20
-89.6848122838
 40
2.0000000000
 50
359.9990000000
 51
85.9769700000
  0
ARC
  8
1
  6
CONTINUOUS
 62
5
 10
201.5336056922
 20
-101.4474152838
 40
2.0000000000
 50
274.0219500000
 51
359.9999600000
  0
ARC
  8
1
  6
CONTINUOUS
 62
5
 10
197.7136056922
 20
-101.7160842838
 40
2.0000100000
 50
179.9999820000
 51
274.0219300000
  0
CIRCLE
  8
1
  6
CONTINUOUS
 62
5
 10
201.0436056922
 20
-99.6911052838
 40
0.5000000000
  0
CIRCLE
  8
1
  6
CONTINUOUS
 62
5
 10
201.0436056922
 20
-99.6911052838
 40
0.7500000000
  0
CIRCLE
  8
1
  6
CONTINUOUS
 62
5
 10
198.2036056922
 20
-98.3161052838
 40
0.7500000000
  0
CIRCLE
  8
1
  6
CONTINUOUS
 62
5
 10
198.2036056922
 20
-98.3161052838
 40
0.5000000000
  0
CIRCLE
  8
1
  6
CONTINUOUS
 62
5
 10
201.0436056922
 20
-96.9411052838
 40
0.7500000000
  0
CIRCLE
  8
1
  6
CONTINUOUS
 62
5
 10
201.0436056922
 20
-96.9411052838
 40
0.5000000000
  0
CIRCLE
  8
1
  6
CONTINUOUS
 62
5
 10
198.2036056922
 20
-101.0661052838
 40
0.7500000000
  0
CIRCLE
  8
1
  6
CONTINUOUS
 62
5
 10
198.2036056922
 20
-101.0661052838
 40
0.5000000000
  0
CIRCLE
  8
1
  6
CONTINUOUS
 62
5
 10
201.0436056922
 20
-91.4411062838
 40
0.7500000000
  0
CIRCLE
  8
1
  6
CONTINUOUS
 62
5
 10
201.0436056922
 20
-91.4411062838
 40
0.5000000000
  0
CIRCLE
  8
1
  6
CONTINUOUS
 62
5
 10
201.0436056922
 20
-94.1911052838
 40
0.7500000000
  0
CIRCLE
  8
1
  6
CONTINUOUS
 62
5
 10
201.0436056922
 20
-94.1911052838
 40
0.5000000000
  0
CIRCLE
  8
1
  6
CONTINUOUS
 62
5
 10
198.2036056922
 20
-90.0661062838
 40
0.5000000000
  0
CIRCLE
  8
1
  6
CONTINUOUS
 62
5
 10
198.2036056922
 20
-90.0661062838
 40
0.7500000000
  0
CIRCLE
  8
1
  6
CONTINUOUS
 62
5
 10
198.2036056922
 20
-92.8161052838
 40
0.7500000000
  0
CIRCLE
  8
1
  6
CONTINUOUS
 62
5
 10
198.2036056922
 20
-92.8161052838
 40
0.5000000000
  0
ARC
  8
1
  6
HIDDEN
 62
5
 10
195.4236356922
 20
-108.9661052838
 40
2.0000000000
 50
180.0000030000
 51
270.0000100000
  0
ARC
  8
1
  6
HIDDEN
 62
5
 10
195.4236356922
 20
-82.1661052838
 40
2.0000000000
 50
90.0000000000
 51
180.0000030000
  0
ARC
  8
1
  6
HIDDEN
 62
5
 10
203.8236256922
 20
-82.1661052838
 40
2.0000000000
 50
0.0000000000
 51
90.0000000000
  0
ARC
  8
1
  6
HIDDEN
 62
5
 10
203.8236256922
 20
-108.9661052838
 40
2.0000000000
 50
269.9999900000
 51
0.0000000000
  0
CIRCLE
  8
1
  6
CONTINUOUS
 62
5
 10
198.2036056922
 20
-95.5661042838
 40
0.7500000000
  0
CIRCLE
  8
1
  6
CONTINUOUS
 62
5
 10
198.2036056922
 20
-95.5661042838
 40
0.5000000000
  0
LINE
  8
3
  6
CONTINUOUS
 62
5
 10
199.6236156922
 20
-80.4711072838
 11
197.3719496423
 21
-81.7711072838
  0
LINE
  8
3
  6
CONTINUOUS
 62
5
 10
197.3719496423
 20
-81.7711072838
 11
197.3719496423
 21
-84.3711072838
  0
LINE
  8
3
  6
CONTINUOUS
 62
5
 10
197.3719496423
 20
-84.3711072838
 11
199.6236156922
 21
-85.6711072838
  0
LINE
  8
3
  6
CONTINUOUS
 62
5
 10
199.6236156922
 20
-85.6711072838
 11
201.8752817420
 21
-84.3711072838
  0
LINE
  8
3
  6
CONTINUOUS
 62
5
 10
201.8752817420
 20
-84.3711072838
 11
201.8752817420
 21
-81.7711072838
  0
LINE
  8
3
  6
CONTINUOUS
 62
5
 10
201.8752817420
 20
-81.7711072838
 11
199.6236156922
 21
-80.4711072838
  0
CIRCLE
  8
3
  6
CONTINUOUS
 62
5
 10
199.6236156922
 20
-83.0711072838
 40
1.1500000000
  0
LINE
  8
3
  6
CONTINUOUS
 62
5
 10
199.6236306922
 20
-105.4611052838
 11
197.3719646423
 21
-106.7611052838
  0
LINE
  8
3
  6
CONTINUOUS
 62
5
 10
197.3719646423
 20
-106.7611052838
 11
197.3719646423
 21
-109.3611052838
  0
LINE
  8
3
  6
CONTINUOUS
 62
5
 10
197.3719646423
 20
-109.3611052838
 11
199.6236306922
 21
-110.6611052838
  0
LINE
  8
3
  6
CONTINUOUS
 62
5
 10
199.6236306922
 20
-110.6611052838
 11
201.8752967420
 21
-109.3611052838
  0
LINE
  8
3
  6
CONTINUOUS
 62
5
 10
201.8752967420
 20
-109.3611052838
 11
201.8752967420
 21
-106.7611052838
  0
LINE
  8
3
  6
CONTINUOUS
 62
5
 10
201.8752967420
 20
-106.7611052838
 11
199.6236306922
 21
-105.4611052838
  0
CIRCLE
  8
3
  6
CONTINUOUS
 62
5
 10
199.6236306922
 20
-108.0611052838
 40
1.1500000000
  0
POINT
  8
3
  6
CONTINUOUS
 62
5
 10
199.6236156922
 20
-95.5661052838
  0
LINE
  8
1
  6
CONTINUOUS
 62
5
 10
232.7135896922
 20
-105.8910837838
 11
232.7135896922
 21
-85.2411117838
  0
LINE
  8
1
  6
CONTINUOUS
 62
5
 10
233.4985906922
 20
-105.5853127838
 11
233.4985906922
 21
-85.5469097838
  0
LINE
  8
1
  6
CONTINUOUS
 62
5
 10
239.7485906922
 20
-105.3567437838
 11
239.7485906922
 21
-85.7755127838
  0
LINE
  8
1
  6
CONTINUOUS
 62
5
 10
240.5335906922
 20
-105.6224137838
 11
240.5335906922
 21
-85.5098117838
  0
LINE
  8
1
  6
CONTINUOUS
 62
5
 10
235.1038906922
 20
-107.0815627838
 11
238.3538906922
 21
-106.8529827838
  0
LINE
  8
1
  6
CONTINUOUS
 62
5
 10
234.8539806922
 20
-107.8861057838
 11
238.6739706922
 21
-107.6174257838
  0
LINE
  8
1
  6
HIDDEN
 62
5
 10
242.8236106922
 20
-113.1161047838
 11
242.8236106922
 21
-78.0161057838
  0
LINE
  8
1
  6
HIDDEN
 62
5
 10
230.4236206922
 20
-113.1161047838
 11
230.4236206922
 21
-78.0161057838
  0
LINE
  8
1
  6
CONTINUOUS
 62
5
 10
238.3538916922
 20
-84.2792167838
 11
235.1038906922
 21
-84.0506137838
  0
LINE
  8
1
  6
CONTINUOUS
 62
5
 10
238.6739716922
 20
-83.5148027838
 11
234.8539716922
 21
-83.2460997838
  0
LINE
  8
1
  6
HIDDEN
 62
5
 10
232.4236206922
 20
-76.0161057838
 11
240.8236106922
 21
-76.0161057838
  0
LINE
  8
1
  6
HIDDEN
 62
5
 10
232.4236206922
 20
-115.1161047838
 11
240.8236106922
 21
-115.1161047838
  0
ARC
  8
1
  6
CONTINUOUS
 62
5
 10
238.2485906922
 20
-85.7755127838
 40
1.5000000000
 50
359.9989600000
 51
85.9769700000
  0
ARC
  8
1
  6
CONTINUOUS
 62
5
 10
234.9985906922
 20
-85.5469097838
 40
1.5000000000
 50
85.9769700000
 51
180.0004530000
  0
ARC
  8
1
  6
CONTINUOUS
 62
5
 10
238.2485906922
 20
-105.3567437838
 40
1.5000000000
 50
274.0219500000
 51
359.9999600000
  0
ARC
  8
1
  6
CONTINUOUS
 62
5
 10
234.9985906922
 20
-105.5853127838
 40
1.4999900000
 50
180.0001190000
 51
274.0219300000
  0
ARC
  8
1
  6
CONTINUOUS
 62
5
 10
234.7135906922
 20
-85.2411117838
 40
2.0000000000
 50
85.9769700000
 51
180.0006720000
  0
ARC
  8
1
  6
CONTINUOUS
 62
5
 10
238.5335906922
 20
-85.5098117838
 40
2.0000000000
 50
359.9990000000
 51
85.9769700000
  0
ARC
  8
1
  6
CONTINUOUS
 62
5
 10
238.5335906922
 20
-105.6224137838
 40
2.0000000000
 50
274.0219500000
 51
359.9999600000
  0
ARC
  8
1
  6
CONTINUOUS
 62
5
 10
234.7135906922
 20
-105.8910837838
 40
2.0000100000
 50
179.9999820000
 51
274.0219300000
  0
CIRCLE
  8
1
  6
CONTINUOUS
 62
5
 10
238.0435906922
 20
-103.8161047838
 40
0.5000000000
  0
CIRCLE
  8
1
  6
CONTINUOUS
 62
5
 10
238.0435906922
 20
-103.8161047838
 40
0.7500000000
  0
CIRCLE
  8
1
  6
CONTINUOUS
 62
5
 10
235.2035906922
 20
-102.4411047838
 40
0.7500000000
  0
CIRCLE
  8
1
  6
CONTINUOUS
 62
5
 10
235.2035906922
 20
-102.4411047838
 40
0.5000000000
  0
CIRCLE
  8
1
  6
CONTINUOUS
 62
5
 10
238.0435906922
 20
-101.0661047838
 40
0.7500000000
  0
CIRCLE
  8
1
  6
CONTINUOUS
 62
5
 10
238.0435906922
 20
-101.0661047838
 40
0.5000000000
  0
CIRCLE
  8
1
  6
CONTINUOUS
 62
5
 10
235.2035906922
 20
-105.1911047838
 40
0.7500000000
  0
CIRCLE
  8
1
  6
CONTINUOUS
 62
5
 10
235.2035906922
 20
-105.1911047838
 40
0.5000000000
  0
CIRCLE
  8
1
  6
CONTINUOUS
 62
5
 10
238.0435906922
 20
-87.3161047838
 40
0.7500000000
  0
CIRCLE
  8
1
  6
CONTINUOUS
 62
5
 10
238.0435906922
 20
-87.3161047838
 40
0.5000000000
  0
CIRCLE
  8
1
  6
CONTINUOUS
 62
5
 10
238.0435906922
 20
-90.0661047838
 40
0.7500000000
  0
CIRCLE
  8
1
  6
CONTINUOUS
 62
5
 10
238.0435906922
 20
-90.0661047838
 40
0.5000000000
  0
CIRCLE
  8
1
  6
CONTINUOUS
 62
5
 10
235.2035906922
 20
-85.9411047838
 40
0.5000000000
  0
CIRCLE
  8
1
  6
CONTINUOUS
 62
5
 10
235.2035906922
 20
-85.9411047838
 40
0.7500000000
  0
CIRCLE
  8
1
  6
CONTINUOUS
 62
5
 10
235.2035906922
 20
-88.6911047838
 40
0.7500000000
  0
CIRCLE
  8
1
  6
CONTINUOUS
 62
5
 10
235.2035906922
 20
-88.6911047838
 40
0.5000000000
  0
ARC
  8
1
  6
HIDDEN
 62
5
 10
232.4236206922
 20
-113.1161047838
 40
2.0000000000
 50
180.0000030000
 51
270.0000100000
  0
ARC
  8
1
  6
HIDDEN
 62
5
 10
232.4236206922
 20
-78.0161057838
 40
2.0000000000
 50
90.0000000000
 51
180.0000030000
  0
ARC
  8
1
  6
HIDDEN
 62
5
 10
240.8236106922
 20
-78.0161057838
 40
2.0000000000
 50
0.0000000000
 51
90.0000000000
  0
ARC
  8
1
  6
HIDDEN
 62
5
 10
240.8236106922
 20
-113.1161047838
 40
2.0000000000
 50
269.9999900000
 51
0.0000000000
  0
CIRCLE
  8
1
  6
CONTINUOUS
 62
5
 10
235.2035906922
 20
-91.4411047838
 40
0.7500000000
  0
CIRCLE
  8
1
  6
CONTINUOUS
 62
5
 10
235.2035906922
 20
-91.4411047838
 40
0.5000000000
  0
CIRCLE
  8
1
  6
CONTINUOUS
 62
5
 10
238.0435906922
 20
-92.8161047838
 40
0.7500000000
  0
CIRCLE
  8
1
  6
CONTINUOUS
 62
5
 10
238.0435906922
 20
-92.8161047838
 40
0.5000000000
  0
CIRCLE
  8
1
  6
CONTINUOUS
 62
5
 10
235.2035906922
 20
-94.1911047838
 40
0.7500000000
  0
CIRCLE
  8
1
  6
CONTINUOUS
 62
5
 10
235.2035906922
 20
-94.1911047838
 40
0.5000000000
  0
CIRCLE
  8
1
  6
CONTINUOUS
 62
5
 10
238.0435906922
 20
-95.5661047838
 40
0.7500000000
  0
CIRCLE
  8
1
  6
CONTINUOUS
 62
5
 10
238.0435906922
 20
-95.5661047838
 40
0.5000000000
  0
CIRCLE
  8
1
  6
CONTINUOUS
 62
5
 10
235.2035906922
 20
-96.9411047838
 40
0.7500000000
  0
CIRCLE
  8
1
  6
CONTINUOUS
 62
5
 10
235.2035906922
 20
-96.9411047838
 40
0.5000000000
  0
CIRCLE
  8
1
  6
CONTINUOUS
 62
5
 10
238.0435906922
 20
-98.3161047838
 40
0.7500000000
  0
CIRCLE
  8
1
  6
CONTINUOUS
 62
5
 10
238.0435906922
 20
-98.3161047838
 40
0.5000000000
  0
CIRCLE
  8
1
  6
CONTINUOUS
 62
5
 10
235.2035906922
 20
-99.6911047838
 40
0.7500000000
  0
CIRCLE
  8
1
  6
CONTINUOUS
 62
5
 10
235.2035906922
 20
-99.6911047838
 40
0.5000000000
  0
LINE
  8
3
  6
CONTINUOUS
 62
5
 10
236.6236156922
 20
-76.3061047838
 11
234.3719496423
 21
-77.6061047838
  0
LINE
  8
3
  6
CONTINUOUS
 62
5
 10
234.3719496423
 20
-77.6061047838
 11
234.3719496423
 21
-80.2061047838
  0
LINE
  8
3
  6
CONTINUOUS
 62
5
 10
234.3719496423
 20
-80.2061047838
 11
236.6236156922
 21
-81.5061047838
  0
LINE
  8
3
  6
CONTINUOUS
 62
5
 10
236.6236156922
 20
-81.5061047838
 11
238.8752817420
 21
-80.2061047838
  0
LINE
  8
3
  6
CONTINUOUS
 62
5
 10
238.8752817420
 20
-80.2061047838
 11
238.8752817420
 21
-77.6061047838
  0
LINE
  8
3
  6
CONTINUOUS
 62
5
 10
238.8752817420
 20
-77.6061047838
 11
236.6236156922
 21
-76.3061047838
  0
CIRCLE
  8
3
  6
CONTINUOUS
 62
5
 10
236.6236156922
 20
-78.9061047838
 40
1.1500000000
  0
LINE
  8
3
  6
CONTINUOUS
 62
5
 10
236.6236006922
 20
-109.6261047838
 11
234.3719346423
 21
-110.9261047838
  0
LINE
  8
3
  6
CONTINUOUS
 62
5
 10
234.3719346423
 20
-110.9261047838
 11
234.3719346423
 21
-113.5261047838
  0
LINE
  8
3
  6
CONTINUOUS
 62
5
 10
234.3719346423
 20
-113.5261047838
 11
236.6236006922
 21
-114.8261047838
  0
LINE
  8
3
  6
CONTINUOUS
 62
5
 10
236.6236006922
 20
-114.8261047838
 11
238.8752667420
 21
-113.5261047838
  0
LINE
  8
3
  6
CONTINUOUS
 62
5
 10
238.8752667420
 20
-113.5261047838
 11
238.8752667420
 21
-110.9261047838
  0
LINE
  8
3
  6
CONTINUOUS
 62
5
 10
238.8752667420
 20
-110.9261047838
 11
236.6236006922
 21
-109.6261047838
  0
CIRCLE
  8
3
  6
CONTINUOUS
 62
5
 10
236.6236006922
 20
-112.2261047838
 40
1.1500000000
  0
POINT
  8
3
  6
CONTINUOUS
 62
5
 10
236.6236156922
 20
-95.5661052838
  0
LINE
  8
1
  6
CONTINUOUS
 62
5
 10
269.7136056922
 20
-112.7410832838
 11
269.7136056922
 21
-78.3911132838
  0
LINE
  8
1
  6
CONTINUOUS
 62
5
 10
270.4986056922
 20
-112.4353132838
 11
270.4986056922
 21
-78.6969112838
  0
LINE
  8
1
  6
CONTINUOUS
 62
5
 10
276.7486056922
 20
-112.2067432838
 11
276.7486056922
 21
-78.9255142838
  0
LINE
  8
1
  6
CONTINUOUS
 62
5
 10
277.5336056922
 20
-112.4724132838
 11
277.5336056922
 21
-78.6598132838
  0
LINE
  8
1
  6
CONTINUOUS
 62
5
 10
272.1039056922
 20
-113.9315632838
 11
275.3539056922
 21
-113.7029832838
  0
LINE
  8
1
  6
CONTINUOUS
 62
5
 10
271.8539956922
 20
-114.7361052838
 11
275.6739856922
 21
-114.4674242838
  0
LINE
  8
1
  6
HIDDEN
 62
5
 10
279.8236256922
 20
-120.0661052838
 11
279.8236256922
 21
-71.0661052838
  0
LINE
  8
1
  6
HIDDEN
 62
5
 10
267.4236356922
 20
-120.0661052838
 11
267.4236356922
 21
-71.0661052838
  0
LINE
  8
1
  6
CONTINUOUS
 62
5
 10
275.3539066922
 20
-77.4292142838
 11
272.1039056922
 21
-77.2006112838
  0
LINE
  8
1
  6
CONTINUOUS
 62
5
 10
275.6739866922
 20
-76.6648062838
 11
271.8539856922
 21
-76.3961032838
  0
LINE
  8
1
  6
HIDDEN
 62
5
 10
269.4236356922
 20
-69.0661052838
 11
277.8236256922
 21
-69.0661052838
  0
LINE
  8
1
  6
HIDDEN
 62
5
 10
269.4236356922
 20
-122.0661052838
 11
277.8236256922
 21
-122.0661052838
  0
ARC
  8
1
  6
CONTINUOUS
 62
5
 10
275.2486056922
 20
-78.9255142838
 40
1.5000000000
 50
359.9989600000
 51
85.9769700000
  0
ARC
  8
1
  6
CONTINUOUS
 62
5
 10
271.9986056922
 20
-78.6969112838
 40
1.5000000000
 50
85.9769700000
 51
180.0004530000
  0
ARC
  8
1
  6
CONTINUOUS
 62
5
 10
275.2486056922
 20
-112.2067432838
 40
1.5000000000
 50
274.0219500000
 51
359.9999600000
  0
ARC
  8
1
  6
CONTINUOUS
 62
5
 10
271.9986056922
 20
-112.4353132838
 40
1.4999900000
 50
180.0001190000
 51
274.0219300000
  0
ARC
  8
1
  6
CONTINUOUS
 62
5
 10
271.7136056922
 20
-78.3911132838
 40
2.0000000000
 50
85.9769700000
 51
180.0006720000
  0
ARC
  8
1
  6
CONTINUOUS
 62
5
 10
275.5336056922
 20
-78.6598132838
 40
2.0000000000
 50
359.9990000000
 51
85.9769700000
  0
ARC
  8
1
  6
CONTINUOUS
 62
5
 10
275.5336056922
 20
-112.4724132838
 40
2.0000000000
 50
274.0219500000
 51
359.9999600000
  0
ARC
  8
1
  6
CONTINUOUS
 62
5
 10
271.7136056922
 20
-112.7410832838
 40
2.0000100000
 50
179.9999820000
 51
274.0219300000
  0
CIRCLE
  8
1
  6
CONTINUOUS
 62
5
 10
275.0436056922
 20
-110.6911042838
 40
0.5000000000
  0
CIRCLE
  8
1
  6
CONTINUOUS
 62
5
 10
275.0436056922
 20
-110.6911042838
 40
0.7500000000
  0
CIRCLE
  8
1
  6
CONTINUOUS
 62
5
 10
272.2036056922
 20
-109.3161042838
 40
0.7500000000
  0
CIRCLE
  8
1
  6
CONTINUOUS
 62
5
 10
272.2036056922
 20
-109.3161042838
 40
0.5000000000
  0
CIRCLE
  8
1
  6
CONTINUOUS
 62
5
 10
275.0436056922
 20
-107.9411052838
 40
0.7500000000
  0
CIRCLE
  8
1
  6
CONTINUOUS
 62
5
 10
275.0436056922
 20
-107.9411052838
 40
0.5000000000
  0
CIRCLE
  8
1
  6
CONTINUOUS
 62
5
 10
272.2036056922
 20
-112.0661042838
 40
0.7500000000
  0
CIRCLE
  8
1
  6
CONTINUOUS
 62
5
 10
272.2036056922
 20
-112.0661042838
 40
0.5000000000
  0
CIRCLE
  8
1
  6
CONTINUOUS
 62
5
 10
275.0436056922
 20
-80.4411052838
 40
0.7500000000
  0
CIRCLE
  8
1
  6
CONTINUOUS
 62
5
 10
275.0436056922
 20
-80.4411052838
 40
0.5000000000
  0
CIRCLE
  8
1
  6
CONTINUOUS
 62
5
 10
275.0436056922
 20
-83.1911052838
 40
0.7500000000
  0
CIRCLE
  8
1
  6
CONTINUOUS
 62
5
 10
275.0436056922
 20
-83.1911052838
 40
0.5000000000
  0
CIRCLE
  8
1
  6
CONTINUOUS
 62
5
 10
272.2036056922
 20
-79.0661052838
 40
0.5000000000
  0
CIRCLE
  8
1
  6
CONTINUOUS
 62
5
 10
272.2036056922
 20
-79.0661052838
 40
0.7500000000
  0
CIRCLE
  8
1
  6
CONTINUOUS
 62
5
 10
272.2036056922
 20
-81.8161052838
 40
0.7500000000
  0
CIRCLE
  8
1
  6
CONTINUOUS
 62
5
 10
272.2036056922
 20
-81.8161052838
 40
0.5000000000
  0
ARC
  8
1
  6
HIDDEN
 62
5
 10
269.4236356922
 20
-120.0661052838
 40
2.0000000000
 50
180.0000030000
 51
270.0000100000
  0
ARC
  8
1
  6
HIDDEN
 62
5
 10
269.4236356922
 20
-71.0661052838
 40
2.0000000000
 50
90.0000000000
 51
180.0000030000
  0
ARC
  8
1
  6
HIDDEN
 62
5
 10
277.8236256922
 20
-71.0661052838
 40
2.0000000000
 50
0.0000000000
 51
90.0000000000
  0
ARC
  8
1
  6
HIDDEN
 62
5
 10
277.8236256922
 20
-120.0661052838
 40
2.0000000000
 50
269.9999900000
 51
0.0000000000
  0
CIRCLE
  8
1
  6
CONTINUOUS
 62
5
 10
275.0436056922
 20
-85.9411052838
 40
0.7500000000
  0
CIRCLE
  8
1
  6
CONTINUOUS
 62
5
 10
275.0436056922
 20
-85.9411052838
 40
0.5000000000
  0
CIRCLE
  8
1
  6
CONTINUOUS
 62
5
 10
272.2036056922
 20
-84.5661052838
 40
0.7500000000
  0
CIRCLE
  8
1
  6
CONTINUOUS
 62
5
 10
272.2036056922
 20
-84.5661052838
 40
0.5000000000
  0
CIRCLE
  8
1
  6
CONTINUOUS
 62
5
 10
275.0436056922
 20
-88.6911052838
 40
0.7500000000
  0
CIRCLE
  8
1
  6
CONTINUOUS
 62
5
 10
275.0436056922
 20
-88.6911052838
 40
0.5000000000
  0
CIRCLE
  8
1
  6
CONTINUOUS
 62
5
 10
272.2036056922
 20
-87.3161052838
 40
0.7500000000
  0
CIRCLE
  8
1
  6
CONTINUOUS
 62
5
 10
272.2036056922
 20
-87.3161052838
 40
0.5000000000
  0
CIRCLE
  8
1
  6
CONTINUOUS
 62
5
 10
275.0436056922
 20
-91.4411052838
 40
0.7500000000
  0
CIRCLE
  8
1
  6
CONTINUOUS
 62
5
 10
275.0436056922
 20
-91.4411052838
 40
0.5000000000
  0
CIRCLE
  8
1
  6
CONTINUOUS
 62
5
 10
272.2036056922
 20
-90.0661052838
 40
0.7500000000
  0
CIRCLE
  8
1
  6
CONTINUOUS
 62
5
 10
272.2036056922
 20
-90.0661052838
 40
0.5000000000
  0
CIRCLE
  8
1
  6
CONTINUOUS
 62
5
 10
275.0436056922
 20
-94.1911052838
 40
0.7500000000
  0
CIRCLE
  8
1
  6
CONTINUOUS
 62
5
 10
275.0436056922
 20
-94.1911052838
 40
0.5000000000
  0
CIRCLE
  8
1
  6
CONTINUOUS
 62
5
 10
272.2036056922
 20
-92.8161052838
 40
0.7500000000
  0
CIRCLE
  8
1
  6
CONTINUOUS
 62
5
 10
272.2036056922
 20
-92.8161052838
 40
0.5000000000
  0
CIRCLE
  8
1
  6
CONTINUOUS
 62
5
 10
275.0436056922
 20
-96.9411052838
 40
0.7500000000
  0
CIRCLE
  8
1
  6
CONTINUOUS
 62
5
 10
275.0436056922
 20
-96.9411052838
 40
0.5000000000
  0
CIRCLE
  8
1
  6
CONTINUOUS
 62
5
 10
272.2036056922
 20
-95.5661052838
 40
0.7500000000
  0
CIRCLE
  8
1
  6
CONTINUOUS
 62
5
 10
272.2036056922
 20
-95.5661052838
 40
0.5000000000
  0
CIRCLE
  8
1
  6
CONTINUOUS
 62
5
 10
275.0436056922
 20
-99.6911052838
 40
0.7500000000
  0
CIRCLE
  8
1
  6
CONTINUOUS
 62
5
 10
275.0436056922
 20
-99.6911052838
 40
0.5000000000
  0
CIRCLE
  8
1
  6
CONTINUOUS
 62
5
 10
272.2036056922
 20
-98.3161052838
 40
0.7500000000
  0
CIRCLE
  8
1
  6
CONTINUOUS
 62
5
 10
272.2036056922
 20
-98.3161052838
 40
0.5000000000
  0
CIRCLE
  8
1
  6
CONTINUOUS
 62
5
 10
275.0436056922
 20
-102.4411052838
 40
0.7500000000
  0
CIRCLE
  8
1
  6
CONTINUOUS
 62
5
 10
275.0436056922
 20
-102.4411052838
 40
0.5000000000
  0
CIRCLE
  8
1
  6
CONTINUOUS
 62
5
 10
272.2036056922
 20
-101.0661052838
 40
0.7500000000
  0
CIRCLE
  8
1
  6
CONTINUOUS
 62
5
 10
272.2036056922
 20
-101.0661052838
 40
0.5000000000
  0
CIRCLE
  8
1
  6
CONTINUOUS
 62
5
 10
275.0436056922
 20
-105.1911052838
 40
0.7500000000
  0
CIRCLE
  8
1
  6
CONTINUOUS
 62
5
 10
275.0436056922
 20
-105.1911052838
 40
0.5000000000
  0
CIRCLE
  8
1
  6
CONTINUOUS
 62
5
 10
272.2036056922
 20
-103.8161052838
 40
0.7500000000
  0
CIRCLE
  8
1
  6
CONTINUOUS
 62
5
 10
272.2036056922
 20
-103.8161052838
 40
0.5000000000
  0
CIRCLE
  8
1
  6
CONTINUOUS
 62
5
 10
272.2036056922
 20
-106.5661052838
 40
0.7500000000
  0
CIRCLE
  8
1
  6
CONTINUOUS
 62
5
 10
272.2036056922
 20
-106.5661052838
 40
0.5000000000
  0
LINE
  8
3
  6
CONTINUOUS
 62
5
 10
273.6236306922
 20
-69.4461042838
 11
271.3719646423
 21
-70.7461042838
  0
LINE
  8
3
  6
CONTINUOUS
 62
5
 10
271.3719646423
 20
-70.7461042838
 11
271.3719646423
 21
-73.3461042838
  0
LINE
  8
3
  6
CONTINUOUS
 62
5
 10
271.3719646423
 20
-73.3461042838
 11
273.6236306922
 21
-74.6461042838
  0
LINE
  8
3
  6
CONTINUOUS
 62
5
 10
273.6236306922
 20
-74.6461042838
 11
275.8752967420
 21
-73.3461042838
  0
LINE
  8
3
  6
CONTINUOUS
 62
5
 10
275.8752967420
 20
-73.3461042838
 11
275.8752967420
 21
-70.7461042838
  0
LINE
  8
3
  6
CONTINUOUS
 62
5
 10
275.8752967420
 20
-70.7461042838
 11
273.6236306922
 21
-69.4461042838
  0
CIRCLE
  8
3
  6
CONTINUOUS
 62
5
 10
273.6236306922
 20
-72.0461042838
 40
1.1500000000
  0
LINE
  8
3
  6
CONTINUOUS
 62
5
 10
273.6236156922
 20
-116.4861052838
 11
271.3719496423
 21
-117.7861052838
  0
LINE
  8
3
  6
CONTINUOUS
 62
5
 10
271.3719496423
 20
-117.7861052838
 11
271.3719496423
 21
-120.3861052838
  0
LINE
  8
3
  6
CONTINUOUS
 62
5
 10
271.3719496423
 20
-120.3861052838
 11
273.6236156922
 21
-121.6861052838
  0
LINE
  8
3
  6
CONTINUOUS
 62
5
 10
273.6236156922
 20
-121.6861052838
 11
275.8752817420
 21
-120.3861052838
  0
LINE
  8
3
  6
CONTINUOUS
 62
5
 10
275.8752817420
 20
-120.3861052838
 11
275.8752817420
 21
-117.7861052838
  0
LINE
  8
3
  6
CONTINUOUS
 62
5
 10
275.8752817420
 20
-117.7861052838
 11
273.6236156922
 21
-116.4861052838
  0
CIRCLE
  8
3
  6
CONTINUOUS
 62
5
 10
273.6236156922
 20
-119.0861052838
 40
1.1500000000
  0
POINT
  8
3
  6
CONTINUOUS
 62
5
 10
273.6236156922
 20
-95.5661052838
  0
LINE
  8
5
  6
CONTINUOUS
 62
6
 10
310.9077307347
 20
-76.0697931239
 11
310.9077307347
 21
-71.0697931239
  0
LINE
  8
5
  6
CONTINUOUS
 62
6
 10
310.9077307347
 20
-71.0697931239
 11
315.9077307347
 21
-71.0697931239
  0
LINE
  8
5
  6
CONTINUOUS
 62
6
 10
315.9077307347
 20
-71.0697931239
 11
335.9077307347
 21
-71.0697931239
  0
LINE
  8
5
  6
CONTINUOUS
 62
6
 10
335.9077307347
 20
-71.0697931239
 11
375.9077307347
 21
-71.0697931239
  0
LINE
  8
5
  6
CONTINUOUS
 62
6
 10
375.9077307347
 20
-71.0697931239
 11
390.9077307347
 21
-71.0697931239
  0
LINE
  8
5
  6
CONTINUOUS
 62
6
 10
390.9077307347
 20
-71.0697931239
 11
395.9077307347
 21
-71.0697931239
  0
LINE
  8
5
  6
CONTINUOUS
 62
6
 10
395.9077307347
 20
-71.0697931239
 11
395.9077307347
 21
-76.0697931239
  0
LINE
  8
5
  6
CONTINUOUS
 62
6
 10
395.9077307347
 20
-76.0697931239
 11
390.9077307347
 21
-76.0697931239
  0
LINE
  8
5
  6
CONTINUOUS
 62
6
 10
390.9077307347
 20
-76.0697931239
 11
375.9077307347
 21
-76.0697931239
  0
LINE
  8
5
  6
CONTINUOUS
 62
6
 10
375.9077307347
 20
-76.0697931239
 11
335.9077307347
 21
-76.0697931239
  0
LINE
  8
5
  6
CONTINUOUS
 62
6
 10
335.9077307347
 20
-76.0697931239
 11
315.9077307347
 21
-76.0697931239
  0
LINE
  8
5
  6
CONTINUOUS
 62
6
 10
315.9077307347
 20
-76.0697931239
 11
310.9077307347
 21
-76.0697931239
  0
LINE
  8
5
  6
CONTINUOUS
 62
6
 10
315.9077307347
 20
-71.0697931239
 11
315.9077307347
 21
-76.0697931239
  0
LINE
  8
5
  6
CONTINUOUS
 62
6
 10
335.9077307347
 20
-71.0697931239
 11
335.9077307347
 21
-76.0697931239
  0
LINE
  8
5
  6
CONTINUOUS
 62
6
 10
375.9077307347
 20
-71.0697931239
 11
375.9077307347
 21
-76.0697931239
  0
LINE
  8
5
  6
CONTINUOUS
 62
6
 10
390.9077307347
 20
-71.0697931239
 11
390.9077307347
 21
-76.0697931239
  0
TEXT
  8
5
  6
CONTINUOUS
 62
7
 10
311.107731
 20
-74.719793
 40
2.300000
  1
項番
 41
0.921659
 50
0.000000
 51
0.000000
 72
   5
 73
   0
 11
315.707731
 21
-74.719793
  0
TEXT
  8
5
  6
CONTINUOUS
 62
7
 10
320.915731
 20
-75.069793
 40
3.000000
  1
品　　名
 41
0.737916
 50
0.000000
 51
0.000000
 72
   5
 73
   0
 11
330.899731
 21
-75.069793
  0
TEXT
  8
5
  6
CONTINUOUS
 62
7
 10
340.754731
 20
-75.069793
 40
3.000000
  1
定  格 / 型  番 / 材　質
 41
0.686277
 50
0.000000
 51
0.000000
 72
   5
 73
   0
 11
371.060731
 21
-75.069793
  0
TEXT
  8
5
  6
CONTINUOUS
 62
7
 10
378.210231
 20
-75.069793
 40
3.000000
  1
メーカー
 41
0.768293
 50
0.000000
 51
0.000000
 72
   5
 73
   0
 11
388.605231
 21
-75.069793
  0
TEXT
  8
5
  6
CONTINUOUS
 62
7
 10
391.107731
 20
-74.719793
 40
2.300000
  1
数量
 41
0.921659
 50
0.000000
 51
0.000000
 72
   5
 73
   0
 11
395.707731
 21
-74.719793
  0
LINE
  8
5
  6
CONTINUOUS
 62
6
 10
310.9077307347
 20
-81.0697931239
 11
310.9077307347
 21
-76.0697931239
  0
LINE
  8
5
  6
CONTINUOUS
 62
6
 10
310.9077307347
 20
-76.0697931239
 11
315.9077307347
 21
-76.0697931239
  0
LINE
  8
5
  6
CONTINUOUS
 62
6
 10
315.9077307347
 20
-76.0697931239
 11
335.9077307347
 21
-76.0697931239
  0
LINE
  8
5
  6
CONTINUOUS
 62
6
 10
335.9077307347
 20
-76.0697931239
 11
375.9077307347
 21
-76.0697931239
  0
LINE
  8
5
  6
CONTINUOUS
 62
6
 10
375.9077307347
 20
-76.0697931239
 11
390.9077307347
 21
-76.0697931239
  0
LINE
  8
5
  6
CONTINUOUS
 62
6
 10
390.9077307347
 20
-76.0697931239
 11
395.9077307347
 21
-76.0697931239
  0
LINE
  8
5
  6
CONTINUOUS
 62
6
 10
395.9077307347
 20
-76.0697931239
 11
395.9077307347
 21
-81.0697931239
  0
LINE
  8
5
  6
CONTINUOUS
 62
6
 10
395.9077307347
 20
-81.0697931239
 11
390.9077307347
 21
-81.0697931239
  0
LINE
  8
5
  6
CONTINUOUS
 62
6
 10
390.9077307347
 20
-81.0697931239
 11
375.9077307347
 21
-81.0697931239
  0
LINE
  8
5
  6
CONTINUOUS
 62
6
 10
375.9077307347
 20
-81.0697931239
 11
335.9077307347
 21
-81.0697931239
  0
LINE
  8
5
  6
CONTINUOUS
 62
6
 10
335.9077307347
 20
-81.0697931239
 11
315.9077307347
 21
-81.0697931239
  0
LINE
  8
5
  6
CONTINUOUS
 62
6
 10
315.9077307347
 20
-81.0697931239
 11
310.9077307347
 21
-81.0697931239
  0
LINE
  8
5
  6
CONTINUOUS
 62
6
 10
315.9077307347
 20
-76.0697931239
 11
315.9077307347
 21
-81.0697931239
  0
LINE
  8
5
  6
CONTINUOUS
 62
6
 10
335.9077307347
 20
-76.0697931239
 11
335.9077307347
 21
-81.0697931239
  0
LINE
  8
5
  6
CONTINUOUS
 62
6
 10
375.9077307347
 20
-76.0697931239
 11
375.9077307347
 21
-81.0697931239
  0
LINE
  8
5
  6
CONTINUOUS
 62
6
 10
390.9077307347
 20
-76.0697931239
 11
390.9077307347
 21
-81.0697931239
  0
TEXT
  8
5
  6
CONTINUOUS
 62
7
 10
311.157731
 20
-80.069793
 40
3.000000
  1
921
 41
0.815217
 50
0.000000
 51
0.000000
 72
   5
 73
   0
 11
315.657731
 21
-80.069793
  0
TEXT
  8
5
  6
CONTINUOUS
 62
7
 10
316.907731
 20
-80.069793
 40
3.000000
  1
DSUBﾊﾟﾈﾙ
 41
0.905395
 50
0.000000
 51
0.000000
 72
   5
 73
   0
 11
331.004731
 21
-80.069793
  0
TEXT
  8
5
  6
CONTINUOUS
 62
7
 10
336.907731
 20
-80.569793
 40
4.000000
  1
M0051B501B
 41
0.765697
 50
0.000000
 51
0.000000
 72
   5
 73
   0
 11
356.907731
 21
-80.569793
  0
TEXT
  8
5
  6
CONTINUOUS
 62
7
 10
392.532731
 20
-80.319793
 40
3.500000
  1
1
 41
1.000000
 50
0.000000
 51
0.000000
 72
   5
 73
   0
 11
394.282731
 21
-80.319793
  0
LINE
  8
5
  6
CONTINUOUS
 62
6
 10
395.9077307347
 20
-86.0697931239
 11
390.9077307347
 21
-86.0697931239
  0
LINE
  8
5
  6
CONTINUOUS
 62
6
 10
390.9077307347
 20
-86.0697931239
 11
375.9077307347
 21
-86.0697931239
  0
LINE
  8
5
  6
CONTINUOUS
 62
6
 10
375.9077307347
 20
-86.0697931239
 11
335.9077307347
 21
-86.0697931239
  0
LINE
  8
5
  6
CONTINUOUS
 62
6
 10
335.9077307347
 20
-86.0697931239
 11
315.9077307347
 21
-86.0697931239
  0
LINE
  8
5
  6
CONTINUOUS
 62
6
 10
315.9077307347
 20
-86.0697931239
 11
310.9077307347
 21
-86.0697931239
  0
TEXT
  8
5
  6
CONTINUOUS
 62
7
 10
311.157731
 20
-85.069793
 40
3.000000
  1
922
 41
0.815217
 50
0.000000
 51
0.000000
 72
   5
 73
   0
 11
315.657731
 21
-85.069793
  0
TEXT
  8
5
  6
CONTINUOUS
 62
7
 10
311.157731
 20
-90.069793
 40
3.000000
  1
923
 41
0.815217
 50
0.000000
 51
0.000000
 72
   5
 73
   0
 11
315.657731
 21
-90.069793
  0
TEXT
  8
5
  6
CONTINUOUS
 62
7
 10
316.907731
 20
-84.819793
 40
2.500000
  1
ｼﾞｪﾝﾀﾞｰﾁｪﾝｼﾞｬｰ
 41
0.752009
 50
0.000000
 51
0.000000
 72
   5
 73
   0
 11
334.222731
 21
-84.819793
  0
TEXT
  8
5
  6
CONTINUOUS
 62
7
 10
316.907731
 20
-90.069793
 40
3.000000
  1
ﾋﾞｽ
 41
0.761957
 50
0.000000
 51
0.000000
 72
   5
 73
   0
 11
321.113731
 21
-90.069793
  0
TEXT
  8
5
  6
CONTINUOUS
 62
7
 10
336.907731
 20
-90.069793
 40
3.000000
  1
M3×8 小ワｾﾑｽ
 41
0.863014
 50
0.000000
 51
0.000000
 72
   5
 73
   0
 11
357.697731
 21
-90.069793
  0
TEXT
  8
5
  6
CONTINUOUS
 62
7
 10
392.532731
 20
-85.319793
 40
3.500000
  1
1
 41
1.000000
 50
0.000000
 51
0.000000
 72
   5
 73
   0
 11
394.282731
 21
-85.319793
  0
TEXT
  8
5
  6
CONTINUOUS
 62
7
 10
392.532731
 20
-90.319793
 40
3.500000
  1
2
 41
1.000000
 50
0.000000
 51
0.000000
 72
   5
 73
   0
 11
394.282731
 21
-90.319793
  0
LINE
  8
5
  6
CONTINUOUS
 62
6
 10
310.9077307347
 20
-86.0697931239
 11
310.9077307347
 21
-81.0697931239
  0
LINE
  8
5
  6
CONTINUOUS
 62
6
 10
310.9077307347
 20
-91.0697931239
 11
310.9077307347
 21
-86.0697931239
  0
LINE
  8
5
  6
CONTINUOUS
 62
6
 10
315.9077307347
 20
-81.0697931239
 11
315.9077307347
 21
-86.0697931239
  0
LINE
  8
5
  6
CONTINUOUS
 62
6
 10
315.9077307347
 20
-86.0697931239
 11
315.9077307347
 21
-91.0697931239
  0
LINE
  8
5
  6
CONTINUOUS
 62
6
 10
335.9077307347
 20
-81.0697931239
 11
335.9077307347
 21
-86.0697931239
  0
LINE
  8
5
  6
CONTINUOUS
 62
6
 10
335.9077307347
 20
-86.0697931239
 11
335.9077307347
 21
-91.0697931239
  0
LINE
  8
5
  6
CONTINUOUS
 62
6
 10
375.9077307347
 20
-81.0697931239
 11
375.9077307347
 21
-86.0697931239
  0
LINE
  8
5
  6
CONTINUOUS
 62
6
 10
375.9077307347
 20
-86.0697931239
 11
375.9077307347
 21
-91.0697931239
  0
LINE
  8
5
  6
CONTINUOUS
 62
6
 10
390.9077307347
 20
-81.0697931239
 11
390.9077307347
 21
-86.0697931239
  0
LINE
  8
5
  6
CONTINUOUS
 62
6
 10
390.9077307347
 20
-86.0697931239
 11
390.9077307347
 21
-91.0697931239
  0
LINE
  8
5
  6
CONTINUOUS
 62
6
 10
395.9077307347
 20
-81.0697931239
 11
395.9077307347
 21
-86.0697931239
  0
LINE
  8
5
  6
CONTINUOUS
 62
6
 10
395.9077307347
 20
-86.0697931239
 11
395.9077307347
 21
-91.0697931239
  0
TEXT
  8
5
  6
CONTINUOUS
 62
7
 10
336.907731
 20
-85.569793
 40
4.000000
  1
DGC- 9PS
 41
0.770713
 50
0.000000
 51
0.000000
 72
   5
 73
   0
 11
352.907731
 21
-85.569793
  0
LINE
  8
5
  6
CONTINUOUS
 62
6
 10
300.9077307347
 20
-76.0697931239
 11
300.9077307347
 21
-71.0697931239
  0
LINE
  8
5
  6
CONTINUOUS
 62
6
 10
300.9077307347
 20
-71.0697931239
 11
310.9077307347
 21
-71.0697931239
  0
LINE
  8
5
  6
CONTINUOUS
 62
6
 10
310.9077307347
 20
-76.0697931239
 11
305.9077307347
 21
-76.0697931239
  0
LINE
  8
5
  6
CONTINUOUS
 62
6
 10
310.9077307347
 20
-71.0697931239
 11
310.9077307347
 21
-76.0697931239
  0
TEXT
  8
5
  6
CONTINUOUS
 62
7
 10
303.445950
 20
-75.069793
 40
3.000000
  1
型番
 41
0.921659
 50
0.000000
 51
0.000000
 72
   5
 73
   0
 11
309.445950
 21
-75.069793
  0
LINE
  8
5
  6
CONTINUOUS
 62
6
 10
300.9077307347
 20
-81.0697931239
 11
300.9077307347
 21
-76.0697931239
  0
LINE
  8
5
  6
CONTINUOUS
 62
6
 10
300.9077307347
 20
-76.0697931239
 11
310.9077307347
 21
-76.0697931239
  0
LINE
  8
5
  6
CONTINUOUS
 62
6
 10
310.9077307347
 20
-76.0697931239
 11
310.9077307347
 21
-81.0697931239
  0
TEXT
  8
5
  6
CONTINUOUS
 62
7
 10
302.149950
 20
-80.569793
 40
4.000000
  1
D*09
 41
0.855777
 50
0.000000
 51
0.000000
 72
   5
 73
   0
 11
310.741950
 21
-80.569793
  0
LINE
  8
5
  6
CONTINUOUS
 62
6
 10
300.9077307347
 20
-86.0697931239
 11
300.9077307347
 21
-81.0697931239
  0
LINE
  8
5
  6
CONTINUOUS
 62
6
 10
300.9077307347
 20
-91.0697931239
 11
300.9077307347
 21
-86.0697931239
  0
LINE
  8
5
  6
CONTINUOUS
 62
6
 10
310.9077307347
 20
-81.0697931239
 11
310.9077307347
 21
-86.0697931239
  0
LINE
  8
5
  6
CONTINUOUS
 62
6
 10
310.9077307347
 20
-86.0697931239
 11
310.9077307347
 21
-91.0697931239
  0
LINE
  8
5
  6
CONTINUOUS
 62
6
 10
395.9077307347
 20
-91.0697931239
 11
390.9077307347
 21
-91.0697931239
  0
LINE
  8
5
  6
CONTINUOUS
 62
6
 10
390.9077307347
 20
-91.0697931239
 11
375.9077307347
 21
-91.0697931239
  0
LINE
  8
5
  6
CONTINUOUS
 62
6
 10
375.9077307347
 20
-91.0697931239
 11
335.9077307347
 21
-91.0697931239
  0
LINE
  8
5
  6
CONTINUOUS
 62
6
 10
335.9077307347
 20
-91.0697931239
 11
315.9077307347
 21
-91.0697931239
  0
LINE
  8
5
  6
CONTINUOUS
 62
6
 10
315.9077307347
 20
-91.0697931239
 11
310.9077307347
 21
-91.0697931239
  0
LINE
  8
5
  6
CONTINUOUS
 62
6
 10
310.9077307347
 20
-91.0697931239
 11
300.9077307347
 21
-91.0697931239
  0
LINE
  8
5
  6
CONTINUOUS
 62
6
 10
310.9077307347
 20
-98.5697931239
 11
310.9077307347
 21
-93.5697931239
  0
LINE
  8
5
  6
CONTINUOUS
 62
6
 10
310.9077307347
 20
-93.5697931239
 11
315.9077307347
 21
-93.5697931239
  0
LINE
  8
5
  6
CONTINUOUS
 62
6
 10
315.9077307347
 20
-93.5697931239
 11
335.9077307347
 21
-93.5697931239
  0
LINE
  8
5
  6
CONTINUOUS
 62
6
 10
335.9077307347
 20
-93.5697931239
 11
375.9077307347
 21
-93.5697931239
  0
LINE
  8
5
  6
CONTINUOUS
 62
6
 10
375.9077307347
 20
-93.5697931239
 11
390.9077307347
 21
-93.5697931239
  0
LINE
  8
5
  6
CONTINUOUS
 62
6
 10
390.9077307347
 20
-93.5697931239
 11
395.9077307347
 21
-93.5697931239
  0
LINE
  8
5
  6
CONTINUOUS
 62
6
 10
395.9077307347
 20
-93.5697931239
 11
395.9077307347
 21
-98.5697931239
  0
LINE
  8
5
  6
CONTINUOUS
 62
6
 10
395.9077307347
 20
-98.5697931239
 11
390.9077307347
 21
-98.5697931239
  0
LINE
  8
5
  6
CONTINUOUS
 62
6
 10
390.9077307347
 20
-98.5697931239
 11
375.9077307347
 21
-98.5697931239
  0
LINE
  8
5
  6
CONTINUOUS
 62
6
 10
375.9077307347
 20
-98.5697931239
 11
335.9077307347
 21
-98.5697931239
  0
LINE
  8
5
  6
CONTINUOUS
 62
6
 10
335.9077307347
 20
-98.5697931239
 11
315.9077307347
 21
-98.5697931239
  0
LINE
  8
5
  6
CONTINUOUS
 62
6
 10
315.9077307347
 20
-98.5697931239
 11
310.9077307347
 21
-98.5697931239
  0
LINE
  8
5
  6
CONTINUOUS
 62
6
 10
315.9077307347
 20
-93.5697931239
 11
315.9077307347
 21
-98.5697931239
  0
LINE
  8
5
  6
CONTINUOUS
 62
6
 10
335.9077307347
 20
-93.5697931239
 11
335.9077307347
 21
-98.5697931239
  0
LINE
  8
5
  6
CONTINUOUS
 62
6
 10
375.9077307347
 20
-93.5697931239
 11
375.9077307347
 21
-98.5697931239
  0
LINE
  8
5
  6
CONTINUOUS
 62
6
 10
390.9077307347
 20
-93.5697931239
 11
390.9077307347
 21
-98.5697931239
  0
TEXT
  8
5
  6
CONTINUOUS
 62
7
 10
311.107731
 20
-97.219793
 40
2.300000
  1
項番
 41
0.921659
 50
0.000000
 51
0.000000
 72
   5
 73
   0
 11
315.707731
 21
-97.219793
  0
TEXT
  8
5
  6
CONTINUOUS
 62
7
 10
320.915731
 20
-97.569793
 40
3.000000
  1
品　　名
 41
0.737916
 50
0.000000
 51
0.000000
 72
   5
 73
   0
 11
330.899731
 21
-97.569793
  0
TEXT
  8
5
  6
CONTINUOUS
 62
7
 10
340.754731
 20
-97.569793
 40
3.000000
  1
定  格 / 型  番 / 材　質
 41
0.686277
 50
0.000000
 51
0.000000
 72
   5
 73
   0
 11
371.060731
 21
-97.569793
  0
TEXT
  8
5
  6
CONTINUOUS
 62
7
 10
378.210231
 20
-97.569793
 40
3.000000
  1
メーカー
 41
0.768293
 50
0.000000
 51
0.000000
 72
   5
 73
   0
 11
388.605231
 21
-97.569793
  0
TEXT
  8
5
  6
CONTINUOUS
 62
7
 10
391.107731
 20
-97.219793
 40
2.300000
  1
数量
 41
0.921659
 50
0.000000
 51
0.000000
 72
   5
 73
   0
 11
395.707731
 21
-97.219793
  0
LINE
  8
5
  6
CONTINUOUS
 62
6
 10
310.9077307347
 20
-103.5697931239
 11
310.9077307347
 21
-98.5697931239
  0
LINE
  8
5
  6
CONTINUOUS
 62
6
 10
310.9077307347
 20
-98.5697931239
 11
315.9077307347
 21
-98.5697931239
  0
LINE
  8
5
  6
CONTINUOUS
 62
6
 10
315.9077307347
 20
-98.5697931239
 11
335.9077307347
 21
-98.5697931239
  0
LINE
  8
5
  6
CONTINUOUS
 62
6
 10
335.9077307347
 20
-98.5697931239
 11
375.9077307347
 21
-98.5697931239
  0
LINE
  8
5
  6
CONTINUOUS
 62
6
 10
375.9077307347
 20
-98.5697931239
 11
390.9077307347
 21
-98.5697931239
  0
LINE
  8
5
  6
CONTINUOUS
 62
6
 10
390.9077307347
 20
-98.5697931239
 11
395.9077307347
 21
-98.5697931239
  0
LINE
  8
5
  6
CONTINUOUS
 62
6
 10
395.9077307347
 20
-98.5697931239
 11
395.9077307347
 21
-103.5697931239
  0
LINE
  8
5
  6
CONTINUOUS
 62
6
 10
395.9077307347
 20
-103.5697931239
 11
390.9077307347
 21
-103.5697931239
  0
LINE
  8
5
  6
CONTINUOUS
 62
6
 10
390.9077307347
 20
-103.5697931239
 11
375.9077307347
 21
-103.5697931239
  0
LINE
  8
5
  6
CONTINUOUS
 62
6
 10
375.9077307347
 20
-103.5697931239
 11
335.9077307347
 21
-103.5697931239
  0
LINE
  8
5
  6
CONTINUOUS
 62
6
 10
335.9077307347
 20
-103.5697931239
 11
315.9077307347
 21
-103.5697931239
  0
LINE
  8
5
  6
CONTINUOUS
 62
6
 10
315.9077307347
 20
-103.5697931239
 11
310.9077307347
 21
-103.5697931239
  0
LINE
  8
5
  6
CONTINUOUS
 62
6
 10
315.9077307347
 20
-98.5697931239
 11
315.9077307347
 21
-103.5697931239
  0
LINE
  8
5
  6
CONTINUOUS
 62
6
 10
335.9077307347
 20
-98.5697931239
 11
335.9077307347
 21
-103.5697931239
  0
LINE
  8
5
  6
CONTINUOUS
 62
6
 10
375.9077307347
 20
-98.5697931239
 11
375.9077307347
 21
-103.5697931239
  0
LINE
  8
5
  6
CONTINUOUS
 62
6
 10
390.9077307347
 20
-98.5697931239
 11
390.9077307347
 21
-103.5697931239
  0
TEXT
  8
5
  6
CONTINUOUS
 62
7
 10
311.157731
 20
-102.569793
 40
3.000000
  1
931
 41
0.815217
 50
0.000000
 51
0.000000
 72
   5
 73
   0
 11
315.657731
 21
-102.569793
  0
TEXT
  8
5
  6
CONTINUOUS
 62
7
 10
316.907731
 20
-102.569793
 40
3.000000
  1
DSUBﾊﾟﾈﾙ
 41
0.905395
 50
0.000000
 51
0.000000
 72
   5
 73
   0
 11
331.004731
 21
-102.569793
  0
TEXT
  8
5
  6
CONTINUOUS
 62
7
 10
336.907731
 20
-103.069793
 40
4.000000
  1
M0051B502B
 41
0.765697
 50
0.000000
 51
0.000000
 72
   5
 73
   0
 11
356.907731
 21
-103.069793
  0
TEXT
  8
5
  6
CONTINUOUS
 62
7
 10
392.532731
 20
-102.819793
 40
3.500000
  1
1
 41
1.000000
 50
0.000000
 51
0.000000
 72
   5
 73
   0
 11
394.282731
 21
-102.819793
  0
LINE
  8
5
  6
CONTINUOUS
 62
6
 10
395.9077307347
 20
-108.5697931239
 11
390.9077307347
 21
-108.5697931239
  0
LINE
  8
5
  6
CONTINUOUS
 62
6
 10
390.9077307347
 20
-108.5697931239
 11
375.9077307347
 21
-108.5697931239
  0
LINE
  8
5
  6
CONTINUOUS
 62
6
 10
375.9077307347
 20
-108.5697931239
 11
335.9077307347
 21
-108.5697931239
  0
LINE
  8
5
  6
CONTINUOUS
 62
6
 10
335.9077307347
 20
-108.5697931239
 11
315.9077307347
 21
-108.5697931239
  0
LINE
  8
5
  6
CONTINUOUS
 62
6
 10
315.9077307347
 20
-108.5697931239
 11
310.9077307347
 21
-108.5697931239
  0
TEXT
  8
5
  6
CONTINUOUS
 62
7
 10
311.157731
 20
-107.569793
 40
3.000000
  1
932
 41
0.815217
 50
0.000000
 51
0.000000
 72
   5
 73
   0
 11
315.657731
 21
-107.569793
  0
TEXT
  8
5
  6
CONTINUOUS
 62
7
 10
311.157731
 20
-112.569793
 40
3.000000
  1
933
 41
0.815217
 50
0.000000
 51
0.000000
 72
   5
 73
   0
 11
315.657731
 21
-112.569793
  0
TEXT
  8
5
  6
CONTINUOUS
 62
7
 10
316.907731
 20
-107.319793
 40
2.500000
  1
ｼﾞｪﾝﾀﾞｰﾁｪﾝｼﾞｬｰ
 41
0.752009
 50
0.000000
 51
0.000000
 72
   5
 73
   0
 11
334.222731
 21
-107.319793
  0
TEXT
  8
5
  6
CONTINUOUS
 62
7
 10
316.907731
 20
-112.569793
 40
3.000000
  1
ﾋﾞｽ
 41
0.761957
 50
0.000000
 51
0.000000
 72
   5
 73
   0
 11
321.113731
 21
-112.569793
  0
TEXT
  8
5
  6
CONTINUOUS
 62
7
 10
336.907731
 20
-112.569793
 40
3.000000
  1
M3×8 小ワｾﾑｽ
 41
0.863014
 50
0.000000
 51
0.000000
 72
   5
 73
   0
 11
357.697731
 21
-112.569793
  0
TEXT
  8
5
  6
CONTINUOUS
 62
7
 10
392.532731
 20
-107.819793
 40
3.500000
  1
1
 41
1.000000
 50
0.000000
 51
0.000000
 72
   5
 73
   0
 11
394.282731
 21
-107.819793
  0
TEXT
  8
5
  6
CONTINUOUS
 62
7
 10
392.532731
 20
-112.819793
 40
3.500000
  1
2
 41
1.000000
 50
0.000000
 51
0.000000
 72
   5
 73
   0
 11
394.282731
 21
-112.819793
  0
LINE
  8
5
  6
CONTINUOUS
 62
6
 10
310.9077307347
 20
-108.5697931239
 11
310.9077307347
 21
-103.5697931239
  0
LINE
  8
5
  6
CONTINUOUS
 62
6
 10
310.9077307347
 20
-113.5697931239
 11
310.9077307347
 21
-108.5697931239
  0
LINE
  8
5
  6
CONTINUOUS
 62
6
 10
315.9077307347
 20
-103.5697931239
 11
315.9077307347
 21
-108.5697931239
  0
LINE
  8
5
  6
CONTINUOUS
 62
6
 10
315.9077307347
 20
-108.5697931239
 11
315.9077307347
 21
-113.5697931239
  0
LINE
  8
5
  6
CONTINUOUS
 62
6
 10
335.9077307347
 20
-103.5697931239
 11
335.9077307347
 21
-108.5697931239
  0
LINE
  8
5
  6
CONTINUOUS
 62
6
 10
335.9077307347
 20
-108.5697931239
 11
335.9077307347
 21
-113.5697931239
  0
LINE
  8
5
  6
CONTINUOUS
 62
6
 10
375.9077307347
 20
-103.5697931239
 11
375.9077307347
 21
-108.5697931239
  0
LINE
  8
5
  6
CONTINUOUS
 62
6
 10
375.9077307347
 20
-108.5697931239
 11
375.9077307347
 21
-113.5697931239
  0
LINE
  8
5
  6
CONTINUOUS
 62
6
 10
390.9077307347
 20
-103.5697931239
 11
390.9077307347
 21
-108.5697931239
  0
LINE
  8
5
  6
CONTINUOUS
 62
6
 10
390.9077307347
 20
-108.5697931239
 11
390.9077307347
 21
-113.5697931239
  0
LINE
  8
5
  6
CONTINUOUS
 62
6
 10
395.9077307347
 20
-103.5697931239
 11
395.9077307347
 21
-108.5697931239
  0
LINE
  8
5
  6
CONTINUOUS
 62
6
 10
395.9077307347
 20
-108.5697931239
 11
395.9077307347
 21
-113.5697931239
  0
TEXT
  8
5
  6
CONTINUOUS
 62
7
 10
336.907731
 20
-108.069793
 40
4.000000
  1
DGC-15PS
 41
0.770713
 50
0.000000
 51
0.000000
 72
   5
 73
   0
 11
352.907731
 21
-108.069793
  0
LINE
  8
5
  6
CONTINUOUS
 62
6
 10
300.9077307347
 20
-98.5697931239
 11
300.9077307347
 21
-93.5697931239
  0
LINE
  8
5
  6
CONTINUOUS
 62
6
 10
300.9077307347
 20
-93.5697931239
 11
310.9077307347
 21
-93.5697931239
  0
LINE
  8
5
  6
CONTINUOUS
 62
6
 10
310.9077307347
 20
-98.5697931239
 11
305.9077307347
 21
-98.5697931239
  0
LINE
  8
5
  6
CONTINUOUS
 62
6
 10
310.9077307347
 20
-93.5697931239
 11
310.9077307347
 21
-98.5697931239
  0
TEXT
  8
5
  6
CONTINUOUS
 62
7
 10
303.445950
 20
-97.569793
 40
3.000000
  1
型番
 41
0.921659
 50
0.000000
 51
0.000000
 72
   5
 73
   0
 11
309.445950
 21
-97.569793
  0
LINE
  8
5
  6
CONTINUOUS
 62
6
 10
300.9077307347
 20
-103.5697931239
 11
300.9077307347
 21
-98.5697931239
  0
LINE
  8
5
  6
CONTINUOUS
 62
6
 10
300.9077307347
 20
-98.5697931239
 11
310.9077307347
 21
-98.5697931239
  0
LINE
  8
5
  6
CONTINUOUS
 62
6
 10
310.9077307347
 20
-98.5697931239
 11
310.9077307347
 21
-103.5697931239
  0
TEXT
  8
5
  6
CONTINUOUS
 62
7
 10
302.149950
 20
-103.069793
 40
4.000000
  1
D*15
 41
0.855777
 50
0.000000
 51
0.000000
 72
   5
 73
   0
 11
310.741950
 21
-103.069793
  0
LINE
  8
5
  6
CONTINUOUS
 62
6
 10
300.9077307347
 20
-108.5697931239
 11
300.9077307347
 21
-103.5697931239
  0
LINE
  8
5
  6
CONTINUOUS
 62
6
 10
300.9077307347
 20
-113.5697931239
 11
300.9077307347
 21
-108.5697931239
  0
LINE
  8
5
  6
CONTINUOUS
 62
6
 10
310.9077307347
 20
-103.5697931239
 11
310.9077307347
 21
-108.5697931239
  0
LINE
  8
5
  6
CONTINUOUS
 62
6
 10
310.9077307347
 20
-108.5697931239
 11
310.9077307347
 21
-113.5697931239
  0
LINE
  8
5
  6
CONTINUOUS
 62
6
 10
395.9077307347
 20
-113.5697931239
 11
390.9077307347
 21
-113.5697931239
  0
LINE
  8
5
  6
CONTINUOUS
 62
6
 10
390.9077307347
 20
-113.5697931239
 11
375.9077307347
 21
-113.5697931239
  0
LINE
  8
5
  6
CONTINUOUS
 62
6
 10
375.9077307347
 20
-113.5697931239
 11
335.9077307347
 21
-113.5697931239
  0
LINE
  8
5
  6
CONTINUOUS
 62
6
 10
335.9077307347
 20
-113.5697931239
 11
315.9077307347
 21
-113.5697931239
  0
LINE
  8
5
  6
CONTINUOUS
 62
6
 10
315.9077307347
 20
-113.5697931239
 11
310.9077307347
 21
-113.5697931239
  0
LINE
  8
5
  6
CONTINUOUS
 62
6
 10
310.9077307347
 20
-113.5697931239
 11
300.9077307347
 21
-113.5697931239
  0
LINE
  8
5
  6
CONTINUOUS
 62
6
 10
310.9077307347
 20
-121.0697931239
 11
310.9077307347
 21
-116.0697931239
  0
LINE
  8
5
  6
CONTINUOUS
 62
6
 10
310.9077307347
 20
-116.0697931239
 11
315.9077307347
 21
-116.0697931239
  0
LINE
  8
5
  6
CONTINUOUS
 62
6
 10
315.9077307347
 20
-116.0697931239
 11
335.9077307347
 21
-116.0697931239
  0
LINE
  8
5
  6
CONTINUOUS
 62
6
 10
335.9077307347
 20
-116.0697931239
 11
375.9077307347
 21
-116.0697931239
  0
LINE
  8
5
  6
CONTINUOUS
 62
6
 10
375.9077307347
 20
-116.0697931239
 11
390.9077307347
 21
-116.0697931239
  0
LINE
  8
5
  6
CONTINUOUS
 62
6
 10
390.9077307347
 20
-116.0697931239
 11
395.9077307347
 21
-116.0697931239
  0
LINE
  8
5
  6
CONTINUOUS
 62
6
 10
395.9077307347
 20
-116.0697931239
 11
395.9077307347
 21
-121.0697931239
  0
LINE
  8
5
  6
CONTINUOUS
 62
6
 10
395.9077307347
 20
-121.0697931239
 11
390.9077307347
 21
-121.0697931239
  0
LINE
  8
5
  6
CONTINUOUS
 62
6
 10
390.9077307347
 20
-121.0697931239
 11
375.9077307347
 21
-121.0697931239
  0
LINE
  8
5
  6
CONTINUOUS
 62
6
 10
375.9077307347
 20
-121.0697931239
 11
335.9077307347
 21
-121.0697931239
  0
LINE
  8
5
  6
CONTINUOUS
 62
6
 10
335.9077307347
 20
-121.0697931239
 11
315.9077307347
 21
-121.0697931239
  0
LINE
  8
5
  6
CONTINUOUS
 62
6
 10
315.9077307347
 20
-121.0697931239
 11
310.9077307347
 21
-121.0697931239
  0
LINE
  8
5
  6
CONTINUOUS
 62
6
 10
315.9077307347
 20
-116.0697931239
 11
315.9077307347
 21
-121.0697931239
  0
LINE
  8
5
  6
CONTINUOUS
 62
6
 10
335.9077307347
 20
-116.0697931239
 11
335.9077307347
 21
-121.0697931239
  0
LINE
  8
5
  6
CONTINUOUS
 62
6
 10
375.9077307347
 20
-116.0697931239
 11
375.9077307347
 21
-121.0697931239
  0
LINE
  8
5
  6
CONTINUOUS
 62
6
 10
390.9077307347
 20
-116.0697931239
 11
390.9077307347
 21
-121.0697931239
  0
TEXT
  8
5
  6
CONTINUOUS
 62
7
 10
311.107731
 20
-119.719793
 40
2.300000
  1
項番
 41
0.921659
 50
0.000000
 51
0.000000
 72
   5
 73
   0
 11
315.707731
 21
-119.719793
  0
TEXT
  8
5
  6
CONTINUOUS
 62
7
 10
320.915731
 20
-120.069793
 40
3.000000
  1
品　　名
 41
0.737916
 50
0.000000
 51
0.000000
 72
   5
 73
   0
 11
330.899731
 21
-120.069793
  0
TEXT
  8
5
  6
CONTINUOUS
 62
7
 10
340.754731
 20
-120.069793
 40
3.000000
  1
定  格 / 型  番 / 材　質
 41
0.686277
 50
0.000000
 51
0.000000
 72
   5
 73
   0
 11
371.060731
 21
-120.069793
  0
TEXT
  8
5
  6
CONTINUOUS
 62
7
 10
378.210231
 20
-120.069793
 40
3.000000
  1
メーカー
 41
0.768293
 50
0.000000
 51
0.000000
 72
   5
 73
   0
 11
388.605231
 21
-120.069793
  0
TEXT
  8
5
  6
CONTINUOUS
 62
7
 10
391.107731
 20
-119.719793
 40
2.300000
  1
数量
 41
0.921659
 50
0.000000
 51
0.000000
 72
   5
 73
   0
 11
395.707731
 21
-119.719793
  0
LINE
  8
5
  6
CONTINUOUS
 62
6
 10
310.9077307347
 20
-126.0697931239
 11
310.9077307347
 21
-121.0697931239
  0
LINE
  8
5
  6
CONTINUOUS
 62
6
 10
310.9077307347
 20
-121.0697931239
 11
315.9077307347
 21
-121.0697931239
  0
LINE
  8
5
  6
CONTINUOUS
 62
6
 10
315.9077307347
 20
-121.0697931239
 11
335.9077307347
 21
-121.0697931239
  0
LINE
  8
5
  6
CONTINUOUS
 62
6
 10
335.9077307347
 20
-121.0697931239
 11
375.9077307347
 21
-121.0697931239
  0
LINE
  8
5
  6
CONTINUOUS
 62
6
 10
375.9077307347
 20
-121.0697931239
 11
390.9077307347
 21
-121.0697931239
  0
LINE
  8
5
  6
CONTINUOUS
 62
6
 10
390.9077307347
 20
-121.0697931239
 11
395.9077307347
 21
-121.0697931239
  0
LINE
  8
5
  6
CONTINUOUS
 62
6
 10
395.9077307347
 20
-121.0697931239
 11
395.9077307347
 21
-126.0697931239
  0
LINE
  8
5
  6
CONTINUOUS
 62
6
 10
395.9077307347
 20
-126.0697931239
 11
390.9077307347
 21
-126.0697931239
  0
LINE
  8
5
  6
CONTINUOUS
 62
6
 10
390.9077307347
 20
-126.0697931239
 11
375.9077307347
 21
-126.0697931239
  0
LINE
  8
5
  6
CONTINUOUS
 62
6
 10
375.9077307347
 20
-126.0697931239
 11
335.9077307347
 21
-126.0697931239
  0
LINE
  8
5
  6
CONTINUOUS
 62
6
 10
335.9077307347
 20
-126.0697931239
 11
315.9077307347
 21
-126.0697931239
  0
LINE
  8
5
  6
CONTINUOUS
 62
6
 10
315.9077307347
 20
-126.0697931239
 11
310.9077307347
 21
-126.0697931239
  0
LINE
  8
5
  6
CONTINUOUS
 62
6
 10
315.9077307347
 20
-121.0697931239
 11
315.9077307347
 21
-126.0697931239
  0
LINE
  8
5
  6
CONTINUOUS
 62
6
 10
335.9077307347
 20
-121.0697931239
 11
335.9077307347
 21
-126.0697931239
  0
LINE
  8
5
  6
CONTINUOUS
 62
6
 10
375.9077307347
 20
-121.0697931239
 11
375.9077307347
 21
-126.0697931239
  0
LINE
  8
5
  6
CONTINUOUS
 62
6
 10
390.9077307347
 20
-121.0697931239
 11
390.9077307347
 21
-126.0697931239
  0
TEXT
  8
5
  6
CONTINUOUS
 62
7
 10
311.157731
 20
-125.069793
 40
3.000000
  1
941
 41
0.815217
 50
0.000000
 51
0.000000
 72
   5
 73
   0
 11
315.657731
 21
-125.069793
  0
TEXT
  8
5
  6
CONTINUOUS
 62
7
 10
316.907731
 20
-125.069793
 40
3.000000
  1
DSUBﾊﾟﾈﾙ
 41
0.905395
 50
0.000000
 51
0.000000
 72
   5
 73
   0
 11
331.004731
 21
-125.069793
  0
TEXT
  8
5
  6
CONTINUOUS
 62
7
 10
336.907731
 20
-125.569793
 40
4.000000
  1
M0051B503B
 41
0.765697
 50
0.000000
 51
0.000000
 72
   5
 73
   0
 11
356.907731
 21
-125.569793
  0
TEXT
  8
5
  6
CONTINUOUS
 62
7
 10
392.532731
 20
-125.319793
 40
3.500000
  1
1
 41
1.000000
 50
0.000000
 51
0.000000
 72
   5
 73
   0
 11
394.282731
 21
-125.319793
  0
LINE
  8
5
  6
CONTINUOUS
 62
6
 10
395.9077307347
 20
-131.0697931239
 11
390.9077307347
 21
-131.0697931239
  0
LINE
  8
5
  6
CONTINUOUS
 62
6
 10
390.9077307347
 20
-131.0697931239
 11
375.9077307347
 21
-131.0697931239
  0
LINE
  8
5
  6
CONTINUOUS
 62
6
 10
375.9077307347
 20
-131.0697931239
 11
335.9077307347
 21
-131.0697931239
  0
LINE
  8
5
  6
CONTINUOUS
 62
6
 10
335.9077307347
 20
-131.0697931239
 11
315.9077307347
 21
-131.0697931239
  0
LINE
  8
5
  6
CONTINUOUS
 62
6
 10
315.9077307347
 20
-131.0697931239
 11
310.9077307347
 21
-131.0697931239
  0
TEXT
  8
5
  6
CONTINUOUS
 62
7
 10
311.157731
 20
-130.069793
 40
3.000000
  1
942
 41
0.815217
 50
0.000000
 51
0.000000
 72
   5
 73
   0
 11
315.657731
 21
-130.069793
  0
TEXT
  8
5
  6
CONTINUOUS
 62
7
 10
311.157731
 20
-135.069793
 40
3.000000
  1
943
 41
0.815217
 50
0.000000
 51
0.000000
 72
   5
 73
   0
 11
315.657731
 21
-135.069793
  0
TEXT
  8
5
  6
CONTINUOUS
 62
7
 10
316.907731
 20
-129.819793
 40
2.500000
  1
ｼﾞｪﾝﾀﾞｰﾁｪﾝｼﾞｬｰ
 41
0.752009
 50
0.000000
 51
0.000000
 72
   5
 73
   0
 11
334.222731
 21
-129.819793
  0
TEXT
  8
5
  6
CONTINUOUS
 62
7
 10
316.907731
 20
-135.069793
 40
3.000000
  1
ﾋﾞｽ
 41
0.761957
 50
0.000000
 51
0.000000
 72
   5
 73
   0
 11
321.113731
 21
-135.069793
  0
TEXT
  8
5
  6
CONTINUOUS
 62
7
 10
336.907731
 20
-135.069793
 40
3.000000
  1
M3×8 小ワｾﾑｽ
 41
0.863014
 50
0.000000
 51
0.000000
 72
   5
 73
   0
 11
357.697731
 21
-135.069793
  0
TEXT
  8
5
  6
CONTINUOUS
 62
7
 10
392.532731
 20
-130.319793
 40
3.500000
  1
1
 41
1.000000
 50
0.000000
 51
0.000000
 72
   5
 73
   0
 11
394.282731
 21
-130.319793
  0
TEXT
  8
5
  6
CONTINUOUS
 62
7
 10
392.532731
 20
-135.319793
 40
3.500000
  1
2
 41
1.000000
 50
0.000000
 51
0.000000
 72
   5
 73
   0
 11
394.282731
 21
-135.319793
  0
LINE
  8
5
  6
CONTINUOUS
 62
6
 10
310.9077307347
 20
-131.0697931239
 11
310.9077307347
 21
-126.0697931239
  0
LINE
  8
5
  6
CONTINUOUS
 62
6
 10
310.9077307347
 20
-136.0697931239
 11
310.9077307347
 21
-131.0697931239
  0
LINE
  8
5
  6
CONTINUOUS
 62
6
 10
315.9077307347
 20
-126.0697931239
 11
315.9077307347
 21
-131.0697931239
  0
LINE
  8
5
  6
CONTINUOUS
 62
6
 10
315.9077307347
 20
-131.0697931239
 11
315.9077307347
 21
-136.0697931239
  0
LINE
  8
5
  6
CONTINUOUS
 62
6
 10
335.9077307347
 20
-126.0697931239
 11
335.9077307347
 21
-131.0697931239
  0
LINE
  8
5
  6
CONTINUOUS
 62
6
 10
335.9077307347
 20
-131.0697931239
 11
335.9077307347
 21
-136.0697931239
  0
LINE
  8
5
  6
CONTINUOUS
 62
6
 10
375.9077307347
 20
-126.0697931239
 11
375.9077307347
 21
-131.0697931239
  0
LINE
  8
5
  6
CONTINUOUS
 62
6
 10
375.9077307347
 20
-131.0697931239
 11
375.9077307347
 21
-136.0697931239
  0
LINE
  8
5
  6
CONTINUOUS
 62
6
 10
390.9077307347
 20
-126.0697931239
 11
390.9077307347
 21
-131.0697931239
  0
LINE
  8
5
  6
CONTINUOUS
 62
6
 10
390.9077307347
 20
-131.0697931239
 11
390.9077307347
 21
-136.0697931239
  0
LINE
  8
5
  6
CONTINUOUS
 62
6
 10
395.9077307347
 20
-126.0697931239
 11
395.9077307347
 21
-131.0697931239
  0
LINE
  8
5
  6
CONTINUOUS
 62
6
 10
395.9077307347
 20
-131.0697931239
 11
395.9077307347
 21
-136.0697931239
  0
TEXT
  8
5
  6
CONTINUOUS
 62
7
 10
336.907731
 20
-130.569793
 40
4.000000
  1
DGC-25PS
 41
0.770713
 50
0.000000
 51
0.000000
 72
   5
 73
   0
 11
352.907731
 21
-130.569793
  0
LINE
  8
5
  6
CONTINUOUS
 62
6
 10
300.9077307347
 20
-121.0697931239
 11
300.9077307347
 21
-116.0697931239
  0
LINE
  8
5
  6
CONTINUOUS
 62
6
 10
300.9077307347
 20
-116.0697931239
 11
310.9077307347
 21
-116.0697931239
  0
LINE
  8
5
  6
CONTINUOUS
 62
6
 10
310.9077307347
 20
-121.0697931239
 11
305.9077307347
 21
-121.0697931239
  0
LINE
  8
5
  6
CONTINUOUS
 62
6
 10
310.9077307347
 20
-116.0697931239
 11
310.9077307347
 21
-121.0697931239
  0
TEXT
  8
5
  6
CONTINUOUS
 62
7
 10
303.445950
 20
-120.069793
 40
3.000000
  1
型番
 41
0.921659
 50
0.000000
 51
0.000000
 72
   5
 73
   0
 11
309.445950
 21
-120.069793
  0
LINE
  8
5
  6
CONTINUOUS
 62
6
 10
300.9077307347
 20
-126.0697931239
 11
300.9077307347
 21
-121.0697931239
  0
LINE
  8
5
  6
CONTINUOUS
 62
6
 10
300.9077307347
 20
-121.0697931239
 11
310.9077307347
 21
-121.0697931239
  0
LINE
  8
5
  6
CONTINUOUS
 62
6
 10
310.9077307347
 20
-121.0697931239
 11
310.9077307347
 21
-126.0697931239
  0
TEXT
  8
5
  6
CONTINUOUS
 62
7
 10
302.149950
 20
-125.569793
 40
4.000000
  1
D*25
 41
0.855777
 50
0.000000
 51
0.000000
 72
   5
 73
   0
 11
310.741950
 21
-125.569793
  0
LINE
  8
5
  6
CONTINUOUS
 62
6
 10
300.9077307347
 20
-131.0697931239
 11
300.9077307347
 21
-126.0697931239
  0
LINE
  8
5
  6
CONTINUOUS
 62
6
 10
300.9077307347
 20
-136.0697931239
 11
300.9077307347
 21
-131.0697931239
  0
LINE
  8
5
  6
CONTINUOUS
 62
6
 10
310.9077307347
 20
-126.0697931239
 11
310.9077307347
 21
-131.0697931239
  0
LINE
  8
5
  6
CONTINUOUS
 62
6
 10
310.9077307347
 20
-131.0697931239
 11
310.9077307347
 21
-136.0697931239
  0
LINE
  8
5
  6
CONTINUOUS
 62
6
 10
395.9077307347
 20
-136.0697931239
 11
390.9077307347
 21
-136.0697931239
  0
LINE
  8
5
  6
CONTINUOUS
 62
6
 10
390.9077307347
 20
-136.0697931239
 11
375.9077307347
 21
-136.0697931239
  0
LINE
  8
5
  6
CONTINUOUS
 62
6
 10
375.9077307347
 20
-136.0697931239
 11
335.9077307347
 21
-136.0697931239
  0
LINE
  8
5
  6
CONTINUOUS
 62
6
 10
335.9077307347
 20
-136.0697931239
 11
315.9077307347
 21
-136.0697931239
  0
LINE
  8
5
  6
CONTINUOUS
 62
6
 10
315.9077307347
 20
-136.0697931239
 11
310.9077307347
 21
-136.0697931239
  0
LINE
  8
5
  6
CONTINUOUS
 62
6
 10
310.9077307347
 20
-136.0697931239
 11
300.9077307347
 21
-136.0697931239
  0
INSERT
  8
3
  6
CONTINUOUS
 62
5
  2
BALN6
 10
168.5127331788
 20
-62.2502178758
  0
INSERT
  8
3
  6
CONTINUOUS
 62
5
  2
BALN7
 10
165.6521871208
 20
-64.5661052838
  0
INSERT
  8
3
  6
CONTINUOUS
 62
5
  2
BALN8
 10
205.5127331788
 20
-62.2502178758
  0
INSERT
  8
3
  6
CONTINUOUS
 62
5
  2
BALN9
 10
202.6521871208
 20
-64.5661052838
  0
INSERT
  8
3
  6
CONTINUOUS
 62
5
  2
BALN10
 10
242.5127331788
 20
-62.2502178758
  0
INSERT
  8
3
  6
CONTINUOUS
 62
5
  2
BALN11
 10
239.6521871208
 20
-64.5661052838
  0
INSERT
  8
3
  6
CONTINUOUS
 62
5
  2
BALN12
 10
279.5127331788
 20
-62.2502178758
  0
INSERT
  8
3
  6
CONTINUOUS
 62
5
  2
BALN13
 10
276.6521871208
 20
-64.5661052838
  0
INSERT
  8
3
  6
CONTINUOUS
 62
5
  2
BALN14
 10
203.5336046922
 20
-95.5661127838
  0
INSERT
  8
3
  6
CONTINUOUS
 62
5
  2
BALN15
 10
240.5335906922
 20
-95.5661127838
  0
INSERT
  8
3
  6
CONTINUOUS
 62
5
  2
BALN16
 10
277.5336056922
 20
-95.5661132838
  0
INSERT
  8
3
  6
CONTINUOUS
 62
5
  2
LTEX1
 10
273.6236156922
 20
-119.0861052838
  0
INSERT
  8
3
  6
CONTINUOUS
 62
5
  2
LTEX2
 10
271.8539856922
 20
-76.3961032838
  0
TEXT
  8
5
  6
CONTINUOUS
 62
7
 10
376.907731
 20
-57.569793
 40
3.000000
  1
MADOKA
 41
1.028831
 50
0.000000
 51
0.000000
 72
   5
 73
   0
 11
388.790731
 21
-57.569793
  0
TEXT
  8
5
  6
CONTINUOUS
 62
7
 10
376.907731
 20
-67.569793
 40
3.000000
  1
--
 41
0.854701
 50
0.000000
 51
0.000000
 72
   5
 73
   0
 11
379.907731
 21
-67.569793
  0
TEXT
  8
5
  6
CONTINUOUS
 62
7
 10
376.907731
 20
-80.069793
 40
3.000000
  1
MADOKA
 41
1.028831
 50
0.000000
 51
0.000000
 72
   5
 73
   0
 11
388.790731
 21
-80.069793
  0
TEXT
  8
5
  6
CONTINUOUS
 62
7
 10
376.907731
 20
-90.069793
 40
3.000000
  1
--
 41
0.854701
 50
0.000000
 51
0.000000
 72
   5
 73
   0
 11
379.907731
 21
-90.069793
  0
TEXT
  8
5
  6
CONTINUOUS
 62
7
 10
376.907731
 20
-102.569793
 40
3.000000
  1
MADOKA
 41
1.028831
 50
0.000000
 51
0.000000
 72
   5
 73
   0
 11
388.790731
 21
-102.569793
  0
TEXT
  8
5
  6
CONTINUOUS
 62
7
 10
376.907731
 20
-112.569793
 40
3.000000
  1
--
 41
0.854701
 50
0.000000
 51
0.000000
 72
   5
 73
   0
 11
379.907731
 21
-112.569793
  0
TEXT
  8
5
  6
CONTINUOUS
 62
7
 10
376.907731
 20
-125.069793
 40
3.000000
  1
MADOKA
 41
1.028831
 50
0.000000
 51
0.000000
 72
   5
 73
   0
 11
388.790731
 21
-125.069793
  0
TEXT
  8
5
  6
CONTINUOUS
 62
7
 10
376.907731
 20
-135.069793
 40
3.000000
  1
--
 41
0.854701
 50
0.000000
 51
0.000000
 72
   5
 73
   0
 11
379.907731
 21
-135.069793
  0
TEXT
  8
5
  6
CONTINUOUS
 62
7
 10
376.907731
 20
-85.069793
 40
3.000000
  1
MISUMI
 41
0.836104
 50
0.000000
 51
0.000000
 72
   5
 73
   0
 11
386.564731
 21
-85.069793
  0
TEXT
  8
5
  6
CONTINUOUS
 62
7
 10
376.907731
 20
-107.569793
 40
3.000000
  1
MISUMI
 41
0.836104
 50
0.000000
 51
0.000000
 72
   5
 73
   0
 11
386.564731
 21
-107.569793
  0
TEXT
  8
5
  6
CONTINUOUS
 62
7
 10
376.907731
 20
-130.069793
 40
3.000000
  1
MISUMI
 41
0.836104
 50
0.000000
 51
0.000000
 72
   5
 73
   0
 11
386.564731
 21
-130.069793
  0
TEXT
  8
3
  6
CONTINUOUS
 62
5
 10
150.116241
 20
-54.643406
 40
5.000000
  1
⑨DSUB詳細
 41
0.830565
 50
0.000000
 51
0.000000
 72
   5
 73
   0
 11
175.116241
 21
-54.643406
  0
CIRCLE
  8
3
  6
CONTINUOUS
 62
7
 10
176.9105182328
 20
169.8525214537
 40
1.7500000000
  0
CIRCLE
  8
3
  6
CONTINUOUS
 62
7
 10
176.9105182328
 20
107.8525214537
 40
1.7500000000
  0
LINE
  8
3
  6
CONTINUOUS
 62
7
 10
169.4105182328
 20
165.8525214537
 11
184.4105182328
 21
165.8525214537
  0
LINE
  8
3
  6
CONTINUOUS
 62
7
 10
184.4105182328
 20
165.8525214537
 11
184.4105182328
 21
111.8525214537
  0
LINE
  8
3
  6
CONTINUOUS
 62
7
 10
184.4105182328
 20
111.8525214537
 11
169.4105182328
 21
111.8525214537
  0
LINE
  8
3
  6
CONTINUOUS
 62
7
 10
169.4105182328
 20
111.8525214537
 11
169.4105182328
 21
165.8525214537
  0
POINT
  8
3
  6
CONTINUOUS
 62
7
 10
176.9105182328
 20
138.8525214537
  0
TEXT
  8
3
  6
CONTINUOUS
 62
7
 10
170.160518
 20
138.852521
 40
4.500000
  1
⑨DL**
 41
0.815217
 50
0.000000
 51
0.000000
 72
   5
 73
   0
 11
183.660518
 21
138.852521
  0
TEXT
  8
3
  6
CONTINUOUS
 62
7
 10
170.160518
 20
134.352521
 40
4.500000
  1
D-SUB
 41
0.786164
 50
0.000000
 51
0.000000
 72
   5
 73
   0
 11
181.410518
 21
134.352521
  0
POINT
  8
3
  6
CONTINUOUS
 62
7
 10
193.9105182328
 20
138.8525214537
  0
TEXT
  8
3
  6
CONTINUOUS
 62
7
 10
188.457604
 20
271.018670
 40
5.000000
  1
型番仕様
 41
0.886918
 50
0.000000
 51
0.000000
 72
   5
 73
   0
 11
208.457604
 21
271.018670
  0
TEXT
  8
3
  6
CONTINUOUS
 62
7
 10
188.457604
 20
265.018670
 40
5.000000
  1
MCON-001-064 %%uPB%%u %%uDL**DC**DR**
 41
0.753093
 50
0.000000
 51
0.000000
 72
   5
 73
   0
 11
258.457604
 21
265.018670
  0
TEXT
  8
3
  6
CONTINUOUS
 62
7
 10
244.423999
 20
253.394218
 40
3.500000
  1
⑨ DL00:DSUB無し(ﾌﾞﾗﾝｸﾊﾟﾈﾙ)
 41
0.775416
 50
0.000000
 51
0.000000
 72
   5
 73
   0
 11
291.673999
 21
253.394218
  0
TEXT
  8
3
  6
CONTINUOUS
 62
7
 10
244.423999
 20
248.894218
 40
3.500000
  1
　 DL09:DSUB 9P
 41
0.772400
 50
0.000000
 51
0.000000
 72
   5
 73
   0
 11
270.673999
 21
248.894218
  0
TEXT
  8
3
  6
CONTINUOUS
 62
7
 10
244.423999
 20
244.394218
 40
3.500000
  1
　 DL15:DSUB15P
 41
0.772400
 50
0.000000
 51
0.000000
 72
   5
 73
   0
 11
270.673999
 21
244.394218
  0
TEXT
  8
3
  6
CONTINUOUS
 62
7
 10
244.423999
 20
239.894218
 40
3.500000
  1
　 DL25:DSUB25P
 41
0.772400
 50
0.000000
 51
0.000000
 72
   5
 73
   0
 11
270.673999
 21
239.894218
  0
TEXT
  8
3
  6
CONTINUOUS
 62
7
 10
244.423999
 20
230.894218
 40
3.500000
  1
　 DC00:DSUB無し(ﾌﾞﾗﾝｸﾊﾟﾈﾙ)
 41
0.775416
 50
0.000000
 51
0.000000
 72
   5
 73
   0
 11
291.673999
 21
230.894218
  0
TEXT
  8
3
  6
CONTINUOUS
 62
7
 10
244.423999
 20
226.394218
 40
3.500000
  1
　 DC09:DSUB 9P
 41
0.772400
 50
0.000000
 51
0.000000
 72
   5
 73
   0
 11
270.673999
 21
226.394218
  0
TEXT
  8
3
  6
CONTINUOUS
 62
7
 10
244.423999
 20
221.894218
 40
3.500000
  1
　 DC15:DSUB15P
 41
0.772400
 50
0.000000
 51
0.000000
 72
   5
 73
   0
 11
270.673999
 21
221.894218
  0
TEXT
  8
3
  6
CONTINUOUS
 62
7
 10
244.423999
 20
217.394218
 40
3.500000
  1
　 DC25:DSUB25P
 41
0.772400
 50
0.000000
 51
0.000000
 72
   5
 73
   0
 11
270.673999
 21
217.394218
  0
TEXT
  8
3
  6
CONTINUOUS
 62
7
 10
244.423999
 20
208.394218
 40
3.500000
  1
　 DR00:DSUB無し(ﾌﾞﾗﾝｸﾊﾟﾈﾙ)
 41
0.775416
 50
0.000000
 51
0.000000
 72
   5
 73
   0
 11
291.673999
 21
208.394218
  0
TEXT
  8
3
  6
CONTINUOUS
 62
7
 10
244.423999
 20
203.894218
 40
3.500000
  1
　 DR09:DSUB 9P
 41
0.772400
 50
0.000000
 51
0.000000
 72
   5
 73
   0
 11
270.673999
 21
203.894218
  0
TEXT
  8
3
  6
CONTINUOUS
 62
7
 10
244.423999
 20
199.394218
 40
3.500000
  1
　 DR15:DSUB15P
 41
0.772400
 50
0.000000
 51
0.000000
 72
   5
 73
   0
 11
270.673999
 21
199.394218
  0
TEXT
  8
3
  6
CONTINUOUS
 62
7
 10
244.423999
 20
194.894218
 40
3.500000
  1
　 DR25:DSUB25P
 41
0.772400
 50
0.000000
 51
0.000000
 72
   5
 73
   0
 11
270.673999
 21
194.894218
  0
LINE
  8
3
  6
CONTINUOUS
 62
7
 10
243.5191037141
 20
255.0270161863
 11
238.5191037141
 21
255.0270161863
  0
LINE
  8
3
  6
CONTINUOUS
 62
7
 10
238.5191037142
 20
255.0270161863
 11
238.5191037142
 21
265.0270161862
  0
TEXT
  8
5
  6
CONTINUOUS
 62
7
 10
318.923576
 20
227.946368
 40
3.000000
  1
D-SUB
 41
0.786164
 50
0.000000
 51
0.000000
 72
   5
 73
   0
 11
326.423576
 21
227.946368
  0
TEXT
  8
5
  6
CONTINUOUS
 62
7
 10
338.923576
 20
227.946368
 40
3.000000
  1
選択部品 仕様図2/2参照
 41
0.828604
 50
0.000000
 51
0.000000
 72
   5
 73
   0
 11
371.338576
 21
227.946368
  0
TEXT
  8
5
  6
CONTINUOUS
 62
7
 10
378.923576
 20
227.946368
 40
3.000000
  1
--
 41
0.854701
 50
0.000000
 51
0.000000
 72
   5
 73
   0
 11
381.923576
 21
227.946368
  0
TEXT
  8
5
  6
CONTINUOUS
 62
7
 10
378.923576
 20
222.946368
 40
3.000000
  1
--
 41
0.854701
 50
0.000000
 51
0.000000
 72
   5
 73
   0
 11
381.923576
 21
222.946368
  0
TEXT
  8
5
  6
CONTINUOUS
 62
7
 10
393.673576
 20
222.696368
 40
3.500000
  1
--
 41
0.854701
 50
0.000000
 51
0.000000
 72
   5
 73
   0
 11
397.173576
 21
222.696368
  0
TEXT
  8
5
  6
CONTINUOUS
 62
7
 10
393.673576
 20
227.696368
 40
3.500000
  1
--
 41
0.854701
 50
0.000000
 51
0.000000
 72
   5
 73
   0
 11
397.173576
 21
227.696368
  0
LINE
  8
4
  6
CONTINUOUS
 62
3
 10
319.0572849682
 20
172.6619743881
 11
372.0572849682
 21
172.6619743881
  0
LINE
  8
4
  6
CONTINUOUS
 62
3
 10
372.0572849682
 20
172.6619743881
 11
372.0572849682
 21
64.6619743881
  0
LINE
  8
4
  6
CONTINUOUS
 62
3
 10
319.0572849682
 20
64.6619743881
 11
319.0572849682
 21
172.6619743881
  0
LINE
  8
4
  6
CONTINUOUS
 62
3
 10
372.0572849682
 20
64.6619743881
 11
319.0572849682
 21
64.6619743881
  0
CIRCLE
  8
4
  6
CONTINUOUS
 62
3
 10
325.5572849682
 20
177.1619743881
 40
1.5000000000
  0
CIRCLE
  8
4
  6
CONTINUOUS
 62
3
 10
365.5572849682
 20
177.1619743881
 40
1.5000000000
  0
CIRCLE
  8
4
  6
CONTINUOUS
 62
3
 10
325.5572849682
 20
60.1619743881
 40
1.5000000000
  0
CIRCLE
  8
4
  6
CONTINUOUS
 62
3
 10
365.5572849682
 20
60.1619743881
 40
1.5000000000
  0
CIRCLE
  8
4
  6
CONTINUOUS
 62
3
 10
345.5572849682
 20
177.1619743881
 40
2.2500000000
  0
CIRCLE
  8
4
  6
CONTINUOUS
 62
3
 10
345.5572849682
 20
60.1619743881
 40
2.2500000000
  0
DIMENSION
  8
4
  6
CONTINUOUS
 62
5
  2
*D7
 10
325.5572849682
 20
183.8554232121
 11
322.3072849682
 21
186.6054232121
  70
0
 13
319.0572849682
 23
172.6619743881
 14
325.5572849682
 24
175.6619743881
 50
0.000000
  0
DIMENSION
  8
4
  6
CONTINUOUS
 62
5
  2
*D8
 10
345.5572849682
 20
183.8554232121
 11
335.5572849682
 21
186.6054232121
  70
0
 13
325.5572849682
 23
175.6619743881
 14
345.5572849682
 24
174.9119743881
 50
0.000000
  0
DIMENSION
  8
4
  6
CONTINUOUS
 62
5
  2
*D9
 10
365.5572849682
 20
183.8554232121
 11
355.5572849682
 21
186.6054232121
  70
0
 13
345.5572849682
 23
174.9119743881
 14
365.5572849682
 24
175.6619743881
 50
0.000000
  0
DIMENSION
  8
4
  6
CONTINUOUS
 62
5
  2
*D10
 10
372.0572849682
 20
183.8554232121
 11
368.8072849682
 21
186.6054232121
  70
0
 13
365.5572849682
 23
175.6619743881
 14
372.0572849682
 24
172.6619743881
 50
0.000000
  0
DIMENSION
  8
4
  6
CONTINUOUS
 62
5
  2
*D11
 10
372.0572849682
 20
190.8554232121
 11
345.5572849682
 21
193.6054232121
  70
0
 13
319.0572849682
 23
172.6619743881
 14
372.0572849682
 24
172.6619743881
 50
0.000000
  0
DIMENSION
  8
4
  6
CONTINUOUS
 62
5
  2
*D12
 10
324.7064153436
 20
178.3972965655
 11
327.8220422934
 21
178.7219020332
  70
3
 15
326.4081545928
 25
175.9266522108
  0
DIMENSION
  8
4
  6
CONTINUOUS
 62
5
  2
*D13
 10
344.1560871308
 20
178.9224131461
 11
347.7089323390
 21
178.8745495228
  70
3
 15
346.9584828056
 25
175.4015356302
  0
TEXT
  8
4
  6
CONTINUOUS
 62
7
 10
322.885309
 20
36.456062
 40
5.000000
  1
パネルカット図
 41
0.872818
 50
0.000000
 51
0.000000
 72
   5
 73
   0
 11
357.885309
 21
36.456062
  0
TEXT
  8
4
  6
CONTINUOUS
 62
7
 10
322.885309
 20
31.456062
 40
5.000000
  1
推奨板厚 t=1.6以上
 41
0.827967
 50
0.000000
 51
0.000000
 72
   5
 73
   0
 11
367.885309
 21
31.456062
  0
LINE
  8
1
  6
HIDDEN
 62
1
 10
380.0572849682
 20
44.4119743881
 11
380.0572849682
 21
199.9119743881
  0
LINE
  8
1
  6
HIDDEN
 62
1
 10
380.0572849682
 20
199.9119743881
 11
311.0572849682
 21
199.9119743881
  0
LINE
  8
1
  6
HIDDEN
 62
1
 10
311.0572849682
 20
199.9119743881
 11
311.0572849682
 21
44.4119743881
  0
LINE
  8
1
  6
HIDDEN
 62
1
 10
380.0572849682
 20
44.4119743881
 11
311.0572849682
 21
44.4119743881
  0
DIMENSION
  8
1
  6
CONTINUOUS
 62
5
  2
*D14
 10
306.8614186851
 20
64.6619743881
 11
304.3614186851
 21
62.4119743881
  70
0
 13
367.0572849682
 23
60.1619743881
 14
319.0572849682
 24
64.6619743881
 50
90.000000
  0
DIMENSION
  8
1
  6
CONTINUOUS
 62
5
  2
*D15
 10
306.8614186851
 20
172.6619743881
 11
304.1114186851
 21
118.6619743881
  70
0
 13
319.0572849682
 23
64.6619743881
 14
319.0572849682
 24
172.6619743881
 50
90.000000
  0
DIMENSION
  8
1
  6
CONTINUOUS
 62
5
  2
*D16
 10
306.8614186851
 20
177.1619743881
 11
304.3614186851
 21
174.9119743881
  70
0
 13
319.0572849682
 23
172.6619743881
 14
367.0572849682
 24
177.1619743881
 50
90.000000
  0
DIMENSION
  8
1
  6
CONTINUOUS
 62
5
  2
*D17
 10
299.8614186851
 20
177.1619743881
 11
297.1114186851
 21
118.6619743881
  70
0
 13
367.0572849682
 23
60.1619743881
 14
367.0572849682
 24
177.1619743881
 50
90.000000
  0
DIMENSION
  8
1
  6
CONTINUOUS
 62
5
  2
*D18
 10
387.7005190311
 20
64.6619743881
 11
384.9505190311
 21
54.5369743881
  70
0
 13
380.0572849682
 23
44.4119743881
 14
372.0572849682
 24
64.6619743881
 50
90.000000
  0
DIMENSION
  8
1
  6
CONTINUOUS
 62
5
  2
*D19
 10
387.7005190311
 20
172.6619743881
 11
384.9505190311
 21
118.6619743881
  70
0
 13
372.0572849682
 23
64.6619743881
 14
372.0572849682
 24
172.6619743881
 50
90.000000
  0
DIMENSION
  8
1
  6
CONTINUOUS
 62
5
  2
*D20
 10
387.7005190311
 20
199.9119743881
 11
384.9505190311
 21
186.2869743881
  70
0
 13
372.0572849682
 23
172.6619743881
 14
380.0572849682
 24
199.9119743881
 50
90.000000
  0
INSERT
  8
1
  6
CONTINUOUS
 62
5
  2
LTEX3
 10
323.9116262976
 20
44.4119743881
  0
CIRCLE
  8
3
  6
CONTINUOUS
 62
7
 10
210.9105182328
 20
169.8525214537
 40
1.7500000000
  0
CIRCLE
  8
3
  6
CONTINUOUS
 62
7
 10
210.9105182328
 20
107.8525214537
 40
1.7500000000
  0
LINE
  8
3
  6
CONTINUOUS
 62
7
 10
203.4105182328
 20
165.8525214537
 11
218.4105182328
 21
165.8525214537
  0
LINE
  8
3
  6
CONTINUOUS
 62
7
 10
218.4105182328
 20
165.8525214537
 11
218.4105182328
 21
111.8525214537
  0
LINE
  8
3
  6
CONTINUOUS
 62
7
 10
218.4105182328
 20
111.8525214537
 11
203.4105182328
 21
111.8525214537
  0
LINE
  8
3
  6
CONTINUOUS
 62
7
 10
203.4105182328
 20
111.8525214537
 11
203.4105182328
 21
165.8525214537
  0
POINT
  8
3
  6
CONTINUOUS
 62
7
 10
210.9105182328
 20
138.8525214537
  0
TEXT
  8
3
  6
CONTINUOUS
 62
7
 10
204.160518
 20
138.852521
 40
4.500000
  1
⑨DR**
 41
0.815217
 50
0.000000
 51
0.000000
 72
   5
 73
   0
 11
217.660518
 21
138.852521
  0
TEXT
  8
3
  6
CONTINUOUS
 62
7
 10
204.160518
 20
134.352521
 40
4.500000
  1
D-SUB
 41
0.786164
 50
0.000000
 51
0.000000
 72
   5
 73
   0
 11
215.410518
 21
134.352521
  0
POINT
  8
3
  6
CONTINUOUS
 62
10
 10
210.9105182328
 20
138.8525214537
  0
POINT
  8
3
  6
CONTINUOUS
 62
10
 10
210.9105182328
 20
138.8525214537
  0
LINE
  8
1
  6
CONTINUOUS
 62
5
 10
235.2895946150
 20
-290.9949845310
 11
235.0294936150
 21
-291.2549805310
  0
LINE
  8
1
  6
CONTINUOUS
 62
5
 10
235.0295926150
 20
-288.6550585310
 11
235.2896026150
 21
-288.9149615310
  0
LINE
  8
1
  6
CONTINUOUS
 62
5
 10
235.0295776150
 20
-288.6550735310
 11
235.0295776150
 21
-291.2550725310
  0
LINE
  8
1
  6
CONTINUOUS
 62
5
 10
207.8729766150
 20
-278.1349675310
 11
206.2563766150
 21
-280.9350645310
  0
LINE
  8
1
  6
CONTINUOUS
 62
5
 10
209.4895766150
 20
-275.9350425310
 11
209.4895766150
 21
-266.5094895310
  0
LINE
  8
1
  6
CONTINUOUS
 62
5
 10
204.4895766150
 20
-282.4350725310
 11
203.4895766150
 21
-282.4350725310
  0
LINE
  8
1
  6
CONTINUOUS
 62
5
 10
210.9778806150
 20
-278.1350735310
 11
207.8729766150
 21
-278.1350735310
  0
LINE
  8
1
  6
CONTINUOUS
 62
5
 10
208.4895766150
 20
-276.0360515310
 11
208.4895766150
 21
-266.4350725310
  0
LINE
  8
1
  6
CONTINUOUS
 62
5
 10
207.4895766150
 20
-276.3524635310
 11
207.4895766150
 21
-266.4350725310
  0
LINE
  8
1
  6
CONTINUOUS
 62
5
 10
206.4895766150
 20
-276.9350725310
 11
206.4895766150
 21
-266.4350725310
  0
LINE
  8
1
  6
CONTINUOUS
 62
5
 10
205.4895766150
 20
-277.9350725310
 11
205.4895766150
 21
-266.4350725310
  0
LINE
  8
1
  6
CONTINUOUS
 62
5
 10
212.7226696150
 20
-280.9350765310
 11
211.1061686150
 21
-278.1349755310
  0
LINE
  8
1
  6
CONTINUOUS
 62
5
 10
205.4895766150
 20
-266.4350725310
 11
205.4895766150
 21
-254.9350725310
  0
LINE
  8
1
  6
CONTINUOUS
 62
5
 10
206.4895766150
 20
-266.4350725310
 11
206.4895766150
 21
-255.9350725310
  0
LINE
  8
1
  6
CONTINUOUS
 62
5
 10
207.4895766150
 20
-266.4350725310
 11
207.4895766150
 21
-256.5176725310
  0
LINE
  8
1
  6
CONTINUOUS
 62
5
 10
208.4895766150
 20
-266.4350725310
 11
208.4895766150
 21
-256.8340825310
  0
LINE
  8
1
  6
CONTINUOUS
 62
5
 10
209.4895766150
 20
-266.3606705310
 11
209.4895766150
 21
-256.9350925310
  0
LINE
  8
1
  6
CONTINUOUS
 62
5
 10
232.4894776150
 20
-247.4351735310
 11
230.2894726150
 21
-247.4351735310
  0
LINE
  8
1
  6
CONTINUOUS
 62
5
 10
232.4894776150
 20
-266.4350725310
 11
232.4894776150
 21
-247.4351735310
  0
LINE
  8
1
  6
CONTINUOUS
 62
5
 10
214.4895766150
 20
-247.1774695310
 11
216.4894846150
 21
-246.7073715310
  0
LINE
  8
1
  6
CONTINUOUS
 62
5
 10
214.4895766150
 20
-252.4350725310
 11
214.4895766150
 21
-247.0130715310
  0
LINE
  8
1
  6
CONTINUOUS
 62
5
 10
216.4895766150
 20
-246.4350745310
 11
216.4895766150
 21
-246.7073735310
  0
LINE
  8
1
  6
CONTINUOUS
 62
5
 10
216.4895766150
 20
-286.1627715310
 11
216.4895766150
 21
-286.4350705310
  0
LINE
  8
1
  6
CONTINUOUS
 62
5
 10
195.4895766150
 20
-282.4350725310
 11
195.4895766150
 21
-266.4350725310
  0
LINE
  8
1
  6
CONTINUOUS
 62
5
 10
196.4895766150
 20
-282.4350725310
 11
196.4895766150
 21
-266.4350725310
  0
LINE
  8
1
  6
CONTINUOUS
 62
5
 10
197.4895766150
 20
-282.4350725310
 11
197.4895766150
 21
-266.4350725310
  0
LINE
  8
1
  6
CONTINUOUS
 62
5
 10
198.4895766150
 20
-282.4350725310
 11
198.4895766150
 21
-266.4350725310
  0
LINE
  8
1
  6
CONTINUOUS
 62
5
 10
199.4895766150
 20
-282.4350725310
 11
199.4895766150
 21
-266.4350725310
  0
LINE
  8
1
  6
CONTINUOUS
 62
5
 10
200.4895766150
 20
-282.4350725310
 11
200.4895766150
 21
-266.4350725310
  0
LINE
  8
1
  6
CONTINUOUS
 62
5
 10
201.4895766150
 20
-282.4350725310
 11
201.4895766150
 21
-266.4350725310
  0
LINE
  8
1
  6
CONTINUOUS
 62
5
 10
202.4895766150
 20
-282.4350725310
 11
202.4895766150
 21
-266.4350725310
  0
LINE
  8
1
  6
CONTINUOUS
 62
5
 10
214.4895766150
 20
-285.8571725310
 11
214.4895766150
 21
-280.9350725310
  0
LINE
  8
1
  6
CONTINUOUS
 62
5
 10
216.4894846150
 20
-286.1627735310
 11
214.4895766150
 21
-285.6926755310
  0
LINE
  8
1
  6
CONTINUOUS
 62
5
 10
232.4894776150
 20
-285.4349715310
 11
232.4894776150
 21
-266.4350725310
  0
LINE
  8
1
  6
CONTINUOUS
 62
5
 10
230.2894726150
 20
-285.4349715310
 11
232.4894776150
 21
-285.4349715310
  0
LINE
  8
1
  6
CONTINUOUS
 62
5
 10
203.4895766150
 20
-282.4350725310
 11
203.4895766150
 21
-266.4350725310
  0
LINE
  8
1
  6
CONTINUOUS
 62
5
 10
204.4895766150
 20
-282.4350725310
 11
204.4895766150
 21
-266.4350725310
  0
LINE
  8
1
  6
CONTINUOUS
 62
5
 10
205.4895766150
 20
-277.9350725310
 11
205.4895766150
 21
-266.4350725310
  0
LINE
  8
1
  6
CONTINUOUS
 62
5
 10
212.7226466150
 20
-280.9350495310
 11
211.1060466150
 21
-283.7349515310
  0
LINE
  8
1
  6
CONTINUOUS
 62
5
 10
212.7226696150
 20
-280.9350765310
 11
211.1061686150
 21
-278.1349755310
  0
LINE
  8
1
  6
CONTINUOUS
 62
5
 10
230.2894656150
 20
-292.4350725310
 11
216.4895686150
 21
-292.4350725310
  0
LINE
  8
1
  6
CONTINUOUS
 62
5
 10
230.2894726150
 20
-292.4350725310
 11
230.2894726150
 21
-285.4349715310
  0
LINE
  8
1
  6
CONTINUOUS
 62
5
 10
230.2894726150
 20
-285.4349715310
 11
232.4894776150
 21
-285.4349715310
  0
LINE
  8
1
  6
CONTINUOUS
 62
5
 10
232.4894776150
 20
-285.4349715310
 11
232.4894776150
 21
-266.4350725310
  0
LINE
  8
1
  6
CONTINUOUS
 62
5
 10
216.4894846150
 20
-286.1627735310
 11
214.4895766150
 21
-285.6926755310
  0
LINE
  8
1
  6
CONTINUOUS
 62
5
 10
214.4895766150
 20
-285.8571725310
 11
214.4895766150
 21
-280.9350725310
  0
LINE
  8
1
  6
CONTINUOUS
 62
5
 10
216.4895766150
 20
-286.1627715310
 11
216.4895766150
 21
-292.4350725310
  0
LINE
  8
1
  6
CONTINUOUS
 62
5
 10
207.8729616150
 20
-283.7349785310
 11
206.2563616150
 21
-280.9350835310
  0
LINE
  8
1
  6
CONTINUOUS
 62
5
 10
207.8729766150
 20
-278.1349675310
 11
206.2563766150
 21
-280.9350645310
  0
LINE
  8
1
  6
CONTINUOUS
 62
5
 10
211.1060776150
 20
-283.7350715310
 11
207.8729766150
 21
-283.7350715310
  0
LINE
  8
1
  6
CONTINUOUS
 62
5
 10
206.4895766150
 20
-276.9350725310
 11
206.4895766150
 21
-266.4350725310
  0
LINE
  8
1
  6
CONTINUOUS
 62
5
 10
207.4895766150
 20
-276.3524635310
 11
207.4895766150
 21
-266.4350725310
  0
LINE
  8
1
  6
CONTINUOUS
 62
5
 10
208.4895766150
 20
-276.0360515310
 11
208.4895766150
 21
-266.4350725310
  0
LINE
  8
1
  6
CONTINUOUS
 62
5
 10
209.4895766150
 20
-275.9350425310
 11
209.4895766150
 21
-266.5094895310
  0
LINE
  8
1
  6
CONTINUOUS
 62
5
 10
210.9778806150
 20
-278.1350735310
 11
207.8729766150
 21
-278.1350735310
  0
LINE
  8
1
  6
CONTINUOUS
 62
5
 10
195.4895766150
 20
-250.4351715310
 11
196.4895766150
 21
-250.4351715310
  0
LINE
  8
1
  6
CONTINUOUS
 62
5
 10
195.5554756150
 20
-250.4351715310
 11
196.4895766150
 21
-250.4351715310
  0
LINE
  8
1
  6
CONTINUOUS
 62
5
 10
213.7895796150
 20
-240.6651715310
 11
213.0957776150
 21
-240.6651715310
  0
LINE
  8
1
  6
CONTINUOUS
 62
5
 10
231.2894726150
 20
-293.4350725310
 11
231.2894726150
 21
-286.4350725310
  0
LINE
  8
1
  6
CONTINUOUS
 62
5
 10
231.2894726150
 20
-286.4350725310
 11
232.4894776150
 21
-286.4350725310
  0
LINE
  8
1
  6
CONTINUOUS
 62
5
 10
192.4895766150
 20
-266.4350725310
 11
192.4895766150
 21
-249.3321725310
  0
LINE
  8
1
  6
CONTINUOUS
 62
5
 10
215.4895766150
 20
-245.4150725310
 11
214.9895766150
 21
-245.4150725310
  0
LINE
  8
1
  6
CONTINUOUS
 62
5
 10
215.4895766150
 20
-240.4151715310
 11
214.9895766150
 21
-240.4151715310
  0
LINE
  8
1
  6
CONTINUOUS
 62
5
 10
214.9895766150
 20
-245.5150725310
 11
214.9895766150
 21
-240.3151725310
  0
LINE
  8
1
  6
CONTINUOUS
 62
5
 10
235.0295776150
 20
-241.6151715310
 11
231.2894726150
 21
-241.6151715310
  0
LINE
  8
1
  6
CONTINUOUS
 62
5
 10
235.0295776150
 20
-244.2151725310
 11
231.2894726150
 21
-244.2151725310
  0
LINE
  8
1
  6
CONTINUOUS
 62
5
 10
231.2894726150
 20
-293.4350725310
 11
216.4895766150
 21
-293.4350725310
  0
LINE
  8
1
  6
CONTINUOUS
 62
5
 10
215.4895766150
 20
-292.4350725310
 11
215.4895766150
 21
-286.9549735310
  0
LINE
  8
1
  6
CONTINUOUS
 62
5
 10
213.7895796150
 20
-245.1650725310
 11
213.0957776150
 21
-245.1650725310
  0
LINE
  8
1
  6
CONTINUOUS
 62
5
 10
230.2894726150
 20
-247.4351735310
 11
230.2894726150
 21
-240.4350725310
  0
LINE
  8
1
  6
CONTINUOUS
 62
5
 10
216.4895766150
 20
-240.4350725310
 11
230.2894726150
 21
-240.4350725310
  0
LINE
  8
1
  6
CONTINUOUS
 62
5
 10
216.4895766150
 20
-239.4350725310
 11
231.2894726150
 21
-239.4350725310
  0
LINE
  8
1
  6
CONTINUOUS
 62
5
 10
215.4895766150
 20
-240.4350725310
 11
215.4895766150
 21
-245.9151715310
  0
LINE
  8
1
  6
CONTINUOUS
 62
5
 10
192.4895766150
 20
-283.5379725310
 11
192.4895766150
 21
-266.4350725310
  0
LINE
  8
1
  6
CONTINUOUS
 62
5
 10
233.4894776150
 20
-285.4350725310
 11
233.4894776150
 21
-266.4350725310
  0
LINE
  8
1
  6
CONTINUOUS
 62
5
 10
215.4895846150
 20
-286.9549775310
 11
203.2046756150
 21
-284.0676755310
  0
LINE
  8
1
  6
CONTINUOUS
 62
5
 10
193.3159776150
 20
-284.5227745310
 11
198.4898816150
 21
-285.4350745310
  0
LINE
  8
1
  6
CONTINUOUS
 62
5
 10
235.2895796150
 20
-241.8751705310
 11
235.2895796150
 21
-243.9551725310
  0
LINE
  8
1
  6
CONTINUOUS
 62
5
 10
233.4894776150
 20
-266.4350725310
 11
233.4894776150
 21
-247.4351735310
  0
LINE
  8
1
  6
CONTINUOUS
 62
5
 10
231.2894726150
 20
-246.4351735310
 11
231.2894726150
 21
-239.4350725310
  0
LINE
  8
1
  6
CONTINUOUS
 62
5
 10
215.4895766150
 20
-292.4549735310
 11
214.9895766150
 21
-292.4549735310
  0
LINE
  8
1
  6
CONTINUOUS
 62
5
 10
215.4895766150
 20
-287.4550725310
 11
214.9895766150
 21
-287.4550725310
  0
LINE
  8
1
  6
CONTINUOUS
 62
5
 10
214.9895766150
 20
-292.5549725310
 11
214.9895766150
 21
-287.3550705310
  0
LINE
  8
1
  6
CONTINUOUS
 62
5
 10
235.0295776150
 20
-288.6550735310
 11
231.2894726150
 21
-288.6550735310
  0
LINE
  8
1
  6
CONTINUOUS
 62
5
 10
232.4894776150
 20
-246.4351735310
 11
231.2894726150
 21
-246.4351735310
  0
LINE
  8
1
  6
CONTINUOUS
 62
5
 10
235.0295776150
 20
-291.2550725310
 11
231.2894726150
 21
-291.2550725310
  0
LINE
  8
1
  6
CONTINUOUS
 62
5
 10
235.2895796150
 20
-288.9150725310
 11
235.2895796150
 21
-290.9950735310
  0
LINE
  8
1
  6
CONTINUOUS
 62
5
 10
198.4898816150
 20
-247.4350705310
 11
193.3159776150
 21
-248.3473705310
  0
LINE
  8
1
  6
CONTINUOUS
 62
5
 10
213.7895796150
 20
-287.7050725310
 11
213.0957776150
 21
-287.7050725310
  0
LINE
  8
1
  6
CONTINUOUS
 62
5
 10
213.7895796150
 20
-292.2049735310
 11
213.0957776150
 21
-292.2049735310
  0
LINE
  8
1
  6
CONTINUOUS
 62
5
 10
203.2046756150
 20
-248.8024695310
 11
215.4895846150
 21
-245.9151675310
  0
LINE
  8
1
  6
CONTINUOUS
 62
5
 10
235.0295776150
 20
-241.6151715310
 11
235.0295776150
 21
-244.2151725310
  0
LINE
  8
1
  6
CONTINUOUS
 62
5
 10
235.0294476150
 20
-241.6151815310
 11
235.2894496150
 21
-241.8751835310
  0
LINE
  8
1
  6
CONTINUOUS
 62
5
 10
235.2894576150
 20
-243.9550635310
 11
235.0294556150
 21
-244.2150635310
  0
LINE
  8
1
  6
CONTINUOUS
 62
5
 10
214.9895766150
 20
-292.5549725310
 11
213.7895796150
 21
-292.5549725310
  0
LINE
  8
1
  6
CONTINUOUS
 62
5
 10
214.9895766150
 20
-287.3550705310
 11
213.7895796150
 21
-287.3550705310
  0
LINE
  8
1
  6
CONTINUOUS
 62
5
 10
213.7895796150
 20
-292.5549725310
 11
213.7895796150
 21
-287.3550705310
  0
LINE
  8
1
  6
CONTINUOUS
 62
5
 10
212.0895676150
 20
-289.9549755310
 11
213.0087726150
 21
-290.8742735310
  0
LINE
  8
1
  6
CONTINUOUS
 62
5
 10
212.0895906150
 20
-289.9549855310
 11
213.0087946150
 21
-289.0357845310
  0
LINE
  8
1
  6
CONTINUOUS
 62
5
 10
212.0895676150
 20
-242.9151715310
 11
213.0087726150
 21
-241.9958735310
  0
LINE
  8
1
  6
CONTINUOUS
 62
5
 10
212.0895826150
 20
-242.9151655310
 11
213.0087876150
 21
-243.8343665310
  0
LINE
  8
1
  6
CONTINUOUS
 62
5
 10
213.7895796150
 20
-245.5150725310
 11
213.7895796150
 21
-240.3151725310
  0
LINE
  8
1
  6
CONTINUOUS
 62
5
 10
201.4895766150
 20
-250.4351715310
 11
202.4895766150
 21
-250.4351715310
  0
LINE
  8
1
  6
CONTINUOUS
 62
5
 10
209.4895766150
 20
-266.3606705310
 11
209.4895766150
 21
-256.9350925310
  0
LINE
  8
1
  6
CONTINUOUS
 62
5
 10
208.4895766150
 20
-266.4350725310
 11
208.4895766150
 21
-256.8340825310
  0
LINE
  8
1
  6
CONTINUOUS
 62
5
 10
196.4895766150
 20
-282.4350725310
 11
195.4895766150
 21
-282.4350725310
  0
LINE
  8
1
  6
CONTINUOUS
 62
5
 10
196.4895766150
 20
-282.4350725310
 11
195.5554756150
 21
-282.4350725310
  0
LINE
  8
1
  6
CONTINUOUS
 62
5
 10
198.4895766150
 20
-282.4350725310
 11
197.4895766150
 21
-282.4350725310
  0
LINE
  8
1
  6
CONTINUOUS
 62
5
 10
202.4895766150
 20
-282.4350725310
 11
201.4895766150
 21
-282.4350725310
  0
LINE
  8
1
  6
CONTINUOUS
 62
5
 10
200.4895766150
 20
-282.4350725310
 11
199.4895766150
 21
-282.4350725310
  0
LINE
  8
1
  6
CONTINUOUS
 62
5
 10
207.4895766150
 20
-266.4350725310
 11
207.4895766150
 21
-256.5176725310
  0
LINE
  8
1
  6
CONTINUOUS
 62
5
 10
203.4895766150
 20
-250.4351715310
 11
204.4895766150
 21
-250.4351715310
  0
LINE
  8
1
  6
CONTINUOUS
 62
5
 10
197.9026776150
 20
-250.4351715310
 11
198.4895766150
 21
-250.4351715310
  0
LINE
  8
1
  6
CONTINUOUS
 62
5
 10
197.4895766150
 20
-250.4351715310
 11
198.4895766150
 21
-250.4351715310
  0
LINE
  8
1
  6
CONTINUOUS
 62
5
 10
207.8729766150
 20
-254.7350715310
 11
210.9778806150
 21
-254.7350715310
  0
LINE
  8
1
  6
CONTINUOUS
 62
5
 10
207.8729766150
 20
-249.1350735310
 11
211.1060776150
 21
-249.1350735310
  0
LINE
  8
1
  6
CONTINUOUS
 62
5
 10
206.2563846150
 20
-251.9350655310
 11
207.8729846150
 21
-254.7350665310
  0
LINE
  8
1
  6
CONTINUOUS
 62
5
 10
206.2563766150
 20
-251.9351775310
 11
207.8729846150
 21
-249.1351725310
  0
LINE
  8
1
  6
CONTINUOUS
 62
5
 10
211.1060776150
 20
-249.1351725310
 11
212.7226776150
 21
-251.9351705310
  0
LINE
  8
1
  6
CONTINUOUS
 62
5
 10
211.1060926150
 20
-254.7350785310
 11
212.7226926150
 21
-251.9350795310
  0
LINE
  8
1
  6
CONTINUOUS
 62
5
 10
199.4895766150
 20
-250.4351715310
 11
200.4934756150
 21
-250.4351715310
  0
LINE
  8
1
  6
CONTINUOUS
 62
5
 10
206.4895766150
 20
-266.4350725310
 11
206.4895766150
 21
-255.9350725310
  0
LINE
  8
1
  6
CONTINUOUS
 62
5
 10
205.4895766150
 20
-266.4350725310
 11
205.4895766150
 21
-254.9350725310
  0
LINE
  8
1
  6
CONTINUOUS
 62
5
 10
214.4895766150
 20
-247.1774695310
 11
216.4894846150
 21
-246.7073715310
  0
LINE
  8
1
  6
CONTINUOUS
 62
5
 10
232.4894776150
 20
-266.4350725310
 11
232.4894776150
 21
-247.4351735310
  0
LINE
  8
1
  6
CONTINUOUS
 62
5
 10
210.7269876150
 20
-282.1724665310
 11
208.2520886150
 21
-279.6975655310
  0
LINE
  8
1
  6
CONTINUOUS
 62
5
 10
208.2520966150
 20
-282.1724835310
 11
210.7269956150
 21
-279.6975825310
  0
LINE
  8
1
  6
CONTINUOUS
 62
5
 10
232.4894776150
 20
-247.4351735310
 11
230.2894726150
 21
-247.4351735310
  0
LINE
  8
1
  6
CONTINUOUS
 62
5
 10
210.7269876150
 20
-253.1725705310
 11
208.2520886150
 21
-250.6976695310
  0
LINE
  8
1
  6
CONTINUOUS
 62
5
 10
208.2520816150
 20
-253.1725735310
 11
210.7269876150
 21
-250.6976725310
  0
LINE
  8
1
  6
CONTINUOUS
 62
5
 10
214.9895766150
 20
-245.5150725310
 11
213.7895796150
 21
-245.5150725310
  0
LINE
  8
1
  6
CONTINUOUS
 62
5
 10
214.9895766150
 20
-240.3151725310
 11
213.7895796150
 21
-240.3151725310
  0
LINE
  8
1
  6
CONTINUOUS
 62
5
 10
214.4895766150
 20
-252.4350725310
 11
214.4895766150
 21
-247.0130715310
  0
LINE
  8
1
  6
CONTINUOUS
 62
5
 10
216.4895766150
 20
-240.4350725310
 11
216.4895766150
 21
-246.7073735310
  0
LINE
  8
1
  6
CONTINUOUS
 62
5
 10
195.4895766150
 20
-266.4350725310
 11
195.4895766150
 21
-250.4351715310
  0
LINE
  8
1
  6
CONTINUOUS
 62
5
 10
204.4895766150
 20
-266.4350725310
 11
204.4895766150
 21
-250.4351715310
  0
LINE
  8
1
  6
CONTINUOUS
 62
5
 10
203.4895766150
 20
-266.4350725310
 11
203.4895766150
 21
-250.4351715310
  0
LINE
  8
1
  6
CONTINUOUS
 62
5
 10
202.4895766150
 20
-266.4350725310
 11
202.4895766150
 21
-250.4351715310
  0
LINE
  8
1
  6
CONTINUOUS
 62
5
 10
201.4895766150
 20
-266.4350725310
 11
201.4895766150
 21
-250.4351715310
  0
LINE
  8
1
  6
CONTINUOUS
 62
5
 10
200.4895766150
 20
-266.4350725310
 11
200.4895766150
 21
-250.4351715310
  0
LINE
  8
1
  6
CONTINUOUS
 62
5
 10
199.4895766150
 20
-266.4350725310
 11
199.4895766150
 21
-250.4351715310
  0
LINE
  8
1
  6
CONTINUOUS
 62
5
 10
198.4895766150
 20
-266.4350725310
 11
198.4895766150
 21
-250.4351715310
  0
LINE
  8
1
  6
CONTINUOUS
 62
5
 10
197.4895766150
 20
-266.4350725310
 11
197.4895766150
 21
-250.4351715310
  0
LINE
  8
1
  6
CONTINUOUS
 62
5
 10
196.4895766150
 20
-266.4350725310
 11
196.4895766150
 21
-250.4351715310
  0
LINE
  8
1
  6
CONTINUOUS
 62
5
 10
207.8729766150
 20
-254.7350715310
 11
211.1061766150
 21
-254.7350715310
  0
LINE
  8
1
  6
CONTINUOUS
 62
5
 10
235.2895796150
 20
-290.9950735310
 11
231.2894726150
 21
-290.9950735310
  0
LINE
  8
1
  6
CONTINUOUS
 62
5
 10
235.2895796150
 20
-288.9150725310
 11
231.2894726150
 21
-288.9150725310
  0
LINE
  8
1
  6
CONTINUOUS
 62
5
 10
235.2895796150
 20
-243.9551725310
 11
231.2894726150
 21
-243.9551725310
  0
LINE
  8
1
  6
CONTINUOUS
 62
5
 10
235.2895796150
 20
-241.8751705310
 11
231.2894726150
 21
-241.8751705310
  0
LINE
  8
1
  6
CONTINUOUS
 62
5
 10
215.4895766150
 20
-253.9350725310
 11
228.4894776150
 21
-253.9350725310
  0
LINE
  8
1
  6
CONTINUOUS
 62
5
 10
215.4895766150
 20
-278.9350725310
 11
228.4894776150
 21
-278.9350725310
  0
LINE
  8
1
  6
CONTINUOUS
 62
5
 10
228.4894776150
 20
-253.9350725310
 11
228.4894776150
 21
-278.9350725310
  0
LINE
  8
1
  6
CONTINUOUS
 62
5
 10
215.4895766150
 20
-278.9350725310
 11
215.4895766150
 21
-253.9350725310
  0
LINE
  8
1
  6
CONTINUOUS
 62
5
 10
162.9895766150
 20
-292.4350725310
 11
162.9895766150
 21
-240.4350725310
  0
LINE
  8
1
  6
CONTINUOUS
 62
5
 10
171.4088236150
 20
-290.8742755310
 11
169.5703526150
 21
-289.0357765310
  0
LINE
  8
1
  6
CONTINUOUS
 62
5
 10
177.9895766150
 20
-292.4350725310
 11
177.9895766150
 21
-240.4350725310
  0
LINE
  8
1
  6
CONTINUOUS
 62
5
 10
176.9895766150
 20
-286.9550725310
 11
163.9895766150
 21
-286.9550725310
  0
LINE
  8
1
  6
CONTINUOUS
 62
5
 10
176.9895766150
 20
-293.4350725310
 11
163.9895766150
 21
-293.4350725310
  0
LINE
  8
1
  6
CONTINUOUS
 62
5
 10
176.9895766150
 20
-285.4350725310
 11
163.9895766150
 21
-285.4350725310
  0
LINE
  8
1
  6
CONTINUOUS
 62
5
 10
171.4088286150
 20
-289.0357745310
 11
169.5703586150
 21
-290.8742735310
  0
LINE
  8
1
  6
CONTINUOUS
 62
5
 10
176.9895766150
 20
-284.3770715310
 11
163.9895766150
 21
-284.3770715310
  0
LINE
  8
1
  6
CONTINUOUS
 62
5
 10
176.9895766150
 20
-248.4930735310
 11
163.9895766150
 21
-248.4930735310
  0
LINE
  8
1
  6
CONTINUOUS
 62
5
 10
176.9895766150
 20
-247.4350725310
 11
163.9895766150
 21
-247.4350725310
  0
LINE
  8
1
  6
CONTINUOUS
 62
5
 10
176.9895766150
 20
-245.9150725310
 11
163.9895766150
 21
-245.9150725310
  0
LINE
  8
1
  6
CONTINUOUS
 62
5
 10
176.9895766150
 20
-239.4350725310
 11
163.9895766150
 21
-239.4350725310
  0
LINE
  8
1
  6
CONTINUOUS
 62
5
 10
171.4088366150
 20
-241.9958865310
 11
169.5703656150
 21
-243.8342865310
  0
LINE
  8
1
  6
CONTINUOUS
 62
5
 10
171.4088156150
 20
-243.8342865310
 11
169.5703476150
 21
-241.9958865310
  0
LINE
  8
1
  6
CONTINUOUS
 62
5
 10
170.4895766150
 20
-260.9350725310
 11
170.4895766150
 21
-259.9350725310
  0
ARC
  8
1
  6
CONTINUOUS
 62
5
 10
193.4895766150
 20
-249.3321725310
 40
1.0000000000
 50
99.9998200000
 51
179.9999820000
  0
ARC
  8
1
  6
CONTINUOUS
 62
5
 10
213.0957776150
 20
-288.5050725310
 40
0.8000030000
 50
90.0000000000
 51
163.8085340000
  0
ARC
  8
1
  6
CONTINUOUS
 62
5
 10
232.4894776150
 20
-285.4350725310
 40
1.0000100000
 50
270.0008600000
 51
0.0000200000
  0
ARC
  8
1
  6
CONTINUOUS
 62
5
 10
218.0895746150
 20
-242.9150725310
 40
5.9999870000
 50
163.8088820000
 51
196.1920000000
  0
ARC
  8
1
  6
CONTINUOUS
 62
5
 10
213.0957776150
 20
-244.3651715310
 40
0.7999990000
 50
196.1920400000
 51
270.0010600000
  0
ARC
  8
1
  6
CONTINUOUS
 62
5
 10
213.0957776150
 20
-241.4651745310
 40
0.7999970000
 50
90.0000000000
 51
163.8087730000
  0
ARC
  8
1
  6
CONTINUOUS
 62
5
 10
232.4894776150
 20
-247.4351735310
 40
1.0000080000
 50
0.0000200000
 51
90.0000000000
  0
ARC
  8
1
  6
CONTINUOUS
 62
5
 10
216.4895766150
 20
-240.4350725310
 40
1.0000000000
 50
90.0000000000
 51
180.0004530000
  0
ARC
  8
1
  6
CONTINUOUS
 62
5
 10
202.0606746150
 20
-243.9351715310
 40
4.9999910000
 50
224.4259900000
 51
283.2249600000
  0
ARC
  8
1
  6
CONTINUOUS
 62
5
 10
213.0957776150
 20
-291.4050695310
 40
0.7999990000
 50
196.1920400000
 51
270.0010600000
  0
ARC
  8
1
  6
CONTINUOUS
 62
5
 10
218.0895746150
 20
-289.9550725310
 40
5.9999870000
 50
163.8088820000
 51
196.1920000000
  0
ARC
  8
1
  6
CONTINUOUS
 62
5
 10
216.4895766150
 20
-292.4350725310
 40
1.0000000000
 50
179.9999820000
 51
270.0008400000
  0
CIRCLE
  8
1
  6
CONTINUOUS
 62
5
 10
209.4895766150
 20
-280.9350725310
 40
2.7500000000
  0
CIRCLE
  8
1
  6
CONTINUOUS
 62
5
 10
209.4895766150
 20
-251.9350725310
 40
2.7500000000
  0
ARC
  8
1
  6
CONTINUOUS
 62
5
 10
209.4895766150
 20
-280.9350725310
 40
4.9999900000
 50
126.8698800000
 51
143.3752990000
  0
ARC
  8
1
  6
CONTINUOUS
 62
5
 10
209.4895766150
 20
-280.9350725310
 40
4.9999990000
 50
101.5368720000
 51
113.5780850000
  0
ARC
  8
1
  6
CONTINUOUS
 62
5
 10
209.4895766150
 20
-251.9350725310
 40
4.9999910000
 50
269.9989700000
 51
359.9989400000
  0
ARC
  8
1
  6
CONTINUOUS
 62
5
 10
193.4895766150
 20
-283.5379725310
 40
1.0000110000
 50
179.9995650000
 51
260.0009800000
  0
ARC
  8
1
  6
CONTINUOUS
 62
5
 10
209.4895766150
 20
-251.9350725310
 40
4.9999900000
 50
246.4230300000
 51
258.4640200000
  0
ARC
  8
1
  6
CONTINUOUS
 62
5
 10
209.4895766150
 20
-251.9350725310
 40
4.9999870000
 50
216.8710200000
 51
233.1310100000
  0
ARC
  8
1
  6
CONTINUOUS
 62
5
 10
202.0606746150
 20
-288.9349735310
 40
5.0000010000
 50
76.7729300000
 51
135.5742080000
  0
ARC
  8
1
  6
CONTINUOUS
 62
5
 10
209.4895766150
 20
-280.9350725310
 40
4.9999920000
 50
359.9999600000
 51
90.0000000000
  0
CIRCLE
  8
1
  6
CONTINUOUS
 62
5
 10
170.4895766150
 20
-289.9550725310
 40
2.2500000000
  0
ARC
  8
1
  6
CONTINUOUS
 62
5
 10
176.9895766150
 20
-292.4350725310
 40
1.0000100000
 50
270.0009600000
 51
0.0000200000
  0
ARC
  8
1
  6
CONTINUOUS
 62
5
 10
163.9895766150
 20
-292.4350725310
 40
1.0000100000
 50
179.9999820000
 51
270.0009500000
  0
ARC
  8
1
  6
CONTINUOUS
 62
5
 10
163.9895766150
 20
-246.9150725310
 40
1.0000000000
 50
90.0000000000
 51
179.9999820000
  0
ARC
  8
1
  6
CONTINUOUS
 62
5
 10
176.9895766150
 20
-246.9150725310
 40
1.0000000000
 50
0.0000200000
 51
90.0000000000
  0
ARC
  8
1
  6
CONTINUOUS
 62
5
 10
176.9895766150
 20
-248.4350725310
 40
1.0000000000
 50
0.0000200000
 51
90.0000000000
  0
ARC
  8
1
  6
CONTINUOUS
 62
5
 10
176.9895766150
 20
-249.4930735310
 40
1.0000000000
 50
0.0000200000
 51
90.0000000000
  0
ARC
  8
1
  6
CONTINUOUS
 62
5
 10
163.9895766150
 20
-249.4930735310
 40
1.0000000000
 50
90.0000000000
 51
179.9999820000
  0
ARC
  8
1
  6
CONTINUOUS
 62
5
 10
163.9895766150
 20
-248.4350725310
 40
1.0000000000
 50
90.0000000000
 51
179.9999820000
  0
ARC
  8
1
  6
CONTINUOUS
 62
5
 10
163.9895766150
 20
-283.3770715310
 40
1.0000100000
 50
179.9999820000
 51
270.0009500000
  0
ARC
  8
1
  6
CONTINUOUS
 62
5
 10
176.9895766150
 20
-240.4350725310
 40
1.0000000000
 50
0.0000200000
 51
90.0000000000
  0
ARC
  8
1
  6
CONTINUOUS
 62
5
 10
163.9895766150
 20
-240.4350725310
 40
1.0000000000
 50
90.0000000000
 51
180.0004530000
  0
CIRCLE
  8
1
  6
CONTINUOUS
 62
5
 10
170.4895766150
 20
-242.9150725310
 40
2.6000000000
  0
CIRCLE
  8
1
  6
CONTINUOUS
 62
5
 10
170.4895766150
 20
-289.9550725310
 40
2.6000000000
  0
CIRCLE
  8
1
  6
CONTINUOUS
 62
5
 10
170.4895766150
 20
-266.4350725310
 40
6.5000000000
  0
CIRCLE
  8
1
  6
CONTINUOUS
 62
5
 10
170.4895766150
 20
-266.4350725310
 40
5.5000000000
  0
ARC
  8
1
  6
CONTINUOUS
 62
5
 10
176.9895766150
 20
-283.3770715310
 40
1.0000100000
 50
270.0009600000
 51
0.0000200000
  0
ARC
  8
1
  6
CONTINUOUS
 62
5
 10
176.9895766150
 20
-284.4350725310
 40
1.0000100000
 50
270.0009600000
 51
0.0000200000
  0
ARC
  8
1
  6
CONTINUOUS
 62
5
 10
176.9895766150
 20
-285.9550725310
 40
1.0000100000
 50
270.0009600000
 51
0.0000200000
  0
CIRCLE
  8
1
  6
CONTINUOUS
 62
5
 10
170.4895766150
 20
-242.9150725310
 40
2.2500000000
  0
ARC
  8
1
  6
CONTINUOUS
 62
5
 10
163.9895766150
 20
-285.9550725310
 40
1.0000100000
 50
179.9999820000
 51
270.0009500000
  0
ARC
  8
1
  6
CONTINUOUS
 62
5
 10
163.9895766150
 20
-284.4350725310
 40
1.0000100000
 50
179.9999820000
 51
270.0009500000
  0
TEXT
  8
5
  6
CONTINUOUS
 62
7
 10
338.923576
 20
217.946368
 40
3.000000
  1
--
 41
0.854701
 50
0.000000
 51
0.000000
 72
   5
 73
   0
 11
341.923576
 21
217.946368
  0
TEXT
  8
5
  6
CONTINUOUS
 62
7
 10
318.923576
 20
217.946368
 40
3.000000
  1
--
 41
0.854701
 50
0.000000
 51
0.000000
 72
   5
 73
   0
 11
321.923576
 21
217.946368
  0
TEXT
  8
5
  6
CONTINUOUS
 62
7
 10
338.923576
 20
222.946368
 40
3.000000
  1
--
 41
0.854701
 50
0.000000
 51
0.000000
 72
   5
 73
   0
 11
341.923576
 21
222.946368
  0
TEXT
  8
5
  6
CONTINUOUS
 62
7
 10
318.923576
 20
222.946368
 40
3.000000
  1
--
 41
0.854701
 50
0.000000
 51
0.000000
 72
   5
 73
   0
 11
321.923576
 21
222.946368
  0
CIRCLE
  8
3
  6
CONTINUOUS
 62
7
 10
193.9105182328
 20
169.8525214537
 40
1.7500000000
  0
CIRCLE
  8
3
  6
CONTINUOUS
 62
7
 10
193.9105182328
 20
107.8525214537
 40
1.7500000000
  0
LINE
  8
3
  6
CONTINUOUS
 62
7
 10
186.4105182328
 20
165.8525214537
 11
201.4105182328
 21
165.8525214537
  0
LINE
  8
3
  6
CONTINUOUS
 62
7
 10
201.4105182328
 20
165.8525214537
 11
201.4105182328
 21
111.8525214537
  0
LINE
  8
3
  6
CONTINUOUS
 62
7
 10
201.4105182328
 20
111.8525214537
 11
186.4105182328
 21
111.8525214537
  0
LINE
  8
3
  6
CONTINUOUS
 62
7
 10
186.4105182328
 20
111.8525214537
 11
186.4105182328
 21
165.8525214537
  0
POINT
  8
3
  6
CONTINUOUS
 62
7
 10
193.9105182328
 20
138.8525214537
  0
TEXT
  8
3
  6
CONTINUOUS
 62
7
 10
187.160518
 20
138.852521
 40
4.500000
  1
⑨DC**
 41
0.815217
 50
0.000000
 51
0.000000
 72
   5
 73
   0
 11
200.660518
 21
138.852521
  0
TEXT
  8
3
  6
CONTINUOUS
 62
7
 10
187.160518
 20
134.352521
 40
4.500000
  1
D-SUB
 41
0.786164
 50
0.000000
 51
0.000000
 72
   5
 73
   0
 11
198.410518
 21
134.352521
  0
LINE
  8
1
  6
CONTINUOUS
 62
7
 10
76.2456447311
 20
-176.3400865140
 11
24.2456447311
 21
-176.3400865140
  0
LINE
  8
1
  6
CONTINUOUS
 62
7
 10
77.7456447311
 20
-299.3400865140
 11
77.7456447311
 21
-177.8400865140
  0
LINE
  8
1
  6
CONTINUOUS
 62
7
 10
24.2456447311
 20
-300.8400865140
 11
76.2456447311
 21
-300.8400865140
  0
LINE
  8
1
  6
CONTINUOUS
 62
7
 10
22.7456447311
 20
-299.3400865140
 11
22.7456447311
 21
-177.8400865140
  0
LINE
  8
1
  6
CONTINUOUS
 62
7
 10
79.7456447311
 20
-301.8400865140
 11
79.7456447311
 21
-175.3400865140
  0
LINE
  8
1
  6
CONTINUOUS
 62
7
 10
78.7456447311
 20
-174.3400865140
 11
21.7456447311
 21
-174.3400865140
  0
LINE
  8
1
  6
CONTINUOUS
 62
7
 10
20.7456447311
 20
-301.8400865140
 11
20.7456447311
 21
-175.3400865140
  0
LINE
  8
1
  6
CONTINUOUS
 62
7
 10
21.7456447311
 20
-302.8400865140
 11
78.7456447311
 21
-302.8400865140
  0
ARC
  8
1
  6
CONTINUOUS
 62
7
 10
24.2456447311
 20
-177.8400865140
 40
1.5000000000
 50
90.0000000000
 51
180.0000000000
  0
ARC
  8
1
  6
CONTINUOUS
 62
7
 10
76.2456447311
 20
-177.8400865140
 40
1.5000000000
 50
0.0000000000
 51
90.0000000000
  0
ARC
  8
1
  6
CONTINUOUS
 62
7
 10
76.2456447311
 20
-299.3400865140
 40
1.5000000000
 50
270.0000000000
 51
0.0000000000
  0
ARC
  8
1
  6
CONTINUOUS
 62
7
 10
24.2456447311
 20
-299.3400865140
 40
1.5000000000
 50
180.0000000000
 51
270.0000000000
  0
CIRCLE
  8
1
  6
HIDDEN
 62
3
 10
30.2456447311
 20
-180.0900865140
 40
1.7500000000
  0
CIRCLE
  8
1
  6
HIDDEN
 62
3
 10
30.2456447311
 20
-180.0900865140
 40
3.2500000000
  0
CIRCLE
  8
1
  6
HIDDEN
 62
3
 10
70.2456447311
 20
-180.0900865140
 40
1.7500000000
  0
CIRCLE
  8
1
  6
HIDDEN
 62
3
 10
70.2456447311
 20
-180.0900865140
 40
3.2500000000
  0
LINE
  8
1
  6
HIDDEN
 62
3
 10
73.2456447311
 20
-185.0900865140
 11
76.2456447311
 21
-185.0900865140
  0
LINE
  8
1
  6
HIDDEN
 62
3
 10
25.2456447311
 20
-185.0900865140
 11
73.2456447311
 21
-185.0900865140
  0
CIRCLE
  8
1
  6
HIDDEN
 62
3
 10
30.2456447311
 20
-297.0900865140
 40
1.7500000000
  0
CIRCLE
  8
1
  6
HIDDEN
 62
3
 10
30.2456447311
 20
-297.0900865140
 40
3.2500000000
  0
CIRCLE
  8
1
  6
HIDDEN
 62
3
 10
70.2456447311
 20
-297.0900865140
 40
1.7500000000
  0
CIRCLE
  8
1
  6
HIDDEN
 62
3
 10
70.2456447311
 20
-297.0900865140
 40
3.2500000000
  0
CIRCLE
  8
1
  6
HIDDEN
 62
3
 10
50.2456447311
 20
-180.0900865140
 40
2.0000000000
  0
LINE
  8
1
  6
CONTINUOUS
 62
7
 10
81.7456447311
 20
-301.8400865140
 11
81.7456447311
 21
-175.3400865140
  0
LINE
  8
1
  6
CONTINUOUS
 62
7
 10
78.7456447311
 20
-172.3400865140
 11
21.7456447311
 21
-172.3400865140
  0
LINE
  8
1
  6
CONTINUOUS
 62
7
 10
18.7456447311
 20
-301.8400865140
 11
18.7456447311
 21
-175.3400865140
  0
LINE
  8
1
  6
CONTINUOUS
 62
7
 10
21.7456447311
 20
-304.8400865140
 11
78.7456447311
 21
-304.8400865140
  0
LINE
  8
1
  6
CONTINUOUS
 62
7
 10
83.7456447311
 20
-311.8400865140
 11
83.7456447311
 21
-167.9650865140
  0
LINE
  8
1
  6
CONTINUOUS
 62
7
 10
16.7456447311
 20
-167.9650865140
 11
16.7456447311
 21
-311.8400865140
  0
LINE
  8
1
  6
CONTINUOUS
 62
7
 10
84.7456447311
 20
-312.8400865140
 11
84.7456447311
 21
-157.3400865140
  0
LINE
  8
1
  6
CONTINUOUS
 62
7
 10
15.7456447311
 20
-157.3400865140
 11
15.7456447311
 21
-312.8400865140
  0
ARC
  8
1
  6
CONTINUOUS
 62
7
 10
21.7456447311
 20
-175.3400865140
 40
1.0000000000
 50
90.0000000000
 51
180.0000000000
  0
ARC
  8
1
  6
CONTINUOUS
 62
7
 10
78.7456447311
 20
-175.3400865140
 40
1.0000000000
 50
0.0000000000
 51
90.0000000000
  0
ARC
  8
1
  6
CONTINUOUS
 62
7
 10
78.7456447311
 20
-301.8400865140
 40
1.0000000000
 50
270.0000000000
 51
0.0000000000
  0
ARC
  8
1
  6
CONTINUOUS
 62
7
 10
21.7456447311
 20
-301.8400865140
 40
1.0000000000
 50
180.0000000000
 51
270.0000000000
  0
LINE
  8
1
  6
HIDDEN
 62
3
 10
76.2456447311
 20
-195.0900865140
 11
76.2456447311
 21
-185.0900865140
  0
ARC
  8
1
  6
CONTINUOUS
 62
7
 10
21.7456447311
 20
-175.3400865140
 40
3.0000000000
 50
90.0000000000
 51
180.0000000000
  0
ARC
  8
1
  6
CONTINUOUS
 62
7
 10
78.7456447311
 20
-175.3400865140
 40
3.0000000000
 50
0.0000000000
 51
90.0000000000
  0
ARC
  8
1
  6
CONTINUOUS
 62
7
 10
78.7456447311
 20
-301.8400865140
 40
3.0000000000
 50
270.0000000000
 51
0.0000000000
  0
ARC
  8
1
  6
CONTINUOUS
 62
7
 10
21.7456447311
 20
-301.8400865140
 40
3.0000000000
 50
180.0000000000
 51
270.0000000000
  0
LINE
  8
1
  6
DASHDOT
 62
1
 10
86.7456447311
 20
-164.3400865140
 11
13.7456447311
 21
-164.3400865140
  0
LINE
  8
1
  6
CONTINUOUS
 62
7
 10
84.7456447311
 20
-312.8400865140
 11
15.7456447311
 21
-312.8400865140
  0
LINE
  8
1
  6
CONTINUOUS
 62
7
 10
16.7456447311
 20
-311.8400865140
 11
83.7456447311
 21
-311.8400865140
  0
LINE
  8
1
  6
CONTINUOUS
 62
7
 10
16.7456447311
 20
-170.3400865140
 11
16.7456447311
 21
-158.3400865140
  0
LINE
  8
1
  6
CONTINUOUS
 62
7
 10
16.7456447311
 20
-158.3400865140
 11
21.7456447311
 21
-158.3400865140
  0
LINE
  8
1
  6
CONTINUOUS
 62
7
 10
21.7456447311
 20
-158.3400865140
 11
21.7456447311
 21
-170.3400865140
  0
LINE
  8
1
  6
CONTINUOUS
 62
7
 10
21.7456447311
 20
-170.3400865140
 11
16.7456447311
 21
-170.3400865140
  0
LINE
  8
1
  6
CONTINUOUS
 62
7
 10
83.7456447311
 20
-158.3400865140
 11
78.7456447311
 21
-158.3400865140
  0
LINE
  8
1
  6
CONTINUOUS
 62
7
 10
78.7456447311
 20
-158.3400865140
 11
78.7456447311
 21
-170.3400865140
  0
LINE
  8
1
  6
CONTINUOUS
 62
7
 10
78.7456447311
 20
-170.3400865140
 11
83.7456447311
 21
-170.3400865140
  0
LINE
  8
1
  6
CONTINUOUS
 62
7
 10
83.7456447311
 20
-170.3400865140
 11
83.7456447311
 21
-158.3400865140
  0
LINE
  8
1
  6
CONTINUOUS
 62
7
 10
78.7456447311
 20
-170.3400865140
 11
78.7456447311
 21
-171.3400865140
  0
LINE
  8
1
  6
CONTINUOUS
 62
7
 10
78.7456447311
 20
-171.3400865140
 11
21.7456447311
 21
-171.3400865140
  0
LINE
  8
1
  6
CONTINUOUS
 62
7
 10
21.7456447311
 20
-171.3400865140
 11
21.7456447311
 21
-170.3400865140
  0
LINE
  8
1
  6
CONTINUOUS
 62
7
 10
84.7456447311
 20
-157.3400865140
 11
15.7456447311
 21
-157.3400865140
  0
CIRCLE
  8
1
  6
HIDDEN
 62
3
 10
50.2456447311
 20
-180.0900865140
 40
1.6500000000
  0
CIRCLE
  8
1
  6
HIDDEN
 62
3
 10
50.2456447311
 20
-297.0900865140
 40
2.0000000000
  0
CIRCLE
  8
1
  6
HIDDEN
 62
3
 10
50.2456447311
 20
-297.0900865140
 40
1.6500000000
  0
CIRCLE
  8
1
  6
HIDDEN
 62
7
 10
50.2456447311
 20
-308.3400865140
 40
2.0000000000
  0
CIRCLE
  8
1
  6
CONTINUOUS
 62
7
 10
50.2456447311
 20
-308.3400865140
 40
1.6500000000
  0
LINE
  8
1
  6
HIDDEN
 62
3
 10
76.2456447311
 20
-195.0900865140
 11
73.2456447311
 21
-195.0900865140
  0
LINE
  8
1
  6
HIDDEN
 62
3
 10
73.2456447311
 20
-195.0900865140
 11
73.2456447311
 21
-185.0900865140
  0
LINE
  8
1
  6
HIDDEN
 62
3
 10
24.2456447311
 20
-292.0900865140
 11
27.2456447311
 21
-292.0900865140
  0
LINE
  8
1
  6
HIDDEN
 62
3
 10
75.2456447311
 20
-292.0900865140
 11
27.2456447311
 21
-292.0900865140
  0
LINE
  8
1
  6
HIDDEN
 62
3
 10
24.2456447311
 20
-282.0900865140
 11
27.2456447311
 21
-282.0900865140
  0
LINE
  8
3
  6
HIDDEN
 62
3
 10
27.2456447311
 20
-282.0900865140
 11
27.2456447311
 21
-292.0900865140
  0
LINE
  8
1
  6
HIDDEN
 62
3
 10
24.2456447311
 20
-282.0900865140
 11
24.2456447311
 21
-292.0900865140
  0
LINE
  8
1
  6
HIDDEN
 62
3
 10
76.2456447311
 20
-291.0900865140
 11
76.2456447311
 21
-195.0900865140
  0
LINE
  8
1
  6
HIDDEN
 62
3
 10
24.2456447311
 20
-186.0900865140
 11
24.2456447311
 21
-282.0900865140
  0
ARC
  8
1
  6
HIDDEN
 62
3
 10
25.2456447311
 20
-186.0900865140
 40
1.0000000000
 50
90.0000000000
 51
180.0000000000
  0
ARC
  8
1
  6
HIDDEN
 62
3
 10
75.2456447311
 20
-291.0900865140
 40
1.0000000000
 50
270.0000000000
 51
0.0000000000
  0
LINE
  8
3
  6
CONTINUOUS
 62
7
 10
77.4956447311
 20
-299.5900865138
 11
77.4956447311
 21
-177.5900865142
  0
LINE
  8
3
  6
CONTINUOUS
 62
7
 10
76.4956447311
 20
-176.5900865142
 11
23.9956447311
 21
-176.5900865139
  0
LINE
  8
3
  6
CONTINUOUS
 62
7
 10
22.9956447311
 20
-299.5900865142
 11
22.9956447311
 21
-177.5900865138
  0
LINE
  8
3
  6
CONTINUOUS
 62
7
 10
76.4956447311
 20
-300.5900865138
 11
23.9956447311
 21
-300.5900865142
  0
LINE
  8
3
  6
CONTINUOUS
 62
7
 10
23.9956447311
 20
-176.5900865139
 11
22.9956447311
 21
-177.5900865138
  0
LINE
  8
3
  6
CONTINUOUS
 62
7
 10
77.4956447311
 20
-177.5900865142
 11
76.4956447311
 21
-176.5900865142
  0
LINE
  8
3
  6
CONTINUOUS
 62
7
 10
77.4956447311
 20
-299.5900865138
 11
76.4956447311
 21
-300.5900865138
  0
LINE
  8
3
  6
CONTINUOUS
 62
7
 10
23.9956447311
 20
-300.5900865142
 11
22.9956447311
 21
-299.5900865142
  0
CIRCLE
  8
3
  6
CONTINUOUS
 62
6
 10
50.2456447311
 20
-180.0900865141
 40
3.9000000000
  0
LINE
  8
3
  6
CONTINUOUS
 62
6
 10
48.5220719520
 20
-178.3665137350
 11
51.9692175103
 21
-181.8136592932
  0
LINE
  8
3
  6
CONTINUOUS
 62
6
 10
48.5220719520
 20
-181.8136592932
 11
51.9692175103
 21
-178.3665137350
  0
CIRCLE
  8
3
  6
CONTINUOUS
 62
6
 10
50.2456447311
 20
-180.0900865141
 40
3.4125000000
  0
CIRCLE
  8
3
  6
CONTINUOUS
 62
6
 10
50.2456447311
 20
-297.0900865140
 40
3.9000000000
  0
LINE
  8
3
  6
CONTINUOUS
 62
6
 10
48.5220719520
 20
-295.3665137349
 11
51.9692175103
 21
-298.8136592932
  0
LINE
  8
3
  6
CONTINUOUS
 62
6
 10
48.5220719520
 20
-298.8136592932
 11
51.9692175103
 21
-295.3665137349
  0
CIRCLE
  8
3
  6
CONTINUOUS
 62
6
 10
50.2456447311
 20
-297.0900865140
 40
3.4125000000
  0
LINE
  8
3
  6
CONTINUOUS
 62
7
 10
77.4956447311
 20
-299.5900865138
 11
77.4956447311
 21
-177.5900865142
  0
LINE
  8
3
  6
CONTINUOUS
 62
7
 10
77.4956447311
 20
-177.5900865142
 11
76.4956447311
 21
-176.5900865142
  0
LINE
  8
3
  6
CONTINUOUS
 62
7
 10
76.4956447311
 20
-176.5900865142
 11
23.9956447311
 21
-176.5900865139
  0
LINE
  8
3
  6
CONTINUOUS
 62
7
 10
23.9956447311
 20
-176.5900865139
 11
22.9956447311
 21
-177.5900865138
  0
LINE
  8
3
  6
CONTINUOUS
 62
7
 10
22.9956447311
 20
-299.5900865142
 11
22.9956447311
 21
-177.5900865138
  0
LINE
  8
3
  6
CONTINUOUS
 62
7
 10
23.9956447311
 20
-300.5900865142
 11
22.9956447311
 21
-299.5900865142
  0
LINE
  8
3
  6
CONTINUOUS
 62
7
 10
76.4956447311
 20
-300.5900865138
 11
23.9956447311
 21
-300.5900865142
  0
LINE
  8
3
  6
CONTINUOUS
 62
7
 10
77.4956447311
 20
-299.5900865138
 11
76.4956447311
 21
-300.5900865138
  0
LINE
  8
3
  6
CONTINUOUS
 62
7
 10
77.4956447311
 20
-299.5900865138
 11
77.4956447311
 21
-177.5900865142
  0
LINE
  8
3
  6
CONTINUOUS
 62
7
 10
76.4956447311
 20
-176.5900865142
 11
23.9956447311
 21
-176.5900865139
  0
LINE
  8
3
  6
CONTINUOUS
 62
7
 10
22.9956447311
 20
-299.5900865142
 11
22.9956447311
 21
-177.5900865138
  0
LINE
  8
3
  6
CONTINUOUS
 62
7
 10
76.4956447311
 20
-300.5900865138
 11
23.9956447311
 21
-300.5900865142
  0
LINE
  8
3
  6
CONTINUOUS
 62
7
 10
23.9956447311
 20
-176.5900865139
 11
22.9956447311
 21
-177.5900865138
  0
LINE
  8
3
  6
CONTINUOUS
 62
7
 10
77.4956447311
 20
-177.5900865142
 11
76.4956447311
 21
-176.5900865142
  0
LINE
  8
3
  6
CONTINUOUS
 62
7
 10
77.4956447311
 20
-299.5900865138
 11
76.4956447311
 21
-300.5900865138
  0
LINE
  8
3
  6
CONTINUOUS
 62
7
 10
23.9956447311
 20
-300.5900865142
 11
22.9956447311
 21
-299.5900865142
  0
CIRCLE
  8
3
  6
CONTINUOUS
 62
7
 10
33.2456447311
 20
-207.5900865140
 40
1.7500000000
  0
CIRCLE
  8
3
  6
CONTINUOUS
 62
7
 10
33.2456447311
 20
-269.5900865140
 40
1.7500000000
  0
LINE
  8
3
  6
CONTINUOUS
 62
7
 10
25.7456447311
 20
-211.5900865140
 11
40.7456447311
 21
-211.5900865140
  0
LINE
  8
3
  6
CONTINUOUS
 62
7
 10
40.7456447311
 20
-211.5900865140
 11
40.7456447311
 21
-265.5900865140
  0
LINE
  8
3
  6
CONTINUOUS
 62
7
 10
40.7456447311
 20
-265.5900865140
 11
25.7456447311
 21
-265.5900865140
  0
LINE
  8
3
  6
CONTINUOUS
 62
7
 10
25.7456447311
 20
-265.5900865140
 11
25.7456447311
 21
-211.5900865140
  0
POINT
  8
3
  6
CONTINUOUS
 62
7
 10
33.2456447311
 20
-238.5900865140
  0
TEXT
  8
3
  6
CONTINUOUS
 62
7
 10
26.495645
 20
-238.590087
 40
4.500000
  1
⑨DL**
 41
0.815217
 50
0.000000
 51
0.000000
 72
   5
 73
   0
 11
39.995645
 21
-238.590087
  0
TEXT
  8
3
  6
CONTINUOUS
 62
7
 10
26.495645
 20
-243.090087
 40
4.500000
  1
D-SUB
 41
0.786164
 50
0.000000
 51
0.000000
 72
   5
 73
   0
 11
37.745645
 21
-243.090087
  0
POINT
  8
3
  6
CONTINUOUS
 62
7
 10
50.2456447311
 20
-238.5900865140
  0
CIRCLE
  8
3
  6
CONTINUOUS
 62
7
 10
67.2456447311
 20
-207.5900865140
 40
1.7500000000
  0
CIRCLE
  8
3
  6
CONTINUOUS
 62
7
 10
67.2456447311
 20
-269.5900865140
 40
1.7500000000
  0
LINE
  8
3
  6
CONTINUOUS
 62
7
 10
59.7456447311
 20
-211.5900865140
 11
74.7456447311
 21
-211.5900865140
  0
LINE
  8
3
  6
CONTINUOUS
 62
7
 10
74.7456447311
 20
-211.5900865140
 11
74.7456447311
 21
-265.5900865140
  0
LINE
  8
3
  6
CONTINUOUS
 62
7
 10
74.7456447311
 20
-265.5900865140
 11
59.7456447311
 21
-265.5900865140
  0
LINE
  8
3
  6
CONTINUOUS
 62
7
 10
59.7456447311
 20
-265.5900865140
 11
59.7456447311
 21
-211.5900865140
  0
POINT
  8
3
  6
CONTINUOUS
 62
7
 10
67.2456447311
 20
-238.5900865140
  0
TEXT
  8
3
  6
CONTINUOUS
 62
7
 10
60.495645
 20
-238.590087
 40
4.500000
  1
⑨DR**
 41
0.815217
 50
0.000000
 51
0.000000
 72
   5
 73
   0
 11
73.995645
 21
-238.590087
  0
TEXT
  8
3
  6
CONTINUOUS
 62
7
 10
60.495645
 20
-243.090087
 40
4.500000
  1
D-SUB
 41
0.786164
 50
0.000000
 51
0.000000
 72
   5
 73
   0
 11
71.745645
 21
-243.090087
  0
POINT
  8
3
  6
CONTINUOUS
 62
10
 10
67.2456447311
 20
-238.5900865140
  0
POINT
  8
3
  6
CONTINUOUS
 62
10
 10
67.2456447311
 20
-238.5900865140
  0
CIRCLE
  8
3
  6
CONTINUOUS
 62
7
 10
50.2456447311
 20
-207.5900865140
 40
1.7500000000
  0
CIRCLE
  8
3
  6
CONTINUOUS
 62
7
 10
50.2456447311
 20
-269.5900865140
 40
1.7500000000
  0
LINE
  8
3
  6
CONTINUOUS
 62
7
 10
42.7456447311
 20
-211.5900865140
 11
57.7456447311
 21
-211.5900865140
  0
LINE
  8
3
  6
CONTINUOUS
 62
7
 10
57.7456447311
 20
-211.5900865140
 11
57.7456447311
 21
-265.5900865140
  0
LINE
  8
3
  6
CONTINUOUS
 62
7
 10
57.7456447311
 20
-265.5900865140
 11
42.7456447311
 21
-265.5900865140
  0
LINE
  8
3
  6
CONTINUOUS
 62
7
 10
42.7456447311
 20
-265.5900865140
 11
42.7456447311
 21
-211.5900865140
  0
POINT
  8
3
  6
CONTINUOUS
 62
7
 10
50.2456447311
 20
-238.5900865140
  0
TEXT
  8
3
  6
CONTINUOUS
 62
7
 10
43.495645
 20
-238.590087
 40
4.500000
  1
⑨DC**
 41
0.815217
 50
0.000000
 51
0.000000
 72
   5
 73
   0
 11
56.995645
 21
-238.590087
  0
TEXT
  8
3
  6
CONTINUOUS
 62
7
 10
43.495645
 20
-243.090087
 40
4.500000
  1
D-SUB
 41
0.786164
 50
0.000000
 51
0.000000
 72
   5
 73
   0
 11
54.745645
 21
-243.090087
  0
DIMENSION
  8
3
  6
CONTINUOUS
 62
5
  2
*D21
 10
50.2456447311
 20
-199.3705822804
 11
41.7456447311
 21
-196.3705822804
  70
0
 13
33.2456447311
 23
-209.3400865140
 14
50.2456447311
 24
-209.3400865140
 50
0.000000
  0
DIMENSION
  8
3
  6
CONTINUOUS
 62
5
  2
*D22
 10
67.2456447311
 20
-199.3705822804
 11
58.7456447311
 21
-196.3705822804
  70
0
 13
50.2456447311
 23
-209.3400865140
 14
67.2456447311
 24
-209.3400865140
 50
0.000000
  0
DIMENSION
  8
3
  6
CONTINUOUS
 62
5
  2
*D23
 10
33.2456447311
 20
-199.3705822804
 11
27.9956447311
 21
-196.6205822804
  70
0
 13
22.7456447311
 23
-207.5900865140
 14
33.2456447311
 24
-209.3400865140
 50
0.000000
  0
DIMENSION
  8
3
  6
CONTINUOUS
 62
5
  2
*D24
 10
67.2456447311
 20
-199.3705822804
 11
72.4956447311
 21
-196.6205822804
  70
0
 13
77.7456447311
 23
-207.5900865140
 14
67.2456447311
 24
-209.3400865140
 50
0.000000
  0
DIMENSION
  8
3
  6
CONTINUOUS
 62
5
  2
*D25
 10
171.6338378359
 20
-271.8147255177
 11
173.1794031084
 21
-265.8629419205
  70
3
 15
169.3453153941
 25
-261.0554195442
  0
DIMENSION
  8
3
  6
CONTINUOUS
 62
5
  2
*D26
 10
239.8380849682
 20
-242.9151715310
 11
237.0880849682
 21
-266.4351222810
  70
0
 13
235.2895796150
 23
-289.9550730310
 14
235.2895796150
 24
-242.9151715310
 50
90.000000
  0
DIMENSION
  8
3
  6
CONTINUOUS
 62
5
  2
*D27
 10
245.5804001763
 20
-239.4350725310
 11
242.8304001763
 21
-266.4350725310
  70
0
 13
231.2894726150
 23
-293.4350725310
 14
231.2894726150
 24
-239.4350725310
 50
90.000000
  0
DIMENSION
  8
3
  6
CONTINUOUS
 62
5
  2
*D28
 10
233.4894856150
 20
-233.7951225901
 11
212.9895311150
 21
-231.0451225901
  70
0
 13
192.4895766150
 23
-249.3321725310
 14
233.4894856150
 24
-247.4351731819
 50
0.000000
  0
DIMENSION
  8
3
  6
CONTINUOUS
 62
5
  2
*D29
 10
177.9895766150
 20
-233.1404292711
 11
170.4895766150
 21
-230.3904292711
  70
0
 13
162.9895766150
 23
-240.4350804373
 14
177.9895766150
 24
-240.4350725310
 50
0.000000
  0
TEXT
  8
3
  6
CONTINUOUS
 62
7
 10
169.089975
 20
-302.491794
 40
4.000000
  1
ﾌｰﾄﾞ参考図
 41
0.830565
 50
0.000000
 51
0.000000
 72
   5
 73
   0
 11
189.089975
 21
-302.491794
  0
TEXT
  8
3
  6
CONTINUOUS
 62
7
 10
169.089975
 20
-306.491794
 40
4.000000
  1
XM2S-25 1*(OMRON)
 41
0.757576
 50
0.000000
 51
0.000000
 72
   5
 73
   0
 11
203.089975
 21
-306.491794
  0
TEXT
  8
3
  6
CONTINUOUS
 62
7
 10
147.925831
 20
-212.955439
 40
4.500000
  1
注)左図の様にDL⇔DC⇔DRの横ﾋﾟｯﾁは１７mmです。
 41
0.825385
 50
0.000000
 51
0.000000
 72
   5
 73
   0
 11
249.175831
 21
-212.955439
  0
TEXT
  8
3
  6
CONTINUOUS
 62
7
 10
147.925831
 20
-217.455439
 40
4.500000
  1
　　接続するｹｰﾌﾞﾙ側のｺﾈｸﾀﾌｰﾄﾞ幅は１７mm未満として下さい。
 41
0.827286
 50
0.000000
 51
0.000000
 72
   5
 73
   0
 11
276.175831
 21
-217.455439
  0
TEXT
  8
3
  6
CONTINUOUS
 62
7
 10
147.925831
 20
-221.955439
 40
4.500000
  1
　　下記にﾌｰﾄﾞ参考図を記載します。
 41
0.847458
 50
0.000000
 51
0.000000
 72
   5
 73
   0
 11
224.425831
 21
-221.955439
  0
LINE
  8
3
  6
HIDDEN
 62
10
 10
170.1236156922
 20
-61.0661052835
 11
155.1236156922
 21
-61.0661052836
  0
LINE
  8
3
  6
HIDDEN
 62
10
 10
170.1236156922
 20
-130.0661052838
 11
155.1236156922
 21
-130.0661052838
  0
LINE
  8
3
  6
HIDDEN
 62
10
 10
171.1236156922
 20
-62.0661052835
 11
171.1236156922
 21
-129.0661052838
  0
LINE
  8
3
  6
HIDDEN
 62
10
 10
154.1236156922
 20
-62.0661052836
 11
154.1236156922
 21
-129.0661052838
  0
LINE
  8
3
  6
HIDDEN
 62
10
 10
155.1236156922
 20
-61.0661052836
 11
154.1236156922
 21
-62.0661052836
  0
LINE
  8
3
  6
HIDDEN
 62
10
 10
170.1236156922
 20
-61.0661052835
 11
171.1236156922
 21
-62.0661052835
  0
LINE
  8
3
  6
HIDDEN
 62
10
 10
171.1236156922
 20
-129.0661052838
 11
170.1236156922
 21
-130.0661052838
  0
LINE
  8
3
  6
HIDDEN
 62
10
 10
155.1236156922
 20
-130.0661052838
 11
154.1236156922
 21
-129.0661052838
  0
LINE
  8
3
  6
HIDDEN
 62
10
 10
207.1236156922
 20
-61.0661052835
 11
192.1236156922
 21
-61.0661052836
  0
LINE
  8
3
  6
HIDDEN
 62
10
 10
207.1236156922
 20
-130.0661052838
 11
192.1236156922
 21
-130.0661052838
  0
LINE
  8
3
  6
HIDDEN
 62
10
 10
208.1236156922
 20
-62.0661052835
 11
208.1236156922
 21
-129.0661052838
  0
LINE
  8
3
  6
HIDDEN
 62
10
 10
191.1236156922
 20
-62.0661052836
 11
191.1236156922
 21
-129.0661052838
  0
LINE
  8
3
  6
HIDDEN
 62
10
 10
192.1236156922
 20
-61.0661052836
 11
191.1236156922
 21
-62.0661052836
  0
LINE
  8
3
  6
HIDDEN
 62
10
 10
207.1236156922
 20
-61.0661052835
 11
208.1236156922
 21
-62.0661052835
  0
LINE
  8
3
  6
HIDDEN
 62
10
 10
208.1236156922
 20
-129.0661052838
 11
207.1236156922
 21
-130.0661052838
  0
LINE
  8
3
  6
HIDDEN
 62
10
 10
192.1236156922
 20
-130.0661052838
 11
191.1236156922
 21
-129.0661052838
  0
LINE
  8
3
  6
HIDDEN
 62
10
 10
244.1236156922
 20
-61.0661052835
 11
229.1236156922
 21
-61.0661052836
  0
LINE
  8
3
  6
HIDDEN
 62
10
 10
244.1236156922
 20
-130.0661052838
 11
229.1236156922
 21
-130.0661052838
  0
LINE
  8
3
  6
HIDDEN
 62
10
 10
245.1236156922
 20
-62.0661052835
 11
245.1236156922
 21
-129.0661052838
  0
LINE
  8
3
  6
HIDDEN
 62
10
 10
228.1236156922
 20
-62.0661052836
 11
228.1236156922
 21
-129.0661052838
  0
LINE
  8
3
  6
HIDDEN
 62
10
 10
229.1236156922
 20
-61.0661052836
 11
228.1236156922
 21
-62.0661052836
  0
LINE
  8
3
  6
HIDDEN
 62
10
 10
244.1236156922
 20
-61.0661052835
 11
245.1236156922
 21
-62.0661052835
  0
LINE
  8
3
  6
HIDDEN
 62
10
 10
245.1236156922
 20
-129.0661052838
 11
244.1236156922
 21
-130.0661052838
  0
LINE
  8
3
  6
HIDDEN
 62
10
 10
229.1236156922
 20
-130.0661052838
 11
228.1236156922
 21
-129.0661052838
  0
LINE
  8
3
  6
HIDDEN
 62
10
 10
281.1236156922
 20
-61.0661052835
 11
266.1236156922
 21
-61.0661052836
  0
LINE
  8
3
  6
HIDDEN
 62
10
 10
281.1236156922
 20
-130.0661052838
 11
266.1236156922
 21
-130.0661052838
  0
LINE
  8
3
  6
HIDDEN
 62
10
 10
282.1236156922
 20
-62.0661052835
 11
282.1236156922
 21
-129.0661052838
  0
LINE
  8
3
  6
HIDDEN
 62
10
 10
265.1236156922
 20
-62.0661052836
 11
265.1236156922
 21
-129.0661052838
  0
LINE
  8
3
  6
HIDDEN
 62
10
 10
266.1236156922
 20
-61.0661052836
 11
265.1236156922
 21
-62.0661052836
  0
LINE
  8
3
  6
HIDDEN
 62
10
 10
281.1236156922
 20
-61.0661052835
 11
282.1236156922
 21
-62.0661052835
  0
LINE
  8
3
  6
HIDDEN
 62
10
 10
282.1236156922
 20
-129.0661052838
 11
281.1236156922
 21
-130.0661052838
  0
LINE
  8
3
  6
HIDDEN
 62
10
 10
266.1236156922
 20
-130.0661052838
 11
265.1236156922
 21
-129.0661052838
  0
INSERT
  8
3
  6
CONTINUOUS
 62
7
  2
S3
 10
398.7772659420
 20
-56.1311427691
  0
INSERT
  8
3
  6
CONTINUOUS
 62
7
  2
S4
 10
398.7772659420
 20
-78.6311427691
  0
INSERT
  8
3
  6
CONTINUOUS
 62
7
  2
S5
 10
398.7772659420
 20
-101.1311427691
  0
INSERT
  8
3
  6
CONTINUOUS
 62
7
  2
S6
 10
398.7772659420
 20
-123.6311427691
  0
INSERT
  8
3
  6
CONTINUOUS
 62
7
  2
S7
 10
9.0000000000
 20
-58.7245888453
  0
TEXT
  8
3
  6
CONTINUOUS
 62
7
 10
13.900000
 20
-60.124589
 40
2.800000
  1
'09.12.8
 41
0.770713
 50
0.000000
 51
0.000000
 72
   5
 73
   0
 11
25.100000
 21
-60.124589
  0
TEXT
  8
3
  6
CONTINUOUS
 62
7
 10
26.850212
 20
-60.804256
 40
4.000000
  1
DSUBﾊﾟﾈﾙ(4種)変更A→B
 41
0.794251
 50
0.000000
 51
0.000000
 72
   5
 73
   0
 11
68.850212
 21
-60.804256
  0
TEXT
  8
3
  6
CONTINUOUS
 62
7
 10
90.500000
 20
-60.724589
 40
4.000000
  1
山田
 41
0.921659
 50
0.000000
 51
0.000000
 72
   5
 73
   0
 11
98.500000
 21
-60.724589
  0
POINT
  8
5
  6
CONTINUOUS
 62
6
 10
9.0000000000
 20
262.0000000000
  0
POINT
  8
5
  6
CONTINUOUS
 62
6
 10
9.0000000000
 20
262.0000000000
  0
POINT
  8
5
  6
CONTINUOUS
 62
6
 10
9.0000000000
 20
262.0000000000
  0
POINT
  8
5
  6
CONTINUOUS
 62
6
 10
8.9999999999
 20
262.0000000000
  0
LINE
  8
1
  6
CONTINUOUS
 62
7
 10
11.4999999999
 20
260.0000000000
 11
6.4999999999
 21
260.0000000000
  0
TEXT
  8
1
  6
CONTINUOUS
 62
7
 10
7.904400
 20
259.621673
 40
3.300000
  1
C
 41
1.328000
 50
0.000000
 51
0.000000
 72
   5
 73
   0
 11
10.095600
 21
259.621673
  0
LINE
  8
1
  6
CONTINUOUS
 62
7
 10
8.9999999999
 20
264.0000000000
 11
6.4999999999
 21
260.0000000000
  0
LINE
  8
1
  6
CONTINUOUS
 62
7
 10
8.9999999999
 20
264.0000000000
 11
11.4999999999
 21
260.0000000000
  0
POINT
  8
1
  6
CONTINUOUS
 62
7
 10
8.9999999999
 20
262.0000000000
  0
TEXT
  8
1
  6
CONTINUOUS
 62
7
 10
14.836500
 20
260.500000
 40
3.000000
  1
'22.3.23
 41
0.599037
 50
0.000000
 51
0.000000
 72
   5
 73
   0
 11
24.163500
 21
260.500000
  0
TEXT
  8
1
  6
CONTINUOUS
 62
7
 10
28.160983
 20
260.056979
 40
4.000000
  1
PB追加に伴う変更
 41
0.854701
 50
0.000000
 51
0.000000
 72
   5
 73
   0
 11
60.160983
 21
260.056979
  0
TEXT
  8
1
  6
CONTINUOUS
 62
7
 10
91.000000
 20
260.250000
 40
3.500000
  1
山田
 41
0.921659
 50
0.000000
 51
0.000000
 72
   5
 73
   0
 11
98.000000
 21
260.250000
  0
POINT
  8
5
  6
CONTINUOUS
 62
6
 10
9.0000000000
 20
-53.7245888453
  0
POINT
  8
5
  6
CONTINUOUS
 62
6
 10
9.0000000000
 20
-53.7245888453
  0
POINT
  8
5
  6
CONTINUOUS
 62
6
 10
9.0000000000
 20
-53.7245888453
  0
POINT
  8
5
  6
CONTINUOUS
 62
6
 10
9.0000000000
 20
-53.7245888453
  0
LINE
  8
1
  6
CONTINUOUS
 62
7
 10
11.5000000000
 20
-55.7245888453
 11
6.5000000000
 21
-55.7245888453
  0
TEXT
  8
1
  6
CONTINUOUS
 62
7
 10
7.904400
 20
-56.102916
 40
3.300000
  1
C
 41
1.328000
 50
0.000000
 51
0.000000
 72
   5
 73
   0
 11
10.095600
 21
-56.102916
  0
LINE
  8
1
  6
CONTINUOUS
 62
7
 10
9.0000000000
 20
-51.7245888453
 11
6.5000000000
 21
-55.7245888453
  0
LINE
  8
1
  6
CONTINUOUS
 62
7
 10
9.0000000000
 20
-51.7245888453
 11
11.5000000000
 21
-55.7245888453
  0
POINT
  8
1
  6
CONTINUOUS
 62
7
 10
9.0000000000
 20
-53.7245888453
  0
TEXT
  8
1
  6
CONTINUOUS
 62
7
 10
14.836500
 20
-55.224589
 40
3.000000
  1
'22.3.23
 41
0.599037
 50
0.000000
 51
0.000000
 72
   5
 73
   0
 11
24.163500
 21
-55.224589
  0
TEXT
  8
1
  6
CONTINUOUS
 62
7
 10
28.160983
 20
-55.667610
 40
4.000000
  1
PB追加に伴う変更
 41
0.854701
 50
0.000000
 51
0.000000
 72
   5
 73
   0
 11
60.160983
 21
-55.667610
  0
TEXT
  8
1
  6
CONTINUOUS
 62
7
 10
91.000000
 20
-55.474589
 40
3.500000
  1
山田
 41
0.921659
 50
0.000000
 51
0.000000
 72
   5
 73
   0
 11
98.000000
 21
-55.474589
  0
TEXT
  8
1
  6
CONTINUOUS
 62
7
 10
209.116671
 20
245.429757
 40
3.500000
  1
①ﾍﾞｰｽ,②ｶﾊﾞｰ材質
 41
0.806452
 50
0.000000
 51
0.000000
 72
   5
 73
   0
 11
238.866671
 21
245.429757
  0
TEXT
  8
1
  6
CONTINUOUS
 62
7
 10
209.116671
 20
241.929757
 40
3.500000
  1
無印:ｱﾙﾐﾀﾞｲｷｬｽﾄ
 41
0.786164
 50
0.000000
 51
0.000000
 72
   5
 73
   0
 11
235.366671
 21
241.929757
  0
TEXT
  8
1
  6
CONTINUOUS
 62
7
 10
209.116671
 20
238.429757
 40
3.500000
  1
PB:PBT(UL:V-0)
 41
0.760043
 50
0.000000
 51
0.000000
 72
   5
 73
   0
 11
233.616671
 21
238.429757
  0
POINT
  8
5
  6
CONTINUOUS
 62
6
 10
203.3593508018
 20
247.9505392833
  0
POINT
  8
5
  6
CONTINUOUS
 62
6
 10
203.3593508018
 20
247.9505392833
  0
POINT
  8
1
  6
CONTINUOUS
 62
6
 10
203.3593508018
 20
247.9505392833
  0
POINT
  8
5
  6
CONTINUOUS
 62
6
 10
203.3593508018
 20
247.9505392833
  0
INSERT
  8
1
  6
CONTINUOUS
 62
7
  2
S8
 10
203.3593508018
 20
247.9505392833
  0
LINE
  8
1
  6
CONTINUOUS
 62
7
 10
224.1867065493
 20
254.8849500334
 11
211.0584987348
 21
254.8849500334
  0
LINE
  8
1
  6
CONTINUOUS
 62
7
 10
211.0584987348
 20
254.8849500334
 11
211.0584987348
 21
250.1949452062
  0
LINE
  8
1
  6
CONTINUOUS
 62
7
 10
224.1867065493
 20
264.9349603776
 11
224.1867065493
 21
254.8849500334
  0
TEXT
  8
3
  6
CONTINUOUS
 62
7
 10
9.868673
 20
-80.565205
 40
5.000000
  1
型番仕様
 41
0.886918
 50
0.000000
 51
0.000000
 72
   5
 73
   0
 11
29.868673
 21
-80.565205
  0
TEXT
  8
3
  6
CONTINUOUS
 62
7
 10
9.868673
 20
-86.565205
 40
5.000000
  1
MCON-001-064 %%uPB%%u %%uDL**DC**DR**
 41
0.753093
 50
0.000000
 51
0.000000
 72
   5
 73
   0
 11
79.868673
 21
-86.565205
  0
LINE
  8
3
  6
CONTINUOUS
 62
7
 10
64.9301730875
 20
-96.5568590391
 11
59.9301730875
 21
-96.5568590391
  0
LINE
  8
3
  6
CONTINUOUS
 62
7
 10
59.9301730876
 20
-96.5568590391
 11
59.9301730876
 21
-86.5568590392
  0
TEXT
  8
1
  6
CONTINUOUS
 62
7
 10
30.527741
 20
-106.154118
 40
3.500000
  1
①ﾍﾞｰｽ,②ｶﾊﾞｰ材質
 41
0.806452
 50
0.000000
 51
0.000000
 72
   5
 73
   0
 11
60.277741
 21
-106.154118
  0
TEXT
  8
1
  6
CONTINUOUS
 62
7
 10
30.527741
 20
-109.654118
 40
3.500000
  1
無印:ｱﾙﾐﾀﾞｲｷｬｽﾄ
 41
0.786164
 50
0.000000
 51
0.000000
 72
   5
 73
   0
 11
56.777741
 21
-109.654118
  0
TEXT
  8
1
  6
CONTINUOUS
 62
7
 10
30.527741
 20
-113.154118
 40
3.500000
  1
PB:PBT(UL:V-0)
 41
0.760043
 50
0.000000
 51
0.000000
 72
   5
 73
   0
 11
55.027741
 21
-113.154118
  0
POINT
  8
5
  6
CONTINUOUS
 62
6
 10
24.7704201752
 20
-103.6333359421
  0
POINT
  8
5
  6
CONTINUOUS
 62
6
 10
24.7704201752
 20
-103.6333359421
  0
POINT
  8
1
  6
CONTINUOUS
 62
6
 10
24.7704201752
 20
-103.6333359421
  0
POINT
  8
5
  6
CONTINUOUS
 62
6
 10
24.7704201752
 20
-103.6333359421
  0
INSERT
  8
1
  6
CONTINUOUS
 62
7
  2
S9
 10
24.7704201752
 20
-103.6333359421
  0
LINE
  8
1
  6
CONTINUOUS
 62
7
 10
45.5977759227
 20
-96.6989251919
 11
32.4695681082
 21
-96.6989251919
  0
LINE
  8
1
  6
CONTINUOUS
 62
7
 10
32.4695681082
 20
-96.6989251919
 11
32.4695681082
 21
-101.3889300192
  0
LINE
  8
1
  6
CONTINUOUS
 62
7
 10
45.5977759227
 20
-86.6489148478
 11
45.5977759227
 21
-96.6989251919
  0
TEXT
  8
3
  6
CONTINUOUS
 62
7
 10
65.835068
 20
-98.189657
 40
3.500000
  1
⑨ DL00:DSUB無し(ﾌﾞﾗﾝｸﾊﾟﾈﾙ)
 41
0.775416
 50
0.000000
 51
0.000000
 72
   5
 73
   0
 11
113.085068
 21
-98.189657
  0
TEXT
  8
3
  6
CONTINUOUS
 62
7
 10
65.835068
 20
-102.689657
 40
3.500000
  1
　 DL09:DSUB 9P
 41
0.772400
 50
0.000000
 51
0.000000
 72
   5
 73
   0
 11
92.085068
 21
-102.689657
  0
TEXT
  8
3
  6
CONTINUOUS
 62
7
 10
65.835068
 20
-107.189657
 40
3.500000
  1
　 DL15:DSUB15P
 41
0.772400
 50
0.000000
 51
0.000000
 72
   5
 73
   0
 11
92.085068
 21
-107.189657
  0
TEXT
  8
3
  6
CONTINUOUS
 62
7
 10
65.835068
 20
-111.689657
 40
3.500000
  1
　 DL25:DSUB25P
 41
0.772400
 50
0.000000
 51
0.000000
 72
   5
 73
   0
 11
92.085068
 21
-111.689657
  0
TEXT
  8
3
  6
CONTINUOUS
 62
7
 10
65.835068
 20
-120.689657
 40
3.500000
  1
　 DC00:DSUB無し(ﾌﾞﾗﾝｸﾊﾟﾈﾙ)
 41
0.775416
 50
0.000000
 51
0.000000
 72
   5
 73
   0
 11
113.085068
 21
-120.689657
  0
TEXT
  8
3
  6
CONTINUOUS
 62
7
 10
65.835068
 20
-125.189657
 40
3.500000
  1
　 DC09:DSUB 9P
 41
0.772400
 50
0.000000
 51
0.000000
 72
   5
 73
   0
 11
92.085068
 21
-125.189657
  0
TEXT
  8
3
  6
CONTINUOUS
 62
7
 10
65.835068
 20
-129.689657
 40
3.500000
  1
　 DC15:DSUB15P
 41
0.772400
 50
0.000000
 51
0.000000
 72
   5
 73
   0
 11
92.085068
 21
-129.689657
  0
TEXT
  8
3
  6
CONTINUOUS
 62
7
 10
65.835068
 20
-134.189657
 40
3.500000
  1
　 DC25:DSUB25P
 41
0.772400
 50
0.000000
 51
0.000000
 72
   5
 73
   0
 11
92.085068
 21
-134.189657
  0
TEXT
  8
3
  6
CONTINUOUS
 62
7
 10
65.835068
 20
-143.189657
 40
3.500000
  1
　 DR00:DSUB無し(ﾌﾞﾗﾝｸﾊﾟﾈﾙ)
 41
0.775416
 50
0.000000
 51
0.000000
 72
   5
 73
   0
 11
113.085068
 21
-143.189657
  0
TEXT
  8
3
  6
CONTINUOUS
 62
7
 10
65.835068
 20
-147.689657
 40
3.500000
  1
　 DR09:DSUB 9P
 41
0.772400
 50
0.000000
 51
0.000000
 72
   5
 73
   0
 11
92.085068
 21
-147.689657
  0
TEXT
  8
3
  6
CONTINUOUS
 62
7
 10
65.835068
 20
-152.189657
 40
3.500000
  1
　 DR15:DSUB15P
 41
0.772400
 50
0.000000
 51
0.000000
 72
   5
 73
   0
 11
92.085068
 21
-152.189657
  0
TEXT
  8
3
  6
CONTINUOUS
 62
7
 10
65.835068
 20
-156.689657
 40
3.500000
  1
　 DR25:DSUB25P
 41
0.772400
 50
0.000000
 51
0.000000
 72
   5
 73
   0
 11
92.085068
 21
-156.689657
  0
CIRCLE
  8
1
  6
HIDDEN
 62
6
 10
193.9105182328
 20
91.3525214537
 40
2.0000000000
  0
CIRCLE
  8
1
  6
HIDDEN
 62
6
 10
193.9105182328
 20
91.3525214537
 40
4.0000000000
  0
INSERT
  8
1
  6
CONTINUOUS
 62
7
  2
S10
 10
183.4105174579
 20
91.3525214537
  0
INSERT
  8
1
  6
CONTINUOUS
 62
5
  2
LTEX4
 10
197.9105182328
 20
91.3525214537
  0
INSERT
  8
1
  6
CONTINUOUS
 62
7
  2
S11
 10
233.9316052311
 20
82.0992534633
  0
INSERT
  8
1
  6
CONTINUOUS
 62
5
  2
LTEX5
 10
54.2456447311
 20
-286.0900865140
  0
INSERT
  8
1
  6
CONTINUOUS
 62
7
  2
S12
 10
90.2667317295
 20
-295.3433545044
  0
CIRCLE
  8
1
  6
HIDDEN
 62
6
 10
50.2456447311
 20
-286.0900865140
 40
2.0000000000
  0
CIRCLE
  8
1
  6
HIDDEN
 62
6
 10
50.2456447311
 20
-286.0900865140
 40
4.0000000000
  0
INSERT
  8
1
  6
CONTINUOUS
 62
7
  2
S13
 10
39.7456439562
 20
-286.0900865140
  0
INSERT
  8
3
  6
CONTINUOUS
 62
5
  2
LTEX6
 10
134.5962334454
 20
86.7605564293
  0
POINT
  8
5
  6
CONTINUOUS
 62
6
 10
137.2868002249
 20
38.5097255163
  0
POINT
  8
5
  6
CONTINUOUS
 62
6
 10
137.2868002249
 20
38.5097255163
  0
POINT
  8
1
  6
CONTINUOUS
 62
6
 10
137.2868002249
 20
38.5097255163
  0
POINT
  8
5
  6
CONTINUOUS
 62
6
 10
137.2868002249
 20
38.5097255163
  0
INSERT
  8
1
  6
CONTINUOUS
 62
7
  2
S14
 10
137.2868002249
 20
38.5097255163
  0
INSERT
  8
3
  6
CONTINUOUS
 62
5
  2
LTEX7
 10
88.2645106558
 20
17.3439335173
  0
INSERT
  8
3
  6
CONTINUOUS
 62
5
  2
LTEX8
 10
39.2645106558
 20
18.7789024664
  0
TEXT
  8
5
  6
CONTINUOUS
 62
7
 10
338.753123
 20
268.474804
 40
3.000000
  1
ｱﾙﾐﾀﾞｲｷｬｽﾄ銀色塗装
 41
0.833541
 50
0.000000
 51
0.000000
 72
   5
 73
   0
 11
366.785123
 21
268.474804
  0
TEXT
  8
5
  6
CONTINUOUS
 62
7
 10
338.753123
 20
265.474804
 40
3.000000
  1
又は
 41
0.921659
 50
0.000000
 51
0.000000
 72
   5
 73
   0
 11
344.753123
 21
265.474804
  0
TEXT
  8
5
  6
CONTINUOUS
 62
7
 10
338.753123
 20
262.474804
 40
3.000000
  1
PBT 黒色(UL  V-0)
 41
0.751838
 50
0.000000
 51
0.000000
 72
   5
 73
   0
 11
363.293123
 21
262.474804
  0
POINT
  8
5
  6
CONTINUOUS
 62
6
 10
309.3313851285
 20
266.8545250502
  0
POINT
  8
5
  6
CONTINUOUS
 62
6
 10
309.3313851285
 20
266.8545250502
  0
POINT
  8
1
  6
CONTINUOUS
 62
6
 10
309.3313851285
 20
266.8545250502
  0
POINT
  8
5
  6
CONTINUOUS
 62
6
 10
309.3313851285
 20
266.8545250502
  0
INSERT
  8
1
  6
CONTINUOUS
 62
7
  2
S15
 10
309.3313851285
 20
266.8545250502
  0
POINT
  8
5
  6
CONTINUOUS
 62
6
 10
309.5748265259
 20
234.4474089991
  0
POINT
  8
5
  6
CONTINUOUS
 62
6
 10
309.5748265259
 20
234.4474089991
  0
POINT
  8
1
  6
CONTINUOUS
 62
6
 10
309.5748265259
 20
234.4474089991
  0
POINT
  8
5
  6
CONTINUOUS
 62
6
 10
309.5748265258
 20
234.4474089991
  0
INSERT
  8
1
  6
CONTINUOUS
 62
7
  2
S16
 10
309.5748265258
 20
234.4474089991
  0
ENDSEC
  0
EOF
