  0
SECTION
  2
HEADER
  9
$ACADVER
  1
AC1009
  9
$DWGCODEPAGE
  3
dos932
  9
$INSBASE
 10
202.2490435001
 20
-18.2327615310
  9
$EXTMIN
 10
-352.9170159495
 20
-371.8059262898
  9
$EXTMAX
 10
933.0083157526
 20
335.3404032277
  9
$LIMMIN
 10
-352.9170159495
 20
-371.8059262898
  9
$LIMMAX
 10
933.0083157526
 20
335.3404032277
  9
$VIEWCTR
 10
0.0000000000
 20
0.0000000000
  9
$VIEWSIZE
 40
0.0000000000
  9
$SNAPMODE
 70
     0
  9
$SNAPUNIT
 10
20.0
 20
20.0
  9
$SNAPBASE
 10
0.000000
 20
0.000000
  9
$SNAPANG
 50
0.0
  9
$SNAPSTYLE
 70
     0
  9
$SNAPISOPAIR
 70
     0
  9
$GRIDMODE
 70
     0
  9
$GRIDUNIT
 10
10.000000
 20
10.000000
  9
$ORTHOMODE
 70
     0
  9
$REGENMODE
 70
     0
  9
$FILLMODE
 70
     1
  9
$QTEXTMODE
 70
     0
  9
$DRAGMODE
 70
     1
  9
$LTSCALE
 40
1.0
  9
$OSMODE
 70
     0
  9
$ATTMODE
 70
     1
  9
$TEXTSIZE
 40
4.000000
  9
$TRACEWID
 40
0.05
  9
$TEXTSTYLE
  7
STANDARD
  9
$CLAYER
  8
1
  9
$CELTYPE
  6
CONTINUOUS
  9
$CECOLOR
  62
7
  9
$DIMSCALE
 40
1.0000000000
  9
$DIMASZ
 40
2.0000000000
  9
$DIMEXO
 40
0.5000000000
  9
$DIMDLI
 40
7.000000
  9
$DIMRND
 40
0.0
  9
$DIMDLE
 40
0.0
  9
$DIMEXE
 40
1.0000000000
  9
$DIMTP
 40
0.0
  9
$DIMTM
 40
0.0
  9
$DIMTXT
 40
3.500000
  9
$DIMCEN
 40
0.09
  9
$DIMTSZ
 40
0.0
  9
$DIMTOL
 70
     0
  9
$DIMLIM
 70
     0
  9
$DIMTIH
 70
     0
  9
$DIMTOH
 70
     0
  9
$DIMSE1
 70
     0
  9
$DIMSE2
 70
     0
  9
$DIMTAD
 70
     1
  9
$DIMZIN
 70
     0
  9
$DIMBLK
  1

  9
$DIMASO
 70
     1
  9
$DIMSHO
 70
     0
  9
$DIMPOST
  1

  9
$DIMAPOST
  1

  9
$DIMALT
 70
     0
  9
$DIMALTD
 70
     3
  9
$DIMCLRD
 70
     5
  9
$DIMCLRE
 70
     5
  9
$DIMCLRT
 70
     7
  9
$DIMALTF
 40
25.4
  9
$DIMLFAC
 40
1.0
  9
$DIMTOFL
 70
     0
  9
$DIMTVP
 40
0.0
  9
$DIMTIX
 70
     0
  9
$DIMSOXD
 70
     0
  9
$DIMSAH
 70
     0
  9
$LUNITS
 70
     2
  9
$LUPREC
 70
     4
  9
$AXISMODE
 70
     0
  9
$AXISUNIT
 10
0.0
 20
0.0
  9
$SKETCHINC
 40
0.1
  9
$FILLETRAD
 40
0.0
  9
$AUNITS
 70
     0
  9
$AUPREC
 70
     0
  9
$MENU
  1
ACAD
  9
$ELEVATION
 40
0.0
  9
$THICKNESS
 40
0.0
  9
$VIEWDIR
 10
0.0
 20
0.0
 30
1.0
  9
$LIMCHECK
 70
     0
  9
$BLIPMODE
 70
     1
  9
$CHAMFERA
 40
0.0
  9
$CHAMFERB
 40
0.0
  9
$FASTZOOM
 70
     1
  9
$SKPOLY
 70
     0
  9
$TDCREATE
 40
2460019.0000000051
  9
$TDUPDATE
 40
2460019.0000000051
  9
$TDINDWG
 40
0.0000000000
  9
$TDUSRTIMER
 40
0.0000000000
  9
$USRTIMER
 70
     1
  9
$ANGBASE
 50
0.0
  9
$ANGDIR
 70
     0
  9
$PDMODE
 70
     65
  9
$PDSIZE
 40
0.2
  9
$PLINEWID
 40
0.0
  9
$COORDS
 70
     2
  9
$USERI1
 70
     0
  9
$USERI2
 70
     0
  9
$USERI3
 70
     0
  9
$USERI4
 70
     0
  9
$USERI5
 70
     0
  9
$USERR1
 40
0.0
  9
$USERR2
 40
0.0
  9
$USERR3
 40
0.0
  9
$USERR4
 40
0.0
  9
$USERR5
 40
0.0
  0
ENDSEC
  0
SECTION
  2
TABLES
  0
TABLE
  2
LTYPE
 70
     9
  0
LTYPE
  2
CONTINUOUS
 70
    64
  3
Solid line
 72
    65
 73
     0
 40
0.0
  0
LTYPE
  2
DASHED
 70
    64
  3
__ __ __ __ __ __ __ __ __ __ __ __ __ __ __
 72
    65
 73
     2
 40
3.0
 49
2.0
 49
-1.0
  0
LTYPE
  2
HIDDEN
 70
    64
  3
_ _ _ _ _ _ _ _ _ _ _ _ _ _ _ _ _ _ _ _ _ _ _
 72
    65
 73
     2
 40
1.5
 49
1.0
 49
-0.5
  0
LTYPE
  2
CENTER
 70
    64
  3
____ _ ____ _ ____ _ ____ _ ____ _ ____ _ ____
 72
    65
 73
     4
 40
24.0
 49
20.0
 49
-1.0
 49
2.0
 49
-1.0
  0
LTYPE
  2
PHANTOM
 70
    64
  3
_____ _ _ _____ _ _ _____ _ _ _____ _ _ ____
 72
    65
 73
     6
 40
27.0
 49
20.0
 49
-1.0
 49
2.0
 49
-1.0
 49
2.0
 49
-1.0
  0
LTYPE
  2
DOT
 70
    64
  3
...............................................
 72
    65
 73
     2
 40
1.5
 49
0.5
 49
-1.0
  0
LTYPE
  2
DASHDOT
 70
    64
  3
__ . __ . __ . __ . __ . __ . __ . __ . __ . __
 72
    65
 73
     4
 40
8.5
 49
6.0
 49
-1.0
 49
0.5
 49
-1.0
  0
LTYPE
  2
DIVIDE
 70
    64
  3
__ . . __ . . __ . . __ . . __ . . __ . . __
 72
    65
 73
     6
 40
10.0
 49
6.0
 49
-1.0
 49
0.5
 49
-1.0
 49
0.5
 49
-1.0
  0
LTYPE
  2
BORDER
 70
    64
  3
__ __ . __ __ . __ __ . __ __ . __ __ . __ __
 72
    65
 73
     6
 40
15.5
 49
6.0
 49
-1.0
 49
6.0
 49
-1.0
 49
0.5
 49
-1.0
  0
ENDTAB
  0
TABLE
  2
LAYER
 70
  8
  0
LAYER
  2
0
 70
    64
 62
     7
  6
CONTINUOUS
  0
LAYER
  2
1
 70
    64
 62
     7
  6
CONTINUOUS
  0
LAYER
  2
2
 70
    64
 62
     7
  6
CONTINUOUS
  0
LAYER
  2
3
 70
    64
 62
     7
  6
CONTINUOUS
  0
LAYER
  2
4
 70
    64
 62
     7
  6
CONTINUOUS
  0
LAYER
  2
5
 70
    64
 62
     7
  6
CONTINUOUS
  0
LAYER
  2
7
 70
    64
 62
     7
  6
CONTINUOUS
  0
LAYER
  2
DEFPOINTS
 70
     0
 62
    -7
  6
CONTINUOUS
  0
ENDTAB
  0
TABLE
  2
STYLE
 70
     1
  0
STYLE
  2
STANDARD
 70
    64
 40
0.0
 41
1.0
 71
     0
 42
4.000000
  3
TXT
  4
EXTFONT
 50
0.0
  0
ENDTAB
  0
TABLE
  2
VIEW
 70
     0
  0
ENDTAB
  0
ENDSEC
  0
SECTION
  2
BLOCKS
  0
BLOCK
  8
0
  2
CI
 70
   0
 10
0.0
 20
0.0
  0
CIRCLE
  8
0
  62
0
 10
0.0
 20
0.0
 40
0.1666666666
  0
ENDBLK
  8
0
  0
BLOCK
  8
5
  2
S0
 70
     0
 10
0.0000000000
 20
0.0000000000
  3
S0
  0
POINT
  8
5
  6
CONTINUOUS
 62
6
 10
-6.5000000000
 20
-6.5000000000
  0
LINE
  8
5
  6
CONTINUOUS
 62
6
 10
4.5000000000
 20
4.5000000000
 11
402.5000000000
 21
4.5000000000
  0
LINE
  8
5
  6
CONTINUOUS
 62
6
 10
4.5000000000
 20
4.5000000000
 11
4.5000000000
 21
279.5000000000
  0
LINE
  8
5
  6
CONTINUOUS
 62
6
 10
44.5000000000
 20
284.0000000000
 11
44.5000000000
 21
279.5000000000
  0
LINE
  8
5
  6
CONTINUOUS
 62
6
 10
44.5000000000
 20
4.5000000000
 11
44.5000000000
 21
0.0000000000
  0
LINE
  8
5
  6
CONTINUOUS
 62
6
 10
84.5000000000
 20
284.0000000000
 11
84.5000000000
 21
279.5000000000
  0
LINE
  8
5
  6
CONTINUOUS
 62
6
 10
124.5000000000
 20
284.0000000000
 11
124.5000000000
 21
279.5000000000
  0
LINE
  8
5
  6
CONTINUOUS
 62
6
 10
164.5000000000
 20
284.0000000000
 11
164.5000000000
 21
279.5000000000
  0
LINE
  8
5
  6
CONTINUOUS
 62
6
 10
204.5000000000
 20
284.0000000000
 11
204.5000000000
 21
279.5000000000
  0
LINE
  8
5
  6
CONTINUOUS
 62
6
 10
244.5000000000
 20
284.0000000000
 11
244.5000000000
 21
279.5000000000
  0
LINE
  8
5
  6
CONTINUOUS
 62
6
 10
84.5000000000
 20
4.5000000000
 11
84.5000000000
 21
0.0000000000
  0
LINE
  8
5
  6
CONTINUOUS
 62
6
 10
124.5000000000
 20
4.5000000000
 11
124.5000000000
 21
0.0000000000
  0
LINE
  8
5
  6
CONTINUOUS
 62
6
 10
164.5000000000
 20
4.5000000000
 11
164.5000000000
 21
0.0000000000
  0
LINE
  8
5
  6
CONTINUOUS
 62
6
 10
204.5000000000
 20
4.5000000000
 11
204.5000000000
 21
0.0000000000
  0
LINE
  8
5
  6
CONTINUOUS
 62
6
 10
244.5000000000
 20
4.5000000000
 11
244.5000000000
 21
0.0000000000
  0
LINE
  8
5
  6
CONTINUOUS
 62
6
 10
0.0000000000
 20
239.5000000000
 11
4.5000000000
 21
239.5000000000
  0
LINE
  8
5
  6
CONTINUOUS
 62
6
 10
402.5000000000
 20
239.5000000000
 11
407.0000000000
 21
239.5000000000
  0
LINE
  8
5
  6
CONTINUOUS
 62
6
 10
0.0000000000
 20
199.5000000000
 11
4.5000000000
 21
199.5000000000
  0
LINE
  8
5
  6
CONTINUOUS
 62
6
 10
0.0000000000
 20
159.5000000000
 11
4.5000000000
 21
159.5000000000
  0
LINE
  8
5
  6
CONTINUOUS
 62
6
 10
0.0000000000
 20
119.5000000000
 11
4.5000000000
 21
119.5000000000
  0
LINE
  8
5
  6
CONTINUOUS
 62
6
 10
402.5000000000
 20
199.5000000000
 11
407.0000000000
 21
199.5000000000
  0
LINE
  8
5
  6
CONTINUOUS
 62
6
 10
402.5000000000
 20
159.5000000000
 11
407.0000000000
 21
159.5000000000
  0
LINE
  8
5
  6
CONTINUOUS
 62
6
 10
402.5000000000
 20
119.5000000000
 11
407.0000000000
 21
119.5000000000
  0
TEXT
  8
5
  6
CONTINUOUS
 62
6
 10
23.500000
 20
279.500000
 40
4.000000
  1
1
 41
1.000000
 50
0.000000
 51
0.000000
 72
   5
 73
   0
 11
25.500000
 21
279.500000
  0
TEXT
  8
5
  6
CONTINUOUS
 62
6
 10
23.500000
 20
0.500000
 40
4.000000
  1
1
 41
1.000000
 50
0.000000
 51
0.000000
 72
   5
 73
   0
 11
25.500000
 21
0.500000
  0
TEXT
  8
5
  6
CONTINUOUS
 62
6
 10
63.500000
 20
279.500000
 40
4.000000
  1
2
 41
1.000000
 50
0.000000
 51
0.000000
 72
   5
 73
   0
 11
65.500000
 21
279.500000
  0
TEXT
  8
5
  6
CONTINUOUS
 62
6
 10
103.500000
 20
279.500000
 40
4.000000
  1
3
 41
1.000000
 50
0.000000
 51
0.000000
 72
   5
 73
   0
 11
105.500000
 21
279.500000
  0
TEXT
  8
5
  6
CONTINUOUS
 62
6
 10
143.500000
 20
279.500000
 40
4.000000
  1
4
 41
1.000000
 50
0.000000
 51
0.000000
 72
   5
 73
   0
 11
145.500000
 21
279.500000
  0
TEXT
  8
5
  6
CONTINUOUS
 62
6
 10
183.500000
 20
279.500000
 40
4.000000
  1
5
 41
1.000000
 50
0.000000
 51
0.000000
 72
   5
 73
   0
 11
185.500000
 21
279.500000
  0
TEXT
  8
5
  6
CONTINUOUS
 62
6
 10
223.500000
 20
279.500000
 40
4.000000
  1
6
 41
1.000000
 50
0.000000
 51
0.000000
 72
   5
 73
   0
 11
225.500000
 21
279.500000
  0
TEXT
  8
5
  6
CONTINUOUS
 62
6
 10
263.500000
 20
279.500000
 40
4.000000
  1
7
 41
1.000000
 50
0.000000
 51
0.000000
 72
   5
 73
   0
 11
265.500000
 21
279.500000
  0
TEXT
  8
5
  6
CONTINUOUS
 62
6
 10
63.500000
 20
0.500000
 40
4.000000
  1
2
 41
1.000000
 50
0.000000
 51
0.000000
 72
   5
 73
   0
 11
65.500000
 21
0.500000
  0
TEXT
  8
5
  6
CONTINUOUS
 62
6
 10
103.500000
 20
0.500000
 40
4.000000
  1
3
 41
1.000000
 50
0.000000
 51
0.000000
 72
   5
 73
   0
 11
105.500000
 21
0.500000
  0
TEXT
  8
5
  6
CONTINUOUS
 62
6
 10
143.500000
 20
0.500000
 40
4.000000
  1
4
 41
1.000000
 50
0.000000
 51
0.000000
 72
   5
 73
   0
 11
145.500000
 21
0.500000
  0
TEXT
  8
5
  6
CONTINUOUS
 62
6
 10
183.500000
 20
0.500000
 40
4.000000
  1
5
 41
1.000000
 50
0.000000
 51
0.000000
 72
   5
 73
   0
 11
185.500000
 21
0.500000
  0
TEXT
  8
5
  6
CONTINUOUS
 62
6
 10
223.500000
 20
0.500000
 40
4.000000
  1
6
 41
1.000000
 50
0.000000
 51
0.000000
 72
   5
 73
   0
 11
225.500000
 21
0.500000
  0
TEXT
  8
5
  6
CONTINUOUS
 62
6
 10
263.500000
 20
0.500000
 40
4.000000
  1
7
 41
1.000000
 50
0.000000
 51
0.000000
 72
   5
 73
   0
 11
265.500000
 21
0.500000
  0
TEXT
  8
5
  6
CONTINUOUS
 62
6
 10
1.626773
 20
257.454143
 40
4.000000
  1
A
 41
1.266000
 50
0.000000
 51
0.000000
 72
   5
 73
   0
 11
4.158773
 21
257.454143
  0
TEXT
  8
5
  6
CONTINUOUS
 62
6
 10
402.786513
 20
257.492354
 40
4.000000
  1
A
 41
1.266000
 50
0.000000
 51
0.000000
 72
   5
 73
   0
 11
405.318513
 21
257.492354
  0
TEXT
  8
5
  6
CONTINUOUS
 62
6
 10
1.610773
 20
217.454143
 40
4.000000
  1
B
 41
1.274000
 50
0.000000
 51
0.000000
 72
   5
 73
   0
 11
4.158773
 21
217.454143
  0
TEXT
  8
5
  6
CONTINUOUS
 62
6
 10
1.502773
 20
177.454143
 40
4.000000
  1
C
 41
1.328000
 50
0.000000
 51
0.000000
 72
   5
 73
   0
 11
4.158773
 21
177.454143
  0
TEXT
  8
5
  6
CONTINUOUS
 62
6
 10
1.566773
 20
137.454143
 40
4.000000
  1
D
 41
1.296000
 50
0.000000
 51
0.000000
 72
   5
 73
   0
 11
4.158773
 21
137.454143
  0
TEXT
  8
5
  6
CONTINUOUS
 62
6
 10
1.894773
 20
97.454143
 40
4.000000
  1
E
 41
1.132000
 50
0.000000
 51
0.000000
 72
   5
 73
   0
 11
4.158773
 21
97.454143
  0
TEXT
  8
5
  6
CONTINUOUS
 62
6
 10
402.786513
 20
217.492354
 40
4.000000
  1
B
 41
1.274000
 50
0.000000
 51
0.000000
 72
   5
 73
   0
 11
405.334513
 21
217.492354
  0
TEXT
  8
5
  6
CONTINUOUS
 62
6
 10
402.786513
 20
177.492354
 40
4.000000
  1
C
 41
1.328000
 50
0.000000
 51
0.000000
 72
   5
 73
   0
 11
405.442513
 21
177.492354
  0
TEXT
  8
5
  6
CONTINUOUS
 62
6
 10
402.786513
 20
137.492354
 40
4.000000
  1
D
 41
1.296000
 50
0.000000
 51
0.000000
 72
   5
 73
   0
 11
405.378513
 21
137.492354
  0
TEXT
  8
5
  6
CONTINUOUS
 62
6
 10
402.786513
 20
97.492354
 40
4.000000
  1
E
 41
1.132000
 50
0.000000
 51
0.000000
 72
   5
 73
   0
 11
405.050513
 21
97.492354
  0
LINE
  8
5
  6
CONTINUOUS
 62
6
 10
347.5000000000
 20
29.5000000000
 11
347.5000000000
 21
4.5000000000
  0
LINE
  8
5
  6
CONTINUOUS
 62
6
 10
347.5000000000
 20
14.5000000000
 11
402.5000000000
 21
14.5000000000
  0
LINE
  8
5
  6
CONTINUOUS
 62
6
 10
347.5000000000
 20
7.5000000000
 11
281.5000000000
 21
7.5000000000
  0
LINE
  8
5
  6
CONTINUOUS
 62
6
 10
303.5000000000
 20
4.5000000000
 11
303.5000000000
 21
21.0000000000
  0
LINE
  8
5
  6
CONTINUOUS
 62
6
 10
336.5000000000
 20
17.0000000000
 11
336.5000000000
 21
4.5000000000
  0
LINE
  8
5
  6
CONTINUOUS
 62
6
 10
325.5000000000
 20
4.5000000000
 11
325.4999999999
 21
21.0000000000
  0
LINE
  8
5
  6
CONTINUOUS
 62
6
 10
314.5000000000
 20
17.0000000000
 11
314.5000000000
 21
4.5000000000
  0
TEXT
  8
5
  6
CONTINUOUS
 62
6
 10
294.250000
 20
4.750000
 40
2.500000
  1
Design
 41
0.779221
 50
0.000000
 51
0.000000
 72
   5
 73
   0
 11
301.750000
 21
4.750000
  0
TEXT
  8
5
  6
CONTINUOUS
 62
6
 10
305.875000
 20
4.750000
 40
2.500000
  1
Draft
 41
0.786164
 50
0.000000
 51
0.000000
 72
   5
 73
   0
 11
312.125000
 21
4.750000
  0
TEXT
  8
5
  6
CONTINUOUS
 62
6
 10
316.875000
 20
4.750000
 40
2.500000
  1
Check
 41
0.786164
 50
0.000000
 51
0.000000
 72
   5
 73
   0
 11
323.125000
 21
4.750000
  0
LINE
  8
5
  6
CONTINUOUS
 62
6
 10
281.5000000000
 20
29.5000000000
 11
402.5000000000
 21
29.5000000000
  0
LINE
  8
5
  6
CONTINUOUS
 62
6
 10
281.5000000000
 20
17.0000000000
 11
347.5000000000
 21
17.0000000000
  0
LINE
  8
5
  6
CONTINUOUS
 62
6
 10
392.5000000000
 20
14.5000000000
 11
392.5000000000
 21
4.5000000000
  0
TEXT
  8
5
  6
CONTINUOUS
 62
6
 10
395.520000
 20
5.000000
 40
2.000000
  1
SIZE
 41
0.788845
 50
0.000000
 51
0.000000
 72
   5
 73
   0
 11
399.480000
 21
5.000000
  0
LINE
  8
5
  6
CONTINUOUS
 62
6
 10
392.5000000000
 20
7.5000000000
 11
402.5000000000
 21
7.5000000000
  0
TEXT
  8
5
  6
CONTINUOUS
 62
6
 10
394.005000
 20
8.500000
 40
5.000000
  1
Ａ３
 41
0.644240
 50
0.000000
 51
0.000000
 72
   5
 73
   0
 11
400.995000
 21
8.500000
  0
TEXT
  8
5
  6
CONTINUOUS
 62
6
 10
338.875000
 20
4.750000
 40
2.500000
  1
Scale
 41
0.786164
 50
0.000000
 51
0.000000
 72
   5
 73
   0
 11
345.125000
 21
4.750000
  0
TEXT
  8
5
  6
CONTINUOUS
 62
6
 10
338.250000
 20
9.750000
 40
5.000000
  1
1/1
 41
0.815217
 50
0.000000
 51
0.000000
 72
   5
 73
   0
 11
345.750000
 21
9.750000
  0
TEXT
  8
5
  6
CONTINUOUS
 62
6
 10
326.625000
 20
4.750000
 40
2.500000
  1
Confirm
 41
0.774336
 50
0.000000
 51
0.000000
 72
   5
 73
   0
 11
335.375000
 21
4.750000
  0
TEXT
  8
5
  6
CONTINUOUS
 62
6
 10
284.500000
 20
4.750000
 40
2.500000
  1
Date
 41
0.796813
 50
0.000000
 51
0.000000
 72
   5
 73
   0
 11
289.500000
 21
4.750000
  0
TEXT
  8
5
  6
CONTINUOUS
 62
6
 10
283.250000
 20
12.462500
 40
3.000000
  1
2008/
 41
0.786164
 50
0.000000
 51
0.000000
 72
   5
 73
   0
 11
290.750000
 21
12.462500
  0
TEXT
  8
5
  6
CONTINUOUS
 62
6
 10
283.250000
 20
9.037500
 40
3.000000
  1
11/07
 41
0.786164
 50
0.000000
 51
0.000000
 72
   5
 73
   0
 11
290.750000
 21
9.037500
  0
LINE
  8
5
  6
CONTINUOUS
 62
6
 10
292.5000000000
 20
17.0000000000
 11
292.5000000000
 21
4.5000000000
  0
LINE
  8
5
  6
CONTINUOUS
 62
6
 10
281.5000000000
 20
4.5000000000
 11
281.5000000000
 21
29.5000000000
  0
TEXT
  8
5
  6
CONTINUOUS
 62
6
 10
281.755293
 20
18.213190
 40
2.000000
  1
Material
 41
0.638921
 50
0.000000
 51
0.000000
 72
   5
 73
   0
 11
288.387293
 21
18.213190
  0
LINE
  8
5
  6
CONTINUOUS
 62
6
 10
288.5000000000
 20
21.0000000000
 11
288.5000000000
 21
17.0000000000
  0
TEXT
  8
5
  6
CONTINUOUS
 62
6
 10
303.605000
 20
18.000000
 40
2.000000
  1
Process
 41
0.751106
 50
0.000000
 51
0.000000
 72
   5
 73
   0
 11
310.395000
 21
18.000000
  0
LINE
  8
5
  6
CONTINUOUS
 62
6
 10
310.5000000000
 20
21.0000000000
 11
310.5000000000
 21
17.0000000000
  0
TEXT
  8
5
  6
CONTINUOUS
 62
6
 10
325.773000
 20
18.000000
 40
2.000000
  1
Amount
 41
0.838182
 50
0.000000
 51
0.000000
 72
   5
 73
   0
 11
332.227000
 21
18.000000
  0
LINE
  8
5
  6
CONTINUOUS
 62
6
 10
332.4999999999
 20
21.0000000000
 11
332.4999999999
 21
17.0000000000
  0
LINE
  8
5
  6
CONTINUOUS
 62
6
 10
347.5000000000
 20
21.0000000000
 11
281.5000000000
 21
21.0000000000
  0
POINT
  8
5
  6
CONTINUOUS
 62
6
 10
289.5000000000
 20
19.0000000000
  0
POINT
  8
5
  6
CONTINUOUS
 62
6
 10
311.5000000000
 20
19.0000000000
  0
POINT
  8
5
  6
CONTINUOUS
 62
6
 10
339.9999999999
 20
19.0000000000
  0
POINT
  8
5
  6
CONTINUOUS
 62
6
 10
298.0000000000
 20
12.2500000000
  0
POINT
  8
5
  6
CONTINUOUS
 62
6
 10
309.0000000000
 20
12.2500000000
  0
POINT
  8
5
  6
CONTINUOUS
 62
6
 10
320.0000000000
 20
12.2500000000
  0
POINT
  8
5
  6
CONTINUOUS
 62
6
 10
331.0000000000
 20
12.2500000000
  0
POINT
  8
5
  6
CONTINUOUS
 62
6
 10
0.0000000000
 20
0.0000000000
  0
TEXT
  8
5
  6
CONTINUOUS
 62
7
 10
301.099806
 20
20.780083
 40
4.000000
  1
MADOKA SYSTEM co,.ltd
 41
0.778201
 50
0.000000
 51
0.000000
 72
   5
 73
   0
 11
344.367806
 21
20.780083
  0
LINE
  8
5
  6
CONTINUOUS
 62
6
 10
284.5000000000
 20
284.0000000000
 11
284.5000000000
 21
279.5000000000
  0
LINE
  8
5
  6
CONTINUOUS
 62
6
 10
284.5000000000
 20
4.5000000000
 11
284.5000000000
 21
0.0000000000
  0
TEXT
  8
5
  6
CONTINUOUS
 62
6
 10
303.500000
 20
279.500000
 40
4.000000
  1
8
 41
1.000000
 50
0.000000
 51
0.000000
 72
   5
 73
   0
 11
305.500000
 21
279.500000
  0
TEXT
  8
5
  6
CONTINUOUS
 62
6
 10
303.500000
 20
0.500000
 40
4.000000
  1
8
 41
1.000000
 50
0.000000
 51
0.000000
 72
   5
 73
   0
 11
305.500000
 21
0.500000
  0
LINE
  8
5
  6
CONTINUOUS
 62
6
 10
324.5000000000
 20
284.0000000000
 11
324.5000000000
 21
279.5000000000
  0
LINE
  8
5
  6
CONTINUOUS
 62
6
 10
324.5000000000
 20
4.5000000000
 11
324.5000000000
 21
0.0000000000
  0
TEXT
  8
5
  6
CONTINUOUS
 62
6
 10
343.500000
 20
279.500000
 40
4.000000
  1
9
 41
1.000000
 50
0.000000
 51
0.000000
 72
   5
 73
   0
 11
345.500000
 21
279.500000
  0
TEXT
  8
5
  6
CONTINUOUS
 62
6
 10
343.500000
 20
0.500000
 40
4.000000
  1
9
 41
1.000000
 50
0.000000
 51
0.000000
 72
   5
 73
   0
 11
345.500000
 21
0.500000
  0
LINE
  8
5
  6
CONTINUOUS
 62
6
 10
364.5000000000
 20
284.0000000000
 11
364.5000000000
 21
279.5000000000
  0
LINE
  8
5
  6
CONTINUOUS
 62
6
 10
364.5000000000
 20
4.5000000000
 11
364.5000000000
 21
0.0000000000
  0
TEXT
  8
5
  6
CONTINUOUS
 62
6
 10
382.500000
 20
279.500000
 40
4.000000
  1
10
 41
0.854701
 50
0.000000
 51
0.000000
 72
   5
 73
   0
 11
386.500000
 21
279.500000
  0
TEXT
  8
5
  6
CONTINUOUS
 62
6
 10
382.500000
 20
0.500000
 40
4.000000
  1
10
 41
0.854701
 50
0.000000
 51
0.000000
 72
   5
 73
   0
 11
386.500000
 21
0.500000
  0
LINE
  8
5
  6
CONTINUOUS
 62
6
 10
0.0000000000
 20
79.5000000000
 11
4.5000000000
 21
79.5000000000
  0
LINE
  8
5
  6
CONTINUOUS
 62
6
 10
402.5000000000
 20
79.5000000000
 11
407.0000000000
 21
79.5000000000
  0
LINE
  8
5
  6
CONTINUOUS
 62
6
 10
0.0000000000
 20
39.5000000000
 11
4.5000000000
 21
39.5000000000
  0
LINE
  8
5
  6
CONTINUOUS
 62
6
 10
402.5000000000
 20
39.5000000000
 11
407.0000000000
 21
39.5000000000
  0
TEXT
  8
5
  6
CONTINUOUS
 62
6
 10
1.954773
 20
57.454143
 40
4.000000
  1
F
 41
1.102000
 50
0.000000
 51
0.000000
 72
   5
 73
   0
 11
4.158773
 21
57.454143
  0
TEXT
  8
5
  6
CONTINUOUS
 62
6
 10
402.786513
 20
57.492354
 40
4.000000
  1
F
 41
1.102000
 50
0.000000
 51
0.000000
 72
   5
 73
   0
 11
404.990513
 21
57.492354
  0
TEXT
  8
5
  6
CONTINUOUS
 62
6
 10
1.438773
 20
17.454143
 40
4.000000
  1
G
 41
1.360000
 50
0.000000
 51
0.000000
 72
   5
 73
   0
 11
4.158773
 21
17.454143
  0
TEXT
  8
5
  6
CONTINUOUS
 62
6
 10
402.786513
 20
17.492354
 40
4.000000
  1
G
 41
1.360000
 50
0.000000
 51
0.000000
 72
   5
 73
   0
 11
405.506513
 21
17.492354
  0
LINE
  8
5
  6
CONTINUOUS
 62
6
 10
4.5000000000
 20
279.5000000000
 11
402.5000000000
 21
279.5000000000
  0
LINE
  8
5
  6
CONTINUOUS
 62
6
 10
402.5000000000
 20
279.5000000000
 11
402.5000000000
 21
4.5000000000
  0
POINT
  8
5
  6
CONTINUOUS
 62
6
 10
353.5000000000
 20
20.5000000000
  0
POINT
  8
5
  6
CONTINUOUS
 62
6
 10
353.5000000000
 20
8.0000000000
  0
LINE
  8
5
  6
CONTINUOUS
 62
6
 10
347.5000000000
 20
26.5000000000
 11
402.5000000000
 21
26.5000000000
  0
LINE
  8
5
  6
CONTINUOUS
 62
6
 10
347.5000000000
 20
11.5000000000
 11
392.5000000000
 21
11.5000000000
  0
TEXT
  8
5
  6
CONTINUOUS
 62
7
 10
362.928500
 20
26.250000
 40
3.500000
  1
Document Name
 41
0.807728
 50
0.000000
 51
0.000000
 72
   5
 73
   0
 11
387.071500
 21
26.250000
  0
TEXT
  8
5
  6
CONTINUOUS
 62
7
 10
359.678500
 20
11.250000
 40
3.500000
  1
Document No.
 41
0.749428
 50
0.000000
 51
0.000000
 72
   5
 73
   0
 11
380.321500
 21
11.250000
  0
ENDBLK
  8
0
  0
BLOCK
  8
1
  2
*D0
 70
     1
 10
0.0000000000
 20
0.0000000000
  3
*D0
  0
LINE
  8
1
  6
BYBLOCK
 62
5
 10
127.9661466639
 20
94.3244525436
 11
127.9661466639
 21
99.7193009011
  0
LINE
  8
1
  6
BYBLOCK
 62
5
 10
111.4661466639
 20
94.3244525436
 11
111.4661466639
 21
99.7193009011
  0
LINE
  8
1
  6
BYBLOCK
 62
5
 10
111.4661466639
 20
98.7193009011
 11
127.9661466639
 21
98.7193009011
  0
SOLID
  8
1
  6
CONTINUOUS
 62
5
 10
126.0342950114
 20
98.2016628109
 11
126.0342950114
 21
99.2369389913
 12
127.9661466639
 22
98.7193009011
 13
127.9661466639
 23
98.7193009011
  0
SOLID
  8
1
  6
CONTINUOUS
 62
5
 10
113.3979983165
 20
99.2369389913
 11
113.3979983165
 21
98.2016628109
 12
111.4661466639
 22
98.7193009011
 13
111.4661466639
 23
98.7193009011
  0
TEXT
  8
1
  6
CONTINUOUS
 62
7
 10
116.216147
 20
99.719301
 40
3.500000
  1
16.5
 41
0.796813
 50
0.000000
 51
0.000000
 72
   5
 73
   0
 11
123.216147
 21
99.719301
  0
POINT
  8
DEFPOINTS
  6
BYBLOCK
 62
5
 10
127.9661466639
 20
93.8244525436
  0
POINT
  8
DEFPOINTS
  6
BYBLOCK
 62
5
 10
111.4661466639
 20
93.8244525436
  0
POINT
  8
DEFPOINTS
  6
BYBLOCK
 62
5
 10
111.4661466639
 20
98.7193009011
  0
ENDBLK
  8
0
  0
BLOCK
  8
1
  2
*D1
 70
     1
 10
0.0000000000
 20
0.0000000000
  3
*D1
  0
LINE
  8
1
  6
BYBLOCK
 62
5
 10
27.2645106558
 20
27.5484212565
 11
19.9779016700
 21
27.5484212565
  0
LINE
  8
1
  6
BYBLOCK
 62
5
 10
28.2645106558
 20
36.5484212565
 11
19.9779016700
 21
36.5484212565
  0
LINE
  8
1
  6
BYBLOCK
 62
5
 10
20.9779016700
 20
36.5484212565
 11
20.9779016700
 21
27.5484212565
  0
SOLID
  8
1
  6
CONTINUOUS
 62
5
 10
20.4602635798
 20
29.4802729091
 11
21.4955397602
 21
29.4802729091
 12
20.9779016700
 22
27.5484212565
 13
20.9779016700
 23
27.5484212565
  0
SOLID
  8
1
  6
CONTINUOUS
 62
5
 10
21.4955397602
 20
34.6165696039
 11
20.4602635798
 21
34.6165696039
 12
20.9779016700
 22
36.5484212565
 13
20.9779016700
 23
36.5484212565
  0
TEXT
  8
1
  6
CONTINUOUS
 62
7
 10
19.977902
 20
31.173421
 40
3.500000
  1
9
 41
1.000000
 50
90.000000
 51
0.000000
 72
   5
 73
   0
 11
19.977902
 21
32.923421
  0
POINT
  8
DEFPOINTS
  6
BYBLOCK
 62
5
 10
27.7645106558
 20
27.5484212565
  0
POINT
  8
DEFPOINTS
  6
BYBLOCK
 62
5
 10
28.7645106558
 20
36.5484212565
  0
POINT
  8
DEFPOINTS
  6
BYBLOCK
 62
5
 10
20.9779016700
 20
36.5484212565
  0
ENDBLK
  8
0
  0
BLOCK
  8
1
  2
*D2
 70
     1
 10
0.0000000000
 20
0.0000000000
  3
*D2
  0
LINE
  8
1
  6
BYBLOCK
 62
5
 10
29.2645106558
 20
37.0484212565
 11
19.7383253733
 21
37.0484212565
  0
LINE
  8
1
  6
BYBLOCK
 62
5
 10
35.7645106558
 20
51.5484212565
 11
19.7383253733
 21
51.5484212565
  0
LINE
  8
1
  6
BYBLOCK
 62
5
 10
20.7383253733
 20
51.5484212565
 11
20.7383253733
 21
37.0484212565
  0
SOLID
  8
1
  6
CONTINUOUS
 62
5
 10
20.2206872831
 20
38.9802729091
 11
21.2559634635
 21
38.9802729091
 12
20.7383253733
 22
37.0484212565
 13
20.7383253733
 23
37.0484212565
  0
SOLID
  8
1
  6
CONTINUOUS
 62
5
 10
21.2559634635
 20
49.6165696039
 11
20.2206872831
 21
49.6165696039
 12
20.7383253733
 22
51.5484212565
 13
20.7383253733
 23
51.5484212565
  0
TEXT
  8
1
  6
CONTINUOUS
 62
7
 10
19.738325
 20
40.798421
 40
3.500000
  1
14.5
 41
0.796813
 50
90.000000
 51
0.000000
 72
   5
 73
   0
 11
19.738325
 21
47.798421
  0
POINT
  8
DEFPOINTS
  6
BYBLOCK
 62
5
 10
29.7645106558
 20
37.0484212565
  0
POINT
  8
DEFPOINTS
  6
BYBLOCK
 62
5
 10
36.2645106558
 20
51.5484212565
  0
POINT
  8
DEFPOINTS
  6
BYBLOCK
 62
5
 10
20.7383253733
 20
51.5484212565
  0
ENDBLK
  8
0
  0
BLOCK
  8
1
  2
*D3
 70
     1
 10
0.0000000000
 20
0.0000000000
  3
*D3
  0
LINE
  8
1
  6
BYBLOCK
 62
5
 10
27.2645106558
 20
27.5484212565
 11
12.2316014101
 21
27.5484212565
  0
LINE
  8
1
  6
BYBLOCK
 62
5
 10
35.7645106558
 20
51.5484212565
 11
12.2316014101
 21
51.5484212565
  0
LINE
  8
1
  6
BYBLOCK
 62
5
 10
13.2316014101
 20
51.5484212565
 11
13.2316014101
 21
27.5484212565
  0
SOLID
  8
1
  6
CONTINUOUS
 62
5
 10
12.7139633199
 20
29.4802729091
 11
13.7492395003
 21
29.4802729091
 12
13.2316014101
 22
27.5484212565
 13
13.2316014101
 23
27.5484212565
  0
SOLID
  8
1
  6
CONTINUOUS
 62
5
 10
13.7492395003
 20
49.6165696039
 11
12.7139633199
 21
49.6165696039
 12
13.2316014101
 22
51.5484212565
 13
13.2316014101
 23
51.5484212565
  0
TEXT
  8
1
  6
CONTINUOUS
 62
7
 10
12.231601
 20
37.798421
 40
3.500000
  1
24
 41
0.854701
 50
90.000000
 51
0.000000
 72
   5
 73
   0
 11
12.231601
 21
41.298421
  0
POINT
  8
DEFPOINTS
  6
BYBLOCK
 62
5
 10
27.7645106558
 20
27.5484212565
  0
POINT
  8
DEFPOINTS
  6
BYBLOCK
 62
5
 10
36.2645106558
 20
51.5484212565
  0
POINT
  8
DEFPOINTS
  6
BYBLOCK
 62
5
 10
13.2316014101
 20
51.5484212565
  0
ENDBLK
  8
0
  0
BLOCK
  8
1
  2
*D4
 70
     1
 10
0.0000000000
 20
0.0000000000
  3
*D4
  0
LINE
  8
1
  6
BYBLOCK
 62
5
 10
27.2645106558
 20
220.1025214537
 11
16.2916228022
 21
220.1025214537
  0
LINE
  8
1
  6
BYBLOCK
 62
5
 10
27.2645106558
 20
64.6025214537
 11
16.2916228022
 21
64.6025214537
  0
LINE
  8
1
  6
BYBLOCK
 62
5
 10
17.2916228022
 20
64.6025214537
 11
17.2916228022
 21
220.1025214537
  0
SOLID
  8
1
  6
CONTINUOUS
 62
5
 10
17.8092608924
 20
218.1706698011
 11
16.7739847120
 21
218.1706698011
 12
17.2916228022
 22
220.1025214537
 13
17.2916228022
 23
220.1025214537
  0
SOLID
  8
1
  6
CONTINUOUS
 62
5
 10
16.7739847120
 20
66.5343731063
 11
17.8092608924
 21
66.5343731063
 12
17.2916228022
 22
64.6025214537
 13
17.2916228022
 23
64.6025214537
  0
TEXT
  8
1
  6
CONTINUOUS
 62
7
 10
16.291623
 20
136.102521
 40
5.000000
  1
155.5
 41
0.786164
 50
90.000000
 51
0.000000
 72
   5
 73
   0
 11
16.291623
 21
148.602521
  0
POINT
  8
DEFPOINTS
  6
BYBLOCK
 62
5
 10
27.7645106558
 20
220.1025214537
  0
POINT
  8
DEFPOINTS
  6
BYBLOCK
 62
5
 10
27.7645106558
 20
64.6025214537
  0
POINT
  8
DEFPOINTS
  6
BYBLOCK
 62
5
 10
17.2916228022
 20
64.6025214537
  0
ENDBLK
  8
0
  0
BLOCK
  8
1
  2
*D5
 70
     1
 10
0.0000000000
 20
0.0000000000
  3
*D5
  0
LINE
  8
1
  6
BYBLOCK
 62
5
 10
27.7645106558
 20
220.6025214537
 11
27.7645106558
 21
225.0648547044
  0
LINE
  8
1
  6
BYBLOCK
 62
5
 10
96.7645106558
 20
220.6025214537
 11
96.7645106558
 21
225.0648547044
  0
LINE
  8
1
  6
BYBLOCK
 62
5
 10
96.7645106558
 20
224.0648547044
 11
27.7645106558
 21
224.0648547044
  0
SOLID
  8
1
  6
CONTINUOUS
 62
5
 10
29.6963623084
 20
224.5824927946
 11
29.6963623084
 21
223.5472166142
 12
27.7645106558
 22
224.0648547044
 13
27.7645106558
 23
224.0648547044
  0
SOLID
  8
1
  6
CONTINUOUS
 62
5
 10
94.8326590033
 20
223.5472166142
 11
94.8326590033
 21
224.5824927946
 12
96.7645106558
 22
224.0648547044
 13
96.7645106558
 23
224.0648547044
  0
TEXT
  8
1
  6
CONTINUOUS
 62
7
 10
59.764511
 20
225.064855
 40
5.000000
  1
69
 41
0.854701
 50
0.000000
 51
0.000000
 72
   5
 73
   0
 11
64.764511
 21
225.064855
  0
POINT
  8
DEFPOINTS
  6
BYBLOCK
 62
5
 10
27.7645106558
 20
220.1025214537
  0
POINT
  8
DEFPOINTS
  6
BYBLOCK
 62
5
 10
96.7645106558
 20
220.1025214537
  0
POINT
  8
DEFPOINTS
  6
BYBLOCK
 62
5
 10
96.7645106558
 20
224.0648547044
  0
ENDBLK
  8
0
  0
BLOCK
  8
3
  2
S1
 70
     0
 10
199.2237887598
 20
116.0713569170
  3
S1
  0
CIRCLE
  8
3
  6
CONTINUOUS
 62
5
 10
199.2237887598
 20
116.0713569170
 40
1.5000000000
  0
LINE
  8
3
  6
CONTINUOUS
 62
5
 10
200.3487887599
 20
116.0713569170
 11
198.0987887599
 21
116.0713569170
  0
LINE
  8
3
  6
CONTINUOUS
 62
5
 10
199.9737887599
 20
115.5088569170
 11
198.4737887599
 21
115.5088569170
  0
LINE
  8
3
  6
CONTINUOUS
 62
5
 10
199.5987887599
 20
114.9463569170
 11
198.8487887599
 21
114.9463569170
  0
LINE
  8
3
  6
CONTINUOUS
 62
5
 10
199.2237887598
 20
116.0713569170
 11
199.2237887599
 21
117.1963569170
  0
ENDBLK
  8
0
  0
BLOCK
  8
3
  2
S2
 70
     0
 10
204.5996856920
 20
-94.5517949092
  3
S2
  0
CIRCLE
  8
3
  6
CONTINUOUS
 62
5
 10
204.5996856920
 20
-94.5517949092
 40
1.5000000000
  0
LINE
  8
3
  6
CONTINUOUS
 62
5
 10
205.7246856921
 20
-94.5517949092
 11
203.4746856921
 21
-94.5517949092
  0
LINE
  8
3
  6
CONTINUOUS
 62
5
 10
205.3496856921
 20
-95.1142949092
 11
203.8496856921
 21
-95.1142949092
  0
LINE
  8
3
  6
CONTINUOUS
 62
5
 10
204.9746856921
 20
-95.6767949092
 11
204.2246856921
 21
-95.6767949092
  0
LINE
  8
3
  6
CONTINUOUS
 62
5
 10
204.5996856920
 20
-94.5517949092
 11
204.5996856921
 21
-93.4267949092
  0
ENDBLK
  8
0
  0
BLOCK
  8
1
  2
BALN0
 70
     0
 10
65.1092980532
 20
67.0636039311
  3
BALN0
  0
SOLID
  8
1
  6
CONTINUOUS
 62
5
 10
67.0995994495
 20
66.8668798809
 11
66.7345875985
 21
65.8980852079
 12
65.1092980532
 22
67.0636039311
 13
65.1092980532
 23
67.0636039311
  0
LINE
  8
1
  6
BYBLOCK
 62
5
 10
65.1092980532
 20
67.0636039311
 11
88.4832927053
 21
58.2570061116
  0
CIRCLE
  8
1
  6
BYBLOCK
 62
5
 10
91.2906440902
 20
57.1992829901
 40
3.0000000000
  0
TEXT
  8
1
  6
CONTINUOUS
 62
7
 10
90.415644
 20
55.449283
 40
3.500000
  1
3
 41
1.000000
 50
0.000000
 51
0.000000
 72
   5
 73
   0
 11
92.165644
 21
55.449283
  0
ENDBLK
  8
0
  0
BLOCK
  8
1
  2
*D6
 70
     1
 10
0.0000000000
 20
0.0000000000
  3
*D6
  0
LINE
  8
1
  6
BYBLOCK
 62
5
 10
142.4822443727
 20
88.0542751045
 11
141.4983420815
 21
85.7560287554
  0
LINE
  8
1
  6
BYBLOCK
 62
5
 10
144.4500489552
 20
92.6507678028
 11
145.4339512464
 21
94.9490141519
  0
SOLID
  8
1
  6
CONTINUOUS
 62
5
 10
142.1978070062
 20
86.0746045803
 11
141.2460791254
 21
86.4820488227
 12
142.4822443727
 22
88.0542751045
 13
142.4822443727
 23
88.0542751045
  0
SOLID
  8
1
  6
CONTINUOUS
 62
5
 10
144.7344863217
 20
94.6304383270
 11
145.6862142025
 21
94.2229940847
 12
144.4500489552
 22
92.6507678028
 13
144.4500489552
 23
92.6507678028
  0
TEXT
  8
1
  6
CONTINUOUS
 62
7
 10
145.999175
 20
98.810194
 40
3.500000
  1
2-M5
 41
0.796813
 50
66.823748
 51
0.000000
 72
   5
 73
   0
 11
148.754102
 21
105.245284
  0
POINT
  8
DEFPOINTS
  6
BYBLOCK
 62
5
 10
142.4822443727
 20
88.0542751045
  0
POINT
  8
DEFPOINTS
  6
BYBLOCK
 62
5
 10
144.4500489552
 20
92.6507678028
  0
LINE
  8
1
  6
BYBLOCK
 62
5
 10
142.4822443727
 20
88.0542751045
 11
149.6734002150
 21
104.8517231924
  0
ENDBLK
  8
0
  0
BLOCK
  8
5
  2
S3
 70
     0
 10
-1.2509564999
 20
-313.9655230621
  3
S3
  0
POINT
  8
5
  6
CONTINUOUS
 62
6
 10
-7.7509564999
 20
-320.4655230621
  0
LINE
  8
5
  6
CONTINUOUS
 62
6
 10
3.2490435001
 20
-309.4655230621
 11
401.2490435001
 21
-309.4655230621
  0
LINE
  8
5
  6
CONTINUOUS
 62
6
 10
3.2490435001
 20
-309.4655230621
 11
3.2490435001
 21
-34.4655230621
  0
LINE
  8
5
  6
CONTINUOUS
 62
6
 10
43.2490435001
 20
-29.9655230621
 11
43.2490435001
 21
-34.4655230621
  0
LINE
  8
5
  6
CONTINUOUS
 62
6
 10
43.2490435001
 20
-309.4655230621
 11
43.2490435001
 21
-313.9655230621
  0
LINE
  8
5
  6
CONTINUOUS
 62
6
 10
83.2490435001
 20
-29.9655230621
 11
83.2490435001
 21
-34.4655230621
  0
LINE
  8
5
  6
CONTINUOUS
 62
6
 10
123.2490435001
 20
-29.9655230621
 11
123.2490435001
 21
-34.4655230621
  0
LINE
  8
5
  6
CONTINUOUS
 62
6
 10
163.2490435001
 20
-29.9655230621
 11
163.2490435001
 21
-34.4655230621
  0
LINE
  8
5
  6
CONTINUOUS
 62
6
 10
203.2490435001
 20
-29.9655230621
 11
203.2490435001
 21
-34.4655230621
  0
LINE
  8
5
  6
CONTINUOUS
 62
6
 10
243.2490435001
 20
-29.9655230621
 11
243.2490435001
 21
-34.4655230621
  0
LINE
  8
5
  6
CONTINUOUS
 62
6
 10
83.2490435001
 20
-309.4655230621
 11
83.2490435001
 21
-313.9655230621
  0
LINE
  8
5
  6
CONTINUOUS
 62
6
 10
123.2490435001
 20
-309.4655230621
 11
123.2490435001
 21
-313.9655230621
  0
LINE
  8
5
  6
CONTINUOUS
 62
6
 10
163.2490435001
 20
-309.4655230621
 11
163.2490435001
 21
-313.9655230621
  0
LINE
  8
5
  6
CONTINUOUS
 62
6
 10
203.2490435001
 20
-309.4655230621
 11
203.2490435001
 21
-313.9655230621
  0
LINE
  8
5
  6
CONTINUOUS
 62
6
 10
243.2490435001
 20
-309.4655230621
 11
243.2490435001
 21
-313.9655230621
  0
LINE
  8
5
  6
CONTINUOUS
 62
6
 10
-1.2509564999
 20
-74.4655230621
 11
3.2490435001
 21
-74.4655230621
  0
LINE
  8
5
  6
CONTINUOUS
 62
6
 10
401.2490435001
 20
-74.4655230621
 11
405.7490435001
 21
-74.4655230621
  0
LINE
  8
5
  6
CONTINUOUS
 62
6
 10
-1.2509564999
 20
-114.4655230621
 11
3.2490435001
 21
-114.4655230621
  0
LINE
  8
5
  6
CONTINUOUS
 62
6
 10
-1.2509564999
 20
-154.4655230621
 11
3.2490435001
 21
-154.4655230621
  0
LINE
  8
5
  6
CONTINUOUS
 62
6
 10
-1.2509564999
 20
-194.4655230621
 11
3.2490435001
 21
-194.4655230621
  0
LINE
  8
5
  6
CONTINUOUS
 62
6
 10
401.2490435001
 20
-114.4655230621
 11
405.7490435001
 21
-114.4655230621
  0
LINE
  8
5
  6
CONTINUOUS
 62
6
 10
401.2490435001
 20
-154.4655230621
 11
405.7490435001
 21
-154.4655230621
  0
LINE
  8
5
  6
CONTINUOUS
 62
6
 10
401.2490435001
 20
-194.4655230621
 11
405.7490435001
 21
-194.4655230621
  0
TEXT
  8
5
  6
CONTINUOUS
 62
6
 10
22.249044
 20
-34.465523
 40
4.000000
  1
1
 41
1.000000
 50
0.000000
 51
0.000000
 72
   5
 73
   0
 11
24.249044
 21
-34.465523
  0
TEXT
  8
5
  6
CONTINUOUS
 62
6
 10
22.249044
 20
-313.465523
 40
4.000000
  1
1
 41
1.000000
 50
0.000000
 51
0.000000
 72
   5
 73
   0
 11
24.249044
 21
-313.465523
  0
TEXT
  8
5
  6
CONTINUOUS
 62
6
 10
62.249044
 20
-34.465523
 40
4.000000
  1
2
 41
1.000000
 50
0.000000
 51
0.000000
 72
   5
 73
   0
 11
64.249044
 21
-34.465523
  0
TEXT
  8
5
  6
CONTINUOUS
 62
6
 10
102.249044
 20
-34.465523
 40
4.000000
  1
3
 41
1.000000
 50
0.000000
 51
0.000000
 72
   5
 73
   0
 11
104.249044
 21
-34.465523
  0
TEXT
  8
5
  6
CONTINUOUS
 62
6
 10
142.249044
 20
-34.465523
 40
4.000000
  1
4
 41
1.000000
 50
0.000000
 51
0.000000
 72
   5
 73
   0
 11
144.249044
 21
-34.465523
  0
TEXT
  8
5
  6
CONTINUOUS
 62
6
 10
182.249044
 20
-34.465523
 40
4.000000
  1
5
 41
1.000000
 50
0.000000
 51
0.000000
 72
   5
 73
   0
 11
184.249044
 21
-34.465523
  0
TEXT
  8
5
  6
CONTINUOUS
 62
6
 10
222.249044
 20
-34.465523
 40
4.000000
  1
6
 41
1.000000
 50
0.000000
 51
0.000000
 72
   5
 73
   0
 11
224.249044
 21
-34.465523
  0
TEXT
  8
5
  6
CONTINUOUS
 62
6
 10
262.249044
 20
-34.465523
 40
4.000000
  1
7
 41
1.000000
 50
0.000000
 51
0.000000
 72
   5
 73
   0
 11
264.249044
 21
-34.465523
  0
TEXT
  8
5
  6
CONTINUOUS
 62
6
 10
62.249044
 20
-313.465523
 40
4.000000
  1
2
 41
1.000000
 50
0.000000
 51
0.000000
 72
   5
 73
   0
 11
64.249044
 21
-313.465523
  0
TEXT
  8
5
  6
CONTINUOUS
 62
6
 10
102.249044
 20
-313.465523
 40
4.000000
  1
3
 41
1.000000
 50
0.000000
 51
0.000000
 72
   5
 73
   0
 11
104.249044
 21
-313.465523
  0
TEXT
  8
5
  6
CONTINUOUS
 62
6
 10
142.249044
 20
-313.465523
 40
4.000000
  1
4
 41
1.000000
 50
0.000000
 51
0.000000
 72
   5
 73
   0
 11
144.249044
 21
-313.465523
  0
TEXT
  8
5
  6
CONTINUOUS
 62
6
 10
182.249044
 20
-313.465523
 40
4.000000
  1
5
 41
1.000000
 50
0.000000
 51
0.000000
 72
   5
 73
   0
 11
184.249044
 21
-313.465523
  0
TEXT
  8
5
  6
CONTINUOUS
 62
6
 10
222.249044
 20
-313.465523
 40
4.000000
  1
6
 41
1.000000
 50
0.000000
 51
0.000000
 72
   5
 73
   0
 11
224.249044
 21
-313.465523
  0
TEXT
  8
5
  6
CONTINUOUS
 62
6
 10
262.249044
 20
-313.465523
 40
4.000000
  1
7
 41
1.000000
 50
0.000000
 51
0.000000
 72
   5
 73
   0
 11
264.249044
 21
-313.465523
  0
TEXT
  8
5
  6
CONTINUOUS
 62
6
 10
0.375816
 20
-56.511380
 40
4.000000
  1
A
 41
1.266000
 50
0.000000
 51
0.000000
 72
   5
 73
   0
 11
2.907816
 21
-56.511380
  0
TEXT
  8
5
  6
CONTINUOUS
 62
6
 10
401.535557
 20
-56.473169
 40
4.000000
  1
A
 41
1.266000
 50
0.000000
 51
0.000000
 72
   5
 73
   0
 11
404.067557
 21
-56.473169
  0
TEXT
  8
5
  6
CONTINUOUS
 62
6
 10
0.359816
 20
-96.511380
 40
4.000000
  1
B
 41
1.274000
 50
0.000000
 51
0.000000
 72
   5
 73
   0
 11
2.907816
 21
-96.511380
  0
TEXT
  8
5
  6
CONTINUOUS
 62
6
 10
0.251816
 20
-136.511380
 40
4.000000
  1
C
 41
1.328000
 50
0.000000
 51
0.000000
 72
   5
 73
   0
 11
2.907816
 21
-136.511380
  0
TEXT
  8
5
  6
CONTINUOUS
 62
6
 10
0.315816
 20
-176.511380
 40
4.000000
  1
D
 41
1.296000
 50
0.000000
 51
0.000000
 72
   5
 73
   0
 11
2.907816
 21
-176.511380
  0
TEXT
  8
5
  6
CONTINUOUS
 62
6
 10
0.643816
 20
-216.511380
 40
4.000000
  1
E
 41
1.132000
 50
0.000000
 51
0.000000
 72
   5
 73
   0
 11
2.907816
 21
-216.511380
  0
TEXT
  8
5
  6
CONTINUOUS
 62
6
 10
401.535557
 20
-96.473169
 40
4.000000
  1
B
 41
1.274000
 50
0.000000
 51
0.000000
 72
   5
 73
   0
 11
404.083557
 21
-96.473169
  0
TEXT
  8
5
  6
CONTINUOUS
 62
6
 10
401.535557
 20
-136.473169
 40
4.000000
  1
C
 41
1.328000
 50
0.000000
 51
0.000000
 72
   5
 73
   0
 11
404.191557
 21
-136.473169
  0
TEXT
  8
5
  6
CONTINUOUS
 62
6
 10
401.535557
 20
-176.473169
 40
4.000000
  1
D
 41
1.296000
 50
0.000000
 51
0.000000
 72
   5
 73
   0
 11
404.127557
 21
-176.473169
  0
TEXT
  8
5
  6
CONTINUOUS
 62
6
 10
401.535557
 20
-216.473169
 40
4.000000
  1
E
 41
1.132000
 50
0.000000
 51
0.000000
 72
   5
 73
   0
 11
403.799557
 21
-216.473169
  0
LINE
  8
5
  6
CONTINUOUS
 62
6
 10
346.2490435001
 20
-284.4655230621
 11
346.2490435001
 21
-309.4655230621
  0
LINE
  8
5
  6
CONTINUOUS
 62
6
 10
346.2490435001
 20
-299.4655230621
 11
401.2490435001
 21
-299.4655230621
  0
LINE
  8
5
  6
CONTINUOUS
 62
6
 10
346.2490435001
 20
-306.4655230621
 11
280.2490435001
 21
-306.4655230621
  0
LINE
  8
5
  6
CONTINUOUS
 62
6
 10
302.2490435001
 20
-309.4655230621
 11
302.2490435001
 21
-292.9655230621
  0
LINE
  8
5
  6
CONTINUOUS
 62
6
 10
335.2490435001
 20
-296.9655230621
 11
335.2490435001
 21
-309.4655230621
  0
LINE
  8
5
  6
CONTINUOUS
 62
6
 10
324.2490435001
 20
-309.4655230621
 11
324.2490434999
 21
-292.9655230621
  0
LINE
  8
5
  6
CONTINUOUS
 62
6
 10
313.2490435001
 20
-296.9655230621
 11
313.2490435001
 21
-309.4655230621
  0
TEXT
  8
5
  6
CONTINUOUS
 62
6
 10
293.272794
 20
-309.215523
 40
2.500000
  1
Design
 41
0.722338
 50
0.000000
 51
0.000000
 72
   5
 73
   0
 11
300.225294
 21
-309.215523
  0
TEXT
  8
5
  6
CONTINUOUS
 62
6
 10
305.087794
 20
-309.215523
 40
2.500000
  1
Draft
 41
0.669497
 50
0.000000
 51
0.000000
 72
   5
 73
   0
 11
310.410294
 21
-309.215523
  0
TEXT
  8
5
  6
CONTINUOUS
 62
6
 10
315.467794
 20
-309.215523
 40
2.500000
  1
Check
 41
0.825472
 50
0.000000
 51
0.000000
 72
   5
 73
   0
 11
322.030294
 21
-309.215523
  0
LINE
  8
5
  6
CONTINUOUS
 62
6
 10
280.2490435001
 20
-284.4655230621
 11
401.2490435001
 21
-284.4655230621
  0
LINE
  8
5
  6
CONTINUOUS
 62
6
 10
280.2490435001
 20
-296.9655230621
 11
346.2490435001
 21
-296.9655230621
  0
LINE
  8
5
  6
CONTINUOUS
 62
6
 10
391.2490435001
 20
-299.4655230621
 11
391.2490435001
 21
-309.4655230621
  0
TEXT
  8
5
  6
CONTINUOUS
 62
6
 10
394.269044
 20
-308.965523
 40
2.000000
  1
SIZE
 41
0.788845
 50
0.000000
 51
0.000000
 72
   5
 73
   0
 11
398.229044
 21
-308.965523
  0
LINE
  8
5
  6
CONTINUOUS
 62
6
 10
391.2490435001
 20
-306.4655230621
 11
401.2490435001
 21
-306.4655230621
  0
TEXT
  8
5
  6
CONTINUOUS
 62
6
 10
392.754044
 20
-305.465523
 40
5.000000
  1
Ａ３
 41
0.644240
 50
0.000000
 51
0.000000
 72
   5
 73
   0
 11
399.744044
 21
-305.465523
  0
TEXT
  8
5
  6
CONTINUOUS
 62
6
 10
337.887794
 20
-309.215523
 40
2.500000
  1
Scale
 41
0.719811
 50
0.000000
 51
0.000000
 72
   5
 73
   0
 11
343.610294
 21
-309.215523
  0
TEXT
  8
5
  6
CONTINUOUS
 62
6
 10
336.999044
 20
-304.215523
 40
5.000000
  1
1/1
 41
0.815217
 50
0.000000
 51
0.000000
 72
   5
 73
   0
 11
344.499044
 21
-304.215523
  0
TEXT
  8
5
  6
CONTINUOUS
 62
6
 10
325.661544
 20
-309.215523
 40
2.500000
  1
Confirm
 41
0.723451
 50
0.000000
 51
0.000000
 72
   5
 73
   0
 11
333.836544
 21
-309.215523
  0
TEXT
  8
5
  6
CONTINUOUS
 62
6
 10
283.277794
 20
-309.215523
 40
2.500000
  1
Date
 41
0.787649
 50
0.000000
 51
0.000000
 72
   5
 73
   0
 11
288.220294
 21
-309.215523
  0
TEXT
  8
5
  6
CONTINUOUS
 62
6
 10
281.999044
 20
-301.503023
 40
3.000000
  1
2008/
 41
0.786164
 50
0.000000
 51
0.000000
 72
   5
 73
   0
 11
289.499044
 21
-301.503023
  0
TEXT
  8
5
  6
CONTINUOUS
 62
6
 10
281.999044
 20
-304.928023
 40
3.000000
  1
11/07
 41
0.786164
 50
0.000000
 51
0.000000
 72
   5
 73
   0
 11
289.499044
 21
-304.928023
  0
LINE
  8
5
  6
CONTINUOUS
 62
6
 10
291.2490435001
 20
-296.9655230621
 11
291.2490435001
 21
-309.4655230621
  0
LINE
  8
5
  6
CONTINUOUS
 62
6
 10
280.2490435001
 20
-309.4655230621
 11
280.2490435001
 21
-284.4655230621
  0
TEXT
  8
5
  6
CONTINUOUS
 62
6
 10
280.504337
 20
-295.752333
 40
2.000000
  1
Material
 41
0.638921
 50
0.000000
 51
0.000000
 72
   5
 73
   0
 11
287.136337
 21
-295.752333
  0
LINE
  8
5
  6
CONTINUOUS
 62
6
 10
287.2490435001
 20
-292.9655230621
 11
287.2490435001
 21
-296.9655230621
  0
TEXT
  8
5
  6
CONTINUOUS
 62
6
 10
302.354044
 20
-295.965523
 40
2.000000
  1
Process
 41
0.751106
 50
0.000000
 51
0.000000
 72
   5
 73
   0
 11
309.144044
 21
-295.965523
  0
LINE
  8
5
  6
CONTINUOUS
 62
6
 10
309.2490435001
 20
-292.9655230621
 11
309.2490435001
 21
-296.9655230621
  0
TEXT
  8
5
  6
CONTINUOUS
 62
6
 10
324.522043
 20
-295.965523
 40
2.000000
  1
Amount
 41
0.838182
 50
0.000000
 51
0.000000
 72
   5
 73
   0
 11
330.976043
 21
-295.965523
  0
LINE
  8
5
  6
CONTINUOUS
 62
6
 10
331.2490435000
 20
-292.9655230621
 11
331.2490435000
 21
-296.9655230621
  0
LINE
  8
5
  6
CONTINUOUS
 62
6
 10
346.2490435001
 20
-292.9655230621
 11
280.2490435001
 21
-292.9655230621
  0
POINT
  8
5
  6
CONTINUOUS
 62
6
 10
288.2490435001
 20
-294.9655230621
  0
POINT
  8
5
  6
CONTINUOUS
 62
6
 10
310.2490435001
 20
-294.9655230621
  0
POINT
  8
5
  6
CONTINUOUS
 62
6
 10
338.7490435000
 20
-294.9655230621
  0
POINT
  8
5
  6
CONTINUOUS
 62
6
 10
296.7490435001
 20
-301.7155230621
  0
POINT
  8
5
  6
CONTINUOUS
 62
6
 10
307.7490435001
 20
-301.7155230621
  0
POINT
  8
5
  6
CONTINUOUS
 62
6
 10
318.7490435001
 20
-301.7155230621
  0
POINT
  8
5
  6
CONTINUOUS
 62
6
 10
329.7490435001
 20
-301.7155230621
  0
POINT
  8
5
  6
CONTINUOUS
 62
6
 10
-1.2509564999
 20
-313.9655230621
  0
TEXT
  8
5
  6
CONTINUOUS
 62
7
 10
299.848849
 20
-293.185440
 40
4.000000
  1
MADOKA SYSTEM co,.ltd
 41
0.778201
 50
0.000000
 51
0.000000
 72
   5
 73
   0
 11
343.116849
 21
-293.185440
  0
LINE
  8
5
  6
CONTINUOUS
 62
6
 10
283.2490435001
 20
-29.9655230621
 11
283.2490435001
 21
-34.4655230621
  0
LINE
  8
5
  6
CONTINUOUS
 62
6
 10
283.2490435001
 20
-309.4655230621
 11
283.2490435001
 21
-313.9655230621
  0
TEXT
  8
5
  6
CONTINUOUS
 62
6
 10
302.249044
 20
-34.465523
 40
4.000000
  1
8
 41
1.000000
 50
0.000000
 51
0.000000
 72
   5
 73
   0
 11
304.249044
 21
-34.465523
  0
TEXT
  8
5
  6
CONTINUOUS
 62
6
 10
302.249044
 20
-313.465523
 40
4.000000
  1
8
 41
1.000000
 50
0.000000
 51
0.000000
 72
   5
 73
   0
 11
304.249044
 21
-313.465523
  0
LINE
  8
5
  6
CONTINUOUS
 62
6
 10
323.2490435001
 20
-29.9655230621
 11
323.2490435001
 21
-34.4655230621
  0
LINE
  8
5
  6
CONTINUOUS
 62
6
 10
323.2490435001
 20
-309.4655230621
 11
323.2490435001
 21
-313.9655230621
  0
TEXT
  8
5
  6
CONTINUOUS
 62
6
 10
342.249044
 20
-34.465523
 40
4.000000
  1
9
 41
1.000000
 50
0.000000
 51
0.000000
 72
   5
 73
   0
 11
344.249044
 21
-34.465523
  0
TEXT
  8
5
  6
CONTINUOUS
 62
6
 10
342.249044
 20
-313.465523
 40
4.000000
  1
9
 41
1.000000
 50
0.000000
 51
0.000000
 72
   5
 73
   0
 11
344.249044
 21
-313.465523
  0
LINE
  8
5
  6
CONTINUOUS
 62
6
 10
363.2490435001
 20
-29.9655230621
 11
363.2490435001
 21
-34.4655230621
  0
LINE
  8
5
  6
CONTINUOUS
 62
6
 10
363.2490435001
 20
-309.4655230621
 11
363.2490435001
 21
-313.9655230621
  0
TEXT
  8
5
  6
CONTINUOUS
 62
6
 10
381.249044
 20
-34.465523
 40
4.000000
  1
10
 41
0.854701
 50
0.000000
 51
0.000000
 72
   5
 73
   0
 11
385.249044
 21
-34.465523
  0
TEXT
  8
5
  6
CONTINUOUS
 62
6
 10
381.249044
 20
-313.465523
 40
4.000000
  1
10
 41
0.854701
 50
0.000000
 51
0.000000
 72
   5
 73
   0
 11
385.249044
 21
-313.465523
  0
LINE
  8
5
  6
CONTINUOUS
 62
6
 10
-1.2509564999
 20
-234.4655230621
 11
3.2490435001
 21
-234.4655230621
  0
LINE
  8
5
  6
CONTINUOUS
 62
6
 10
401.2490435001
 20
-234.4655230621
 11
405.7490435001
 21
-234.4655230621
  0
LINE
  8
5
  6
CONTINUOUS
 62
6
 10
-1.2509564999
 20
-274.4655230621
 11
3.2490435001
 21
-274.4655230621
  0
LINE
  8
5
  6
CONTINUOUS
 62
6
 10
401.2490435001
 20
-274.4655230621
 11
405.7490435001
 21
-274.4655230621
  0
TEXT
  8
5
  6
CONTINUOUS
 62
6
 10
0.703816
 20
-256.511380
 40
4.000000
  1
F
 41
1.102000
 50
0.000000
 51
0.000000
 72
   5
 73
   0
 11
2.907816
 21
-256.511380
  0
TEXT
  8
5
  6
CONTINUOUS
 62
6
 10
401.535557
 20
-256.473169
 40
4.000000
  1
F
 41
1.102000
 50
0.000000
 51
0.000000
 72
   5
 73
   0
 11
403.739557
 21
-256.473169
  0
TEXT
  8
5
  6
CONTINUOUS
 62
6
 10
0.187816
 20
-296.511380
 40
4.000000
  1
G
 41
1.360000
 50
0.000000
 51
0.000000
 72
   5
 73
   0
 11
2.907816
 21
-296.511380
  0
TEXT
  8
5
  6
CONTINUOUS
 62
6
 10
401.535557
 20
-296.473169
 40
4.000000
  1
G
 41
1.360000
 50
0.000000
 51
0.000000
 72
   5
 73
   0
 11
404.255557
 21
-296.473169
  0
LINE
  8
5
  6
CONTINUOUS
 62
6
 10
3.2490435001
 20
-34.4655230621
 11
401.2490435001
 21
-34.4655230621
  0
LINE
  8
5
  6
CONTINUOUS
 62
6
 10
401.2490435001
 20
-34.4655230621
 11
401.2490435001
 21
-309.4655230621
  0
POINT
  8
5
  6
CONTINUOUS
 62
6
 10
352.2490435001
 20
-293.4655230621
  0
POINT
  8
5
  6
CONTINUOUS
 62
6
 10
352.2490435001
 20
-305.9655230621
  0
LINE
  8
5
  6
CONTINUOUS
 62
6
 10
346.2490435001
 20
-287.4655230621
 11
401.2490435001
 21
-287.4655230621
  0
LINE
  8
5
  6
CONTINUOUS
 62
6
 10
346.2490435001
 20
-302.4655230621
 11
391.2490435001
 21
-302.4655230621
  0
TEXT
  8
5
  6
CONTINUOUS
 62
7
 10
361.677544
 20
-287.715523
 40
3.500000
  1
Document Name
 41
0.807728
 50
0.000000
 51
0.000000
 72
   5
 73
   0
 11
385.820544
 21
-287.715523
  0
TEXT
  8
5
  6
CONTINUOUS
 62
7
 10
358.427544
 20
-302.715523
 40
3.500000
  1
Document No.
 41
0.749428
 50
0.000000
 51
0.000000
 72
   5
 73
   0
 11
379.070544
 21
-302.715523
  0
ENDBLK
  8
0
  0
BLOCK
  8
3
  2
BALN1
 70
     0
 10
219.1421374659
 20
-216.6011842222
  3
BALN1
  0
SOLID
  8
3
  6
CONTINUOUS
 62
5
 10
220.7873304727
 20
-215.4639331635
 11
221.1355419332
 21
-216.4388924183
 12
219.1421374659
 22
-216.6011842222
 13
219.1421374659
 23
-216.6011842222
  0
LINE
  8
3
  6
BYBLOCK
 62
5
 10
219.1421374659
 20
-216.6011842222
 11
227.7919224945
 21
-213.5118712447
  0
CIRCLE
  8
3
  6
BYBLOCK
 62
5
 10
230.6171374658
 20
-212.5028319165
 40
3.0000000000
  0
TEXT
  8
3
  6
CONTINUOUS
 62
7
 10
227.992137
 20
-214.252832
 40
3.500000
  1
111
 41
0.815217
 50
0.000000
 51
0.000000
 72
   5
 73
   0
 11
233.242137
 21
-214.252832
  0
ENDBLK
  8
0
  0
BLOCK
  8
3
  2
BALN2
 70
     0
 10
212.0334406374
 20
-219.2431864733
  3
BALN2
  0
SOLID
  8
3
  6
CONTINUOUS
 62
5
 10
214.0324978485
 20
-219.3045889721
 11
213.7339737164
 21
-220.2958912027
 12
212.0334406374
 22
-219.2431864733
 13
212.0334406374
 23
-219.2431864733
  0
LINE
  8
3
  6
BYBLOCK
 62
5
 10
212.0334406374
 20
-219.2431864733
 11
227.7445641874
 21
-223.9744877626
  0
CIRCLE
  8
3
  6
BYBLOCK
 62
5
 10
230.6171374659
 20
-224.8395442694
 40
3.0000000000
  0
TEXT
  8
3
  6
CONTINUOUS
 62
7
 10
227.992137
 20
-226.589544
 40
3.500000
  1
112
 41
0.815217
 50
0.000000
 51
0.000000
 72
   5
 73
   0
 11
233.242137
 21
-226.589544
  0
ENDBLK
  8
0
  0
BLOCK
  8
3
  2
BALN3
 70
     0
 10
261.0921374659
 20
-216.6011842222
  3
BALN3
  0
SOLID
  8
3
  6
CONTINUOUS
 62
5
 10
262.7373304727
 20
-215.4639331635
 11
263.0855419332
 21
-216.4388924183
 12
261.0921374659
 22
-216.6011842222
 13
261.0921374659
 23
-216.6011842222
  0
LINE
  8
3
  6
BYBLOCK
 62
5
 10
261.0921374659
 20
-216.6011842222
 11
269.7419224945
 21
-213.5118712447
  0
CIRCLE
  8
3
  6
BYBLOCK
 62
5
 10
272.5671374658
 20
-212.5028319165
 40
3.0000000000
  0
TEXT
  8
3
  6
CONTINUOUS
 62
7
 10
269.942137
 20
-214.252832
 40
3.500000
  1
113
 41
0.815217
 50
0.000000
 51
0.000000
 72
   5
 73
   0
 11
275.192137
 21
-214.252832
  0
ENDBLK
  8
0
  0
BLOCK
  8
3
  2
BALN4
 70
     0
 10
253.9834406374
 20
-219.2431864733
  3
BALN4
  0
SOLID
  8
3
  6
CONTINUOUS
 62
5
 10
255.9824978485
 20
-219.3045889721
 11
255.6839737164
 21
-220.2958912027
 12
253.9834406374
 22
-219.2431864733
 13
253.9834406374
 23
-219.2431864733
  0
LINE
  8
3
  6
BYBLOCK
 62
5
 10
253.9834406374
 20
-219.2431864733
 11
269.6945641874
 21
-223.9744877626
  0
CIRCLE
  8
3
  6
BYBLOCK
 62
5
 10
272.5671374659
 20
-224.8395442694
 40
3.0000000000
  0
TEXT
  8
3
  6
CONTINUOUS
 62
7
 10
269.942137
 20
-226.589544
 40
3.500000
  1
114
 41
0.815217
 50
0.000000
 51
0.000000
 72
   5
 73
   0
 11
275.192137
 21
-226.589544
  0
ENDBLK
  8
0
  0
BLOCK
  8
1
  2
LTEX0
 70
     0
 10
143.4661466639
 20
87.8525214537
  3
LTEX0
  0
SOLID
  8
1
  6
CONTINUOUS
 62
5
 10
143.3932367761
 20
85.8538508584
 11
142.4036695513
 21
86.1580768883
 12
143.4661466639
 22
87.8525214537
 13
143.4661466639
 23
87.8525214537
  0
TEXT
  8
1
  6
CONTINUOUS
 62
7
 10
135.592421
 20
63.241364
 40
5.000000
  1
 ⑥⑦
 41
0.880282
 50
0.000000
 51
0.000000
 72
   5
 73
   0
 11
148.092421
 21
63.241364
  0
LINE
  8
1
  6
BYBLOCK
 62
5
 10
143.4661466639
 20
87.8525214537
 11
135.5924212135
 21
62.2413643591
  0
LINE
  8
1
  6
BYBLOCK
 62
5
 10
135.5924212135
 20
62.2413643591
 11
148.0924212135
 21
62.2413643591
  0
ENDBLK
  8
0
  0
BLOCK
  8
3
  2
S4
 70
     0
 10
73.5343218446
 20
-236.2536191571
  3
S4
  0
CIRCLE
  8
3
  6
CONTINUOUS
 62
5
 10
73.5343218446
 20
-236.2536191571
 40
1.5000000000
  0
LINE
  8
3
  6
CONTINUOUS
 62
5
 10
74.6593218446
 20
-236.2536191571
 11
72.4093218446
 21
-236.2536191571
  0
LINE
  8
3
  6
CONTINUOUS
 62
5
 10
74.2843218446
 20
-236.8161191571
 11
72.7843218446
 21
-236.8161191571
  0
LINE
  8
3
  6
CONTINUOUS
 62
5
 10
73.9093218446
 20
-237.3786191571
 11
73.1593218446
 21
-237.3786191571
  0
LINE
  8
3
  6
CONTINUOUS
 62
5
 10
73.5343218446
 20
-236.2536191571
 11
73.5343218446
 21
-235.1286191571
  0
ENDBLK
  8
0
  0
BLOCK
  8
3
  2
S5
 70
     0
 10
174.6310958456
 20
-90.1596277438
  3
S5
  0
CIRCLE
  8
3
  6
CONTINUOUS
 62
5
 10
174.6310958456
 20
-90.1596277438
 40
1.5000000000
  0
LINE
  8
3
  6
CONTINUOUS
 62
5
 10
175.7560958457
 20
-90.1596277438
 11
173.5060958457
 21
-90.1596277438
  0
LINE
  8
3
  6
CONTINUOUS
 62
5
 10
175.3810958457
 20
-90.7221277438
 11
173.8810958457
 21
-90.7221277438
  0
LINE
  8
3
  6
CONTINUOUS
 62
5
 10
175.0060958457
 20
-91.2846277438
 11
174.2560958457
 21
-91.2846277438
  0
LINE
  8
3
  6
CONTINUOUS
 62
5
 10
174.6310958456
 20
-90.1596277438
 11
174.6310958457
 21
-89.0346277438
  0
ENDBLK
  8
0
  0
BLOCK
  8
1
  2
BALN5
 70
     0
 10
162.3511050565
 20
-80.8142186975
  3
BALN5
  0
SOLID
  8
1
  6
CONTINUOUS
 62
5
 10
161.3188283599
 20
-79.1012082417
 11
162.3136324414
 21
-78.8145697775
 12
162.3511050565
 22
-80.8142186975
 13
162.3511050565
 23
-80.8142186975
  0
LINE
  8
1
  6
BYBLOCK
 62
5
 10
162.3511050565
 20
-80.8142186975
 11
159.4681521313
 21
-70.8086761926
  0
CIRCLE
  8
1
  6
BYBLOCK
 62
5
 10
158.6375376453
 20
-67.9259553294
 40
3.0000000000
  0
TEXT
  8
1
  6
CONTINUOUS
 62
7
 10
156.887538
 20
-69.675955
 40
3.500000
  1
91
 41
0.854701
 50
0.000000
 51
0.000000
 72
   5
 73
   0
 11
160.387538
 21
-69.675955
  0
ENDBLK
  8
0
  0
BLOCK
  8
1
  2
BALN6
 70
     0
 10
184.3874683405
 20
-80.7491436235
  3
BALN6
  0
SOLID
  8
1
  6
CONTINUOUS
 62
5
 10
183.2766123562
 20
-79.0860143494
 11
184.2570034752
 21
-78.7534034303
 12
184.3874683405
 22
-80.7491436235
 13
184.3874683405
 23
-80.7491436235
  0
LINE
  8
1
  6
BYBLOCK
 62
5
 10
184.3874683405
 20
-80.7491436235
 11
181.0008610716
 21
-70.7669106344
  0
CIRCLE
  8
1
  6
BYBLOCK
 62
5
 10
180.0370286408
 20
-67.9259553294
 40
3.0000000000
  0
TEXT
  8
1
  6
CONTINUOUS
 62
7
 10
178.287029
 20
-69.675955
 40
3.500000
  1
92
 41
0.854701
 50
0.000000
 51
0.000000
 72
   5
 73
   0
 11
181.787029
 21
-69.675955
  0
ENDBLK
  8
0
  0
BLOCK
  8
1
  2
BALN7
 70
     0
 10
230.3874683405
 20
-80.7491436235
  3
BALN7
  0
SOLID
  8
1
  6
CONTINUOUS
 62
5
 10
229.2766123562
 20
-79.0860143494
 11
230.2570034752
 21
-78.7534034303
 12
230.3874683405
 22
-80.7491436235
 13
230.3874683405
 23
-80.7491436235
  0
LINE
  8
1
  6
BYBLOCK
 62
5
 10
230.3874683405
 20
-80.7491436235
 11
227.0008610716
 21
-70.7669106344
  0
CIRCLE
  8
1
  6
BYBLOCK
 62
5
 10
226.0370286408
 20
-67.9259553294
 40
3.0000000000
  0
TEXT
  8
1
  6
CONTINUOUS
 62
7
 10
224.287029
 20
-69.675955
 40
3.500000
  1
94
 41
0.854701
 50
0.000000
 51
0.000000
 72
   5
 73
   0
 11
227.787029
 21
-69.675955
  0
ENDBLK
  8
0
  0
BLOCK
  8
1
  2
BALN8
 70
     0
 10
208.3511050565
 20
-80.8142186975
  3
BALN8
  0
SOLID
  8
1
  6
CONTINUOUS
 62
5
 10
207.3188283599
 20
-79.1012082417
 11
208.3136324414
 21
-78.8145697775
 12
208.3511050565
 22
-80.8142186975
 13
208.3511050565
 23
-80.8142186975
  0
LINE
  8
1
  6
BYBLOCK
 62
5
 10
208.3511050565
 20
-80.8142186975
 11
205.4681521313
 21
-70.8086761926
  0
CIRCLE
  8
1
  6
BYBLOCK
 62
5
 10
204.6375376453
 20
-67.9259553294
 40
3.0000000000
  0
TEXT
  8
1
  6
CONTINUOUS
 62
7
 10
202.887538
 20
-69.675955
 40
3.500000
  1
93
 41
0.854701
 50
0.000000
 51
0.000000
 72
   5
 73
   0
 11
206.387538
 21
-69.675955
  0
ENDBLK
  8
0
  0
BLOCK
  8
1
  2
BALN9
 70
     0
 10
276.3874683405
 20
-80.7491436235
  3
BALN9
  0
SOLID
  8
1
  6
CONTINUOUS
 62
5
 10
275.2766123562
 20
-79.0860143494
 11
276.2570034752
 21
-78.7534034303
 12
276.3874683405
 22
-80.7491436235
 13
276.3874683405
 23
-80.7491436235
  0
LINE
  8
1
  6
BYBLOCK
 62
5
 10
276.3874683405
 20
-80.7491436235
 11
273.0008610716
 21
-70.7669106344
  0
CIRCLE
  8
1
  6
BYBLOCK
 62
5
 10
272.0370286408
 20
-67.9259553294
 40
3.0000000000
  0
TEXT
  8
1
  6
CONTINUOUS
 62
7
 10
270.287029
 20
-69.675955
 40
3.500000
  1
96
 41
0.854701
 50
0.000000
 51
0.000000
 72
   5
 73
   0
 11
273.787029
 21
-69.675955
  0
ENDBLK
  8
0
  0
BLOCK
  8
1
  2
BALN10
 70
     0
 10
254.3511050565
 20
-80.8142186975
  3
BALN10
  0
SOLID
  8
1
  6
CONTINUOUS
 62
5
 10
253.3188283599
 20
-79.1012082417
 11
254.3136324414
 21
-78.8145697775
 12
254.3511050565
 22
-80.8142186975
 13
254.3511050565
 23
-80.8142186975
  0
LINE
  8
1
  6
BYBLOCK
 62
5
 10
254.3511050565
 20
-80.8142186975
 11
251.4681521313
 21
-70.8086761926
  0
CIRCLE
  8
1
  6
BYBLOCK
 62
5
 10
250.6375376453
 20
-67.9259553294
 40
3.0000000000
  0
TEXT
  8
1
  6
CONTINUOUS
 62
7
 10
248.887538
 20
-69.675955
 40
3.500000
  1
95
 41
0.854701
 50
0.000000
 51
0.000000
 72
   5
 73
   0
 11
252.387538
 21
-69.675955
  0
ENDBLK
  8
0
  0
BLOCK
  8
4
  2
*D7
 70
     1
 10
0.0000000000
 20
0.0000000000
  3
*D7
  0
LINE
  8
4
  6
BYBLOCK
 62
5
 10
323.7097392007
 20
173.1540475624
 11
323.7097392007
 21
184.8474963863
  0
LINE
  8
4
  6
BYBLOCK
 62
5
 10
330.2097392007
 20
176.1540475624
 11
330.2097392007
 21
184.8474963863
  0
LINE
  8
4
  6
BYBLOCK
 62
5
 10
330.2097392007
 20
183.8474963863
 11
323.7097392007
 21
183.8474963863
  0
SOLID
  8
4
  6
CONTINUOUS
 62
5
 10
325.6415908533
 20
184.3651344765
 11
325.6415908533
 21
183.3298582961
 12
323.7097392007
 22
183.8474963863
 13
323.7097392007
 23
183.8474963863
  0
SOLID
  8
4
  6
CONTINUOUS
 62
5
 10
328.2778875481
 20
183.3298582961
 11
328.2778875481
 21
184.3651344765
 12
330.2097392007
 22
183.8474963863
 13
330.2097392007
 23
183.8474963863
  0
TEXT
  8
4
  6
CONTINUOUS
 62
7
 10
324.334739
 20
184.847496
 40
3.500000
  1
6.5
 41
0.815217
 50
0.000000
 51
0.000000
 72
   5
 73
   0
 11
329.584739
 21
184.847496
  0
POINT
  8
DEFPOINTS
  6
BYBLOCK
 62
5
 10
323.7097392007
 20
172.6540475624
  0
POINT
  8
DEFPOINTS
  6
BYBLOCK
 62
5
 10
330.2097392007
 20
175.6540475624
  0
POINT
  8
DEFPOINTS
  6
BYBLOCK
 62
5
 10
330.2097392007
 20
183.8474963863
  0
ENDBLK
  8
0
  0
BLOCK
  8
4
  2
*D8
 70
     1
 10
0.0000000000
 20
0.0000000000
  3
*D8
  0
LINE
  8
4
  6
BYBLOCK
 62
5
 10
350.2097392007
 20
175.4040475624
 11
350.2097392007
 21
184.8474963863
  0
LINE
  8
4
  6
BYBLOCK
 62
5
 10
350.2097392007
 20
183.8474963863
 11
330.2097392007
 21
183.8474963863
  0
SOLID
  8
4
  6
CONTINUOUS
 62
5
 10
332.1415908533
 20
184.3651344765
 11
332.1415908533
 21
183.3298582961
 12
330.2097392007
 22
183.8474963863
 13
330.2097392007
 23
183.8474963863
  0
SOLID
  8
4
  6
CONTINUOUS
 62
5
 10
348.2778875481
 20
183.3298582961
 11
348.2778875481
 21
184.3651344765
 12
350.2097392007
 22
183.8474963863
 13
350.2097392007
 23
183.8474963863
  0
TEXT
  8
4
  6
CONTINUOUS
 62
7
 10
338.459739
 20
184.847496
 40
3.500000
  1
20
 41
0.854701
 50
0.000000
 51
0.000000
 72
   5
 73
   0
 11
341.959739
 21
184.847496
  0
POINT
  8
DEFPOINTS
  6
BYBLOCK
 62
5
 10
330.2097392007
 20
175.6540475624
  0
POINT
  8
DEFPOINTS
  6
BYBLOCK
 62
5
 10
350.2097392007
 20
174.9040475624
  0
POINT
  8
DEFPOINTS
  6
BYBLOCK
 62
5
 10
350.2097392007
 20
183.8474963863
  0
ENDBLK
  8
0
  0
BLOCK
  8
4
  2
*D9
 70
     1
 10
0.0000000000
 20
0.0000000000
  3
*D9
  0
LINE
  8
4
  6
BYBLOCK
 62
5
 10
370.2097392007
 20
176.1540475624
 11
370.2097392007
 21
184.8474963863
  0
LINE
  8
4
  6
BYBLOCK
 62
5
 10
370.2097392007
 20
183.8474963863
 11
350.2097392007
 21
183.8474963863
  0
SOLID
  8
4
  6
CONTINUOUS
 62
5
 10
352.1415908533
 20
184.3651344765
 11
352.1415908533
 21
183.3298582961
 12
350.2097392007
 22
183.8474963863
 13
350.2097392007
 23
183.8474963863
  0
SOLID
  8
4
  6
CONTINUOUS
 62
5
 10
368.2778875481
 20
183.3298582961
 11
368.2778875481
 21
184.3651344765
 12
370.2097392007
 22
183.8474963863
 13
370.2097392007
 23
183.8474963863
  0
TEXT
  8
4
  6
CONTINUOUS
 62
7
 10
358.459739
 20
184.847496
 40
3.500000
  1
20
 41
0.854701
 50
0.000000
 51
0.000000
 72
   5
 73
   0
 11
361.959739
 21
184.847496
  0
POINT
  8
DEFPOINTS
  6
BYBLOCK
 62
5
 10
350.2097392007
 20
174.9040475624
  0
POINT
  8
DEFPOINTS
  6
BYBLOCK
 62
5
 10
370.2097392007
 20
175.6540475624
  0
POINT
  8
DEFPOINTS
  6
BYBLOCK
 62
5
 10
370.2097392007
 20
183.8474963863
  0
ENDBLK
  8
0
  0
BLOCK
  8
4
  2
*D10
 70
     1
 10
0.0000000000
 20
0.0000000000
  3
*D10
  0
LINE
  8
4
  6
BYBLOCK
 62
5
 10
376.7097392007
 20
173.1540475624
 11
376.7097392007
 21
184.8474963863
  0
LINE
  8
4
  6
BYBLOCK
 62
5
 10
376.7097392007
 20
183.8474963863
 11
370.2097392007
 21
183.8474963863
  0
SOLID
  8
4
  6
CONTINUOUS
 62
5
 10
372.1415908533
 20
184.3651344765
 11
372.1415908533
 21
183.3298582961
 12
370.2097392007
 22
183.8474963863
 13
370.2097392007
 23
183.8474963863
  0
SOLID
  8
4
  6
CONTINUOUS
 62
5
 10
374.7778875481
 20
183.3298582961
 11
374.7778875481
 21
184.3651344765
 12
376.7097392007
 22
183.8474963863
 13
376.7097392007
 23
183.8474963863
  0
TEXT
  8
4
  6
CONTINUOUS
 62
7
 10
370.834739
 20
184.847496
 40
3.500000
  1
6.5
 41
0.815217
 50
0.000000
 51
0.000000
 72
   5
 73
   0
 11
376.084739
 21
184.847496
  0
POINT
  8
DEFPOINTS
  6
BYBLOCK
 62
5
 10
370.2097392007
 20
175.6540475624
  0
POINT
  8
DEFPOINTS
  6
BYBLOCK
 62
5
 10
376.7097392007
 20
172.6540475624
  0
POINT
  8
DEFPOINTS
  6
BYBLOCK
 62
5
 10
376.7097392007
 20
183.8474963863
  0
ENDBLK
  8
0
  0
BLOCK
  8
4
  2
*D11
 70
     1
 10
0.0000000000
 20
0.0000000000
  3
*D11
  0
LINE
  8
4
  6
BYBLOCK
 62
5
 10
323.7097392007
 20
184.8474963863
 11
323.7097392007
 21
191.8474963863
  0
LINE
  8
4
  6
BYBLOCK
 62
5
 10
376.7097392007
 20
173.1540475624
 11
376.7097392007
 21
191.8474963863
  0
LINE
  8
4
  6
BYBLOCK
 62
5
 10
376.7097392007
 20
190.8474963863
 11
323.7097392007
 21
190.8474963863
  0
SOLID
  8
4
  6
CONTINUOUS
 62
5
 10
325.6415908533
 20
191.3651344765
 11
325.6415908533
 21
190.3298582961
 12
323.7097392007
 22
190.8474963863
 13
323.7097392007
 23
190.8474963863
  0
SOLID
  8
4
  6
CONTINUOUS
 62
5
 10
374.7778875481
 20
190.3298582961
 11
374.7778875481
 21
191.3651344765
 12
376.7097392007
 22
190.8474963863
 13
376.7097392007
 23
190.8474963863
  0
TEXT
  8
4
  6
CONTINUOUS
 62
7
 10
348.459739
 20
191.847496
 40
3.500000
  1
53
 41
0.854701
 50
0.000000
 51
0.000000
 72
   5
 73
   0
 11
351.959739
 21
191.847496
  0
POINT
  8
DEFPOINTS
  6
BYBLOCK
 62
5
 10
323.7097392007
 20
172.6540475624
  0
POINT
  8
DEFPOINTS
  6
BYBLOCK
 62
5
 10
376.7097392007
 20
172.6540475624
  0
POINT
  8
DEFPOINTS
  6
BYBLOCK
 62
5
 10
376.7097392007
 20
190.8474963863
  0
ENDBLK
  8
0
  0
BLOCK
  8
4
  2
*D12
 70
     1
 10
0.0000000000
 20
0.0000000000
  3
*D12
  0
LINE
  8
4
  6
BYBLOCK
 62
5
 10
329.3588695761
 20
178.3893697398
 11
327.9407535351
 21
180.4482400354
  0
LINE
  8
4
  6
BYBLOCK
 62
5
 10
331.0606088253
 20
175.9187253850
 11
332.4787248663
 21
173.8598550893
  0
SOLID
  8
4
  6
CONTINUOUS
 62
5
 10
327.8367337741
 20
179.6867141813
 11
328.6893335243
 21
180.2739708847
 12
329.3588695761
 22
178.3893697398
 13
329.3588695761
 23
178.3893697398
  0
SOLID
  8
4
  6
CONTINUOUS
 62
5
 10
332.5827446274
 20
174.6213809434
 11
331.7301448771
 21
174.0341242401
 12
331.0606088253
 22
175.9187253850
 13
331.0606088253
 23
175.9187253850
  0
TEXT
  8
4
  6
CONTINUOUS
 62
7
 10
337.089904
 20
168.928087
 40
3.500000
  1
4-M3
 41
0.796813
 50
304.558432
 51
0.000000
 72
   5
 73
   0
 11
341.060629
 21
163.163250
  0
POINT
  8
DEFPOINTS
  6
BYBLOCK
 62
5
 10
329.3588695761
 20
178.3893697398
  0
POINT
  8
DEFPOINTS
  6
BYBLOCK
 62
5
 10
331.0606088253
 20
175.9187253850
  0
LINE
  8
4
  6
BYBLOCK
 62
5
 10
329.3588695761
 20
178.3893697398
 11
340.2370804662
 21
162.5960040178
  0
ENDBLK
  8
0
  0
BLOCK
  8
4
  2
*D13
 70
     1
 10
0.0000000000
 20
0.0000000000
  3
*D13
  0
LINE
  8
4
  6
BYBLOCK
 62
5
 10
348.8085413633
 20
178.9144863203
 11
347.2516548772
 21
180.8705293846
  0
LINE
  8
4
  6
BYBLOCK
 62
5
 10
351.6109370382
 20
175.3936088045
 11
353.1678235242
 21
173.4375657401
  0
SOLID
  8
4
  6
CONTINUOUS
 62
5
 10
347.2004629124
 20
180.1036388319
 11
348.0104808294
 21
180.7483618297
 12
348.8085413633
 22
178.9144863203
 13
348.8085413633
 23
178.9144863203
  0
SOLID
  8
4
  6
CONTINUOUS
 62
5
 10
353.2190154890
 20
174.2044562928
 11
352.4089975721
 21
173.5597332950
 12
351.6109370382
 22
175.3936088045
 13
351.6109370382
 23
175.3936088045
  0
TEXT
  8
4
  6
CONTINUOUS
 62
7
 10
358.235387
 20
168.676543
 40
3.500000
  1
2-φ4.5
 41
0.804598
 50
308.517570
 51
0.000000
 72
   5
 73
   0
 11
365.864131
 21
159.091932
  0
POINT
  8
DEFPOINTS
  6
BYBLOCK
 62
5
 10
348.8085413633
 20
178.9144863203
  0
POINT
  8
DEFPOINTS
  6
BYBLOCK
 62
5
 10
351.6109370382
 20
175.3936088045
  0
LINE
  8
4
  6
BYBLOCK
 62
5
 10
348.8085413633
 20
178.9144863203
 11
365.0817132872
 21
158.4691774542
  0
ENDBLK
  8
0
  0
BLOCK
  8
1
  2
*D14
 70
     1
 10
0.0000000000
 20
0.0000000000
  3
*D14
  0
LINE
  8
1
  6
BYBLOCK
 62
5
 10
371.2097392007
 20
60.1540475624
 11
310.5138729176
 21
60.1540475624
  0
LINE
  8
1
  6
BYBLOCK
 62
5
 10
323.2097392007
 20
64.6540475624
 11
310.5138729176
 21
64.6540475624
  0
LINE
  8
1
  6
BYBLOCK
 62
5
 10
311.5138729176
 20
67.1540475624
 11
311.5138729176
 21
57.6540475624
  0
SOLID
  8
1
  6
CONTINUOUS
 62
5
 10
312.0315110078
 20
58.2221959098
 11
310.9962348274
 21
58.2221959098
 12
311.5138729176
 22
60.1540475624
 13
311.5138729176
 23
60.1540475624
  0
SOLID
  8
1
  6
CONTINUOUS
 62
5
 10
310.9962348274
 20
66.5858992150
 11
312.0315110078
 21
66.5858992150
 12
311.5138729176
 22
64.6540475624
 13
311.5138729176
 23
64.6540475624
  0
TEXT
  8
1
  6
CONTINUOUS
 62
7
 10
310.513873
 20
60.154048
 40
3.000000
  1
4.5
 41
0.815217
 50
90.000000
 51
0.000000
 72
   5
 73
   0
 11
310.513873
 21
64.654048
  0
POINT
  8
DEFPOINTS
  6
BYBLOCK
 62
5
 10
371.7097392007
 20
60.1540475624
  0
POINT
  8
DEFPOINTS
  6
BYBLOCK
 62
5
 10
323.7097392007
 20
64.6540475624
  0
POINT
  8
DEFPOINTS
  6
BYBLOCK
 62
5
 10
311.5138729176
 20
64.6540475624
  0
ENDBLK
  8
0
  0
BLOCK
  8
1
  2
*D15
 70
     1
 10
0.0000000000
 20
0.0000000000
  3
*D15
  0
LINE
  8
1
  6
BYBLOCK
 62
5
 10
323.2097392007
 20
172.6540475624
 11
310.5138729176
 21
172.6540475624
  0
LINE
  8
1
  6
BYBLOCK
 62
5
 10
311.5138729176
 20
172.6540475624
 11
311.5138729176
 21
64.6540475624
  0
SOLID
  8
1
  6
CONTINUOUS
 62
5
 10
310.9962348274
 20
66.5858992150
 11
312.0315110078
 21
66.5858992150
 12
311.5138729176
 22
64.6540475624
 13
311.5138729176
 23
64.6540475624
  0
SOLID
  8
1
  6
CONTINUOUS
 62
5
 10
312.0315110078
 20
170.7221959098
 11
310.9962348274
 21
170.7221959098
 12
311.5138729176
 22
172.6540475624
 13
311.5138729176
 23
172.6540475624
  0
TEXT
  8
1
  6
CONTINUOUS
 62
7
 10
310.513873
 20
116.029048
 40
3.500000
  1
108
 41
0.815217
 50
90.000000
 51
0.000000
 72
   5
 73
   0
 11
310.513873
 21
121.279048
  0
POINT
  8
DEFPOINTS
  6
BYBLOCK
 62
5
 10
323.7097392007
 20
64.6540475624
  0
POINT
  8
DEFPOINTS
  6
BYBLOCK
 62
5
 10
323.7097392007
 20
172.6540475624
  0
POINT
  8
DEFPOINTS
  6
BYBLOCK
 62
5
 10
311.5138729176
 20
172.6540475624
  0
ENDBLK
  8
0
  0
BLOCK
  8
1
  2
*D16
 70
     1
 10
0.0000000000
 20
0.0000000000
  3
*D16
  0
LINE
  8
1
  6
BYBLOCK
 62
5
 10
371.2097392007
 20
177.1540475624
 11
310.5138729176
 21
177.1540475624
  0
LINE
  8
1
  6
BYBLOCK
 62
5
 10
311.5138729176
 20
179.6540475624
 11
311.5138729176
 21
170.1540475624
  0
SOLID
  8
1
  6
CONTINUOUS
 62
5
 10
312.0315110078
 20
170.7221959098
 11
310.9962348274
 21
170.7221959098
 12
311.5138729176
 22
172.6540475624
 13
311.5138729176
 23
172.6540475624
  0
SOLID
  8
1
  6
CONTINUOUS
 62
5
 10
310.9962348274
 20
179.0858992150
 11
312.0315110078
 21
179.0858992150
 12
311.5138729176
 22
177.1540475624
 13
311.5138729176
 23
177.1540475624
  0
TEXT
  8
1
  6
CONTINUOUS
 62
7
 10
309.513873
 20
172.654048
 40
3.000000
  1
4.5
 41
0.815217
 50
90.000000
 51
0.000000
 72
   5
 73
   0
 11
309.513873
 21
177.154048
  0
POINT
  8
DEFPOINTS
  6
BYBLOCK
 62
5
 10
323.7097392007
 20
172.6540475624
  0
POINT
  8
DEFPOINTS
  6
BYBLOCK
 62
5
 10
371.7097392007
 20
177.1540475624
  0
POINT
  8
DEFPOINTS
  6
BYBLOCK
 62
5
 10
311.5138729176
 20
177.1540475624
  0
ENDBLK
  8
0
  0
BLOCK
  8
1
  2
*D17
 70
     1
 10
0.0000000000
 20
0.0000000000
  3
*D17
  0
LINE
  8
1
  6
BYBLOCK
 62
5
 10
310.5138729176
 20
60.1540475624
 11
303.5138729176
 21
60.1540475624
  0
LINE
  8
1
  6
BYBLOCK
 62
5
 10
371.2097392007
 20
177.1540475624
 11
303.5138729176
 21
177.1540475624
  0
LINE
  8
1
  6
BYBLOCK
 62
5
 10
304.5138729176
 20
177.1540475624
 11
304.5138729176
 21
60.1540475624
  0
SOLID
  8
1
  6
CONTINUOUS
 62
5
 10
303.9962348274
 20
62.0858992150
 11
305.0315110078
 21
62.0858992150
 12
304.5138729176
 22
60.1540475624
 13
304.5138729176
 23
60.1540475624
  0
SOLID
  8
1
  6
CONTINUOUS
 62
5
 10
305.0315110078
 20
175.2221959098
 11
303.9962348274
 21
175.2221959098
 12
304.5138729176
 22
177.1540475624
 13
304.5138729176
 23
177.1540475624
  0
TEXT
  8
1
  6
CONTINUOUS
 62
7
 10
303.513873
 20
116.029048
 40
3.500000
  1
117
 41
0.815217
 50
90.000000
 51
0.000000
 72
   5
 73
   0
 11
303.513873
 21
121.279048
  0
POINT
  8
DEFPOINTS
  6
BYBLOCK
 62
5
 10
371.7097392007
 20
60.1540475624
  0
POINT
  8
DEFPOINTS
  6
BYBLOCK
 62
5
 10
371.7097392007
 20
177.1540475624
  0
POINT
  8
DEFPOINTS
  6
BYBLOCK
 62
5
 10
304.5138729176
 20
177.1540475624
  0
ENDBLK
  8
0
  0
BLOCK
  8
1
  2
*D18
 70
     1
 10
0.0000000000
 20
0.0000000000
  3
*D18
  0
LINE
  8
1
  6
BYBLOCK
 62
5
 10
385.2097392007
 20
44.4040475624
 11
393.3529732637
 21
44.4040475624
  0
LINE
  8
1
  6
BYBLOCK
 62
5
 10
377.2097392007
 20
64.6540475624
 11
393.3529732637
 21
64.6540475624
  0
LINE
  8
1
  6
BYBLOCK
 62
5
 10
392.3529732637
 20
64.6540475624
 11
392.3529732637
 21
44.4040475624
  0
SOLID
  8
1
  6
CONTINUOUS
 62
5
 10
391.8353351735
 20
46.3358992150
 11
392.8706113539
 21
46.3358992150
 12
392.3529732637
 22
44.4040475624
 13
392.3529732637
 23
44.4040475624
  0
SOLID
  8
1
  6
CONTINUOUS
 62
5
 10
392.8706113539
 20
62.7221959098
 11
391.8353351735
 21
62.7221959098
 12
392.3529732637
 22
64.6540475624
 13
392.3529732637
 23
64.6540475624
  0
TEXT
  8
1
  6
CONTINUOUS
 62
7
 10
391.352973
 20
50.154048
 40
3.500000
  1
20.25
 41
0.786164
 50
90.000000
 51
0.000000
 72
   5
 73
   0
 11
391.352973
 21
58.904048
  0
POINT
  8
DEFPOINTS
  6
BYBLOCK
 62
5
 10
384.7097392007
 20
44.4040475624
  0
POINT
  8
DEFPOINTS
  6
BYBLOCK
 62
5
 10
376.7097392007
 20
64.6540475624
  0
POINT
  8
DEFPOINTS
  6
BYBLOCK
 62
5
 10
392.3529732637
 20
64.6540475624
  0
ENDBLK
  8
0
  0
BLOCK
  8
1
  2
*D19
 70
     1
 10
0.0000000000
 20
0.0000000000
  3
*D19
  0
LINE
  8
1
  6
BYBLOCK
 62
5
 10
377.2097392007
 20
172.6540475624
 11
393.3529732637
 21
172.6540475624
  0
LINE
  8
1
  6
BYBLOCK
 62
5
 10
392.3529732637
 20
172.6540475624
 11
392.3529732637
 21
64.6540475624
  0
SOLID
  8
1
  6
CONTINUOUS
 62
5
 10
391.8353351735
 20
66.5858992150
 11
392.8706113539
 21
66.5858992150
 12
392.3529732637
 22
64.6540475624
 13
392.3529732637
 23
64.6540475624
  0
SOLID
  8
1
  6
CONTINUOUS
 62
5
 10
392.8706113539
 20
170.7221959098
 11
391.8353351735
 21
170.7221959098
 12
392.3529732637
 22
172.6540475624
 13
392.3529732637
 23
172.6540475624
  0
TEXT
  8
1
  6
CONTINUOUS
 62
7
 10
391.352973
 20
116.029048
 40
3.500000
  1
108
 41
0.815217
 50
90.000000
 51
0.000000
 72
   5
 73
   0
 11
391.352973
 21
121.279048
  0
POINT
  8
DEFPOINTS
  6
BYBLOCK
 62
5
 10
376.7097392007
 20
64.6540475624
  0
POINT
  8
DEFPOINTS
  6
BYBLOCK
 62
5
 10
376.7097392007
 20
172.6540475624
  0
POINT
  8
DEFPOINTS
  6
BYBLOCK
 62
5
 10
392.3529732637
 20
172.6540475624
  0
ENDBLK
  8
0
  0
BLOCK
  8
1
  2
*D20
 70
     1
 10
0.0000000000
 20
0.0000000000
  3
*D20
  0
LINE
  8
1
  6
BYBLOCK
 62
5
 10
385.2097392007
 20
199.9040475624
 11
393.3529732637
 21
199.9040475624
  0
LINE
  8
1
  6
BYBLOCK
 62
5
 10
392.3529732637
 20
199.9040475624
 11
392.3529732637
 21
172.6540475624
  0
SOLID
  8
1
  6
CONTINUOUS
 62
5
 10
391.8353351735
 20
174.5858992150
 11
392.8706113539
 21
174.5858992150
 12
392.3529732637
 22
172.6540475624
 13
392.3529732637
 23
172.6540475624
  0
SOLID
  8
1
  6
CONTINUOUS
 62
5
 10
392.8706113539
 20
197.9721959098
 11
391.8353351735
 21
197.9721959098
 12
392.3529732637
 22
199.9040475624
 13
392.3529732637
 23
199.9040475624
  0
TEXT
  8
1
  6
CONTINUOUS
 62
7
 10
391.352973
 20
181.904048
 40
3.500000
  1
27.25
 41
0.786164
 50
90.000000
 51
0.000000
 72
   5
 73
   0
 11
391.352973
 21
190.654048
  0
POINT
  8
DEFPOINTS
  6
BYBLOCK
 62
5
 10
376.7097392007
 20
172.6540475624
  0
POINT
  8
DEFPOINTS
  6
BYBLOCK
 62
5
 10
384.7097392007
 20
199.9040475624
  0
POINT
  8
DEFPOINTS
  6
BYBLOCK
 62
5
 10
392.3529732637
 20
199.9040475624
  0
ENDBLK
  8
0
  0
BLOCK
  8
1
  2
LTEX1
 70
     0
 10
328.5640805301
 20
44.4040475624
  3
LTEX1
  0
SOLID
  8
1
  6
CONTINUOUS
 62
5
 10
329.3863241380
 20
46.2272084026
 11
330.1877448027
 21
45.5718293613
 12
328.5640805301
 22
44.4040475624
 13
328.5640805301
 23
44.4040475624
  0
TEXT
  8
1
  6
CONTINUOUS
 62
7
 10
333.059582
 20
50.901306
 40
2.500000
  1
製品外形
 41
0.886918
 50
0.000000
 51
0.000000
 72
   5
 73
   0
 11
343.059582
 21
50.901306
  0
LINE
  8
1
  6
BYBLOCK
 62
5
 10
328.5640805301
 20
44.4040475624
 11
333.0595822602
 21
49.9013060307
  0
LINE
  8
1
  6
BYBLOCK
 62
5
 10
333.0595822602
 20
49.9013060307
 11
343.0595822602
 21
49.9013060307
  0
ENDBLK
  8
0
  0
BLOCK
  8
1
  2
LTEX2
 70
     0
 10
52.1369338609
 20
-181.5025859312
  3
LTEX2
  0
SOLID
  8
1
  6
CONTINUOUS
 62
5
 10
52.2928185716
 20
-179.5086701966
 11
53.2688918477
 21
-179.8537466073
 12
52.1369338609
 22
-181.5025859312
 13
52.1369338609
 23
-181.5025859312
  0
TEXT
  8
1
  6
CONTINUOUS
 62
7
 10
56.299586
 20
-168.728228
 40
4.000000
  1
⑩ MINI DIN-6P 
 41
0.772400
 50
0.000000
 51
0.000000
 72
   5
 73
   0
 11
86.299586
 21
-168.728228
  0
LINE
  8
1
  6
BYBLOCK
 62
5
 10
52.1369338609
 20
-181.5025859312
 11
56.2995857962
 21
-169.7282276001
  0
LINE
  8
1
  6
BYBLOCK
 62
5
 10
56.2995857962
 20
-169.7282276001
 11
86.2995857962
 21
-169.7282276001
  0
ENDBLK
  8
0
  0
BLOCK
  8
1
  2
LTEX3
 70
     0
 10
174.2530218084
 20
165.1945205688
  3
LTEX3
  0
SOLID
  8
1
  6
CONTINUOUS
 62
5
 10
173.3036393191
 20
166.9548253404
 11
174.3109848406
 21
167.1936804640
 12
174.2530218084
 22
165.1945205688
 13
174.2530218084
 23
165.1945205688
  0
TEXT
  8
1
  6
CONTINUOUS
 62
7
 10
170.794138
 20
180.781986
 40
4.000000
  1
⑩ MINI DIN-6P 
 41
0.772400
 50
0.000000
 51
0.000000
 72
   5
 73
   0
 11
200.794138
 21
180.781986
  0
LINE
  8
1
  6
BYBLOCK
 62
5
 10
174.2530218084
 20
165.1945205688
 11
170.7941381815
 21
179.7819862998
  0
LINE
  8
1
  6
BYBLOCK
 62
5
 10
170.7941381815
 20
179.7819862998
 11
200.7941381815
 21
179.7819862998
  0
ENDBLK
  8
0
  0
BLOCK
  8
1
  2
BALN11
 70
     0
 10
112.1348058892
 20
202.0171741535
  3
BALN11
  0
SOLID
  8
1
  6
CONTINUOUS
 62
5
 10
111.3129917312
 20
203.8405286143
 11
112.3347711816
 21
204.0071525156
 12
112.1348058892
 22
202.0171741535
 13
112.1348058892
 23
202.0171741535
  0
LINE
  8
1
  6
BYBLOCK
 62
5
 10
112.1348058892
 20
202.0171741535
 11
108.4452807995
 21
224.6422650826
  0
CIRCLE
  8
1
  6
BYBLOCK
 62
5
 10
107.9624418108
 20
227.6031545623
 40
3.0000000000
  0
TEXT
  8
1
  6
CONTINUOUS
 62
7
 10
107.087442
 20
225.853155
 40
3.500000
  1
2
 41
1.000000
 50
0.000000
 51
0.000000
 72
   5
 73
   0
 11
108.837442
 21
225.853155
  0
ENDBLK
  8
0
  0
BLOCK
  8
1
  2
BALN12
 70
     0
 10
131.0889601190
 20
214.9344220794
  3
BALN12
  0
SOLID
  8
1
  6
CONTINUOUS
 62
5
 10
130.5959974970
 20
216.8727171687
 11
131.6311895099
 21
216.8595161778
 12
131.0889601190
 22
214.9344220794
 13
131.0889601190
 23
214.9344220794
  0
LINE
  8
1
  6
BYBLOCK
 62
5
 10
131.0889601190
 20
214.9344220794
 11
131.2122609828
 21
224.6033984610
  0
CIRCLE
  8
1
  6
BYBLOCK
 62
5
 10
131.2505145169
 20
227.6031545623
 40
3.0000000000
  0
TEXT
  8
1
  6
CONTINUOUS
 62
7
 10
130.375515
 20
225.853155
 40
3.500000
  1
1
 41
1.000000
 50
0.000000
 51
0.000000
 72
   5
 73
   0
 11
132.125515
 21
225.853155
  0
ENDBLK
  8
0
  0
BLOCK
  8
1
  2
BALN13
 70
     0
 10
173.9105182328
 20
197.3525214537
  3
BALN13
  0
SOLID
  8
1
  6
CONTINUOUS
 62
5
 10
173.0942453186
 20
199.1783633224
 11
174.1165260871
 21
199.3418833524
 12
173.9105182328
 22
197.3525214537
 13
173.9105182328
 23
197.3525214537
  0
LINE
  8
1
  6
BYBLOCK
 62
5
 10
173.9105182328
 20
197.3525214537
 11
169.5455900381
 21
224.6408123744
  0
CIRCLE
  8
1
  6
BYBLOCK
 62
5
 10
169.0717453780
 20
227.6031545623
 40
3.0000000000
  0
TEXT
  8
1
  6
CONTINUOUS
 62
7
 10
168.196745
 20
225.853155
 40
3.500000
  1
4
 41
1.000000
 50
0.000000
 51
0.000000
 72
   5
 73
   0
 11
169.946745
 21
225.853155
  0
ENDBLK
  8
0
  0
BLOCK
  8
1
  2
BALN14
 70
     0
 10
193.9105182328
 20
201.2525214536
  3
BALN14
  0
SOLID
  8
1
  6
CONTINUOUS
 62
5
 10
192.9155480690
 20
202.9874665171
 11
193.9163213267
 21
203.2525130346
 12
193.9105182328
 22
201.2525214536
 13
193.9105182328
 23
201.2525214536
  0
LINE
  8
1
  6
BYBLOCK
 62
5
 10
193.9105182328
 20
201.2525214536
 11
187.6998168917
 21
224.7031363548
  0
CIRCLE
  8
1
  6
BYBLOCK
 62
5
 10
186.9317710623
 20
227.6031545623
 40
3.0000000000
  0
TEXT
  8
1
  6
CONTINUOUS
 62
7
 10
186.056771
 20
225.853155
 40
3.500000
  1
5
 41
1.000000
 50
0.000000
 51
0.000000
 72
   5
 73
   0
 11
187.806771
 21
225.853155
  0
ENDBLK
  8
0
  0
BLOCK
  8
1
  2
BALN15
 70
     0
 10
208.7458902071
 20
187.3847268719
  3
BALN15
  0
SOLID
  8
1
  6
CONTINUOUS
 62
5
 10
207.9620613753
 20
189.2247302312
 11
208.9870762062
 21
189.3701309400
 12
208.7458902071
 22
187.3847268719
 13
208.7458902071
 23
187.3847268719
  0
LINE
  8
1
  6
BYBLOCK
 62
5
 10
208.7458902071
 20
187.3847268719
 11
203.4621527357
 21
224.6328896698
  0
CIRCLE
  8
1
  6
BYBLOCK
 62
5
 10
203.0408138365
 20
227.6031545623
 40
3.0000000000
  0
TEXT
  8
1
  6
CONTINUOUS
 62
7
 10
202.165814
 20
225.853155
 40
3.500000
  1
8
 41
1.000000
 50
0.000000
 51
0.000000
 72
   5
 73
   0
 11
203.915814
 21
225.853155
  0
ENDBLK
  8
0
  0
BLOCK
  8
1
  2
LTEX4
 70
     0
 10
186.4311134095
 20
-181.3928923086
  3
LTEX4
  0
SOLID
  8
1
  6
CONTINUOUS
 62
5
 10
187.3765935221
 20
-183.1552961660
 11
186.3687212771
 21
-183.3919188772
 12
186.4311134095
 22
-181.3928923086
 13
186.4311134095
 23
-181.3928923086
  0
TEXT
  8
1
  6
CONTINUOUS
 62
7
 10
190.248309
 20
-196.651881
 40
3.000000
  1
 Mini DIN 6P ﾒｽ
 41
0.759109
 50
0.000000
 51
0.000000
 72
   5
 73
   0
 11
212.748309
 21
-196.651881
  0
LINE
  8
1
  6
BYBLOCK
 62
5
 10
186.4311134095
 20
-181.3928923086
 11
190.2483094493
 21
-197.6518808192
  0
LINE
  8
1
  6
BYBLOCK
 62
5
 10
190.2483094493
 20
-197.6518808192
 11
212.7483094493
 21
-197.6518808192
  0
ENDBLK
  8
0
  0
BLOCK
  8
1
  2
LTEX5
 70
     0
 10
294.1281856116
 20
-180.9928923085
  3
LTEX5
  0
SOLID
  8
1
  6
CONTINUOUS
 62
5
 10
293.7947691029
 20
-182.9649048419
 11
292.8534321783
 21
-182.5339970046
 12
294.1281856116
 22
-180.9928923085
 13
294.1281856116
 23
-180.9928923085
  0
TEXT
  8
1
  6
CONTINUOUS
 62
7
 10
262.502341
 20
-196.651881
 40
3.000000
  1
Mini DIN 6P ｵｽ  
 41
0.758294
 50
0.000000
 51
0.000000
 72
   5
 73
   0
 11
286.502341
 21
-196.651881
  0
LINE
  8
1
  6
BYBLOCK
 62
5
 10
294.1281856116
 20
-180.9928923085
 11
286.5023414290
 21
-197.6518808192
  0
LINE
  8
1
  6
BYBLOCK
 62
5
 10
286.5023414290
 20
-197.6518808192
 11
262.5023414290
 21
-197.6518808192
  0
ENDBLK
  8
0
  0
BLOCK
  8
1
  2
*D21
 70
     1
 10
0.0000000000
 20
0.0000000000
  3
*D21
  0
LINE
  8
1
  6
BYBLOCK
 62
5
 10
192.7311134095
 20
-161.1428923086
 11
192.7311134095
 21
-157.8300882952
  0
LINE
  8
1
  6
BYBLOCK
 62
5
 10
287.3281856116
 20
-169.8928923085
 11
287.3281856116
 21
-157.8300882952
  0
LINE
  8
1
  6
BYBLOCK
 62
5
 10
287.3281856116
 20
-158.8300882952
 11
192.7311134095
 21
-158.8300882952
  0
SOLID
  8
1
  6
CONTINUOUS
 62
5
 10
194.6629650620
 20
-158.3124502050
 11
194.6629650620
 21
-159.3477263854
 12
192.7311134095
 22
-158.8300882952
 13
192.7311134095
 23
-158.8300882952
  0
SOLID
  8
1
  6
CONTINUOUS
 62
5
 10
285.3963339590
 20
-159.3477263854
 11
285.3963339590
 21
-158.3124502050
 12
287.3281856116
 22
-158.8300882952
 13
287.3281856116
 23
-158.8300882952
  0
TEXT
  8
1
  6
CONTINUOUS
 62
7
 10
233.904650
 20
-157.830088
 40
3.500000
  1
ｹｰﾌﾞﾙ長
 41
0.804598
 50
0.000000
 51
0.000000
 72
   5
 73
   0
 11
246.154650
 21
-157.830088
  0
POINT
  8
DEFPOINTS
  6
BYBLOCK
 62
5
 10
192.7311134095
 20
-161.6428923086
  0
POINT
  8
DEFPOINTS
  6
BYBLOCK
 62
5
 10
287.3281856116
 20
-170.3928923085
  0
POINT
  8
DEFPOINTS
  6
BYBLOCK
 62
5
 10
287.3281856116
 20
-158.8300882952
  0
ENDBLK
  8
0
  0
BLOCK
  8
1
  2
BALN16
 70
     0
 10
223.6670689932
 20
-173.9928923086
  3
BALN16
  0
SOLID
  8
1
  6
CONTINUOUS
 62
5
 10
224.0110478692
 20
-172.0226947213
 11
224.9500622318
 21
-172.4586405856
 12
223.6670689932
 22
-173.9928923086
 13
223.6670689932
 23
-173.9928923086
  0
LINE
  8
1
  6
BYBLOCK
 62
5
 10
223.6670689932
 20
-173.9928923086
 11
226.0058168726
 21
-168.9552992736
  0
CIRCLE
  8
1
  6
BYBLOCK
 62
5
 10
227.2690909800
 20
-166.2342446013
 40
3.0000000000
  0
TEXT
  8
1
  6
CONTINUOUS
 62
7
 10
224.644091
 20
-167.984245
 40
3.500000
  1
102
 41
0.815217
 50
0.000000
 51
0.000000
 72
   5
 73
   0
 11
229.894091
 21
-167.984245
  0
ENDBLK
  8
0
  0
BLOCK
  8
1
  2
BALN17
 70
     0
 10
170.0369638569
 20
-160.8428923086
  3
BALN17
  0
SOLID
  8
1
  6
CONTINUOUS
 62
5
 10
170.4194110636
 20
-158.8797993067
 11
171.3497193544
 21
-159.3340275024
 12
170.0369638569
 22
-160.8428923086
 13
170.0369638569
 23
-160.8428923086
  0
LINE
  8
1
  6
BYBLOCK
 62
5
 10
170.0369638569
 20
-160.8428923086
 11
173.1231829385
 21
-154.5219830679
  0
CIRCLE
  8
1
  6
BYBLOCK
 62
5
 10
174.4394351740
 20
-151.8261566542
 40
3.0000000000
  0
TEXT
  8
1
  6
CONTINUOUS
 62
7
 10
171.814435
 20
-153.576157
 40
3.500000
  1
101
 41
0.815217
 50
0.000000
 51
0.000000
 72
   5
 73
   0
 11
177.064435
 21
-153.576157
  0
ENDBLK
  8
0
  0
BLOCK
  8
1
  2
LTEX6
 70
     0
 10
167.6780007695
 20
-192.1428923086
  3
LTEX6
  0
SOLID
  8
1
  6
CONTINUOUS
 62
5
 10
169.1803751922
 20
-193.4630707412
 11
168.3190059692
 21
-194.0373875801
 12
167.6780007695
 22
-192.1428923086
 13
167.6780007695
 23
-192.1428923086
  0
TEXT
  8
1
  6
CONTINUOUS
 62
7
 10
175.241274
 20
-202.486406
 40
3.000000
  1
ﾌﾟﾚｰﾄを180°付け替える事でﾌﾞﾗﾝｸ可能
 41
0.817375
 50
0.000000
 51
0.000000
 72
   5
 73
   0
 11
227.741274
 21
-202.486406
  0
LINE
  8
1
  6
BYBLOCK
 62
5
 10
167.6780007695
 20
-192.1428923086
 11
175.2412741734
 21
-203.4864060165
  0
LINE
  8
1
  6
BYBLOCK
 62
5
 10
175.2412741734
 20
-203.4864060165
 11
227.7412741734
 21
-203.4864060165
  0
ENDBLK
  8
0
  0
BLOCK
  8
1
  2
BALN18
 70
     0
 10
158.8813961490
 20
-163.3440805477
  3
BALN18
  0
SOLID
  8
1
  6
CONTINUOUS
 62
5
 10
158.7188622206
 20
-161.3506958076
 11
159.7373300081
 21
-161.5364917590
 12
158.8813961490
 22
-163.3440805477
 13
158.8813961490
 23
-163.3440805477
  0
LINE
  8
1
  6
BYBLOCK
 62
5
 10
158.8813961490
 20
-163.3440805477
 11
160.4441803175
 21
-154.7774496718
  0
CIRCLE
  8
1
  6
BYBLOCK
 62
5
 10
160.9825756413
 20
-151.8261566542
 40
3.0000000000
  0
TEXT
  8
1
  6
CONTINUOUS
 62
7
 10
158.357576
 20
-153.576157
 40
3.500000
  1
103
 41
0.815217
 50
0.000000
 51
0.000000
 72
   5
 73
   0
 11
163.607576
 21
-153.576157
  0
ENDBLK
  8
0
  0
BLOCK
  8
1
  2
S6
 70
     0
 10
7.7490435001
 20
-51.9655230621
  3
S6
  0
LINE
  8
1
  6
CONTINUOUS
 62
6
 10
10.2490435001
 20
-53.9655230621
 11
5.2490435001
 21
-53.9655230621
  0
TEXT
  8
1
  6
CONTINUOUS
 62
6
 10
6.697994
 20
-54.343850
 40
3.300000
  1
B
 41
1.274000
 50
0.000000
 51
0.000000
 72
   5
 73
   0
 11
8.800094
 21
-54.343850
  0
LINE
  8
1
  6
CONTINUOUS
 62
6
 10
7.7490435001
 20
-49.9655230621
 11
5.2490435001
 21
-53.9655230621
  0
LINE
  8
1
  6
CONTINUOUS
 62
6
 10
7.7490435001
 20
-49.9655230621
 11
10.2490435001
 21
-53.9655230621
  0
POINT
  8
1
  6
CONTINUOUS
 62
6
 10
7.7490435001
 20
-51.9655230621
  0
ENDBLK
  8
0
  0
BLOCK
  8
1
  2
S7
 70
     0
 10
9.0000000000
 20
262.0000000000
  3
S7
  0
LINE
  8
1
  6
CONTINUOUS
 62
6
 10
11.5000000000
 20
260.0000000000
 11
6.5000000000
 21
260.0000000000
  0
TEXT
  8
1
  6
CONTINUOUS
 62
6
 10
7.948950
 20
259.621673
 40
3.300000
  1
B
 41
1.274000
 50
0.000000
 51
0.000000
 72
   5
 73
   0
 11
10.051050
 21
259.621673
  0
LINE
  8
1
  6
CONTINUOUS
 62
6
 10
9.0000000000
 20
264.0000000000
 11
6.5000000000
 21
260.0000000000
  0
LINE
  8
1
  6
CONTINUOUS
 62
6
 10
9.0000000000
 20
264.0000000000
 11
11.5000000000
 21
260.0000000000
  0
POINT
  8
1
  6
CONTINUOUS
 62
6
 10
9.0000000000
 20
262.0000000000
  0
ENDBLK
  8
0
  0
BLOCK
  8
1
  2
S8
 70
     0
 10
309.4608768379
 20
234.2864772224
  3
S8
  0
LINE
  8
1
  6
CONTINUOUS
 62
6
 10
311.9608768379
 20
232.2864772224
 11
306.9608768379
 21
232.2864772223
  0
TEXT
  8
1
  6
CONTINUOUS
 62
6
 10
308.365277
 20
231.908150
 40
3.300000
  1
C
 41
1.328000
 50
0.000000
 51
0.000000
 72
   5
 73
   0
 11
310.556477
 21
231.908150
  0
LINE
  8
1
  6
CONTINUOUS
 62
6
 10
309.4608768379
 20
236.2864772224
 11
306.9608768379
 21
232.2864772223
  0
LINE
  8
1
  6
CONTINUOUS
 62
6
 10
309.4608768379
 20
236.2864772224
 11
311.9608768379
 21
232.2864772224
  0
POINT
  8
1
  6
CONTINUOUS
 62
6
 10
309.4608768379
 20
234.2864772224
  0
ENDBLK
  8
0
  0
BLOCK
  8
1
  2
S9
 70
     0
 10
397.8420657442
 20
-219.2445005045
  3
S9
  0
LINE
  8
1
  6
CONTINUOUS
 62
6
 10
400.3420657442
 20
-221.2445005045
 11
395.3420657442
 21
-221.2445005045
  0
TEXT
  8
1
  6
CONTINUOUS
 62
6
 10
396.746466
 20
-221.622828
 40
3.300000
  1
C
 41
1.328000
 50
0.000000
 51
0.000000
 72
   5
 73
   0
 11
398.937666
 21
-221.622828
  0
LINE
  8
1
  6
CONTINUOUS
 62
6
 10
397.8420657442
 20
-217.2445005045
 11
395.3420657442
 21
-221.2445005045
  0
LINE
  8
1
  6
CONTINUOUS
 62
6
 10
397.8420657442
 20
-217.2445005045
 11
400.3420657442
 21
-221.2445005045
  0
POINT
  8
1
  6
CONTINUOUS
 62
6
 10
397.8420657442
 20
-219.2445005045
  0
ENDBLK
  8
0
  0
BLOCK
  8
1
  2
S10
 70
     0
 10
397.8420657443
 20
-224.2445005045
  3
S10
  0
LINE
  8
1
  6
CONTINUOUS
 62
6
 10
400.3420657443
 20
-226.2445005045
 11
395.3420657443
 21
-226.2445005045
  0
TEXT
  8
1
  6
CONTINUOUS
 62
6
 10
396.746466
 20
-226.622828
 40
3.300000
  1
C
 41
1.328000
 50
0.000000
 51
0.000000
 72
   5
 73
   0
 11
398.937666
 21
-226.622828
  0
LINE
  8
1
  6
CONTINUOUS
 62
6
 10
397.8420657443
 20
-222.2445005045
 11
395.3420657443
 21
-226.2445005045
  0
LINE
  8
1
  6
CONTINUOUS
 62
6
 10
397.8420657443
 20
-222.2445005045
 11
400.3420657443
 21
-226.2445005045
  0
POINT
  8
1
  6
CONTINUOUS
 62
6
 10
397.8420657443
 20
-224.2445005045
  0
ENDBLK
  8
0
  0
BLOCK
  8
1
  2
S11
 70
     0
 10
397.8420657442
 20
-241.7445005045
  3
S11
  0
LINE
  8
1
  6
CONTINUOUS
 62
6
 10
400.3420657442
 20
-243.7445005045
 11
395.3420657442
 21
-243.7445005045
  0
TEXT
  8
1
  6
CONTINUOUS
 62
6
 10
396.746466
 20
-244.122828
 40
3.300000
  1
C
 41
1.328000
 50
0.000000
 51
0.000000
 72
   5
 73
   0
 11
398.937666
 21
-244.122828
  0
LINE
  8
1
  6
CONTINUOUS
 62
6
 10
397.8420657442
 20
-239.7445005045
 11
395.3420657442
 21
-243.7445005045
  0
LINE
  8
1
  6
CONTINUOUS
 62
6
 10
397.8420657442
 20
-239.7445005045
 11
400.3420657442
 21
-243.7445005045
  0
POINT
  8
1
  6
CONTINUOUS
 62
6
 10
397.8420657442
 20
-241.7445005045
  0
ENDBLK
  8
0
  0
BLOCK
  8
1
  2
S12
 70
     0
 10
9.0000000001
 20
272.0000000000
  3
S12
  0
POINT
  8
1
  6
CONTINUOUS
 62
6
 10
9.0000000001
 20
272.0000000000
  0
ENDBLK
  8
0
  0
BLOCK
  8
1
  2
S13
 70
     0
 10
9.0000000001
 20
272.0000000000
  3
S13
  0
LINE
  8
1
  6
CONTINUOUS
 62
6
 10
11.5000000001
 20
270.0000000000
 11
6.5000000001
 21
270.0000000000
  0
TEXT
  8
1
  6
CONTINUOUS
 62
6
 10
7.930800
 20
269.621673
 40
3.300000
  1
D
 41
1.296000
 50
0.000000
 51
0.000000
 72
   5
 73
   0
 11
10.069200
 21
269.621673
  0
LINE
  8
1
  6
CONTINUOUS
 62
6
 10
9.0000000001
 20
274.0000000000
 11
6.5000000001
 21
270.0000000000
  0
LINE
  8
1
  6
CONTINUOUS
 62
6
 10
9.0000000001
 20
274.0000000000
 11
11.5000000001
 21
270.0000000000
  0
POINT
  8
1
  6
CONTINUOUS
 62
6
 10
9.0000000001
 20
272.0000000000
  0
ENDBLK
  8
0
  0
BLOCK
  8
1
  2
S14
 70
     0
 10
7.7490435002
 20
-46.9655230621
  3
S14
  0
POINT
  8
1
  6
CONTINUOUS
 62
6
 10
7.7490435002
 20
-46.9655230621
  0
ENDBLK
  8
0
  0
BLOCK
  8
1
  2
S15
 70
     0
 10
7.7490435002
 20
-46.9655230621
  3
S15
  0
LINE
  8
1
  6
CONTINUOUS
 62
6
 10
10.2490435002
 20
-48.9655230621
 11
5.2490435002
 21
-48.9655230621
  0
TEXT
  8
1
  6
CONTINUOUS
 62
6
 10
6.679844
 20
-49.343850
 40
3.300000
  1
D
 41
1.296000
 50
0.000000
 51
0.000000
 72
   5
 73
   0
 11
8.818244
 21
-49.343850
  0
LINE
  8
1
  6
CONTINUOUS
 62
6
 10
7.7490435002
 20
-44.9655230621
 11
5.2490435002
 21
-48.9655230621
  0
LINE
  8
1
  6
CONTINUOUS
 62
6
 10
7.7490435002
 20
-44.9655230621
 11
10.2490435002
 21
-48.9655230621
  0
POINT
  8
1
  6
CONTINUOUS
 62
6
 10
7.7490435002
 20
-46.9655230621
  0
ENDBLK
  8
0
  0
BLOCK
  8
1
  2
S16
 70
     0
 10
148.4288178935
 20
246.1407367880
  3
S16
  0
LINE
  8
1
  6
CONTINUOUS
 62
6
 10
150.9288178935
 20
244.1407367880
 11
145.9288178935
 21
244.1407367880
  0
TEXT
  8
1
  6
CONTINUOUS
 62
6
 10
147.359618
 20
243.762409
 40
3.300000
  1
D
 41
1.296000
 50
0.000000
 51
0.000000
 72
   5
 73
   0
 11
149.498018
 21
243.762409
  0
LINE
  8
1
  6
CONTINUOUS
 62
6
 10
148.4288178935
 20
248.1407367880
 11
145.9288178935
 21
244.1407367880
  0
LINE
  8
1
  6
CONTINUOUS
 62
6
 10
148.4288178935
 20
248.1407367880
 11
150.9288178935
 21
244.1407367880
  0
POINT
  8
1
  6
CONTINUOUS
 62
6
 10
148.4288178935
 20
246.1407367880
  0
ENDBLK
  8
0
  0
BLOCK
  8
1
  2
S17
 70
     0
 10
17.2502919709
 20
-104.3754938152
  3
S17
  0
LINE
  8
1
  6
CONTINUOUS
 62
6
 10
19.7502919709
 20
-106.3754938152
 11
14.7502919709
 21
-106.3754938152
  0
TEXT
  8
1
  6
CONTINUOUS
 62
6
 10
16.181092
 20
-106.753821
 40
3.300000
  1
D
 41
1.296000
 50
0.000000
 51
0.000000
 72
   5
 73
   0
 11
18.319492
 21
-106.753821
  0
LINE
  8
1
  6
CONTINUOUS
 62
6
 10
17.2502919709
 20
-102.3754938152
 11
14.7502919709
 21
-106.3754938152
  0
LINE
  8
1
  6
CONTINUOUS
 62
6
 10
17.2502919709
 20
-102.3754938152
 11
19.7502919709
 21
-106.3754938152
  0
POINT
  8
1
  6
CONTINUOUS
 62
6
 10
17.2502919709
 20
-104.3754938152
  0
ENDBLK
  8
0
  0
BLOCK
  8
1
  2
S18
 70
     0
 10
309.6589196101
 20
266.9570411776
  3
S18
  0
LINE
  8
1
  6
CONTINUOUS
 62
6
 10
312.1589196101
 20
264.9570411776
 11
307.1589196101
 21
264.9570411776
  0
TEXT
  8
1
  6
CONTINUOUS
 62
6
 10
308.589720
 20
264.578714
 40
3.300000
  1
D
 41
1.296000
 50
0.000000
 51
0.000000
 72
   5
 73
   0
 11
310.728120
 21
264.578714
  0
LINE
  8
1
  6
CONTINUOUS
 62
6
 10
309.6589196101
 20
268.9570411776
 11
307.1589196101
 21
264.9570411776
  0
LINE
  8
1
  6
CONTINUOUS
 62
6
 10
309.6589196101
 20
268.9570411776
 11
312.1589196101
 21
264.9570411776
  0
POINT
  8
1
  6
CONTINUOUS
 62
6
 10
309.6589196101
 20
266.9570411776
  0
ENDBLK
  8
0
  0
BLOCK
  8
1
  2
S19
 70
     0
 10
137.2868002249
 20
38.5097255163
  3
S19
  0
LINE
  8
1
  6
CONTINUOUS
 62
6
 10
139.7868002249
 20
36.5097255163
 11
134.7868002249
 21
36.5097255163
  0
TEXT
  8
1
  6
CONTINUOUS
 62
6
 10
136.217600
 20
36.131398
 40
3.300000
  1
D
 41
1.296000
 50
0.000000
 51
0.000000
 72
   5
 73
   0
 11
138.356000
 21
36.131398
  0
LINE
  8
1
  6
CONTINUOUS
 62
6
 10
137.2868002249
 20
40.5097255163
 11
134.7868002249
 21
36.5097255163
  0
LINE
  8
1
  6
CONTINUOUS
 62
6
 10
137.2868002249
 20
40.5097255163
 11
139.7868002249
 21
36.5097255163
  0
POINT
  8
1
  6
CONTINUOUS
 62
6
 10
137.2868002249
 20
38.5097255163
  0
ENDBLK
  8
0
  0
BLOCK
  8
3
  2
LTEX7
 70
     0
 10
134.5962334454
 20
86.7605564293
  3
LTEX7
  0
SOLID
  8
3
  6
CONTINUOUS
 62
5
 10
135.0708243304
 20
84.8176813710
 11
134.0358036791
 21
84.8406818299
 12
134.5962334454
 22
86.7605564293
 13
134.5962334454
 23
86.7605564293
  0
TEXT
  8
3
  6
CONTINUOUS
 62
7
 10
133.340636
 20
31.258654
 40
3.500000
  1
 PBT品はｱｰｽ部(2箇所) は無いです
 41
0.820106
 50
0.000000
 51
0.000000
 72
   5
 73
   0
 11
187.590636
 21
31.258654
  0
LINE
  8
3
  6
BYBLOCK
 62
5
 10
134.5962334454
 20
86.7605564293
 11
133.3406356149
 21
30.2586540591
  0
LINE
  8
3
  6
BYBLOCK
 62
5
 10
133.3406356149
 20
30.2586540591
 11
187.5906356149
 21
30.2586540591
  0
ENDBLK
  8
0
  0
BLOCK
  8
3
  2
LTEX8
 70
     0
 10
88.2645106558
 20
17.3439335173
  3
LTEX8
  0
SOLID
  8
3
  6
CONTINUOUS
 62
5
 10
89.9790701192
 20
18.3736353414
 11
90.2642136195
 21
17.3784017236
 12
88.2645106558
 22
17.3439335173
 13
88.2645106558
 23
17.3439335173
  0
TEXT
  8
3
  6
CONTINUOUS
 62
7
 10
133.340636
 20
31.258654
 40
3.500000
  1
 
 41
1.000000
 50
0.000000
 51
0.000000
 72
   5
 73
   0
 11
135.090636
 21
31.258654
  0
LINE
  8
3
  6
BYBLOCK
 62
5
 10
88.2645106558
 20
17.3439335173
 11
133.3406356149
 21
30.2586540591
  0
LINE
  8
3
  6
BYBLOCK
 62
5
 10
133.3406356149
 20
30.2586540591
 11
135.0906356149
 21
30.2586540591
  0
ENDBLK
  8
0
  0
BLOCK
  8
3
  2
LTEX9
 70
     0
 10
39.2645106558
 20
18.7789024664
  3
LTEX9
  0
SOLID
  8
3
  6
CONTINUOUS
 62
5
 10
41.1194376375
 20
19.5267299150
 11
41.2448382684
 21
18.4990765437
 12
39.2645106558
 22
18.7789024664
 13
39.2645106558
 23
18.7789024664
  0
TEXT
  8
3
  6
CONTINUOUS
 62
7
 10
133.340636
 20
31.258654
 40
3.500000
  1
 
 41
1.000000
 50
0.000000
 51
0.000000
 72
   5
 73
   0
 11
135.090636
 21
31.258654
  0
LINE
  8
3
  6
BYBLOCK
 62
5
 10
39.2645106558
 20
18.7789024664
 11
133.3406356149
 21
30.2586540591
  0
LINE
  8
3
  6
BYBLOCK
 62
5
 10
133.3406356149
 20
30.2586540591
 11
135.0906356149
 21
30.2586540591
  0
ENDBLK
  8
0
  0
BLOCK
  8
1
  2
S20
 70
     0
 10
304.3055519275
 20
234.2864772224
  3
S20
  0
LINE
  8
1
  6
CONTINUOUS
 62
6
 10
306.8055519275
 20
232.2864772224
 11
301.8055519275
 21
232.2864772223
  0
TEXT
  8
1
  6
CONTINUOUS
 62
6
 10
303.236352
 20
231.908150
 40
3.300000
  1
D
 41
1.296000
 50
0.000000
 51
0.000000
 72
   5
 73
   0
 11
305.374752
 21
231.908150
  0
LINE
  8
1
  6
CONTINUOUS
 62
6
 10
304.3055519275
 20
236.2864772224
 11
301.8055519275
 21
232.2864772223
  0
LINE
  8
1
  6
CONTINUOUS
 62
6
 10
304.3055519275
 20
236.2864772224
 11
306.8055519275
 21
232.2864772224
  0
POINT
  8
1
  6
CONTINUOUS
 62
6
 10
304.3055519275
 20
234.2864772224
  0
ENDBLK
  8
0
  0
BLOCK
  8
1
  2
S21
 70
     0
 10
190.4105182328
 20
130.8525214537
  3
S21
  0
CIRCLE
  8
1
  6
HIDDEN
 62
6
 10
190.4105182328
 20
130.8525214537
 40
4.5000000000
  0
LINE
  8
1
  6
HIDDEN
 62
6
 10
193.7855182330
 20
130.8525214537
 11
187.0355182330
 21
130.8525214537
  0
LINE
  8
1
  6
HIDDEN
 62
6
 10
192.6605182330
 20
129.1650214537
 11
188.1605182330
 21
129.1650214537
  0
LINE
  8
1
  6
HIDDEN
 62
6
 10
191.5355182330
 20
127.4775214537
 11
189.2855182330
 21
127.4775214537
  0
LINE
  8
1
  6
HIDDEN
 62
6
 10
190.4105182328
 20
130.8525214537
 11
190.4105182330
 21
134.2275214537
  0
ENDBLK
  8
0
  0
BLOCK
  8
1
  2
S22
 70
     0
 10
145.4123684031
 20
132.5342321022
  3
S22
  0
LINE
  8
1
  6
CONTINUOUS
 62
6
 10
147.9123684031
 20
130.5342321022
 11
142.9123684031
 21
130.5342321022
  0
TEXT
  8
1
  6
CONTINUOUS
 62
6
 10
144.343168
 20
130.155905
 40
3.300000
  1
D
 41
1.296000
 50
0.000000
 51
0.000000
 72
   5
 73
   0
 11
146.481568
 21
130.155905
  0
LINE
  8
1
  6
CONTINUOUS
 62
6
 10
145.4123684031
 20
134.5342321022
 11
142.9123684031
 21
130.5342321022
  0
LINE
  8
1
  6
CONTINUOUS
 62
6
 10
145.4123684031
 20
134.5342321022
 11
147.9123684031
 21
130.5342321022
  0
POINT
  8
1
  6
CONTINUOUS
 62
6
 10
145.4123684031
 20
132.5342321022
  0
ENDBLK
  8
0
  0
BLOCK
  8
1
  2
LTEX10
 70
     0
 10
170.6605182328
 20
130.8525214537
  3
LTEX10
  0
SOLID
  8
1
  6
CONTINUOUS
 62
5
 10
169.0671664016
 20
129.6437080098
 11
168.6762283479
 21
130.6023342184
 12
170.6605182328
 22
130.8525214537
 13
170.6605182328
 23
130.8525214537
  0
TEXT
  8
1
  6
CONTINUOUS
 62
7
 10
142.878466
 20
126.232053
 40
3.500000
  1
M4ｱｰｽﾎﾞｽ
 41
0.770713
 50
0.000000
 51
0.000000
 72
   5
 73
   0
 11
156.878466
 21
126.232053
  0
LINE
  8
1
  6
BYBLOCK
 62
5
 10
170.6605182328
 20
130.8525214537
 11
156.8784659416
 21
125.2320526510
  0
LINE
  8
1
  6
BYBLOCK
 62
5
 10
156.8784659416
 20
125.2320526510
 11
142.8784659416
 21
125.2320526510
  0
ENDBLK
  8
0
  0
BLOCK
  8
1
  2
S23
 70
     0
 10
19.7229014879
 20
-219.7907439720
  3
S23
  0
LINE
  8
1
  6
CONTINUOUS
 62
6
 10
22.2229014879
 20
-221.7907439720
 11
17.2229014879
 21
-221.7907439720
  0
TEXT
  8
1
  6
CONTINUOUS
 62
6
 10
18.653701
 20
-222.169071
 40
3.300000
  1
D
 41
1.296000
 50
0.000000
 51
0.000000
 72
   5
 73
   0
 11
20.792101
 21
-222.169071
  0
LINE
  8
1
  6
CONTINUOUS
 62
6
 10
19.7229014879
 20
-217.7907439720
 11
17.2229014879
 21
-221.7907439720
  0
LINE
  8
1
  6
CONTINUOUS
 62
6
 10
19.7229014879
 20
-217.7907439720
 11
22.2229014879
 21
-221.7907439720
  0
POINT
  8
1
  6
CONTINUOUS
 62
6
 10
19.7229014879
 20
-219.7907439720
  0
ENDBLK
  8
0
  0
BLOCK
  8
1
  2
LTEX11
 70
     0
 10
44.9710513175
 20
-221.4724546205
  3
LTEX11
  0
SOLID
  8
1
  6
CONTINUOUS
 62
5
 10
43.3776994863
 20
-222.6812680644
 11
42.9867614326
 21
-221.7226418557
 12
44.9710513175
 22
-221.4724546205
 13
44.9710513175
 23
-221.4724546205
  0
TEXT
  8
1
  6
CONTINUOUS
 62
7
 10
17.188999
 20
-226.092923
 40
3.500000
  1
M4ｱｰｽﾎﾞｽ
 41
0.770713
 50
0.000000
 51
0.000000
 72
   5
 73
   0
 11
31.188999
 21
-226.092923
  0
LINE
  8
1
  6
BYBLOCK
 62
5
 10
44.9710513175
 20
-221.4724546205
 11
31.1889990264
 21
-227.0929234232
  0
LINE
  8
1
  6
BYBLOCK
 62
5
 10
31.1889990264
 20
-227.0929234232
 11
17.1889990264
 21
-227.0929234232
  0
ENDBLK
  8
0
  0
BLOCK
  8
1
  2
S24
 70
     0
 10
64.7210513175
 20
-221.4724546205
  3
S24
  0
CIRCLE
  8
1
  6
HIDDEN
 62
6
 10
64.7210513175
 20
-221.4724546205
 40
4.5000000000
  0
LINE
  8
1
  6
HIDDEN
 62
6
 10
68.0960513177
 20
-221.4724546205
 11
61.3460513177
 21
-221.4724546205
  0
LINE
  8
1
  6
HIDDEN
 62
6
 10
66.9710513177
 20
-223.1599546205
 11
62.4710513177
 21
-223.1599546205
  0
LINE
  8
1
  6
HIDDEN
 62
6
 10
65.8460513177
 20
-224.8474546205
 11
63.5960513177
 21
-224.8474546205
  0
LINE
  8
1
  6
HIDDEN
 62
6
 10
64.7210513175
 20
-221.4724546205
 11
64.7210513177
 21
-218.0974546205
  0
ENDBLK
  8
0
  0
BLOCK
  8
1
  2
LTEX12
 70
     0
 10
82.4712953712
 20
-225.3187099399
  3
LTEX12
  0
SOLID
  8
1
  6
CONTINUOUS
 62
5
 10
81.4124591271
 20
-223.6219878625
 11
82.4026773240
 21
-223.3198873956
 12
82.4712953712
 22
-225.3187099399
 13
82.4712953712
 23
-225.3187099399
  0
TEXT
  8
1
  6
CONTINUOUS
 62
7
 10
51.579404
 20
-213.200842
 40
5.000000
  1
⑨ ACｱｳﾄﾚｯﾄ
 41
0.782361
 50
0.000000
 51
0.000000
 72
   5
 73
   0
 11
79.079404
 21
-213.200842
  0
LINE
  8
1
  6
BYBLOCK
 62
5
 10
82.4712953712
 20
-225.3187099399
 11
79.0794035991
 21
-214.2008424647
  0
LINE
  8
1
  6
BYBLOCK
 62
5
 10
79.0794035991
 20
-214.2008424647
 11
51.5794035991
 21
-214.2008424647
  0
ENDBLK
  8
0
  0
BLOCK
  8
1
  2
LTEX13
 70
     0
 10
208.1607622865
 20
127.0062661343
  3
LTEX13
  0
SOLID
  8
1
  6
CONTINUOUS
 62
5
 10
207.1019260423
 20
128.7029882117
 11
208.0921442393
 21
129.0050886786
 12
208.1607622865
 22
127.0062661343
 13
208.1607622865
 23
127.0062661343
  0
TEXT
  8
1
  6
CONTINUOUS
 62
7
 10
177.268871
 20
139.124134
 40
5.000000
  1
⑨ ACｱｳﾄﾚｯﾄ
 41
0.782361
 50
0.000000
 51
0.000000
 72
   5
 73
   0
 11
204.768871
 21
139.124134
  0
LINE
  8
1
  6
BYBLOCK
 62
5
 10
208.1607622865
 20
127.0062661343
 11
204.7688705144
 21
138.1241336095
  0
LINE
  8
1
  6
BYBLOCK
 62
5
 10
204.7688705144
 20
138.1241336095
 11
177.2688705144
 21
138.1241336095
  0
ENDBLK
  8
0
  0
ENDSEC
  0
SECTION
  2
ENTITIES
  0
LINE
  8
1
  6
CONTINUOUS
 62
7
 10
95.7645106558
 20
65.6025214537
 11
95.7645106558
 21
209.4775214537
  0
LINE
  8
1
  6
CONTINUOUS
 62
7
 10
28.7645106558
 20
209.4775214537
 11
28.7645106558
 21
65.6025214537
  0
LINE
  8
1
  6
CONTINUOUS
 62
7
 10
96.7645106558
 20
64.6025214537
 11
96.7645106558
 21
220.1025214537
  0
LINE
  8
1
  6
CONTINUOUS
 62
7
 10
27.7645106558
 20
220.1025214537
 11
27.7645106558
 21
64.6025214537
  0
LINE
  8
1
  6
DASHDOT
 62
1
 10
101.7645106558
 20
213.1025214537
 11
22.7645106558
 21
213.1025214537
  0
LINE
  8
1
  6
CONTINUOUS
 62
7
 10
96.7645106558
 20
64.6025214537
 11
76.7270138153
 21
64.6025214537
  0
LINE
  8
1
  6
CONTINUOUS
 62
7
 10
47.8020074964
 20
64.6025214537
 11
27.7645106558
 21
64.6025214537
  0
LINE
  8
1
  6
CONTINUOUS
 62
7
 10
28.7645106558
 20
65.6025214537
 11
45.5659395189
 21
65.6025214537
  0
LINE
  8
1
  6
CONTINUOUS
 62
7
 10
78.9630817928
 20
65.6025214537
 11
95.7645106558
 21
65.6025214537
  0
LINE
  8
1
  6
CONTINUOUS
 62
7
 10
124.4661466639
 20
207.1025214537
 11
124.4661466639
 21
65.6025214537
  0
CIRCLE
  8
1
  6
CONTINUOUS
 62
7
 10
121.4661466639
 20
213.1025214537
 40
2.0000000000
  0
ARC
  8
1
  6
CONTINUOUS
 62
7
 10
121.4661466639
 20
213.1025214537
 40
6.0000000000
 50
90.0000000000
 51
270.0000000000
  0
LINE
  8
1
  6
CONTINUOUS
 62
7
 10
124.4661466639
 20
207.1025214537
 11
121.4661466639
 21
207.1025214537
  0
LINE
  8
1
  6
CONTINUOUS
 62
7
 10
124.4661466639
 20
219.1025214537
 11
121.4661466639
 21
219.1025214537
  0
LINE
  8
1
  6
CONTINUOUS
 62
7
 10
133.4661466639
 20
220.1025214537
 11
133.4661466639
 21
64.6025214537
  0
LINE
  8
1
  6
CONTINUOUS
 62
7
 10
28.7645106558
 20
207.1025214537
 11
28.7645106558
 21
219.1025214537
  0
LINE
  8
1
  6
CONTINUOUS
 62
7
 10
28.7645106558
 20
219.1025214537
 11
33.7645106558
 21
219.1025214537
  0
LINE
  8
1
  6
CONTINUOUS
 62
7
 10
33.7645106558
 20
219.1025214537
 11
33.7645106558
 21
207.1025214537
  0
LINE
  8
1
  6
CONTINUOUS
 62
7
 10
33.7645106558
 20
207.1025214537
 11
28.7645106558
 21
207.1025214537
  0
LINE
  8
1
  6
CONTINUOUS
 62
7
 10
95.7645106558
 20
219.1025214537
 11
90.7645106558
 21
219.1025214537
  0
LINE
  8
1
  6
CONTINUOUS
 62
7
 10
90.7645106558
 20
219.1025214537
 11
90.7645106558
 21
207.1025214537
  0
LINE
  8
1
  6
CONTINUOUS
 62
7
 10
90.7645106558
 20
207.1025214537
 11
95.7645106558
 21
207.1025214537
  0
LINE
  8
1
  6
CONTINUOUS
 62
7
 10
95.7645106558
 20
207.1025214537
 11
95.7645106558
 21
219.1025214537
  0
LINE
  8
1
  6
CONTINUOUS
 62
7
 10
90.7645106558
 20
207.1025214537
 11
90.7645106558
 21
206.1025214537
  0
LINE
  8
1
  6
CONTINUOUS
 62
7
 10
33.7645106558
 20
206.1025214537
 11
33.7645106558
 21
207.1025214537
  0
LINE
  8
1
  6
CONTINUOUS
 62
7
 10
96.7645106558
 20
220.1025214537
 11
27.7645106558
 21
220.1025214537
  0
LINE
  8
1
  6
CONTINUOUS
 62
7
 10
96.7645106558
 20
27.5484212565
 11
27.7645106558
 21
27.5484212565
  0
LINE
  8
1
  6
CONTINUOUS
 62
7
 10
28.7645106558
 20
36.5484212565
 11
95.7645106558
 21
36.5484212565
  0
LINE
  8
1
  6
CONTINUOUS
 62
7
 10
133.4661466639
 20
64.6025214537
 11
124.4661466639
 21
65.6025214537
  0
LINE
  8
1
  6
CONTINUOUS
 62
7
 10
133.4661466639
 20
220.1025214537
 11
124.4661466639
 21
219.1025214537
  0
LINE
  8
1
  6
CONTINUOUS
 62
7
 10
28.7645106558
 20
36.5484212565
 11
27.7645106558
 21
27.5484212565
  0
LINE
  8
1
  6
CONTINUOUS
 62
7
 10
95.7645106558
 20
36.5484212565
 11
96.7645106558
 21
27.5484212565
  0
LINE
  8
1
  6
HIDDEN
 62
7
 10
124.4661466639
 20
206.1025214537
 11
127.9661466639
 21
206.1025214537
  0
LINE
  8
1
  6
HIDDEN
 62
7
 10
127.9661466639
 20
206.1025214537
 11
127.9661466639
 21
219.4914103426
  0
LINE
  8
1
  6
HIDDEN
 62
7
 10
34.7645106558
 20
33.5484212565
 11
34.7645106558
 21
36.5484212565
  0
LINE
  8
1
  6
HIDDEN
 62
7
 10
89.7645106558
 20
33.5484212565
 11
34.7645106558
 21
33.5484212565
  0
LINE
  8
1
  6
HIDDEN
 62
7
 10
89.7645106558
 20
33.5484212565
 11
89.7645106558
 21
36.5484212565
  0
LINE
  8
1
  6
HIDDEN
 62
7
 10
85.5145106558
 20
33.5484212565
 11
85.5145106558
 21
29.5484212565
  0
LINE
  8
1
  6
HIDDEN
 62
7
 10
85.5145106558
 20
29.5484212565
 11
84.0145106559
 21
29.5484212565
  0
LINE
  8
1
  6
HIDDEN
 62
7
 10
80.5145106559
 20
29.5484212565
 11
79.0145106558
 21
29.5484212565
  0
LINE
  8
1
  6
HIDDEN
 62
7
 10
79.0145106558
 20
29.5484212565
 11
79.0145106558
 21
33.5484212565
  0
LINE
  8
1
  6
HIDDEN
 62
7
 10
80.5145106559
 20
29.5484212565
 11
80.5145106556
 21
27.5484212565
  0
LINE
  8
1
  6
HIDDEN
 62
7
 10
84.0145106559
 20
29.5484212565
 11
84.0145106558
 21
27.5484212565
  0
LINE
  8
1
  6
HIDDEN
 62
7
 10
39.0145106558
 20
33.5484212565
 11
39.0145106558
 21
29.5484212565
  0
LINE
  8
1
  6
HIDDEN
 62
7
 10
39.0145106558
 20
29.5484212565
 11
40.5145106558
 21
29.5484212565
  0
LINE
  8
1
  6
HIDDEN
 62
7
 10
44.0145106558
 20
29.5484212565
 11
45.5145106558
 21
29.5484212565
  0
LINE
  8
1
  6
HIDDEN
 62
7
 10
45.5145106558
 20
29.5484212565
 11
45.5145106558
 21
33.5484212565
  0
LINE
  8
1
  6
HIDDEN
 62
7
 10
44.0145106558
 20
29.5484212565
 11
44.0145106561
 21
27.5484212565
  0
LINE
  8
1
  6
HIDDEN
 62
7
 10
40.5145106558
 20
29.5484212565
 11
40.5145106559
 21
27.5484212565
  0
LINE
  8
1
  6
HIDDEN
 62
7
 10
60.2645106558
 20
33.5484212565
 11
60.2645106558
 21
27.5484212565
  0
LINE
  8
1
  6
HIDDEN
 62
7
 10
64.2645106558
 20
33.5484212565
 11
64.2645106558
 21
27.5484212565
  0
LINE
  8
1
  6
HIDDEN
 62
7
 10
63.9145106558
 20
33.5484212565
 11
63.9145106558
 21
27.5484212565
  0
LINE
  8
1
  6
HIDDEN
 62
7
 10
60.6145106558
 20
33.5484212565
 11
60.6145106558
 21
27.5484212565
  0
LINE
  8
1
  6
HIDDEN
 62
7
 10
124.4661466639
 20
201.1025214537
 11
127.9661466639
 21
201.1025214537
  0
LINE
  8
1
  6
HIDDEN
 62
7
 10
127.9661466639
 20
200.4775214537
 11
127.9661466639
 21
76.6025214537
  0
LINE
  8
1
  6
HIDDEN
 62
7
 10
127.9661466639
 20
76.6025214537
 11
124.4661466639
 21
76.6025214537
  0
LINE
  8
1
  6
HIDDEN
 62
7
 10
127.9661466639
 20
85.3525214537
 11
133.4661466639
 21
85.3525214537
  0
LINE
  8
1
  6
HIDDEN
 62
7
 10
127.9661466639
 20
192.3525214537
 11
133.4661466639
 21
192.3525214537
  0
LINE
  8
1
  6
HIDDEN
 62
7
 10
127.9661466639
 20
83.6025214537
 11
131.9661466639
 21
83.6025214537
  0
LINE
  8
1
  6
HIDDEN
 62
7
 10
131.9661466639
 20
83.6025214537
 11
131.9661466639
 21
82.1025214537
  0
LINE
  8
1
  6
HIDDEN
 62
7
 10
131.9661466639
 20
78.6025214537
 11
131.9661466639
 21
77.1025214537
  0
LINE
  8
1
  6
HIDDEN
 62
7
 10
131.9661466639
 20
77.1025214537
 11
127.9661466639
 21
77.1025214537
  0
LINE
  8
1
  6
HIDDEN
 62
7
 10
131.9661466639
 20
78.6025214537
 11
133.4661466639
 21
78.6025214535
  0
LINE
  8
1
  6
HIDDEN
 62
7
 10
131.9661466639
 20
82.1025214537
 11
133.4661466639
 21
82.1025214648
  0
LINE
  8
1
  6
HIDDEN
 62
7
 10
127.9661466639
 20
194.1025214537
 11
131.9661466639
 21
194.1025214537
  0
LINE
  8
1
  6
HIDDEN
 62
7
 10
131.9661466639
 20
194.1025214537
 11
131.9661466639
 21
195.6025214537
  0
LINE
  8
1
  6
HIDDEN
 62
7
 10
131.9661466639
 20
199.1025214537
 11
131.9661466639
 21
200.6025214537
  0
LINE
  8
1
  6
HIDDEN
 62
7
 10
131.9661466639
 20
200.6025214537
 11
127.9661466639
 21
200.6025214537
  0
LINE
  8
1
  6
HIDDEN
 62
7
 10
131.9661466639
 20
199.1025214537
 11
133.4661466639
 21
199.1025214539
  0
LINE
  8
1
  6
HIDDEN
 62
7
 10
131.9661466639
 20
195.6025214537
 11
133.4661466639
 21
195.6025214425
  0
ARC
  8
2
  6
HIDDEN
 62
5
 10
121.4661466639
 20
213.1025214537
 40
6.0000000000
 50
294.6243183522
 51
164.1092389898
  0
LINE
  8
2
  6
HIDDEN
 62
5
 10
123.9661466639
 20
207.6481653964
 11
123.9661466639
 21
207.1025214537
  0
LINE
  8
2
  6
CONTINUOUS
 62
5
 10
123.9661466639
 20
207.1025214537
 11
123.9661466639
 21
65.6025214537
  0
LINE
  8
2
  6
CONTINUOUS
 62
5
 10
115.8202125868
 20
65.6025214537
 11
123.9661466639
 21
65.6025214537
  0
LINE
  8
2
  6
CONTINUOUS
 62
5
 10
109.4661466639
 20
61.6025214537
 11
109.4661466639
 21
192.4775214537
  0
LINE
  8
2
  6
CONTINUOUS
 62
5
 10
123.9661466639
 20
206.1025214537
 11
113.2892089437
 21
206.1025214537
  0
CIRCLE
  8
2
  6
CONTINUOUS
 62
5
 10
121.4661466639
 20
213.1025214537
 40
2.0000000000
  0
LINE
  8
2
  6
CONTINUOUS
 62
5
 10
29.7645106558
 20
206.1025214537
 11
33.9645106558
 21
206.1025214537
  0
LINE
  8
2
  6
CONTINUOUS
 62
5
 10
33.9645106558
 20
206.1025214537
 11
33.9645106558
 21
219.1025214537
  0
LINE
  8
2
  6
CONTINUOUS
 62
5
 10
33.9645106558
 20
219.1025214537
 11
90.5645106558
 21
219.1025214537
  0
LINE
  8
2
  6
CONTINUOUS
 62
5
 10
90.5645106558
 20
219.1025214537
 11
90.5645106558
 21
206.1025214537
  0
LINE
  8
2
  6
CONTINUOUS
 62
5
 10
90.5645106558
 20
206.1025214537
 11
94.7645106558
 21
206.1025214537
  0
LINE
  8
2
  6
CONTINUOUS
 62
5
 10
94.7645106558
 20
206.1025214537
 11
94.7645106558
 21
65.6025214537
  0
LINE
  8
2
  6
CONTINUOUS
 62
5
 10
78.9630817928
 20
65.6025214537
 11
94.7645106558
 21
65.6025214537
  0
LINE
  8
2
  6
CONTINUOUS
 62
5
 10
45.5659395189
 20
65.6025214537
 11
29.7645106558
 21
65.6025214537
  0
LINE
  8
2
  6
CONTINUOUS
 62
5
 10
29.7645106558
 20
65.6025214537
 11
29.7645106558
 21
206.1025214537
  0
LINE
  8
2
  6
CONTINUOUS
 62
5
 10
49.3906030156
 20
62.0590341874
 11
48.1384182961
 21
64.1460087200
  0
LINE
  8
2
  6
CONTINUOUS
 62
5
 10
72.5659395189
 20
60.6025214537
 11
51.9630817928
 21
60.6025214537
  0
ARC
  8
2
  6
CONTINUOUS
 62
5
 10
45.5659395189
 20
62.6025214537
 40
3.0000000000
 50
30.9637565321
 51
90.0000000000
  0
ARC
  8
2
  6
CONTINUOUS
 62
5
 10
51.9630817928
 20
63.6025214537
 40
3.0000000000
 50
210.9637565321
 51
270.0000000000
  0
LINE
  8
2
  6
CONTINUOUS
 62
5
 10
75.1384182961
 20
62.0590341874
 11
76.3906030156
 21
64.1460087200
  0
ARC
  8
2
  6
CONTINUOUS
 62
5
 10
78.9630817928
 20
62.6025214537
 40
3.0000000000
 50
90.0000000000
 51
149.0362434679
  0
ARC
  8
2
  6
CONTINUOUS
 62
5
 10
72.5659395189
 20
63.6025214537
 40
3.0000000000
 50
270.0000000000
 51
329.0362434679
  0
LINE
  8
2
  6
HIDDEN
 62
5
 10
109.4661466639
 20
70.7525214537
 11
111.4661466639
 21
70.7525214537
  0
LINE
  8
2
  6
HIDDEN
 62
5
 10
111.4661466639
 20
71.1025214537
 11
109.4661466639
 21
71.1025214537
  0
LINE
  8
2
  6
HIDDEN
 62
5
 10
111.4661466639
 20
71.3525214537
 11
123.9661466639
 21
71.3525214537
  0
LINE
  8
2
  6
HIDDEN
 62
5
 10
109.4661466639
 20
67.4525214537
 11
111.4661466639
 21
67.4525214537
  0
LINE
  8
2
  6
HIDDEN
 62
5
 10
111.4661466639
 20
67.1025214537
 11
109.4661466639
 21
67.1025214537
  0
LINE
  8
2
  6
HIDDEN
 62
5
 10
111.4661466639
 20
66.8525214537
 11
123.9661466639
 21
66.8525214537
  0
LINE
  8
2
  6
HIDDEN
 62
5
 10
111.4661466639
 20
71.3525214537
 11
111.4661466639
 21
66.8525214537
  0
LINE
  8
1
  6
HIDDEN
 62
7
 10
124.4661466639
 20
71.1025214537
 11
133.4661466639
 21
71.1025214537
  0
LINE
  8
1
  6
HIDDEN
 62
7
 10
124.4661466639
 20
70.7525214537
 11
133.4661466639
 21
70.7525214537
  0
LINE
  8
1
  6
HIDDEN
 62
7
 10
124.4661466639
 20
67.4525214537
 11
133.4661466639
 21
67.4525214537
  0
LINE
  8
1
  6
HIDDEN
 62
7
 10
124.4661466639
 20
67.1025214537
 11
133.4661466639
 21
67.1025214537
  0
LINE
  8
2
  6
CONTINUOUS
 62
5
 10
113.9632592050
 20
64.3453028064
 11
112.7175903934
 21
61.2311307773
  0
LINE
  8
2
  6
CONTINUOUS
 62
5
 10
111.7891137025
 20
60.6025214537
 11
110.4661466639
 21
60.6025214537
  0
LINE
  8
2
  6
CONTINUOUS
 62
5
 10
36.2645106558
 20
51.5484212565
 11
88.2645106558
 21
51.5484212565
  0
LINE
  8
2
  6
CONTINUOUS
 62
5
 10
94.7645106558
 20
43.5484212565
 11
94.7645106558
 21
37.0484212565
  0
LINE
  8
2
  6
CONTINUOUS
 62
5
 10
94.7645106558
 20
37.0484212565
 11
29.7645106558
 21
37.0484212565
  0
LINE
  8
2
  6
CONTINUOUS
 62
5
 10
29.7645106558
 20
37.0484212565
 11
29.7645106558
 21
43.5484212565
  0
LINE
  8
2
  6
CONTINUOUS
 62
5
 10
94.7645106558
 20
43.5484212565
 11
88.2645106558
 21
51.5484212565
  0
LINE
  8
2
  6
CONTINUOUS
 62
5
 10
36.2645106558
 20
51.5484212565
 11
29.7645106558
 21
43.5484212565
  0
LINE
  8
2
  6
CONTINUOUS
 62
5
 10
33.8539337328
 20
206.1025214537
 11
36.2645106558
 21
192.4775214537
  0
LINE
  8
2
  6
CONTINUOUS
 62
5
 10
36.2645106558
 20
192.4775214537
 11
88.2645106558
 21
192.4775214537
  0
LINE
  8
2
  6
CONTINUOUS
 62
5
 10
88.2645106558
 20
192.4775214537
 11
90.6750875789
 21
206.1025214537
  0
LINE
  8
2
  6
CONTINUOUS
 62
5
 10
88.2645106558
 20
192.4775214537
 11
88.2645106558
 21
65.6025214537
  0
LINE
  8
2
  6
CONTINUOUS
 62
5
 10
36.2645106558
 20
65.6025214537
 11
36.2645106558
 21
192.4775214537
  0
LINE
  8
2
  6
CONTINUOUS
 62
5
 10
45.5659395189
 20
51.5484212565
 11
45.5659395189
 21
46.5484212565
  0
LINE
  8
2
  6
CONTINUOUS
 62
5
 10
45.5659395189
 20
46.5484212565
 11
51.9630817928
 21
48.5484212565
  0
LINE
  8
2
  6
CONTINUOUS
 62
5
 10
51.9630817928
 20
48.5484212565
 11
72.5659395189
 21
48.5484212565
  0
LINE
  8
2
  6
CONTINUOUS
 62
5
 10
72.5659395189
 20
48.5484212565
 11
78.9630817928
 21
46.5484212565
  0
LINE
  8
2
  6
CONTINUOUS
 62
5
 10
78.9630817928
 20
46.5484212565
 11
78.9630817928
 21
51.5484212565
  0
LINE
  8
2
  6
CONTINUOUS
 62
5
 10
51.9630817928
 20
51.5484212565
 11
51.9630817928
 21
48.5484212565
  0
LINE
  8
2
  6
CONTINUOUS
 62
5
 10
72.5659395189
 20
51.5484212565
 11
72.5659395189
 21
48.5484212565
  0
LINE
  8
2
  6
CONTINUOUS
 62
5
 10
45.5659395189
 20
46.5484212565
 11
78.9630817928
 21
46.5484212565
  0
ARC
  8
2
  6
CONTINUOUS
 62
5
 10
110.4661466639
 20
61.6025214537
 40
1.0000000000
 50
180.0000000000
 51
270.0000000000
  0
ARC
  8
2
  6
CONTINUOUS
 62
5
 10
111.7891137025
 20
61.6025214537
 40
1.0000000000
 50
270.0000000000
 51
338.1985905136
  0
ARC
  8
2
  6
CONTINUOUS
 62
5
 10
115.8202125868
 20
63.6025214537
 40
2.0000000000
 50
90.0000000000
 51
158.1985905136
  0
LINE
  8
1
  6
CONTINUOUS
 62
7
 10
96.7645106558
 20
27.5484212565
 11
27.7645106558
 21
27.5484212565
  0
LINE
  8
2
  6
CONTINUOUS
 62
5
 10
124.9661466639
 20
204.3525214537
 11
123.9661466639
 21
204.3525214537
  0
LINE
  8
2
  6
CONTINUOUS
 62
5
 10
124.9661466639
 20
204.3525214537
 11
124.9661466639
 21
203.8525214537
  0
LINE
  8
2
  6
CONTINUOUS
 62
5
 10
124.9661466639
 20
203.8525214537
 11
123.9661466639
 21
203.8525214537
  0
LINE
  8
2
  6
HIDDEN
 62
5
 10
123.9661466639
 20
203.8525214537
 11
114.7351177630
 21
203.8525214537
  0
LINE
  8
2
  6
CONTINUOUS
 62
5
 10
123.9661466639
 20
73.3525214537
 11
124.9661466639
 21
73.3525214537
  0
LINE
  8
2
  6
CONTINUOUS
 62
5
 10
124.9661466639
 20
73.3525214537
 11
124.9661466639
 21
73.8525214537
  0
LINE
  8
2
  6
CONTINUOUS
 62
5
 10
124.9661466639
 20
73.8525214537
 11
123.9661466639
 21
73.8525214537
  0
LINE
  8
2
  6
HIDDEN
 62
5
 10
123.9661466639
 20
73.8525214537
 11
111.4661466639
 21
73.8525214537
  0
LINE
  8
1
  6
CONTINUOUS
 62
7
 10
219.9105182328
 20
201.1025214537
 11
167.9105182328
 21
201.1025214537
  0
LINE
  8
1
  6
CONTINUOUS
 62
7
 10
221.4105182328
 20
78.1025214537
 11
221.4105182328
 21
199.6025214537
  0
LINE
  8
1
  6
CONTINUOUS
 62
7
 10
167.9105182328
 20
76.6025214537
 11
219.9105182328
 21
76.6025214537
  0
LINE
  8
1
  6
CONTINUOUS
 62
7
 10
166.4105182328
 20
78.1025214537
 11
166.4105182328
 21
199.6025214537
  0
LINE
  8
1
  6
CONTINUOUS
 62
7
 10
223.4105182328
 20
75.6025214537
 11
223.4105182328
 21
202.1025214537
  0
LINE
  8
1
  6
CONTINUOUS
 62
7
 10
222.4105182328
 20
203.1025214537
 11
165.4105182328
 21
203.1025214537
  0
LINE
  8
1
  6
CONTINUOUS
 62
7
 10
164.4105182328
 20
75.6025214537
 11
164.4105182328
 21
202.1025214537
  0
LINE
  8
1
  6
CONTINUOUS
 62
7
 10
165.4105182328
 20
74.6025214537
 11
222.4105182328
 21
74.6025214537
  0
ARC
  8
1
  6
CONTINUOUS
 62
7
 10
167.9105182328
 20
199.6025214537
 40
1.5000000000
 50
90.0000000000
 51
180.0000000000
  0
ARC
  8
1
  6
CONTINUOUS
 62
7
 10
219.9105182328
 20
199.6025214537
 40
1.5000000000
 50
0.0000000000
 51
90.0000000000
  0
ARC
  8
1
  6
CONTINUOUS
 62
7
 10
219.9105182328
 20
78.1025214537
 40
1.5000000000
 50
270.0000000000
 51
0.0000000000
  0
ARC
  8
1
  6
CONTINUOUS
 62
7
 10
167.9105182328
 20
78.1025214537
 40
1.5000000000
 50
180.0000000000
 51
270.0000000000
  0
CIRCLE
  8
1
  6
HIDDEN
 62
3
 10
173.9105182328
 20
197.3525214537
 40
1.7500000000
  0
CIRCLE
  8
1
  6
HIDDEN
 62
3
 10
173.9105182328
 20
197.3525214537
 40
3.2500000000
  0
CIRCLE
  8
1
  6
HIDDEN
 62
3
 10
213.9105182328
 20
197.3525214537
 40
1.7500000000
  0
CIRCLE
  8
1
  6
HIDDEN
 62
3
 10
213.9105182328
 20
197.3525214537
 40
3.2500000000
  0
LINE
  8
1
  6
HIDDEN
 62
3
 10
216.9105182328
 20
192.3525214537
 11
219.9105182328
 21
192.3525214537
  0
LINE
  8
1
  6
HIDDEN
 62
3
 10
168.9105182328
 20
192.3525214537
 11
216.9105182328
 21
192.3525214537
  0
CIRCLE
  8
1
  6
HIDDEN
 62
3
 10
173.9105182328
 20
80.3525214537
 40
1.7500000000
  0
CIRCLE
  8
1
  6
HIDDEN
 62
3
 10
173.9105182328
 20
80.3525214537
 40
3.2500000000
  0
CIRCLE
  8
1
  6
HIDDEN
 62
3
 10
213.9105182328
 20
80.3525214537
 40
1.7500000000
  0
CIRCLE
  8
1
  6
HIDDEN
 62
3
 10
213.9105182328
 20
80.3525214537
 40
3.2500000000
  0
CIRCLE
  8
1
  6
HIDDEN
 62
3
 10
193.9105182328
 20
197.3525214537
 40
2.0000000000
  0
LINE
  8
1
  6
CONTINUOUS
 62
7
 10
225.4105182328
 20
75.6025214537
 11
225.4105182328
 21
202.1025214537
  0
LINE
  8
1
  6
CONTINUOUS
 62
7
 10
222.4105182328
 20
205.1025214537
 11
165.4105182328
 21
205.1025214537
  0
LINE
  8
1
  6
CONTINUOUS
 62
7
 10
162.4105182328
 20
75.6025214537
 11
162.4105182328
 21
202.1025214537
  0
LINE
  8
1
  6
CONTINUOUS
 62
7
 10
165.4105182328
 20
72.6025214537
 11
222.4105182328
 21
72.6025214537
  0
LINE
  8
1
  6
CONTINUOUS
 62
7
 10
227.4105182328
 20
65.6025214537
 11
227.4105182328
 21
209.4775214537
  0
LINE
  8
1
  6
CONTINUOUS
 62
7
 10
160.4105182328
 20
209.4775214537
 11
160.4105182328
 21
65.6025214537
  0
LINE
  8
1
  6
CONTINUOUS
 62
7
 10
228.4105182328
 20
64.6025214537
 11
228.4105182328
 21
220.1025214537
  0
LINE
  8
1
  6
CONTINUOUS
 62
7
 10
159.4105182328
 20
220.1025214537
 11
159.4105182328
 21
64.6025214537
  0
ARC
  8
1
  6
CONTINUOUS
 62
7
 10
165.4105182328
 20
202.1025214537
 40
1.0000000000
 50
90.0000000000
 51
180.0000000000
  0
ARC
  8
1
  6
CONTINUOUS
 62
7
 10
222.4105182328
 20
202.1025214537
 40
1.0000000000
 50
0.0000000000
 51
90.0000000000
  0
ARC
  8
1
  6
CONTINUOUS
 62
7
 10
222.4105182328
 20
75.6025214537
 40
1.0000000000
 50
270.0000000000
 51
0.0000000000
  0
ARC
  8
1
  6
CONTINUOUS
 62
7
 10
165.4105182328
 20
75.6025214537
 40
1.0000000000
 50
180.0000000000
 51
270.0000000000
  0
LINE
  8
1
  6
HIDDEN
 62
3
 10
219.9105182328
 20
182.3525214537
 11
219.9105182328
 21
192.3525214537
  0
ARC
  8
1
  6
CONTINUOUS
 62
7
 10
165.4105182328
 20
202.1025214537
 40
3.0000000000
 50
90.0000000000
 51
180.0000000000
  0
ARC
  8
1
  6
CONTINUOUS
 62
7
 10
222.4105182328
 20
202.1025214537
 40
3.0000000000
 50
0.0000000000
 51
90.0000000000
  0
ARC
  8
1
  6
CONTINUOUS
 62
7
 10
222.4105182328
 20
75.6025214537
 40
3.0000000000
 50
270.0000000000
 51
0.0000000000
  0
ARC
  8
1
  6
CONTINUOUS
 62
7
 10
165.4105182328
 20
75.6025214537
 40
3.0000000000
 50
180.0000000000
 51
270.0000000000
  0
LINE
  8
1
  6
DASHDOT
 62
1
 10
230.4105182328
 20
213.1025214537
 11
157.4105182328
 21
213.1025214537
  0
LINE
  8
1
  6
CONTINUOUS
 62
7
 10
228.4105182328
 20
64.6025214537
 11
159.4105182328
 21
64.6025214537
  0
LINE
  8
1
  6
CONTINUOUS
 62
7
 10
160.4105182328
 20
65.6025214537
 11
227.4105182328
 21
65.6025214537
  0
LINE
  8
1
  6
CONTINUOUS
 62
7
 10
160.4105182328
 20
207.1025214537
 11
160.4105182328
 21
219.1025214537
  0
LINE
  8
1
  6
CONTINUOUS
 62
7
 10
160.4105182328
 20
219.1025214537
 11
165.4105182328
 21
219.1025214537
  0
LINE
  8
1
  6
CONTINUOUS
 62
7
 10
165.4105182328
 20
219.1025214537
 11
165.4105182328
 21
207.1025214537
  0
LINE
  8
1
  6
CONTINUOUS
 62
7
 10
165.4105182328
 20
207.1025214537
 11
160.4105182328
 21
207.1025214537
  0
LINE
  8
1
  6
CONTINUOUS
 62
7
 10
227.4105182328
 20
219.1025214537
 11
222.4105182328
 21
219.1025214537
  0
LINE
  8
1
  6
CONTINUOUS
 62
7
 10
222.4105182328
 20
219.1025214537
 11
222.4105182328
 21
207.1025214537
  0
LINE
  8
1
  6
CONTINUOUS
 62
7
 10
222.4105182328
 20
207.1025214537
 11
227.4105182328
 21
207.1025214537
  0
LINE
  8
1
  6
CONTINUOUS
 62
7
 10
227.4105182328
 20
207.1025214537
 11
227.4105182328
 21
219.1025214537
  0
LINE
  8
1
  6
CONTINUOUS
 62
7
 10
222.4105182328
 20
207.1025214537
 11
222.4105182328
 21
206.1025214537
  0
LINE
  8
1
  6
CONTINUOUS
 62
7
 10
222.4105182328
 20
206.1025214537
 11
165.4105182328
 21
206.1025214537
  0
LINE
  8
1
  6
CONTINUOUS
 62
7
 10
165.4105182328
 20
206.1025214537
 11
165.4105182328
 21
207.1025214537
  0
LINE
  8
1
  6
CONTINUOUS
 62
7
 10
228.4105182328
 20
220.1025214537
 11
159.4105182328
 21
220.1025214537
  0
CIRCLE
  8
1
  6
HIDDEN
 62
3
 10
193.9105182328
 20
197.3525214537
 40
1.6500000000
  0
CIRCLE
  8
1
  6
HIDDEN
 62
3
 10
193.9105182328
 20
80.3525214537
 40
2.0000000000
  0
CIRCLE
  8
1
  6
HIDDEN
 62
3
 10
193.9105182328
 20
80.3525214537
 40
1.6500000000
  0
CIRCLE
  8
1
  6
HIDDEN
 62
7
 10
193.9105182328
 20
69.1025214537
 40
2.0000000000
  0
CIRCLE
  8
1
  6
CONTINUOUS
 62
7
 10
193.9105182328
 20
69.1025214537
 40
1.6500000000
  0
INSERT
  8
5
  6
CONTINUOUS
 62
7
  2
S0
 10
0.0000000000
 20
0.0000000000
  0
TEXT
  8
5
  6
CONTINUOUS
 62
7
 10
349.684277
 20
5.000000
 40
6.000000
  1
M0051A057D
 41
0.765697
 50
0.000000
 51
0.000000
 72
   5
 73
   0
 11
379.684277
 21
5.000000
  0
TEXT
  8
5
  6
CONTINUOUS
 62
7
 10
293.500000
 20
10.750000
 40
3.000000
  1
Yamada
 41
0.779221
 50
0.000000
 51
0.000000
 72
   5
 73
   0
 11
302.500000
 21
10.750000
  0
TEXT
  8
5
  6
CONTINUOUS
 62
7
 10
304.500000
 20
10.750000
 40
3.000000
  1
Yamada
 41
0.779221
 50
0.000000
 51
0.000000
 72
   5
 73
   0
 11
313.500000
 21
10.750000
  0
TEXT
  8
1
  6
CONTINUOUS
 62
7
 10
178.408984
 20
56.344007
 40
4.000000
  1
内 部 図
 41
0.854701
 50
0.000000
 51
0.000000
 72
   5
 73
   0
 11
194.408984
 21
56.344007
  0
DIMENSION
  8
1
  6
CONTINUOUS
 62
5
  2
*D0
 10
111.4661466639
 20
98.7193009011
 11
119.7161466639
 21
101.4693009011
  70
0
 13
127.9661466639
 23
93.8244525436
 14
111.4661466639
 24
93.8244525436
 50
0.000000
  0
CIRCLE
  8
1
  6
CONTINUOUS
 62
5
 10
137.4661466639
 20
187.3525214537
 40
2.0000000000
  0
LINE
  8
1
  6
CONTINUOUS
 62
5
 10
135.9661466638
 20
187.3525214537
 11
138.9661466638
 21
187.3525214537
  0
LINE
  8
1
  6
CONTINUOUS
 62
5
 10
136.4661466638
 20
186.6025214537
 11
138.4661466638
 21
186.6025214537
  0
LINE
  8
1
  6
CONTINUOUS
 62
5
 10
136.9661466638
 20
185.8525214537
 11
137.9661466638
 21
185.8525214537
  0
LINE
  8
1
  6
CONTINUOUS
 62
5
 10
137.4661466639
 20
187.3525214537
 11
137.4661466638
 21
188.8525214537
  0
LINE
  8
1
  6
HIDDEN
 62
3
 10
219.9105182328
 20
182.3525214537
 11
216.9105182328
 21
182.3525214537
  0
LINE
  8
1
  6
HIDDEN
 62
3
 10
216.9105182328
 20
182.3525214537
 11
216.9105182328
 21
192.3525214537
  0
LINE
  8
1
  6
CONTINUOUS
 62
7
 10
133.4661466639
 20
192.3525214537
 11
148.4661466639
 21
192.3525214537
  0
LINE
  8
1
  6
CONTINUOUS
 62
7
 10
148.4661466639
 20
192.3525214537
 11
148.4661466639
 21
182.3525214537
  0
LINE
  8
1
  6
CONTINUOUS
 62
7
 10
148.4661466639
 20
182.3525214537
 11
133.4661466639
 21
182.3525214537
  0
CIRCLE
  8
1
  6
CONTINUOUS
 62
7
 10
143.4661466639
 20
187.3525214537
 40
2.0000000000
  0
CIRCLE
  8
1
  6
HIDDEN
 62
7
 10
143.4661466639
 20
187.3525214537
 40
2.5000000000
  0
CIRCLE
  8
1
  6
HIDDEN
 62
5
 10
137.4661466639
 20
90.3525214537
 40
2.0000000000
  0
LINE
  8
1
  6
HIDDEN
 62
5
 10
135.9661466638
 20
90.3525214537
 11
138.9661466638
 21
90.3525214537
  0
LINE
  8
1
  6
HIDDEN
 62
5
 10
136.4661466638
 20
89.6025214537
 11
138.4661466638
 21
89.6025214537
  0
LINE
  8
1
  6
HIDDEN
 62
5
 10
136.9661466638
 20
88.8525214537
 11
137.9661466638
 21
88.8525214537
  0
LINE
  8
1
  6
HIDDEN
 62
5
 10
137.4661466639
 20
90.3525214537
 11
137.4661466638
 21
91.8525214537
  0
LINE
  8
1
  6
CONTINUOUS
 62
7
 10
133.4661466639
 20
95.3525214537
 11
148.4661466639
 21
95.3525214537
  0
LINE
  8
1
  6
CONTINUOUS
 62
7
 10
148.4661466639
 20
95.3525214537
 11
148.4661466639
 21
85.3525214537
  0
LINE
  8
1
  6
CONTINUOUS
 62
7
 10
148.4661466639
 20
85.3525214537
 11
133.4661466639
 21
85.3525214537
  0
CIRCLE
  8
1
  6
CONTINUOUS
 62
7
 10
143.4661466639
 20
90.3525214537
 40
2.0000000000
  0
CIRCLE
  8
1
  6
HIDDEN
 62
7
 10
143.4661466639
 20
90.3525214537
 40
2.5000000000
  0
DIMENSION
  8
1
  6
CONTINUOUS
 62
5
  2
*D1
 10
20.9779016700
 20
36.5484212565
 11
18.2279016700
 21
32.0484212565
  70
0
 13
27.7645106558
 23
27.5484212565
 14
28.7645106558
 24
36.5484212565
 50
90.000000
  0
DIMENSION
  8
1
  6
CONTINUOUS
 62
5
  2
*D2
 10
20.7383253733
 20
51.5484212565
 11
17.9883253733
 21
44.2984212565
  70
0
 13
29.7645106558
 23
37.0484212565
 14
36.2645106558
 24
51.5484212565
 50
90.000000
  0
DIMENSION
  8
1
  6
CONTINUOUS
 62
5
  2
*D3
 10
13.2316014101
 20
51.5484212565
 11
10.4816014101
 21
39.5484212565
  70
0
 13
27.7645106558
 23
27.5484212565
 14
36.2645106558
 24
51.5484212565
 50
90.000000
  0
LINE
  8
1
  6
CONTINUOUS
 62
7
 10
36.2645106558
 20
27.5484212565
 11
36.2645106558
 21
12.5484212565
  0
LINE
  8
1
  6
CONTINUOUS
 62
7
 10
36.2645106558
 20
12.5484212565
 11
39.2645106558
 21
12.5484212565
  0
LINE
  8
1
  6
CONTINUOUS
 62
7
 10
39.2645106558
 20
12.5484212565
 11
39.2645106558
 21
27.5484212565
  0
LINE
  8
1
  6
CONTINUOUS
 62
7
 10
88.2645106558
 20
27.5484212565
 11
88.2645106558
 21
12.5484212565
  0
LINE
  8
1
  6
CONTINUOUS
 62
7
 10
88.2645106558
 20
12.5484212565
 11
85.2645106558
 21
12.5484212565
  0
LINE
  8
1
  6
CONTINUOUS
 62
7
 10
85.2645106558
 20
12.5484212565
 11
85.2645106558
 21
27.5484212565
  0
LINE
  8
1
  6
HIDDEN
 62
3
 10
167.9105182328
 20
85.3525214537
 11
170.9105182328
 21
85.3525214537
  0
LINE
  8
1
  6
HIDDEN
 62
3
 10
218.9105182328
 20
85.3525214537
 11
170.9105182328
 21
85.3525214537
  0
LINE
  8
1
  6
HIDDEN
 62
3
 10
167.9105182328
 20
95.3525214537
 11
170.9105182328
 21
95.3525214537
  0
LINE
  8
3
  6
HIDDEN
 62
3
 10
170.9105182328
 20
95.3525214537
 11
170.9105182328
 21
85.3525214537
  0
LINE
  8
1
  6
HIDDEN
 62
3
 10
167.9105182328
 20
95.3525214537
 11
167.9105182328
 21
85.3525214537
  0
LINE
  8
1
  6
HIDDEN
 62
3
 10
219.9105182328
 20
86.3525214537
 11
219.9105182328
 21
182.3525214537
  0
LINE
  8
1
  6
HIDDEN
 62
3
 10
167.9105182328
 20
191.3525214537
 11
167.9105182328
 21
95.3525214537
  0
LINE
  8
2
  6
CONTINUOUS
 62
5
 10
115.6954338248
 20
214.7453462552
 11
109.4661466639
 21
192.4775214537
  0
LINE
  8
2
  6
HIDDEN
 62
5
 10
114.7351177630
 20
203.8525214537
 11
111.4661466639
 21
192.2022453229
  0
LINE
  8
2
  6
HIDDEN
 62
5
 10
111.4661466639
 20
192.2022453229
 11
111.4661466639
 21
73.8525214537
  0
DIMENSION
  8
1
  6
CONTINUOUS
 62
5
  2
*D4
 10
17.2916228022
 20
64.6025214537
 11
13.7916228022
 21
142.3525214537
  70
0
 13
27.7645106558
 23
220.1025214537
 14
27.7645106558
 24
64.6025214537
 50
90.000000
  0
DIMENSION
  8
1
  6
CONTINUOUS
 62
5
  2
*D5
 10
96.7645106558
 20
224.0648547044
 11
62.2645106558
 21
227.5648547044
  70
0
 13
27.7645106558
 23
220.1025214537
 14
96.7645106558
 24
220.1025214537
 50
0.000000
  0
LINE
  8
2
  6
CONTINUOUS
 62
5
 10
31.5145106558
 20
37.0484212565
 11
31.5145106558
 21
36.0484212565
  0
LINE
  8
2
  6
CONTINUOUS
 62
5
 10
31.5145106558
 20
36.0484212565
 11
32.0145106558
 21
36.0484212565
  0
LINE
  8
2
  6
CONTINUOUS
 62
5
 10
32.0145106558
 20
36.0484212565
 11
32.0145106558
 21
37.0484212565
  0
LINE
  8
2
  6
CONTINUOUS
 62
5
 10
93.0145106558
 20
37.0484212565
 11
93.0145106558
 21
36.0484212565
  0
LINE
  8
2
  6
CONTINUOUS
 62
5
 10
93.0145106558
 20
36.0484212565
 11
92.5145106558
 21
36.0484212565
  0
LINE
  8
2
  6
CONTINUOUS
 62
5
 10
92.5145106558
 20
36.0484212565
 11
92.5145106558
 21
37.0484212565
  0
ARC
  8
1
  6
HIDDEN
 62
3
 10
168.9105182328
 20
191.3525214537
 40
1.0000000000
 50
90.0000000000
 51
180.0000000000
  0
ARC
  8
1
  6
HIDDEN
 62
3
 10
218.9105182328
 20
86.3525214537
 40
1.0000000000
 50
270.0000000000
 51
0.0000000000
  0
CIRCLE
  8
1
  6
CONTINUOUS
 62
7
 10
62.2645106558
 20
69.1025214537
 40
4.0000000000
  0
LINE
  8
1
  6
CONTINUOUS
 62
7
 10
60.4967437029
 20
70.8702884066
 11
64.0322776088
 21
67.3347545007
  0
LINE
  8
1
  6
CONTINUOUS
 62
7
 10
60.4967437029
 20
67.3347545007
 11
64.0322776088
 21
70.8702884066
  0
CIRCLE
  8
1
  6
CONTINUOUS
 62
7
 10
62.2645106558
 20
69.1025214537
 40
3.5000000000
  0
POINT
  8
1
  6
CONTINUOUS
 62
7
 10
62.2645106558
 20
51.5484212565
  0
LINE
  8
1
  6
CONTINUOUS
 62
7
 10
58.7645106558
 20
51.5484212586
 11
65.7645106558
 21
51.5484212543
  0
LINE
  8
1
  6
CONTINUOUS
 62
7
 10
61.4478439892
 20
54.2317545903
 11
63.0811773225
 21
54.2317545893
  0
ARC
  8
1
  6
CONTINUOUS
 62
7
 10
61.4478439892
 20
51.5484212570
 40
2.6833333333
 50
90.0000000000
 51
179.9999999648
  0
ARC
  8
1
  6
CONTINUOUS
 62
7
 10
63.0811773225
 20
51.5484212560
 40
2.6833333333
 50
359.9999999648
 51
90.0000000000
  0
POINT
  8
1
  6
CONTINUOUS
 62
7
 10
62.2645106558
 20
51.5484212565
  0
POINT
  8
1
  6
CONTINUOUS
 62
7
 10
62.2645106558
 20
51.5484212565
  0
POINT
  8
1
  6
CONTINUOUS
 62
7
 10
109.4661466639
 20
69.1025214537
  0
LINE
  8
1
  6
CONTINUOUS
 62
7
 10
109.4690741866
 20
65.5995939289
 11
109.4690741909
 21
72.5995939289
  0
LINE
  8
1
  6
CONTINUOUS
 62
7
 10
106.7857408549
 20
68.2829272622
 11
106.7857408559
 21
69.9162605955
  0
ARC
  8
1
  6
CONTINUOUS
 62
7
 10
109.4690741882
 20
68.2829272622
 40
2.6833333333
 50
180.0000000000
 51
269.9999999648
  0
ARC
  8
1
  6
CONTINUOUS
 62
7
 10
109.4690741892
 20
69.9162605955
 40
2.6833333333
 50
89.9999999648
 51
180.0000000000
  0
POINT
  8
1
  6
CONTINUOUS
 62
7
 10
109.4661466639
 20
69.1025214537
  0
POINT
  8
1
  6
CONTINUOUS
 62
7
 10
109.4661466639
 20
69.1025214537
  0
LINE
  8
7
  6
CONTINUOUS
 62
7
 10
221.1605182328
 20
77.8525214539
 11
221.1605182328
 21
199.8525214535
  0
LINE
  8
7
  6
CONTINUOUS
 62
7
 10
220.1605182328
 20
200.8525214535
 11
167.6605182328
 21
200.8525214539
  0
LINE
  8
7
  6
CONTINUOUS
 62
7
 10
166.6605182328
 20
77.8525214535
 11
166.6605182328
 21
199.8525214539
  0
LINE
  8
7
  6
CONTINUOUS
 62
7
 10
220.1605182328
 20
76.8525214539
 11
167.6605182328
 21
76.8525214535
  0
LINE
  8
7
  6
CONTINUOUS
 62
7
 10
167.6605182328
 20
200.8525214539
 11
166.6605182328
 21
199.8525214539
  0
LINE
  8
7
  6
CONTINUOUS
 62
7
 10
221.1605182328
 20
199.8525214535
 11
220.1605182328
 21
200.8525214535
  0
LINE
  8
7
  6
CONTINUOUS
 62
7
 10
221.1605182328
 20
77.8525214539
 11
220.1605182328
 21
76.8525214539
  0
LINE
  8
7
  6
CONTINUOUS
 62
7
 10
167.6605182328
 20
76.8525214535
 11
166.6605182328
 21
77.8525214535
  0
CIRCLE
  8
3
  6
CONTINUOUS
 62
6
 10
193.9105182328
 20
197.3525214536
 40
3.9000000000
  0
LINE
  8
3
  6
CONTINUOUS
 62
6
 10
192.1869454536
 20
199.0760942328
 11
195.6340910119
 21
195.6289486745
  0
LINE
  8
3
  6
CONTINUOUS
 62
6
 10
192.1869454536
 20
195.6289486745
 11
195.6340910119
 21
199.0760942328
  0
CIRCLE
  8
3
  6
CONTINUOUS
 62
6
 10
193.9105182328
 20
197.3525214536
 40
3.4125000000
  0
CIRCLE
  8
3
  6
CONTINUOUS
 62
6
 10
193.9105182328
 20
80.3525214537
 40
3.9000000000
  0
LINE
  8
3
  6
CONTINUOUS
 62
6
 10
192.1869454536
 20
82.0760942328
 11
195.6340910119
 21
78.6289486745
  0
LINE
  8
3
  6
CONTINUOUS
 62
6
 10
192.1869454536
 20
78.6289486745
 11
195.6340910119
 21
82.0760942328
  0
CIRCLE
  8
3
  6
CONTINUOUS
 62
6
 10
193.9105182328
 20
80.3525214537
 40
3.4125000000
  0
LINE
  8
3
  6
CONTINUOUS
 62
7
 10
209.4105182328
 20
128.3525214537
 11
178.4105182328
 21
128.3525214537
  0
LINE
  8
3
  6
CONTINUOUS
 62
7
 10
215.4105182328
 20
91.3525214537
 11
215.4105182328
 21
122.3525214537
  0
LINE
  8
3
  6
CONTINUOUS
 62
7
 10
178.4105182328
 20
85.3525214537
 11
209.4105182328
 21
85.3525214537
  0
LINE
  8
3
  6
CONTINUOUS
 62
7
 10
172.4105182328
 20
91.3525214537
 11
172.4105182328
 21
122.3525214537
  0
POINT
  8
3
  6
CONTINUOUS
 62
7
 10
193.9105182328
 20
106.8525214537
  0
CIRCLE
  8
3
  6
CONTINUOUS
 62
7
 10
193.9105182328
 20
106.8525214537
 40
17.2500000000
  0
CIRCLE
  8
3
  6
CONTINUOUS
 62
7
 10
210.1739742001
 20
123.1159774210
 40
2.0000000000
  0
CIRCLE
  8
3
  6
CONTINUOUS
 62
7
 10
177.6470622655
 20
90.5890654864
 40
2.0000000000
  0
CIRCLE
  8
3
  6
CONTINUOUS
 62
7
 10
210.1739742001
 20
123.1159774210
 40
3.0000000000
  0
CIRCLE
  8
3
  6
CONTINUOUS
 62
7
 10
177.6470622655
 20
90.5890654864
 40
3.0000000000
  0
TEXT
  8
3
  6
CONTINUOUS
 62
7
 10
191.285518
 20
99.926764
 40
3.500000
  1
125
 41
0.815217
 50
0.000000
 51
0.000000
 72
   5
 73
   0
 11
196.535518
 21
99.926764
  0
TEXT
  8
3
  6
CONTINUOUS
 62
7
 10
193.160518
 20
97.245019
 40
3.000000
  1
V
 41
1.000000
 50
0.000000
 51
0.000000
 72
   5
 73
   0
 11
194.660518
 21
97.245019
  0
INSERT
  8
3
  6
CONTINUOUS
 62
7
  2
S1
 10
199.2237887598
 20
116.0713569170
  0
ARC
  8
3
  6
CONTINUOUS
 62
7
 10
178.4105182328
 20
122.3525214537
 40
6.0000000000
 50
90.0000000000
 51
180.0000000000
  0
ARC
  8
3
  6
CONTINUOUS
 62
7
 10
209.4105182328
 20
122.3525214537
 40
6.0000000000
 50
0.0000000000
 51
90.0000000000
  0
ARC
  8
3
  6
CONTINUOUS
 62
7
 10
209.4105182328
 20
91.3525214537
 40
6.0000000000
 50
270.0000000000
 51
0.0000000000
  0
ARC
  8
3
  6
CONTINUOUS
 62
7
 10
178.4105182328
 20
91.3525214537
 40
6.0000000000
 50
180.0000000000
 51
270.0000000000
  0
ARC
  8
3
  6
CONTINUOUS
 62
5
 10
193.9105182328
 20
116.0025214537
 40
2.6500000000
 50
180.0000000000
 51
0.0000000000
  0
LINE
  8
3
  6
CONTINUOUS
 62
5
 10
191.2605182328
 20
116.0025214537
 11
191.2605182328
 21
118.6525214537
  0
LINE
  8
3
  6
CONTINUOUS
 62
5
 10
191.2605182328
 20
118.6525214537
 11
196.5605182328
 21
118.6525214537
  0
LINE
  8
3
  6
CONTINUOUS
 62
5
 10
196.5605182328
 20
118.6525214537
 11
196.5605182328
 21
116.0025214537
  0
LINE
  8
3
  6
CONTINUOUS
 62
5
 10
199.2105182328
 20
108.4525214537
 11
201.4105182328
 21
108.4525214537
  0
LINE
  8
3
  6
CONTINUOUS
 62
5
 10
201.4105182328
 20
108.4525214537
 11
201.4105182328
 21
99.7525214537
  0
LINE
  8
3
  6
CONTINUOUS
 62
5
 10
201.4105182328
 20
99.7525214537
 11
199.2105182328
 21
99.7525214537
  0
LINE
  8
3
  6
CONTINUOUS
 62
5
 10
199.2105182328
 20
99.7525214537
 11
199.2105182328
 21
108.4525214537
  0
LINE
  8
3
  6
CONTINUOUS
 62
5
 10
186.4105182328
 20
107.6025214537
 11
188.6105182328
 21
107.6025214537
  0
LINE
  8
3
  6
CONTINUOUS
 62
5
 10
188.6105182328
 20
107.6025214537
 11
188.6105182328
 21
100.6025214537
  0
LINE
  8
3
  6
CONTINUOUS
 62
5
 10
188.6105182328
 20
100.6025214537
 11
186.4105182328
 21
100.6025214537
  0
LINE
  8
3
  6
CONTINUOUS
 62
5
 10
186.4105182328
 20
100.6025214537
 11
186.4105182328
 21
107.6025214537
  0
CIRCLE
  8
3
  6
CONTINUOUS
 62
5
 10
203.7984145650
 20
104.1025214537
 40
1.5000000000
  0
TEXT
  8
3
  6
CONTINUOUS
 62
5
 10
203.173415
 20
102.852521
 40
2.500000
  1
N
 41
1.000000
 50
0.000000
 51
0.000000
 72
   5
 73
   0
 11
204.423415
 21
102.852521
  0
TEXT
  8
3
  6
CONTINUOUS
 62
7
 10
191.660518
 20
106.852521
 40
4.500000
  1
15
 41
0.854701
 50
0.000000
 51
0.000000
 72
   5
 73
   0
 11
196.160518
 21
106.852521
  0
TEXT
  8
3
  6
CONTINUOUS
 62
7
 10
193.160518
 20
103.852521
 40
3.000000
  1
A
 41
1.000000
 50
0.000000
 51
0.000000
 72
   5
 73
   0
 11
194.660518
 21
103.852521
  0
LINE
  8
3
  6
CONTINUOUS
 62
7
 10
230.8178253186
 20
-77.8784632072
 11
199.8178253186
 21
-77.8784632072
  0
LINE
  8
3
  6
CONTINUOUS
 62
7
 10
236.8178253186
 20
-114.8784632072
 11
236.8178253186
 21
-83.8784632072
  0
LINE
  8
3
  6
CONTINUOUS
 62
7
 10
199.8178253186
 20
-120.8784632072
 11
230.8178253186
 21
-120.8784632072
  0
LINE
  8
3
  6
CONTINUOUS
 62
7
 10
193.8178253186
 20
-114.8784632072
 11
193.8178253186
 21
-83.8784632072
  0
POINT
  8
3
  6
CONTINUOUS
 62
7
 10
215.3178253186
 20
-99.3784632072
  0
CIRCLE
  8
3
  6
CONTINUOUS
 62
7
 10
215.3178253186
 20
-99.3784632072
 40
17.2500000000
  0
CIRCLE
  8
3
  6
CONTINUOUS
 62
7
 10
231.5812812859
 20
-83.1150072399
 40
3.0000000000
  0
CIRCLE
  8
3
  6
CONTINUOUS
 62
7
 10
199.0543693513
 20
-115.6419191745
 40
3.0000000000
  0
POINT
  8
3
  6
CONTINUOUS
 62
7
 10
215.8178253186
 20
-102.3784632072
  0
ARC
  8
3
  6
CONTINUOUS
 62
7
 10
215.8178253186
 20
-102.3784632072
 40
5.2500000000
 50
145.1500954210
 51
238.9972808661
  0
ARC
  8
3
  6
CONTINUOUS
 62
7
 10
215.8178253186
 20
-102.3784632072
 40
5.2500000000
 50
325.1500954210
 51
58.9972808661
  0
ARC
  8
3
  6
CONTINUOUS
 62
7
 10
215.8178253186
 20
-102.3784632072
 40
8.2500000000
 50
145.1500954210
 51
238.9972808661
  0
ARC
  8
3
  6
CONTINUOUS
 62
7
 10
215.8178253186
 20
-102.3784632072
 40
8.2500000000
 50
325.1500954210
 51
58.9972808661
  0
LINE
  8
3
  6
CONTINUOUS
 62
7
 10
211.5094033337
 20
-99.3784632072
 11
209.0474479137
 21
-97.6641774929
  0
LINE
  8
3
  6
CONTINUOUS
 62
7
 10
213.1136618620
 20
-106.8784632072
 11
211.5684256011
 21
-109.4498917786
  0
LINE
  8
3
  6
CONTINUOUS
 62
7
 10
220.1262473035
 20
-105.3784632072
 11
222.5882027234
 21
-107.0927489215
  0
LINE
  8
3
  6
CONTINUOUS
 62
7
 10
218.5219887752
 20
-97.8784632072
 11
220.0672250361
 21
-95.3070346358
  0
ARC
  8
3
  6
CONTINUOUS
 62
7
 10
215.8178253186
 20
-102.3784632072
 40
9.5000000000
 50
79.1657616991
 51
124.6994185999
  0
ARC
  8
3
  6
CONTINUOUS
 62
7
 10
215.8178253186
 20
-102.3784632072
 40
15.0000000000
 50
75.4243256941
 51
128.4408546048
  0
LINE
  8
3
  6
CONTINUOUS
 62
7
 10
220.2884124819
 20
-89.1491831657
 11
219.3065288932
 21
-92.0547551830
  0
LINE
  8
3
  6
CONTINUOUS
 62
7
 10
206.3770931530
 20
-92.0890231749
 11
208.4505791716
 21
-94.3489125217
  0
ARC
  8
3
  6
CONTINUOUS
 62
7
 10
209.5558423295
 20
-93.3348152129
 40
1.5000000000
 50
222.5368983630
 51
304.6994185999
  0
ARC
  8
3
  6
CONTINUOUS
 62
7
 10
217.8854762616
 20
-91.5745370885
 40
1.5000000000
 50
259.1657616991
 51
341.3282819360
  0
ARC
  8
3
  6
CONTINUOUS
 62
7
 10
219.3410440608
 20
-88.8290377694
 40
1.0000000000
 50
341.3282819360
 51
75.4243256941
  0
ARC
  8
3
  6
CONTINUOUS
 62
7
 10
207.1139352582
 20
-91.4129583024
 40
1.0000000000
 50
128.4408546048
 51
222.5368983630
  0
TEXT
  8
3
  6
CONTINUOUS
 62
7
 10
213.067825
 20
-99.378463
 40
4.500000
  1
15
 41
0.854701
 50
0.000000
 51
0.000000
 72
   5
 73
   0
 11
217.567825
 21
-99.378463
  0
TEXT
  8
3
  6
CONTINUOUS
 62
7
 10
214.567825
 20
-102.378463
 40
3.000000
  1
A
 41
1.000000
 50
0.000000
 51
0.000000
 72
   5
 73
   0
 11
216.067825
 21
-102.378463
  0
TEXT
  8
3
  6
CONTINUOUS
 62
7
 10
212.692825
 20
-106.304221
 40
3.500000
  1
125
 41
0.815217
 50
0.000000
 51
0.000000
 72
   5
 73
   0
 11
217.942825
 21
-106.304221
  0
TEXT
  8
3
  6
CONTINUOUS
 62
7
 10
214.567825
 20
-108.985966
 40
3.000000
  1
V
 41
1.000000
 50
0.000000
 51
0.000000
 72
   5
 73
   0
 11
216.067825
 21
-108.985966
  0
INSERT
  8
3
  6
CONTINUOUS
 62
7
  2
S2
 10
204.5996856920
 20
-94.5517949092
  0
ARC
  8
3
  6
CONTINUOUS
 62
7
 10
199.8178253186
 20
-83.8784632072
 40
6.0000000000
 50
90.0000000000
 51
180.0000000000
  0
ARC
  8
3
  6
CONTINUOUS
 62
7
 10
230.8178253186
 20
-83.8784632072
 40
6.0000000000
 50
0.0000000000
 51
90.0000000000
  0
ARC
  8
3
  6
CONTINUOUS
 62
7
 10
230.8178253186
 20
-114.8784632072
 40
6.0000000000
 50
270.0000000000
 51
0.0000000000
  0
ARC
  8
3
  6
CONTINUOUS
 62
7
 10
199.8178253186
 20
-114.8784632072
 40
6.0000000000
 50
180.0000000000
 51
270.0000000000
  0
LINE
  8
5
  6
CONTINUOUS
 62
6
 10
312.9235759729
 20
271.9463679840
 11
312.9235759729
 21
276.9463679840
  0
LINE
  8
5
  6
CONTINUOUS
 62
6
 10
312.9235759729
 20
276.9463679840
 11
317.9235759729
 21
276.9463679840
  0
LINE
  8
5
  6
CONTINUOUS
 62
6
 10
317.9235759729
 20
276.9463679840
 11
337.9235759729
 21
276.9463679840
  0
LINE
  8
5
  6
CONTINUOUS
 62
6
 10
337.9235759729
 20
276.9463679840
 11
377.9235759729
 21
276.9463679840
  0
LINE
  8
5
  6
CONTINUOUS
 62
6
 10
377.9235759729
 20
276.9463679840
 11
392.9235759729
 21
276.9463679840
  0
LINE
  8
5
  6
CONTINUOUS
 62
6
 10
392.9235759729
 20
276.9463679840
 11
397.9235759729
 21
276.9463679840
  0
LINE
  8
5
  6
CONTINUOUS
 62
6
 10
397.9235759729
 20
276.9463679840
 11
397.9235759729
 21
271.9463679840
  0
LINE
  8
5
  6
CONTINUOUS
 62
6
 10
397.9235759729
 20
271.9463679840
 11
392.9235759729
 21
271.9463679840
  0
LINE
  8
5
  6
CONTINUOUS
 62
6
 10
392.9235759729
 20
271.9463679840
 11
377.9235759729
 21
271.9463679840
  0
LINE
  8
5
  6
CONTINUOUS
 62
6
 10
377.9235759729
 20
271.9463679840
 11
337.9235759729
 21
271.9463679840
  0
LINE
  8
5
  6
CONTINUOUS
 62
6
 10
337.9235759729
 20
271.9463679840
 11
317.9235759729
 21
271.9463679840
  0
LINE
  8
5
  6
CONTINUOUS
 62
6
 10
317.9235759729
 20
271.9463679840
 11
312.9235759729
 21
271.9463679840
  0
LINE
  8
5
  6
CONTINUOUS
 62
6
 10
317.9235759729
 20
276.9463679840
 11
317.9235759729
 21
271.9463679840
  0
LINE
  8
5
  6
CONTINUOUS
 62
6
 10
337.9235759729
 20
276.9463679840
 11
337.9235759729
 21
271.9463679840
  0
LINE
  8
5
  6
CONTINUOUS
 62
6
 10
377.9235759729
 20
276.9463679840
 11
377.9235759729
 21
271.9463679840
  0
LINE
  8
5
  6
CONTINUOUS
 62
6
 10
392.9235759729
 20
276.9463679840
 11
392.9235759729
 21
271.9463679840
  0
TEXT
  8
5
  6
CONTINUOUS
 62
7
 10
313.123576
 20
273.296368
 40
2.300000
  1
項番
 41
0.921659
 50
0.000000
 51
0.000000
 72
   5
 73
   0
 11
317.723576
 21
273.296368
  0
TEXT
  8
5
  6
CONTINUOUS
 62
7
 10
322.931576
 20
272.946368
 40
3.000000
  1
品　　名
 41
0.737916
 50
0.000000
 51
0.000000
 72
   5
 73
   0
 11
332.915576
 21
272.946368
  0
TEXT
  8
5
  6
CONTINUOUS
 62
7
 10
342.770576
 20
272.946368
 40
3.000000
  1
定  格 / 型  番 / 材　質
 41
0.686277
 50
0.000000
 51
0.000000
 72
   5
 73
   0
 11
373.076576
 21
272.946368
  0
TEXT
  8
5
  6
CONTINUOUS
 62
7
 10
380.226076
 20
272.946368
 40
3.000000
  1
メーカー
 41
0.768293
 50
0.000000
 51
0.000000
 72
   5
 73
   0
 11
390.621076
 21
272.946368
  0
TEXT
  8
5
  6
CONTINUOUS
 62
7
 10
393.123576
 20
273.296368
 40
2.300000
  1
数量
 41
0.921659
 50
0.000000
 51
0.000000
 72
   5
 73
   0
 11
397.723576
 21
273.296368
  0
LINE
  8
5
  6
CONTINUOUS
 62
6
 10
312.9235759729
 20
266.9463679840
 11
312.9235759729
 21
271.9463679840
  0
LINE
  8
5
  6
CONTINUOUS
 62
6
 10
312.9235759729
 20
271.9463679840
 11
317.9235759729
 21
271.9463679840
  0
LINE
  8
5
  6
CONTINUOUS
 62
6
 10
317.9235759729
 20
271.9463679840
 11
337.9235759729
 21
271.9463679840
  0
LINE
  8
5
  6
CONTINUOUS
 62
6
 10
337.9235759729
 20
271.9463679840
 11
377.9235759729
 21
271.9463679840
  0
LINE
  8
5
  6
CONTINUOUS
 62
6
 10
377.9235759729
 20
271.9463679840
 11
392.9235759729
 21
271.9463679840
  0
LINE
  8
5
  6
CONTINUOUS
 62
6
 10
392.9235759729
 20
271.9463679840
 11
397.9235759729
 21
271.9463679840
  0
LINE
  8
5
  6
CONTINUOUS
 62
6
 10
397.9235759729
 20
271.9463679840
 11
397.9235759729
 21
266.9463679840
  0
LINE
  8
5
  6
CONTINUOUS
 62
6
 10
397.9235759729
 20
266.9463679840
 11
392.9235759729
 21
266.9463679840
  0
LINE
  8
5
  6
CONTINUOUS
 62
6
 10
392.9235759729
 20
266.9463679840
 11
377.9235759729
 21
266.9463679840
  0
LINE
  8
5
  6
CONTINUOUS
 62
6
 10
337.9235759729
 20
266.9463679840
 11
317.9235759729
 21
266.9463679840
  0
LINE
  8
5
  6
CONTINUOUS
 62
6
 10
317.9235759729
 20
266.9463679840
 11
312.9235759729
 21
266.9463679840
  0
LINE
  8
5
  6
CONTINUOUS
 62
6
 10
317.9235759729
 20
271.9463679840
 11
317.9235759729
 21
266.9463679840
  0
LINE
  8
5
  6
CONTINUOUS
 62
6
 10
337.9235759729
 20
271.9463679840
 11
337.9235759729
 21
266.9463679840
  0
LINE
  8
5
  6
CONTINUOUS
 62
6
 10
377.9235759729
 20
271.9463679840
 11
377.9235759729
 21
266.9463679840
  0
LINE
  8
5
  6
CONTINUOUS
 62
6
 10
392.9235759729
 20
271.9463679840
 11
392.9235759729
 21
266.9463679840
  0
TEXT
  8
5
  6
CONTINUOUS
 62
7
 10
314.548576
 20
267.696368
 40
3.500000
  1
1
 41
1.000000
 50
0.000000
 51
0.000000
 72
   5
 73
   0
 11
316.298576
 21
267.696368
  0
TEXT
  8
5
  6
CONTINUOUS
 62
7
 10
318.923576
 20
267.946368
 40
3.000000
  1
ベース
 41
0.841018
 50
0.000000
 51
0.000000
 72
   5
 73
   0
 11
327.350576
 21
267.946368
  0
TEXT
  8
5
  6
CONTINUOUS
 62
7
 10
394.548576
 20
267.696368
 40
3.500000
  1
1
 41
1.000000
 50
0.000000
 51
0.000000
 72
   5
 73
   0
 11
396.298576
 21
267.696368
  0
LINE
  8
5
  6
CONTINUOUS
 62
6
 10
397.9235759729
 20
261.9463679840
 11
392.9235759729
 21
261.9463679840
  0
LINE
  8
5
  6
CONTINUOUS
 62
6
 10
397.9235759729
 20
256.9463679840
 11
392.9235759729
 21
256.9463679840
  0
LINE
  8
5
  6
CONTINUOUS
 62
6
 10
397.9235759729
 20
251.9463679840
 11
392.9235759729
 21
251.9463679840
  0
LINE
  8
5
  6
CONTINUOUS
 62
6
 10
397.9235759729
 20
246.9463679840
 11
392.9235759729
 21
246.9463679840
  0
LINE
  8
5
  6
CONTINUOUS
 62
6
 10
397.9235759729
 20
241.9463679840
 11
392.9235759729
 21
241.9463679840
  0
LINE
  8
5
  6
CONTINUOUS
 62
6
 10
397.9235759729
 20
236.9463679840
 11
392.9235759729
 21
236.9463679840
  0
LINE
  8
5
  6
CONTINUOUS
 62
6
 10
397.9235759729
 20
231.9463679840
 11
392.9235759729
 21
231.9463679840
  0
LINE
  8
5
  6
CONTINUOUS
 62
6
 10
392.9235759729
 20
261.9463679840
 11
377.9235759729
 21
261.9463679840
  0
LINE
  8
5
  6
CONTINUOUS
 62
6
 10
392.9235759729
 20
256.9463679840
 11
377.9235759729
 21
256.9463679840
  0
LINE
  8
5
  6
CONTINUOUS
 62
6
 10
392.9235759729
 20
251.9463679840
 11
377.9235759729
 21
251.9463679840
  0
LINE
  8
5
  6
CONTINUOUS
 62
6
 10
392.9235759729
 20
246.9463679840
 11
377.9235759729
 21
246.9463679840
  0
LINE
  8
5
  6
CONTINUOUS
 62
6
 10
392.9235759729
 20
241.9463679840
 11
377.9235759729
 21
241.9463679840
  0
LINE
  8
5
  6
CONTINUOUS
 62
6
 10
392.9235759729
 20
236.9463679840
 11
377.9235759729
 21
236.9463679840
  0
LINE
  8
5
  6
CONTINUOUS
 62
6
 10
392.9235759729
 20
231.9463679840
 11
377.9235759729
 21
231.9463679840
  0
LINE
  8
5
  6
CONTINUOUS
 62
6
 10
377.9235759729
 20
261.9463679840
 11
337.9235759729
 21
261.9463679840
  0
LINE
  8
5
  6
CONTINUOUS
 62
6
 10
377.9235759729
 20
256.9463679840
 11
337.9235759729
 21
256.9463679840
  0
LINE
  8
5
  6
CONTINUOUS
 62
6
 10
377.9235759729
 20
251.9463679840
 11
337.9235759729
 21
251.9463679840
  0
LINE
  8
5
  6
CONTINUOUS
 62
6
 10
377.9235759729
 20
246.9463679840
 11
337.9235759729
 21
246.9463679840
  0
LINE
  8
5
  6
CONTINUOUS
 62
6
 10
377.9235759729
 20
241.9463679840
 11
337.9235759729
 21
241.9463679840
  0
LINE
  8
5
  6
CONTINUOUS
 62
6
 10
377.9235759729
 20
236.9463679840
 11
337.9235759729
 21
236.9463679840
  0
LINE
  8
5
  6
CONTINUOUS
 62
6
 10
377.9235759729
 20
231.9463679840
 11
337.9235759729
 21
231.9463679840
  0
LINE
  8
5
  6
CONTINUOUS
 62
6
 10
337.9235759729
 20
261.9463679840
 11
317.9235759729
 21
261.9463679840
  0
LINE
  8
5
  6
CONTINUOUS
 62
6
 10
337.9235759729
 20
256.9463679840
 11
317.9235759729
 21
256.9463679840
  0
LINE
  8
5
  6
CONTINUOUS
 62
6
 10
337.9235759729
 20
251.9463679840
 11
317.9235759729
 21
251.9463679840
  0
LINE
  8
5
  6
CONTINUOUS
 62
6
 10
337.9235759729
 20
246.9463679840
 11
317.9235759729
 21
246.9463679840
  0
LINE
  8
5
  6
CONTINUOUS
 62
6
 10
337.9235759729
 20
241.9463679840
 11
317.9235759729
 21
241.9463679840
  0
LINE
  8
5
  6
CONTINUOUS
 62
6
 10
337.9235759729
 20
236.9463679840
 11
317.9235759729
 21
236.9463679840
  0
LINE
  8
5
  6
CONTINUOUS
 62
6
 10
337.9235759729
 20
231.9463679840
 11
317.9235759729
 21
231.9463679840
  0
LINE
  8
5
  6
CONTINUOUS
 62
6
 10
317.9235759729
 20
261.9463679840
 11
312.9235759729
 21
261.9463679840
  0
LINE
  8
5
  6
CONTINUOUS
 62
6
 10
317.9235759729
 20
256.9463679840
 11
312.9235759729
 21
256.9463679840
  0
LINE
  8
5
  6
CONTINUOUS
 62
6
 10
317.9235759729
 20
251.9463679840
 11
312.9235759729
 21
251.9463679840
  0
LINE
  8
5
  6
CONTINUOUS
 62
6
 10
317.9235759729
 20
246.9463679840
 11
312.9235759729
 21
246.9463679840
  0
LINE
  8
5
  6
CONTINUOUS
 62
6
 10
317.9235759729
 20
241.9463679840
 11
312.9235759729
 21
241.9463679840
  0
LINE
  8
5
  6
CONTINUOUS
 62
6
 10
317.9235759729
 20
236.9463679840
 11
312.9235759729
 21
236.9463679840
  0
LINE
  8
5
  6
CONTINUOUS
 62
6
 10
317.9235759729
 20
231.9463679840
 11
312.9235759729
 21
231.9463679840
  0
TEXT
  8
5
  6
CONTINUOUS
 62
7
 10
314.548576
 20
262.696368
 40
3.500000
  1
2
 41
1.000000
 50
0.000000
 51
0.000000
 72
   5
 73
   0
 11
316.298576
 21
262.696368
  0
TEXT
  8
5
  6
CONTINUOUS
 62
7
 10
314.548576
 20
257.696368
 40
3.500000
  1
3
 41
1.000000
 50
0.000000
 51
0.000000
 72
   5
 73
   0
 11
316.298576
 21
257.696368
  0
TEXT
  8
5
  6
CONTINUOUS
 62
7
 10
314.548576
 20
252.696368
 40
3.500000
  1
4
 41
1.000000
 50
0.000000
 51
0.000000
 72
   5
 73
   0
 11
316.298576
 21
252.696368
  0
TEXT
  8
5
  6
CONTINUOUS
 62
7
 10
314.548576
 20
247.696368
 40
3.500000
  1
5
 41
1.000000
 50
0.000000
 51
0.000000
 72
   5
 73
   0
 11
316.298576
 21
247.696368
  0
TEXT
  8
5
  6
CONTINUOUS
 62
7
 10
314.548576
 20
242.696368
 40
3.500000
  1
6
 41
1.000000
 50
0.000000
 51
0.000000
 72
   5
 73
   0
 11
316.298576
 21
242.696368
  0
TEXT
  8
5
  6
CONTINUOUS
 62
7
 10
314.548576
 20
237.696368
 40
3.500000
  1
7
 41
1.000000
 50
0.000000
 51
0.000000
 72
   5
 73
   0
 11
316.298576
 21
237.696368
  0
TEXT
  8
5
  6
CONTINUOUS
 62
7
 10
314.548576
 20
232.696368
 40
3.500000
  1
8
 41
1.000000
 50
0.000000
 51
0.000000
 72
   5
 73
   0
 11
316.298576
 21
232.696368
  0
TEXT
  8
5
  6
CONTINUOUS
 62
7
 10
318.923576
 20
262.946368
 40
3.000000
  1
カバー
 41
0.833832
 50
0.000000
 51
0.000000
 72
   5
 73
   0
 11
327.278576
 21
262.946368
  0
TEXT
  8
5
  6
CONTINUOUS
 62
7
 10
318.923576
 20
257.946368
 40
3.000000
  1
ロック
 41
0.719162
 50
0.000000
 51
0.000000
 72
   5
 73
   0
 11
326.129576
 21
257.946368
  0
TEXT
  8
5
  6
CONTINUOUS
 62
7
 10
318.923576
 20
252.946368
 40
3.000000
  1
添付品ﾋﾞｽ
 41
0.822804
 50
0.000000
 51
0.000000
 72
   5
 73
   0
 11
332.129576
 21
252.946368
  0
TEXT
  8
5
  6
CONTINUOUS
 62
7
 10
318.923576
 20
242.946368
 40
3.000000
  1
添付品ﾋﾞｽ
 41
0.822804
 50
0.000000
 51
0.000000
 72
   5
 73
   0
 11
332.129576
 21
242.946368
  0
TEXT
  8
5
  6
CONTINUOUS
 62
7
 10
318.923576
 20
237.946368
 40
3.000000
  1
添付品ﾋﾞｽ
 41
0.822804
 50
0.000000
 51
0.000000
 72
   5
 73
   0
 11
332.129576
 21
237.946368
  0
TEXT
  8
5
  6
CONTINUOUS
 62
7
 10
338.923576
 20
257.946368
 40
3.000000
  1
M4×20 脱落防止ビス
 41
0.819085
 50
0.000000
 51
0.000000
 72
   5
 73
   0
 11
366.862576
 21
257.946368
  0
TEXT
  8
5
  6
CONTINUOUS
 62
7
 10
338.923576
 20
252.946368
 40
3.000000
  1
M3×8小ワｾﾑｽ(ﾍﾞｰｽ固定用)
 41
0.831095
 50
0.000000
 51
0.000000
 72
   5
 73
   0
 11
376.048576
 21
252.946368
  0
TEXT
  8
5
  6
CONTINUOUS
 62
7
 10
338.923576
 20
242.946368
 40
3.000000
  1
M5×10ｱﾌﾞｾｯﾄ
 41
0.813247
 50
0.000000
 51
0.000000
 72
   5
 73
   0
 11
357.709576
 21
242.946368
  0
TEXT
  8
5
  6
CONTINUOUS
 62
7
 10
338.923576
 20
237.946368
 40
3.000000
  1
M5 内歯菊座金
 41
0.851365
 50
0.000000
 51
0.000000
 72
   5
 73
   0
 11
358.564576
 21
237.946368
  0
TEXT
  8
5
  6
CONTINUOUS
 62
7
 10
394.548576
 20
262.696368
 40
3.500000
  1
1
 41
1.000000
 50
0.000000
 51
0.000000
 72
   5
 73
   0
 11
396.298576
 21
262.696368
  0
TEXT
  8
5
  6
CONTINUOUS
 62
7
 10
394.548576
 20
257.696368
 40
3.500000
  1
1
 41
1.000000
 50
0.000000
 51
0.000000
 72
   5
 73
   0
 11
396.298576
 21
257.696368
  0
TEXT
  8
5
  6
CONTINUOUS
 62
7
 10
394.548576
 20
252.696368
 40
3.500000
  1
4
 41
1.000000
 50
0.000000
 51
0.000000
 72
   5
 73
   0
 11
396.298576
 21
252.696368
  0
TEXT
  8
5
  6
CONTINUOUS
 62
7
 10
394.548576
 20
242.696368
 40
3.500000
  1
1
 41
1.000000
 50
0.000000
 51
0.000000
 72
   5
 73
   0
 11
396.298576
 21
242.696368
  0
TEXT
  8
5
  6
CONTINUOUS
 62
7
 10
394.548576
 20
237.696368
 40
3.500000
  1
1
 41
1.000000
 50
0.000000
 51
0.000000
 72
   5
 73
   0
 11
396.298576
 21
237.696368
  0
LINE
  8
5
  6
CONTINUOUS
 62
6
 10
312.9235759729
 20
261.9463679840
 11
312.9235759729
 21
266.9463679840
  0
LINE
  8
5
  6
CONTINUOUS
 62
6
 10
312.9235759729
 20
256.9463679840
 11
312.9235759729
 21
261.9463679840
  0
LINE
  8
5
  6
CONTINUOUS
 62
6
 10
312.9235759729
 20
251.9463679840
 11
312.9235759729
 21
256.9463679840
  0
LINE
  8
5
  6
CONTINUOUS
 62
6
 10
312.9235759729
 20
246.9463679840
 11
312.9235759729
 21
251.9463679840
  0
LINE
  8
5
  6
CONTINUOUS
 62
6
 10
312.9235759729
 20
241.9463679840
 11
312.9235759729
 21
246.9463679840
  0
LINE
  8
5
  6
CONTINUOUS
 62
6
 10
312.9235759729
 20
236.9463679840
 11
312.9235759729
 21
241.9463679840
  0
LINE
  8
5
  6
CONTINUOUS
 62
6
 10
312.9235759729
 20
231.9463679840
 11
312.9235759729
 21
236.9463679840
  0
LINE
  8
5
  6
CONTINUOUS
 62
6
 10
317.9235759729
 20
266.9463679840
 11
317.9235759729
 21
261.9463679840
  0
LINE
  8
5
  6
CONTINUOUS
 62
6
 10
317.9235759729
 20
261.9463679840
 11
317.9235759729
 21
256.9463679840
  0
LINE
  8
5
  6
CONTINUOUS
 62
6
 10
317.9235759729
 20
256.9463679840
 11
317.9235759729
 21
251.9463679840
  0
LINE
  8
5
  6
CONTINUOUS
 62
6
 10
317.9235759729
 20
251.9463679840
 11
317.9235759729
 21
246.9463679840
  0
LINE
  8
5
  6
CONTINUOUS
 62
6
 10
317.9235759729
 20
246.9463679840
 11
317.9235759729
 21
241.9463679840
  0
LINE
  8
5
  6
CONTINUOUS
 62
6
 10
317.9235759729
 20
241.9463679840
 11
317.9235759729
 21
236.9463679840
  0
LINE
  8
5
  6
CONTINUOUS
 62
6
 10
317.9235759729
 20
236.9463679840
 11
317.9235759729
 21
231.9463679840
  0
LINE
  8
5
  6
CONTINUOUS
 62
6
 10
337.9235759729
 20
266.9463679840
 11
337.9235759729
 21
261.9463679840
  0
LINE
  8
5
  6
CONTINUOUS
 62
6
 10
337.9235759729
 20
261.9463679840
 11
337.9235759729
 21
256.9463679840
  0
LINE
  8
5
  6
CONTINUOUS
 62
6
 10
337.9235759729
 20
256.9463679840
 11
337.9235759729
 21
251.9463679840
  0
LINE
  8
5
  6
CONTINUOUS
 62
6
 10
337.9235759729
 20
251.9463679840
 11
337.9235759729
 21
246.9463679840
  0
LINE
  8
5
  6
CONTINUOUS
 62
6
 10
337.9235759729
 20
246.9463679840
 11
337.9235759729
 21
241.9463679840
  0
LINE
  8
5
  6
CONTINUOUS
 62
6
 10
337.9235759729
 20
241.9463679840
 11
337.9235759729
 21
236.9463679840
  0
LINE
  8
5
  6
CONTINUOUS
 62
6
 10
337.9235759729
 20
236.9463679840
 11
337.9235759729
 21
231.9463679840
  0
LINE
  8
5
  6
CONTINUOUS
 62
6
 10
377.9235759729
 20
266.9463679840
 11
377.9235759729
 21
261.9463679840
  0
LINE
  8
5
  6
CONTINUOUS
 62
6
 10
377.9235759729
 20
261.9463679840
 11
377.9235759729
 21
256.9463679840
  0
LINE
  8
5
  6
CONTINUOUS
 62
6
 10
377.9235759729
 20
251.9463679840
 11
377.9235759729
 21
246.9463679840
  0
LINE
  8
5
  6
CONTINUOUS
 62
6
 10
377.9235759729
 20
246.9463679840
 11
377.9235759729
 21
241.9463679840
  0
LINE
  8
5
  6
CONTINUOUS
 62
6
 10
377.9235759729
 20
241.9463679840
 11
377.9235759729
 21
236.9463679840
  0
LINE
  8
5
  6
CONTINUOUS
 62
6
 10
377.9235759729
 20
236.9463679840
 11
377.9235759729
 21
231.9463679840
  0
LINE
  8
5
  6
CONTINUOUS
 62
6
 10
392.9235759729
 20
266.9463679840
 11
392.9235759729
 21
261.9463679840
  0
LINE
  8
5
  6
CONTINUOUS
 62
6
 10
392.9235759729
 20
261.9463679840
 11
392.9235759729
 21
256.9463679840
  0
LINE
  8
5
  6
CONTINUOUS
 62
6
 10
392.9235759729
 20
256.9463679840
 11
392.9235759729
 21
251.9463679840
  0
LINE
  8
5
  6
CONTINUOUS
 62
6
 10
392.9235759729
 20
251.9463679840
 11
392.9235759729
 21
246.9463679840
  0
LINE
  8
5
  6
CONTINUOUS
 62
6
 10
392.9235759729
 20
246.9463679840
 11
392.9235759729
 21
241.9463679840
  0
LINE
  8
5
  6
CONTINUOUS
 62
6
 10
392.9235759729
 20
241.9463679840
 11
392.9235759729
 21
236.9463679840
  0
LINE
  8
5
  6
CONTINUOUS
 62
6
 10
392.9235759729
 20
236.9463679840
 11
392.9235759729
 21
231.9463679840
  0
LINE
  8
5
  6
CONTINUOUS
 62
6
 10
397.9235759729
 20
266.9463679840
 11
397.9235759729
 21
261.9463679840
  0
LINE
  8
5
  6
CONTINUOUS
 62
6
 10
397.9235759729
 20
261.9463679840
 11
397.9235759729
 21
256.9463679840
  0
LINE
  8
5
  6
CONTINUOUS
 62
6
 10
397.9235759729
 20
256.9463679840
 11
397.9235759729
 21
251.9463679840
  0
LINE
  8
5
  6
CONTINUOUS
 62
6
 10
397.9235759729
 20
251.9463679840
 11
397.9235759729
 21
246.9463679840
  0
LINE
  8
5
  6
CONTINUOUS
 62
6
 10
397.9235759729
 20
246.9463679840
 11
397.9235759729
 21
241.9463679840
  0
LINE
  8
5
  6
CONTINUOUS
 62
6
 10
397.9235759729
 20
241.9463679840
 11
397.9235759729
 21
236.9463679840
  0
LINE
  8
5
  6
CONTINUOUS
 62
6
 10
397.9235759729
 20
236.9463679840
 11
397.9235759729
 21
231.9463679840
  0
LINE
  8
5
  6
CONTINUOUS
 62
6
 10
13.5000000000
 20
254.5000000000
 11
13.5000000000
 21
279.5000000000
  0
LINE
  8
5
  6
CONTINUOUS
 62
6
 10
25.5000000000
 20
254.5000000000
 11
25.5000000000
 21
279.5000000000
  0
LINE
  8
5
  6
CONTINUOUS
 62
6
 10
90.0000000000
 20
254.5000000000
 11
90.0000000000
 21
279.5000000000
  0
LINE
  8
5
  6
CONTINUOUS
 62
6
 10
99.0000000000
 20
279.5000000000
 11
99.0000000000
 21
254.5000000000
  0
TEXT
  8
5
  6
CONTINUOUS
 62
6
 10
16.534500
 20
255.500000
 40
3.000000
  1
Date
 41
0.787649
 50
0.000000
 51
0.000000
 72
   5
 73
   0
 11
22.465500
 21
255.500000
  0
TEXT
  8
5
  6
CONTINUOUS
 62
6
 10
6.292500
 20
255.500000
 40
3.000000
  1
Rev.
 41
0.719124
 50
0.000000
 51
0.000000
 72
   5
 73
   0
 11
11.707500
 21
255.500000
  0
TEXT
  8
5
  6
CONTINUOUS
 62
6
 10
27.000000
 20
255.500000
 40
3.000000
  1
Content
 41
0.746681
 50
0.000000
 51
0.000000
 72
   5
 73
   0
 11
37.125000
 21
255.500000
  0
TEXT
  8
5
  6
CONTINUOUS
 62
6
 10
90.972000
 20
255.500000
 40
3.000000
  1
Name
 41
0.937052
 50
0.000000
 51
0.000000
 72
   5
 73
   0
 11
98.028000
 21
255.500000
  0
LINE
  8
5
  6
CONTINUOUS
 62
6
 10
4.5000000000
 20
259.5000000000
 11
99.0000000000
 21
259.5000000000
  0
LINE
  8
5
  6
CONTINUOUS
 62
6
 10
4.5000000000
 20
264.5000000000
 11
99.0000000000
 21
264.5000000000
  0
LINE
  8
5
  6
CONTINUOUS
 62
6
 10
4.5000000000
 20
269.5000000000
 11
99.0000000000
 21
269.5000000000
  0
LINE
  8
5
  6
CONTINUOUS
 62
6
 10
4.5000000000
 20
274.5000000000
 11
99.0000000000
 21
274.5000000000
  0
LINE
  8
5
  6
CONTINUOUS
 62
6
 10
4.5000000000
 20
254.5000000000
 11
99.0000000000
 21
254.5000000000
  0
POINT
  8
5
  6
CONTINUOUS
 62
6
 10
9.0000000000
 20
262.0000000000
  0
POINT
  8
5
  6
CONTINUOUS
 62
6
 10
9.0000000000
 20
267.0000000000
  0
POINT
  8
5
  6
CONTINUOUS
 62
6
 10
9.0000000000
 20
272.0000000000
  0
POINT
  8
5
  6
CONTINUOUS
 62
6
 10
9.0000000000
 20
277.0000000000
  0
POINT
  8
5
  6
CONTINUOUS
 62
6
 10
19.5000000000
 20
277.0000000000
  0
POINT
  8
5
  6
CONTINUOUS
 62
6
 10
19.5000000000
 20
272.0000000000
  0
POINT
  8
5
  6
CONTINUOUS
 62
6
 10
19.5000000000
 20
267.0000000000
  0
POINT
  8
5
  6
CONTINUOUS
 62
6
 10
19.5000000000
 20
262.0000000000
  0
POINT
  8
5
  6
CONTINUOUS
 62
6
 10
94.5000000000
 20
262.0000000000
  0
POINT
  8
5
  6
CONTINUOUS
 62
6
 10
94.5000000000
 20
267.0000000000
  0
POINT
  8
5
  6
CONTINUOUS
 62
6
 10
94.5000000000
 20
272.0000000000
  0
POINT
  8
5
  6
CONTINUOUS
 62
6
 10
94.5000000000
 20
277.0000000000
  0
POINT
  8
5
  6
CONTINUOUS
 62
6
 10
25.5000000000
 20
277.0000000000
  0
POINT
  8
5
  6
CONTINUOUS
 62
6
 10
25.5000000000
 20
272.0000000000
  0
POINT
  8
5
  6
CONTINUOUS
 62
6
 10
25.5000000000
 20
267.0000000000
  0
POINT
  8
5
  6
CONTINUOUS
 62
6
 10
25.5000000000
 20
262.0000000000
  0
INSERT
  8
1
  6
CONTINUOUS
 62
5
  2
BALN0
 10
65.1092980532
 20
67.0636039311
  0
TEXT
  8
5
  6
CONTINUOUS
 62
7
 10
338.923576
 20
247.946368
 40
3.000000
  1
M4×8小ワｾﾑｽ(ﾊﾟﾈﾙ固定用)
 41
0.833177
 50
0.000000
 51
0.000000
 72
   5
 73
   0
 11
376.141576
 21
247.946368
  0
TEXT
  8
5
  6
CONTINUOUS
 62
7
 10
318.923576
 20
247.946368
 40
3.000000
  1
添付品ﾋﾞｽ
 41
0.822804
 50
0.000000
 51
0.000000
 72
   5
 73
   0
 11
332.129576
 21
247.946368
  0
TEXT
  8
5
  6
CONTINUOUS
 62
7
 10
394.548576
 20
247.696368
 40
3.500000
  1
2
 41
1.000000
 50
0.000000
 51
0.000000
 72
   5
 73
   0
 11
396.298576
 21
247.696368
  0
LINE
  8
5
  6
CONTINUOUS
 62
6
 10
377.9235759729
 20
256.9463679840
 11
377.9235759729
 21
251.9463679840
  0
CIRCLE
  8
3
  6
CONTINUOUS
 62
5
 10
225.5302650331
 20
-106.3150097473
 40
1.5000000000
  0
TEXT
  8
3
  6
CONTINUOUS
 62
5
 10
224.905265
 20
-107.565010
 40
2.500000
  1
N
 41
1.000000
 50
0.000000
 51
0.000000
 72
   5
 73
   0
 11
226.155265
 21
-107.565010
  0
LINE
  8
3
  6
CONTINUOUS
 62
7
 10
221.1605182328
 20
77.8525214539
 11
221.1605182328
 21
199.8525214535
  0
LINE
  8
3
  6
CONTINUOUS
 62
7
 10
221.1605182328
 20
199.8525214535
 11
220.1605182328
 21
200.8525214535
  0
LINE
  8
3
  6
CONTINUOUS
 62
7
 10
220.1605182328
 20
200.8525214535
 11
167.6605182328
 21
200.8525214539
  0
LINE
  8
3
  6
CONTINUOUS
 62
7
 10
167.6605182328
 20
200.8525214539
 11
166.6605182328
 21
199.8525214539
  0
LINE
  8
3
  6
CONTINUOUS
 62
7
 10
166.6605182328
 20
77.8525214535
 11
166.6605182328
 21
199.8525214539
  0
LINE
  8
3
  6
CONTINUOUS
 62
7
 10
167.6605182328
 20
76.8525214535
 11
166.6605182328
 21
77.8525214535
  0
LINE
  8
3
  6
CONTINUOUS
 62
7
 10
220.1605182328
 20
76.8525214539
 11
167.6605182328
 21
76.8525214535
  0
LINE
  8
3
  6
CONTINUOUS
 62
7
 10
221.1605182328
 20
77.8525214539
 11
220.1605182328
 21
76.8525214539
  0
DIMENSION
  8
1
  6
CONTINUOUS
 62
5
  2
*D6
 10
142.4822443727
 20
88.0542751045
 11
140.9380756799
 21
91.4348139740
  70
3
 15
144.4500489552
 25
92.6507678028
  0
TEXT
  8
5
  6
CONTINUOUS
 62
7
 10
318.923576
 20
232.946368
 40
3.000000
  1
パネル
 41
0.877246
 50
0.000000
 51
0.000000
 72
   5
 73
   0
 11
327.713576
 21
232.946368
  0
TEXT
  8
5
  6
CONTINUOUS
 62
7
 10
338.923576
 20
232.696368
 40
3.500000
  1
M0051B057C(SPCCt=1.6)
 41
0.773669
 50
0.000000
 51
0.000000
 72
   5
 73
   0
 11
376.562576
 21
232.696368
  0
TEXT
  8
5
  6
CONTINUOUS
 62
7
 10
394.548576
 20
232.696368
 40
3.500000
  1
1
 41
1.000000
 50
0.000000
 51
0.000000
 72
   5
 73
   0
 11
396.298576
 21
232.696368
  0
TEXT
  8
5
  6
CONTINUOUS
 62
7
 10
378.923576
 20
267.946368
 40
3.000000
  1
MADOKA
 41
1.028831
 50
0.000000
 51
0.000000
 72
   5
 73
   0
 11
390.806576
 21
267.946368
  0
TEXT
  8
5
  6
CONTINUOUS
 62
7
 10
378.923576
 20
262.946368
 40
3.000000
  1
MADOKA
 41
1.028831
 50
0.000000
 51
0.000000
 72
   5
 73
   0
 11
390.806576
 21
262.946368
  0
TEXT
  8
5
  6
CONTINUOUS
 62
7
 10
378.923576
 20
232.946368
 40
3.000000
  1
MADOKA
 41
1.028831
 50
0.000000
 51
0.000000
 72
   5
 73
   0
 11
390.806576
 21
232.946368
  0
TEXT
  8
5
  6
CONTINUOUS
 62
7
 10
378.923576
 20
237.946368
 40
3.000000
  1
--
 41
0.854701
 50
0.000000
 51
0.000000
 72
   5
 73
   0
 11
381.923576
 21
237.946368
  0
TEXT
  8
5
  6
CONTINUOUS
 62
7
 10
378.923576
 20
242.946368
 40
3.000000
  1
--
 41
0.854701
 50
0.000000
 51
0.000000
 72
   5
 73
   0
 11
381.923576
 21
242.946368
  0
TEXT
  8
5
  6
CONTINUOUS
 62
7
 10
378.923576
 20
247.946368
 40
3.000000
  1
--
 41
0.854701
 50
0.000000
 51
0.000000
 72
   5
 73
   0
 11
381.923576
 21
247.946368
  0
TEXT
  8
5
  6
CONTINUOUS
 62
7
 10
378.923576
 20
252.946368
 40
3.000000
  1
--
 41
0.854701
 50
0.000000
 51
0.000000
 72
   5
 73
   0
 11
381.923576
 21
252.946368
  0
TEXT
  8
5
  6
CONTINUOUS
 62
7
 10
378.923576
 20
257.946368
 40
3.000000
  1
--
 41
0.854701
 50
0.000000
 51
0.000000
 72
   5
 73
   0
 11
381.923576
 21
257.946368
  0
INSERT
  8
5
  6
CONTINUOUS
 62
7
  2
S3
 10
-1.2509564999
 20
-313.9655230621
  0
TEXT
  8
5
  6
CONTINUOUS
 62
7
 10
347.402112
 20
-291.222966
 40
4.200000
  1
Panel Interface
 41
0.641296
 50
0.000000
 51
0.000000
 72
   5
 73
   0
 11
374.013312
 21
-291.222966
  0
TEXT
  8
5
  6
CONTINUOUS
 62
7
 10
347.402112
 20
-295.422966
 40
4.200000
  1
Type:MCON-001-057**DI6**
 41
0.780264
 50
0.000000
 51
0.000000
 72
   5
 73
   0
 11
399.540912
 21
-295.422966
  0
TEXT
  8
5
  6
CONTINUOUS
 62
7
 10
347.402112
 20
-299.622966
 40
4.200000
  1
                      仕様図　2/2
 41
0.558184
 50
0.000000
 51
0.000000
 72
   5
 73
   0
 11
397.243512
 21
-299.622966
  0
TEXT
  8
5
  6
CONTINUOUS
 62
7
 10
291.874044
 20
-303.215523
 40
3.000000
  1
Yamada
 41
0.844156
 50
0.000000
 51
0.000000
 72
   5
 73
   0
 11
301.624044
 21
-303.215523
  0
TEXT
  8
5
  6
CONTINUOUS
 62
7
 10
302.874044
 20
-303.215523
 40
3.000000
  1
Yamada
 41
0.844156
 50
0.000000
 51
0.000000
 72
   5
 73
   0
 11
312.624044
 21
-303.215523
  0
LINE
  8
5
  6
CONTINUOUS
 62
6
 10
309.6567742348
 20
-72.9259553294
 11
309.6567742348
 21
-67.9259553294
  0
LINE
  8
5
  6
CONTINUOUS
 62
6
 10
309.6567742348
 20
-67.9259553294
 11
314.6567742348
 21
-67.9259553294
  0
LINE
  8
5
  6
CONTINUOUS
 62
6
 10
314.6567742348
 20
-67.9259553294
 11
334.6567742348
 21
-67.9259553294
  0
LINE
  8
5
  6
CONTINUOUS
 62
6
 10
334.6567742348
 20
-67.9259553294
 11
374.6567742348
 21
-67.9259553294
  0
LINE
  8
5
  6
CONTINUOUS
 62
6
 10
374.6567742348
 20
-67.9259553294
 11
389.6567742348
 21
-67.9259553294
  0
LINE
  8
5
  6
CONTINUOUS
 62
6
 10
389.6567742348
 20
-67.9259553294
 11
394.6567742348
 21
-67.9259553294
  0
LINE
  8
5
  6
CONTINUOUS
 62
6
 10
394.6567742348
 20
-67.9259553294
 11
394.6567742348
 21
-72.9259553294
  0
LINE
  8
5
  6
CONTINUOUS
 62
6
 10
394.6567742348
 20
-72.9259553294
 11
389.6567742348
 21
-72.9259553294
  0
LINE
  8
5
  6
CONTINUOUS
 62
6
 10
389.6567742348
 20
-72.9259553294
 11
374.6567742348
 21
-72.9259553294
  0
LINE
  8
5
  6
CONTINUOUS
 62
6
 10
374.6567742348
 20
-72.9259553294
 11
334.6567742348
 21
-72.9259553294
  0
LINE
  8
5
  6
CONTINUOUS
 62
6
 10
334.6567742348
 20
-72.9259553294
 11
314.6567742348
 21
-72.9259553294
  0
LINE
  8
5
  6
CONTINUOUS
 62
6
 10
314.6567742348
 20
-72.9259553294
 11
309.6567742348
 21
-72.9259553294
  0
LINE
  8
5
  6
CONTINUOUS
 62
6
 10
314.6567742348
 20
-67.9259553294
 11
314.6567742348
 21
-72.9259553294
  0
LINE
  8
5
  6
CONTINUOUS
 62
6
 10
334.6567742348
 20
-67.9259553294
 11
334.6567742348
 21
-72.9259553294
  0
LINE
  8
5
  6
CONTINUOUS
 62
6
 10
374.6567742348
 20
-67.9259553294
 11
374.6567742348
 21
-72.9259553294
  0
LINE
  8
5
  6
CONTINUOUS
 62
6
 10
389.6567742348
 20
-67.9259553294
 11
389.6567742348
 21
-72.9259553294
  0
TEXT
  8
5
  6
CONTINUOUS
 62
7
 10
309.856774
 20
-71.575955
 40
2.300000
  1
項番
 41
0.921659
 50
0.000000
 51
0.000000
 72
   5
 73
   0
 11
314.456774
 21
-71.575955
  0
TEXT
  8
5
  6
CONTINUOUS
 62
7
 10
319.664774
 20
-71.925955
 40
3.000000
  1
品　　名
 41
0.737916
 50
0.000000
 51
0.000000
 72
   5
 73
   0
 11
329.648774
 21
-71.925955
  0
TEXT
  8
5
  6
CONTINUOUS
 62
7
 10
339.503774
 20
-71.925955
 40
3.000000
  1
定  格 / 型  番 / 材　質
 41
0.686277
 50
0.000000
 51
0.000000
 72
   5
 73
   0
 11
369.809774
 21
-71.925955
  0
TEXT
  8
5
  6
CONTINUOUS
 62
7
 10
376.959274
 20
-71.925955
 40
3.000000
  1
メーカー
 41
0.768293
 50
0.000000
 51
0.000000
 72
   5
 73
   0
 11
387.354274
 21
-71.925955
  0
TEXT
  8
5
  6
CONTINUOUS
 62
7
 10
389.856774
 20
-71.575955
 40
2.300000
  1
数量
 41
0.921659
 50
0.000000
 51
0.000000
 72
   5
 73
   0
 11
394.456774
 21
-71.575955
  0
LINE
  8
5
  6
CONTINUOUS
 62
6
 10
309.6567742348
 20
-77.9259553294
 11
309.6567742348
 21
-72.9259553294
  0
LINE
  8
5
  6
CONTINUOUS
 62
6
 10
309.6567742348
 20
-72.9259553294
 11
314.6567742348
 21
-72.9259553294
  0
LINE
  8
5
  6
CONTINUOUS
 62
6
 10
314.6567742348
 20
-72.9259553294
 11
334.6567742348
 21
-72.9259553294
  0
LINE
  8
5
  6
CONTINUOUS
 62
6
 10
334.6567742348
 20
-72.9259553294
 11
374.6567742348
 21
-72.9259553294
  0
LINE
  8
5
  6
CONTINUOUS
 62
6
 10
374.6567742348
 20
-72.9259553294
 11
389.6567742348
 21
-72.9259553294
  0
LINE
  8
5
  6
CONTINUOUS
 62
6
 10
389.6567742348
 20
-72.9259553294
 11
394.6567742348
 21
-72.9259553294
  0
LINE
  8
5
  6
CONTINUOUS
 62
6
 10
394.6567742348
 20
-72.9259553294
 11
394.6567742348
 21
-77.9259553294
  0
LINE
  8
5
  6
CONTINUOUS
 62
6
 10
394.6567742348
 20
-77.9259553294
 11
389.6567742348
 21
-77.9259553294
  0
LINE
  8
5
  6
CONTINUOUS
 62
6
 10
389.6567742348
 20
-77.9259553294
 11
374.6567742348
 21
-77.9259553294
  0
LINE
  8
5
  6
CONTINUOUS
 62
6
 10
374.6567742348
 20
-77.9259553294
 11
334.6567742348
 21
-77.9259553294
  0
LINE
  8
5
  6
CONTINUOUS
 62
6
 10
334.6567742348
 20
-77.9259553294
 11
314.6567742348
 21
-77.9259553294
  0
LINE
  8
5
  6
CONTINUOUS
 62
6
 10
314.6567742348
 20
-77.9259553294
 11
309.6567742348
 21
-77.9259553294
  0
LINE
  8
5
  6
CONTINUOUS
 62
6
 10
314.6567742348
 20
-72.9259553294
 11
314.6567742348
 21
-77.9259553294
  0
LINE
  8
5
  6
CONTINUOUS
 62
6
 10
334.6567742348
 20
-72.9259553294
 11
334.6567742348
 21
-77.9259553294
  0
LINE
  8
5
  6
CONTINUOUS
 62
6
 10
374.6567742348
 20
-72.9259553294
 11
374.6567742348
 21
-77.9259553294
  0
LINE
  8
5
  6
CONTINUOUS
 62
6
 10
389.6567742348
 20
-72.9259553294
 11
389.6567742348
 21
-77.9259553294
  0
TEXT
  8
5
  6
CONTINUOUS
 62
7
 10
310.656774
 20
-76.925955
 40
3.000000
  1
91
 41
0.854701
 50
0.000000
 51
0.000000
 72
   5
 73
   0
 11
313.656774
 21
-76.925955
  0
TEXT
  8
5
  6
CONTINUOUS
 62
7
 10
315.656774
 20
-76.925955
 40
3.000000
  1
ACｱｳﾄﾚｯﾄ
 41
0.872254
 50
0.000000
 51
0.000000
 72
   5
 73
   0
 11
329.237774
 21
-76.925955
  0
TEXT
  8
5
  6
CONTINUOUS
 62
7
 10
335.656774
 20
-77.425955
 40
4.000000
  1
7117G-IV
 41
0.770713
 50
0.000000
 51
0.000000
 72
   5
 73
   0
 11
351.656774
 21
-77.425955
  0
TEXT
  8
5
  6
CONTINUOUS
 62
7
 10
391.281774
 20
-77.175955
 40
3.500000
  1
1
 41
1.000000
 50
0.000000
 51
0.000000
 72
   5
 73
   0
 11
393.031774
 21
-77.175955
  0
LINE
  8
5
  6
CONTINUOUS
 62
6
 10
394.6567742348
 20
-82.9259553294
 11
389.6567742348
 21
-82.9259553294
  0
LINE
  8
5
  6
CONTINUOUS
 62
6
 10
389.6567742348
 20
-82.9259553294
 11
374.6567742348
 21
-82.9259553294
  0
LINE
  8
5
  6
CONTINUOUS
 62
6
 10
374.6567742348
 20
-82.9259553294
 11
334.6567742348
 21
-82.9259553294
  0
LINE
  8
5
  6
CONTINUOUS
 62
6
 10
334.6567742348
 20
-82.9259553294
 11
314.6567742348
 21
-82.9259553294
  0
LINE
  8
5
  6
CONTINUOUS
 62
6
 10
314.6567742348
 20
-82.9259553294
 11
309.6567742348
 21
-82.9259553294
  0
TEXT
  8
5
  6
CONTINUOUS
 62
7
 10
310.656774
 20
-86.925955
 40
3.000000
  1
--
 41
0.854701
 50
0.000000
 51
0.000000
 72
   5
 73
   0
 11
313.656774
 21
-86.925955
  0
LINE
  8
5
  6
CONTINUOUS
 62
6
 10
309.6567742348
 20
-82.9259553294
 11
309.6567742348
 21
-77.9259553294
  0
LINE
  8
5
  6
CONTINUOUS
 62
6
 10
309.6567742348
 20
-87.9259553294
 11
309.6567742348
 21
-82.9259553294
  0
LINE
  8
5
  6
CONTINUOUS
 62
6
 10
314.6567742348
 20
-77.9259553294
 11
314.6567742348
 21
-82.9259553294
  0
LINE
  8
5
  6
CONTINUOUS
 62
6
 10
314.6567742348
 20
-82.9259553294
 11
314.6567742348
 21
-87.9259553294
  0
LINE
  8
5
  6
CONTINUOUS
 62
6
 10
334.6567742348
 20
-77.9259553294
 11
334.6567742348
 21
-82.9259553294
  0
LINE
  8
5
  6
CONTINUOUS
 62
6
 10
334.6567742348
 20
-82.9259553294
 11
334.6567742348
 21
-87.9259553294
  0
LINE
  8
5
  6
CONTINUOUS
 62
6
 10
374.6567742348
 20
-77.9259553294
 11
374.6567742348
 21
-82.9259553294
  0
LINE
  8
5
  6
CONTINUOUS
 62
6
 10
374.6567742348
 20
-82.9259553294
 11
374.6567742348
 21
-87.9259553294
  0
LINE
  8
5
  6
CONTINUOUS
 62
6
 10
389.6567742348
 20
-77.9259553294
 11
389.6567742348
 21
-82.9259553294
  0
LINE
  8
5
  6
CONTINUOUS
 62
6
 10
389.6567742348
 20
-82.9259553294
 11
389.6567742348
 21
-87.9259553294
  0
LINE
  8
5
  6
CONTINUOUS
 62
6
 10
394.6567742348
 20
-77.9259553294
 11
394.6567742348
 21
-82.9259553294
  0
LINE
  8
5
  6
CONTINUOUS
 62
6
 10
394.6567742348
 20
-82.9259553294
 11
394.6567742348
 21
-87.9259553294
  0
LINE
  8
5
  6
CONTINUOUS
 62
6
 10
12.2490435001
 20
-59.4655230621
 11
12.2490435001
 21
-34.4655230621
  0
LINE
  8
5
  6
CONTINUOUS
 62
6
 10
24.2490435001
 20
-59.4655230621
 11
24.2490435001
 21
-34.4655230621
  0
LINE
  8
5
  6
CONTINUOUS
 62
6
 10
88.7490435001
 20
-59.4655230621
 11
88.7490435001
 21
-34.4655230621
  0
LINE
  8
5
  6
CONTINUOUS
 62
6
 10
97.7490435001
 20
-34.4655230621
 11
97.7490435001
 21
-59.4655230621
  0
TEXT
  8
5
  6
CONTINUOUS
 62
6
 10
15.283544
 20
-58.465523
 40
3.000000
  1
Date
 41
0.787649
 50
0.000000
 51
0.000000
 72
   5
 73
   0
 11
21.214544
 21
-58.465523
  0
TEXT
  8
5
  6
CONTINUOUS
 62
6
 10
5.041544
 20
-58.465523
 40
3.000000
  1
Rev.
 41
0.719124
 50
0.000000
 51
0.000000
 72
   5
 73
   0
 11
10.456544
 21
-58.465523
  0
TEXT
  8
5
  6
CONTINUOUS
 62
6
 10
25.749044
 20
-58.465523
 40
3.000000
  1
Content
 41
0.746681
 50
0.000000
 51
0.000000
 72
   5
 73
   0
 11
35.874044
 21
-58.465523
  0
TEXT
  8
5
  6
CONTINUOUS
 62
6
 10
89.721044
 20
-58.465523
 40
3.000000
  1
Name
 41
0.937052
 50
0.000000
 51
0.000000
 72
   5
 73
   0
 11
96.777044
 21
-58.465523
  0
LINE
  8
5
  6
CONTINUOUS
 62
6
 10
3.2490435001
 20
-54.4655230621
 11
97.7490435001
 21
-54.4655230621
  0
LINE
  8
5
  6
CONTINUOUS
 62
6
 10
3.2490435001
 20
-49.4655230621
 11
97.7490435001
 21
-49.4655230621
  0
LINE
  8
5
  6
CONTINUOUS
 62
6
 10
3.2490435001
 20
-44.4655230621
 11
97.7490435001
 21
-44.4655230621
  0
LINE
  8
5
  6
CONTINUOUS
 62
6
 10
3.2490435001
 20
-39.4655230621
 11
97.7490435001
 21
-39.4655230621
  0
LINE
  8
5
  6
CONTINUOUS
 62
6
 10
3.2490435001
 20
-59.4655230621
 11
97.7490435001
 21
-59.4655230621
  0
POINT
  8
5
  6
CONTINUOUS
 62
6
 10
7.7490435001
 20
-51.9655230621
  0
POINT
  8
5
  6
CONTINUOUS
 62
6
 10
7.7490435001
 20
-46.9655230621
  0
POINT
  8
5
  6
CONTINUOUS
 62
6
 10
7.7490435001
 20
-41.9655230621
  0
POINT
  8
5
  6
CONTINUOUS
 62
6
 10
7.7490435001
 20
-36.9655230621
  0
POINT
  8
5
  6
CONTINUOUS
 62
6
 10
18.2490435001
 20
-36.9655230621
  0
POINT
  8
5
  6
CONTINUOUS
 62
6
 10
18.2490435001
 20
-41.9655230621
  0
POINT
  8
5
  6
CONTINUOUS
 62
6
 10
18.2490435001
 20
-46.9655230621
  0
POINT
  8
5
  6
CONTINUOUS
 62
6
 10
18.2490435001
 20
-51.9655230621
  0
POINT
  8
5
  6
CONTINUOUS
 62
6
 10
93.2490435001
 20
-51.9655230621
  0
POINT
  8
5
  6
CONTINUOUS
 62
6
 10
93.2490435001
 20
-46.9655230621
  0
POINT
  8
5
  6
CONTINUOUS
 62
6
 10
93.2490435001
 20
-41.9655230621
  0
POINT
  8
5
  6
CONTINUOUS
 62
6
 10
93.2490435001
 20
-36.9655230621
  0
POINT
  8
5
  6
CONTINUOUS
 62
6
 10
24.2490435001
 20
-36.9655230621
  0
POINT
  8
5
  6
CONTINUOUS
 62
6
 10
24.2490435001
 20
-41.9655230621
  0
POINT
  8
5
  6
CONTINUOUS
 62
6
 10
24.2490435001
 20
-46.9655230621
  0
POINT
  8
5
  6
CONTINUOUS
 62
6
 10
24.2490435001
 20
-51.9655230621
  0
LINE
  8
5
  6
CONTINUOUS
 62
6
 10
299.6567742348
 20
-72.9259553294
 11
299.6567742348
 21
-67.9259553294
  0
LINE
  8
5
  6
CONTINUOUS
 62
6
 10
299.6567742348
 20
-67.9259553294
 11
309.6567742348
 21
-67.9259553294
  0
LINE
  8
5
  6
CONTINUOUS
 62
6
 10
309.6567742348
 20
-72.9259553294
 11
304.6567742348
 21
-72.9259553294
  0
LINE
  8
5
  6
CONTINUOUS
 62
6
 10
309.6567742348
 20
-67.9259553294
 11
309.6567742348
 21
-72.9259553294
  0
TEXT
  8
5
  6
CONTINUOUS
 62
7
 10
302.194993
 20
-71.925955
 40
3.000000
  1
型番
 41
0.921659
 50
0.000000
 51
0.000000
 72
   5
 73
   0
 11
308.194993
 21
-71.925955
  0
LINE
  8
5
  6
CONTINUOUS
 62
6
 10
299.6567742348
 20
-77.9259553294
 11
299.6567742348
 21
-72.9259553294
  0
LINE
  8
5
  6
CONTINUOUS
 62
6
 10
299.6567742348
 20
-72.9259553294
 11
309.6567742348
 21
-72.9259553294
  0
LINE
  8
5
  6
CONTINUOUS
 62
6
 10
309.6567742348
 20
-72.9259553294
 11
309.6567742348
 21
-77.9259553294
  0
TEXT
  8
5
  6
CONTINUOUS
 62
7
 10
303.194993
 20
-77.425955
 40
4.000000
  1
A0
 41
0.854701
 50
0.000000
 51
0.000000
 72
   5
 73
   0
 11
307.194993
 21
-77.425955
  0
LINE
  8
5
  6
CONTINUOUS
 62
6
 10
299.6567742348
 20
-82.9259553294
 11
299.6567742348
 21
-77.9259553294
  0
LINE
  8
5
  6
CONTINUOUS
 62
6
 10
299.6567742348
 20
-87.9259553294
 11
299.6567742348
 21
-82.9259553294
  0
LINE
  8
5
  6
CONTINUOUS
 62
6
 10
309.6567742348
 20
-77.9259553294
 11
309.6567742348
 21
-82.9259553294
  0
LINE
  8
5
  6
CONTINUOUS
 62
6
 10
309.6567742348
 20
-82.9259553294
 11
309.6567742348
 21
-87.9259553294
  0
LINE
  8
5
  6
CONTINUOUS
 62
6
 10
394.6567742348
 20
-87.9259553294
 11
389.6567742348
 21
-87.9259553294
  0
LINE
  8
5
  6
CONTINUOUS
 62
6
 10
389.6567742348
 20
-87.9259553294
 11
374.6567742348
 21
-87.9259553294
  0
LINE
  8
5
  6
CONTINUOUS
 62
6
 10
374.6567742348
 20
-87.9259553294
 11
334.6567742348
 21
-87.9259553294
  0
LINE
  8
5
  6
CONTINUOUS
 62
6
 10
334.6567742348
 20
-87.9259553294
 11
314.6567742348
 21
-87.9259553294
  0
LINE
  8
5
  6
CONTINUOUS
 62
6
 10
314.6567742348
 20
-87.9259553294
 11
309.6567742348
 21
-87.9259553294
  0
LINE
  8
5
  6
CONTINUOUS
 62
6
 10
309.6567742348
 20
-87.9259553294
 11
299.6567742348
 21
-87.9259553294
  0
LINE
  8
5
  6
CONTINUOUS
 62
6
 10
309.6567742348
 20
-95.4259553294
 11
309.6567742348
 21
-90.4259553294
  0
LINE
  8
5
  6
CONTINUOUS
 62
6
 10
309.6567742348
 20
-90.4259553294
 11
314.6567742348
 21
-90.4259553294
  0
LINE
  8
5
  6
CONTINUOUS
 62
6
 10
314.6567742348
 20
-90.4259553294
 11
334.6567742348
 21
-90.4259553294
  0
LINE
  8
5
  6
CONTINUOUS
 62
6
 10
334.6567742348
 20
-90.4259553294
 11
374.6567742348
 21
-90.4259553294
  0
LINE
  8
5
  6
CONTINUOUS
 62
6
 10
374.6567742348
 20
-90.4259553294
 11
389.6567742348
 21
-90.4259553294
  0
LINE
  8
5
  6
CONTINUOUS
 62
6
 10
389.6567742348
 20
-90.4259553294
 11
394.6567742348
 21
-90.4259553294
  0
LINE
  8
5
  6
CONTINUOUS
 62
6
 10
394.6567742348
 20
-90.4259553294
 11
394.6567742348
 21
-95.4259553294
  0
LINE
  8
5
  6
CONTINUOUS
 62
6
 10
394.6567742348
 20
-95.4259553294
 11
389.6567742348
 21
-95.4259553294
  0
LINE
  8
5
  6
CONTINUOUS
 62
6
 10
389.6567742348
 20
-95.4259553294
 11
374.6567742348
 21
-95.4259553294
  0
LINE
  8
5
  6
CONTINUOUS
 62
6
 10
374.6567742348
 20
-95.4259553294
 11
334.6567742348
 21
-95.4259553294
  0
LINE
  8
5
  6
CONTINUOUS
 62
6
 10
334.6567742348
 20
-95.4259553294
 11
314.6567742348
 21
-95.4259553294
  0
LINE
  8
5
  6
CONTINUOUS
 62
6
 10
314.6567742348
 20
-95.4259553294
 11
309.6567742348
 21
-95.4259553294
  0
LINE
  8
5
  6
CONTINUOUS
 62
6
 10
314.6567742348
 20
-90.4259553294
 11
314.6567742348
 21
-95.4259553294
  0
LINE
  8
5
  6
CONTINUOUS
 62
6
 10
334.6567742348
 20
-90.4259553294
 11
334.6567742348
 21
-95.4259553294
  0
LINE
  8
5
  6
CONTINUOUS
 62
6
 10
374.6567742348
 20
-90.4259553294
 11
374.6567742348
 21
-95.4259553294
  0
LINE
  8
5
  6
CONTINUOUS
 62
6
 10
389.6567742348
 20
-90.4259553294
 11
389.6567742348
 21
-95.4259553294
  0
TEXT
  8
5
  6
CONTINUOUS
 62
7
 10
309.856774
 20
-94.075955
 40
2.300000
  1
項番
 41
0.921659
 50
0.000000
 51
0.000000
 72
   5
 73
   0
 11
314.456774
 21
-94.075955
  0
TEXT
  8
5
  6
CONTINUOUS
 62
7
 10
319.664774
 20
-94.425955
 40
3.000000
  1
品　　名
 41
0.737916
 50
0.000000
 51
0.000000
 72
   5
 73
   0
 11
329.648774
 21
-94.425955
  0
TEXT
  8
5
  6
CONTINUOUS
 62
7
 10
339.503774
 20
-94.425955
 40
3.000000
  1
定  格 / 型  番 / 材　質
 41
0.686277
 50
0.000000
 51
0.000000
 72
   5
 73
   0
 11
369.809774
 21
-94.425955
  0
TEXT
  8
5
  6
CONTINUOUS
 62
7
 10
376.959274
 20
-94.425955
 40
3.000000
  1
メーカー
 41
0.768293
 50
0.000000
 51
0.000000
 72
   5
 73
   0
 11
387.354274
 21
-94.425955
  0
TEXT
  8
5
  6
CONTINUOUS
 62
7
 10
389.856774
 20
-94.075955
 40
2.300000
  1
数量
 41
0.921659
 50
0.000000
 51
0.000000
 72
   5
 73
   0
 11
394.456774
 21
-94.075955
  0
LINE
  8
5
  6
CONTINUOUS
 62
6
 10
309.6567742348
 20
-100.4259553294
 11
309.6567742348
 21
-95.4259553294
  0
LINE
  8
5
  6
CONTINUOUS
 62
6
 10
309.6567742348
 20
-95.4259553294
 11
314.6567742348
 21
-95.4259553294
  0
LINE
  8
5
  6
CONTINUOUS
 62
6
 10
314.6567742348
 20
-95.4259553294
 11
334.6567742348
 21
-95.4259553294
  0
LINE
  8
5
  6
CONTINUOUS
 62
6
 10
334.6567742348
 20
-95.4259553294
 11
374.6567742348
 21
-95.4259553294
  0
LINE
  8
5
  6
CONTINUOUS
 62
6
 10
374.6567742348
 20
-95.4259553294
 11
389.6567742348
 21
-95.4259553294
  0
LINE
  8
5
  6
CONTINUOUS
 62
6
 10
389.6567742348
 20
-95.4259553294
 11
394.6567742348
 21
-95.4259553294
  0
LINE
  8
5
  6
CONTINUOUS
 62
6
 10
394.6567742348
 20
-95.4259553294
 11
394.6567742348
 21
-100.4259553294
  0
LINE
  8
5
  6
CONTINUOUS
 62
6
 10
394.6567742348
 20
-100.4259553294
 11
389.6567742348
 21
-100.4259553294
  0
LINE
  8
5
  6
CONTINUOUS
 62
6
 10
389.6567742348
 20
-100.4259553294
 11
374.6567742348
 21
-100.4259553294
  0
LINE
  8
5
  6
CONTINUOUS
 62
6
 10
374.6567742348
 20
-100.4259553294
 11
334.6567742348
 21
-100.4259553294
  0
LINE
  8
5
  6
CONTINUOUS
 62
6
 10
334.6567742348
 20
-100.4259553294
 11
314.6567742348
 21
-100.4259553294
  0
LINE
  8
5
  6
CONTINUOUS
 62
6
 10
314.6567742348
 20
-100.4259553294
 11
309.6567742348
 21
-100.4259553294
  0
LINE
  8
5
  6
CONTINUOUS
 62
6
 10
314.6567742348
 20
-95.4259553294
 11
314.6567742348
 21
-100.4259553294
  0
LINE
  8
5
  6
CONTINUOUS
 62
6
 10
334.6567742348
 20
-95.4259553294
 11
334.6567742348
 21
-100.4259553294
  0
LINE
  8
5
  6
CONTINUOUS
 62
6
 10
374.6567742348
 20
-95.4259553294
 11
374.6567742348
 21
-100.4259553294
  0
LINE
  8
5
  6
CONTINUOUS
 62
6
 10
389.6567742348
 20
-95.4259553294
 11
389.6567742348
 21
-100.4259553294
  0
TEXT
  8
5
  6
CONTINUOUS
 62
7
 10
310.656774
 20
-99.425955
 40
3.000000
  1
93
 41
0.854701
 50
0.000000
 51
0.000000
 72
   5
 73
   0
 11
313.656774
 21
-99.425955
  0
TEXT
  8
5
  6
CONTINUOUS
 62
7
 10
315.656774
 20
-99.425955
 40
3.000000
  1
ACｱｳﾄﾚｯﾄ
 41
0.872254
 50
0.000000
 51
0.000000
 72
   5
 73
   0
 11
329.237774
 21
-99.425955
  0
TEXT
  8
5
  6
CONTINUOUS
 62
7
 10
335.656774
 20
-99.925955
 40
4.000000
  1
7117GZ-IV
 41
0.767918
 50
0.000000
 51
0.000000
 72
   5
 73
   0
 11
353.656774
 21
-99.925955
  0
TEXT
  8
5
  6
CONTINUOUS
 62
7
 10
391.281774
 20
-99.675955
 40
3.500000
  1
1
 41
1.000000
 50
0.000000
 51
0.000000
 72
   5
 73
   0
 11
393.031774
 21
-99.675955
  0
LINE
  8
5
  6
CONTINUOUS
 62
6
 10
394.6567742348
 20
-105.4259553294
 11
389.6567742348
 21
-105.4259553294
  0
LINE
  8
5
  6
CONTINUOUS
 62
6
 10
389.6567742348
 20
-105.4259553294
 11
374.6567742348
 21
-105.4259553294
  0
LINE
  8
5
  6
CONTINUOUS
 62
6
 10
374.6567742348
 20
-105.4259553294
 11
334.6567742348
 21
-105.4259553294
  0
LINE
  8
5
  6
CONTINUOUS
 62
6
 10
334.6567742348
 20
-105.4259553294
 11
314.6567742348
 21
-105.4259553294
  0
LINE
  8
5
  6
CONTINUOUS
 62
6
 10
314.6567742348
 20
-105.4259553294
 11
309.6567742348
 21
-105.4259553294
  0
TEXT
  8
5
  6
CONTINUOUS
 62
7
 10
310.656774
 20
-109.425955
 40
3.000000
  1
--
 41
0.854701
 50
0.000000
 51
0.000000
 72
   5
 73
   0
 11
313.656774
 21
-109.425955
  0
LINE
  8
5
  6
CONTINUOUS
 62
6
 10
309.6567742348
 20
-105.4259553294
 11
309.6567742348
 21
-100.4259553294
  0
LINE
  8
5
  6
CONTINUOUS
 62
6
 10
309.6567742348
 20
-110.4259553294
 11
309.6567742348
 21
-105.4259553294
  0
LINE
  8
5
  6
CONTINUOUS
 62
6
 10
314.6567742348
 20
-100.4259553294
 11
314.6567742348
 21
-105.4259553294
  0
LINE
  8
5
  6
CONTINUOUS
 62
6
 10
314.6567742348
 20
-105.4259553294
 11
314.6567742348
 21
-110.4259553294
  0
LINE
  8
5
  6
CONTINUOUS
 62
6
 10
334.6567742348
 20
-100.4259553294
 11
334.6567742348
 21
-105.4259553294
  0
LINE
  8
5
  6
CONTINUOUS
 62
6
 10
334.6567742348
 20
-105.4259553294
 11
334.6567742348
 21
-110.4259553294
  0
LINE
  8
5
  6
CONTINUOUS
 62
6
 10
374.6567742348
 20
-100.4259553294
 11
374.6567742348
 21
-105.4259553294
  0
LINE
  8
5
  6
CONTINUOUS
 62
6
 10
374.6567742348
 20
-105.4259553294
 11
374.6567742348
 21
-110.4259553294
  0
LINE
  8
5
  6
CONTINUOUS
 62
6
 10
389.6567742348
 20
-100.4259553294
 11
389.6567742348
 21
-105.4259553294
  0
LINE
  8
5
  6
CONTINUOUS
 62
6
 10
389.6567742348
 20
-105.4259553294
 11
389.6567742348
 21
-110.4259553294
  0
LINE
  8
5
  6
CONTINUOUS
 62
6
 10
394.6567742348
 20
-100.4259553294
 11
394.6567742348
 21
-105.4259553294
  0
LINE
  8
5
  6
CONTINUOUS
 62
6
 10
394.6567742348
 20
-105.4259553294
 11
394.6567742348
 21
-110.4259553294
  0
LINE
  8
5
  6
CONTINUOUS
 62
6
 10
299.6567742348
 20
-95.4259553294
 11
299.6567742348
 21
-90.4259553294
  0
LINE
  8
5
  6
CONTINUOUS
 62
6
 10
299.6567742348
 20
-90.4259553294
 11
309.6567742348
 21
-90.4259553294
  0
LINE
  8
5
  6
CONTINUOUS
 62
6
 10
309.6567742348
 20
-95.4259553294
 11
304.6567742348
 21
-95.4259553294
  0
LINE
  8
5
  6
CONTINUOUS
 62
6
 10
309.6567742348
 20
-90.4259553294
 11
309.6567742348
 21
-95.4259553294
  0
TEXT
  8
5
  6
CONTINUOUS
 62
7
 10
302.194993
 20
-94.425955
 40
3.000000
  1
型番
 41
0.921659
 50
0.000000
 51
0.000000
 72
   5
 73
   0
 11
308.194993
 21
-94.425955
  0
LINE
  8
5
  6
CONTINUOUS
 62
6
 10
299.6567742348
 20
-100.4259553294
 11
299.6567742348
 21
-95.4259553294
  0
LINE
  8
5
  6
CONTINUOUS
 62
6
 10
299.6567742348
 20
-95.4259553294
 11
309.6567742348
 21
-95.4259553294
  0
LINE
  8
5
  6
CONTINUOUS
 62
6
 10
309.6567742348
 20
-95.4259553294
 11
309.6567742348
 21
-100.4259553294
  0
TEXT
  8
5
  6
CONTINUOUS
 62
7
 10
302.928993
 20
-99.925955
 40
4.000000
  1
A1
 41
0.968376
 50
0.000000
 51
0.000000
 72
   5
 73
   0
 11
307.460993
 21
-99.925955
  0
LINE
  8
5
  6
CONTINUOUS
 62
6
 10
299.6567742348
 20
-105.4259553294
 11
299.6567742348
 21
-100.4259553294
  0
LINE
  8
5
  6
CONTINUOUS
 62
6
 10
299.6567742348
 20
-110.4259553294
 11
299.6567742348
 21
-105.4259553294
  0
LINE
  8
5
  6
CONTINUOUS
 62
6
 10
309.6567742348
 20
-100.4259553294
 11
309.6567742348
 21
-105.4259553294
  0
LINE
  8
5
  6
CONTINUOUS
 62
6
 10
309.6567742348
 20
-105.4259553294
 11
309.6567742348
 21
-110.4259553294
  0
LINE
  8
5
  6
CONTINUOUS
 62
6
 10
394.6567742348
 20
-110.4259553294
 11
389.6567742348
 21
-110.4259553294
  0
LINE
  8
5
  6
CONTINUOUS
 62
6
 10
389.6567742348
 20
-110.4259553294
 11
374.6567742348
 21
-110.4259553294
  0
LINE
  8
5
  6
CONTINUOUS
 62
6
 10
374.6567742348
 20
-110.4259553294
 11
334.6567742348
 21
-110.4259553294
  0
LINE
  8
5
  6
CONTINUOUS
 62
6
 10
334.6567742348
 20
-110.4259553294
 11
314.6567742348
 21
-110.4259553294
  0
LINE
  8
5
  6
CONTINUOUS
 62
6
 10
314.6567742348
 20
-110.4259553294
 11
309.6567742348
 21
-110.4259553294
  0
LINE
  8
5
  6
CONTINUOUS
 62
6
 10
309.6567742348
 20
-110.4259553294
 11
299.6567742348
 21
-110.4259553294
  0
TEXT
  8
5
  6
CONTINUOUS
 62
7
 10
375.656774
 20
-76.925955
 40
3.000000
  1
ｱﾒﾘｶﾝ電機
 41
0.862681
 50
0.000000
 51
0.000000
 72
   5
 73
   0
 11
389.942774
 21
-76.925955
  0
TEXT
  8
5
  6
CONTINUOUS
 62
7
 10
375.656774
 20
-99.425955
 40
3.000000
  1
ｱﾒﾘｶﾝ電機
 41
0.862681
 50
0.000000
 51
0.000000
 72
   5
 73
   0
 11
389.942774
 21
-99.425955
  0
LINE
  8
5
  6
CONTINUOUS
 62
6
 10
309.6567742347
 20
-216.8107273403
 11
309.6567742347
 21
-211.8107273403
  0
LINE
  8
5
  6
CONTINUOUS
 62
6
 10
309.6567742347
 20
-211.8107273403
 11
314.6567742347
 21
-211.8107273403
  0
LINE
  8
5
  6
CONTINUOUS
 62
6
 10
314.6567742347
 20
-211.8107273403
 11
334.6567742347
 21
-211.8107273403
  0
LINE
  8
5
  6
CONTINUOUS
 62
6
 10
334.6567742347
 20
-211.8107273403
 11
374.6567742347
 21
-211.8107273403
  0
LINE
  8
5
  6
CONTINUOUS
 62
6
 10
374.6567742347
 20
-211.8107273403
 11
389.6567742347
 21
-211.8107273403
  0
LINE
  8
5
  6
CONTINUOUS
 62
6
 10
389.6567742347
 20
-211.8107273403
 11
394.6567742347
 21
-211.8107273403
  0
LINE
  8
5
  6
CONTINUOUS
 62
6
 10
394.6567742347
 20
-211.8107273403
 11
394.6567742347
 21
-216.8107273403
  0
LINE
  8
5
  6
CONTINUOUS
 62
6
 10
394.6567742347
 20
-216.8107273403
 11
389.6567742347
 21
-216.8107273403
  0
LINE
  8
5
  6
CONTINUOUS
 62
6
 10
389.6567742347
 20
-216.8107273403
 11
374.6567742347
 21
-216.8107273403
  0
LINE
  8
5
  6
CONTINUOUS
 62
6
 10
374.6567742347
 20
-216.8107273403
 11
334.6567742347
 21
-216.8107273403
  0
LINE
  8
5
  6
CONTINUOUS
 62
6
 10
334.6567742347
 20
-216.8107273403
 11
314.6567742347
 21
-216.8107273403
  0
LINE
  8
5
  6
CONTINUOUS
 62
6
 10
314.6567742347
 20
-216.8107273403
 11
309.6567742347
 21
-216.8107273403
  0
LINE
  8
5
  6
CONTINUOUS
 62
6
 10
314.6567742347
 20
-211.8107273403
 11
314.6567742347
 21
-216.8107273403
  0
LINE
  8
5
  6
CONTINUOUS
 62
6
 10
334.6567742347
 20
-211.8107273403
 11
334.6567742347
 21
-216.8107273403
  0
LINE
  8
5
  6
CONTINUOUS
 62
6
 10
374.6567742347
 20
-211.8107273403
 11
374.6567742347
 21
-216.8107273403
  0
LINE
  8
5
  6
CONTINUOUS
 62
6
 10
389.6567742347
 20
-211.8107273403
 11
389.6567742347
 21
-216.8107273403
  0
TEXT
  8
5
  6
CONTINUOUS
 62
7
 10
309.856774
 20
-215.460727
 40
2.300000
  1
項番
 41
0.921659
 50
0.000000
 51
0.000000
 72
   5
 73
   0
 11
314.456774
 21
-215.460727
  0
TEXT
  8
5
  6
CONTINUOUS
 62
7
 10
319.664774
 20
-215.810727
 40
3.000000
  1
品　　名
 41
0.737916
 50
0.000000
 51
0.000000
 72
   5
 73
   0
 11
329.648774
 21
-215.810727
  0
TEXT
  8
5
  6
CONTINUOUS
 62
7
 10
339.503774
 20
-215.810727
 40
3.000000
  1
定  格 / 型  番 / 材　質
 41
0.686277
 50
0.000000
 51
0.000000
 72
   5
 73
   0
 11
369.809774
 21
-215.810727
  0
TEXT
  8
5
  6
CONTINUOUS
 62
7
 10
376.959274
 20
-215.810727
 40
3.000000
  1
メーカー
 41
0.768293
 50
0.000000
 51
0.000000
 72
   5
 73
   0
 11
387.354274
 21
-215.810727
  0
TEXT
  8
5
  6
CONTINUOUS
 62
7
 10
389.856774
 20
-215.460727
 40
2.300000
  1
数量
 41
0.921659
 50
0.000000
 51
0.000000
 72
   5
 73
   0
 11
394.456774
 21
-215.460727
  0
LINE
  8
5
  6
CONTINUOUS
 62
6
 10
309.6567742347
 20
-221.8107273403
 11
309.6567742347
 21
-216.8107273403
  0
LINE
  8
5
  6
CONTINUOUS
 62
6
 10
309.6567742347
 20
-216.8107273403
 11
314.6567742347
 21
-216.8107273403
  0
LINE
  8
5
  6
CONTINUOUS
 62
6
 10
314.6567742347
 20
-216.8107273403
 11
334.6567742347
 21
-216.8107273403
  0
LINE
  8
5
  6
CONTINUOUS
 62
6
 10
334.6567742347
 20
-216.8107273403
 11
374.6567742347
 21
-216.8107273403
  0
LINE
  8
5
  6
CONTINUOUS
 62
6
 10
374.6567742347
 20
-216.8107273403
 11
389.6567742347
 21
-216.8107273403
  0
LINE
  8
5
  6
CONTINUOUS
 62
6
 10
389.6567742347
 20
-216.8107273403
 11
394.6567742347
 21
-216.8107273403
  0
LINE
  8
5
  6
CONTINUOUS
 62
6
 10
394.6567742347
 20
-216.8107273403
 11
394.6567742347
 21
-221.8107273403
  0
LINE
  8
5
  6
CONTINUOUS
 62
6
 10
394.6567742347
 20
-221.8107273403
 11
389.6567742347
 21
-221.8107273403
  0
LINE
  8
5
  6
CONTINUOUS
 62
6
 10
389.6567742347
 20
-221.8107273403
 11
374.6567742347
 21
-221.8107273403
  0
LINE
  8
5
  6
CONTINUOUS
 62
6
 10
374.6567742347
 20
-221.8107273403
 11
334.6567742347
 21
-221.8107273403
  0
LINE
  8
5
  6
CONTINUOUS
 62
6
 10
334.6567742347
 20
-221.8107273403
 11
314.6567742347
 21
-221.8107273403
  0
LINE
  8
5
  6
CONTINUOUS
 62
6
 10
314.6567742347
 20
-221.8107273403
 11
309.6567742347
 21
-221.8107273403
  0
LINE
  8
5
  6
CONTINUOUS
 62
6
 10
314.6567742347
 20
-216.8107273403
 11
314.6567742347
 21
-221.8107273403
  0
LINE
  8
5
  6
CONTINUOUS
 62
6
 10
334.6567742347
 20
-216.8107273403
 11
334.6567742347
 21
-221.8107273403
  0
LINE
  8
5
  6
CONTINUOUS
 62
6
 10
374.6567742347
 20
-216.8107273403
 11
374.6567742347
 21
-221.8107273403
  0
LINE
  8
5
  6
CONTINUOUS
 62
6
 10
389.6567742347
 20
-216.8107273403
 11
389.6567742347
 21
-221.8107273403
  0
TEXT
  8
5
  6
CONTINUOUS
 62
7
 10
309.906774
 20
-220.810727
 40
3.000000
  1
111
 41
0.815217
 50
0.000000
 51
0.000000
 72
   5
 73
   0
 11
314.406774
 21
-220.810727
  0
TEXT
  8
5
  6
CONTINUOUS
 62
7
 10
315.656774
 20
-220.810727
 40
3.000000
  1
USBﾌﾞﾗﾝｸﾊﾟﾈﾙ
 41
0.826938
 50
0.000000
 51
0.000000
 72
   5
 73
   0
 11
335.180774
 21
-220.810727
  0
TEXT
  8
5
  6
CONTINUOUS
 62
7
 10
335.656774
 20
-221.310727
 40
4.000000
  1
MIUSB1-BL
 41
0.767918
 50
0.000000
 51
0.000000
 72
   5
 73
   0
 11
353.656774
 21
-221.310727
  0
TEXT
  8
5
  6
CONTINUOUS
 62
7
 10
391.281774
 20
-221.060727
 40
3.500000
  1
1
 41
1.000000
 50
0.000000
 51
0.000000
 72
   5
 73
   0
 11
393.031774
 21
-221.060727
  0
LINE
  8
5
  6
CONTINUOUS
 62
6
 10
394.6567742347
 20
-226.8107273403
 11
389.6567742347
 21
-226.8107273403
  0
LINE
  8
5
  6
CONTINUOUS
 62
6
 10
389.6567742347
 20
-226.8107273403
 11
374.6567742347
 21
-226.8107273403
  0
LINE
  8
5
  6
CONTINUOUS
 62
6
 10
374.6567742347
 20
-226.8107273403
 11
334.6567742347
 21
-226.8107273403
  0
LINE
  8
5
  6
CONTINUOUS
 62
6
 10
334.6567742347
 20
-226.8107273403
 11
314.6567742347
 21
-226.8107273403
  0
LINE
  8
5
  6
CONTINUOUS
 62
6
 10
314.6567742347
 20
-226.8107273403
 11
309.6567742347
 21
-226.8107273403
  0
TEXT
  8
5
  6
CONTINUOUS
 62
7
 10
309.906774
 20
-225.810727
 40
3.000000
  1
112
 41
0.815217
 50
0.000000
 51
0.000000
 72
   5
 73
   0
 11
314.406774
 21
-225.810727
  0
TEXT
  8
5
  6
CONTINUOUS
 62
7
 10
310.656774
 20
-230.810727
 40
3.000000
  1
--
 41
0.854701
 50
0.000000
 51
0.000000
 72
   5
 73
   0
 11
313.656774
 21
-230.810727
  0
TEXT
  8
5
  6
CONTINUOUS
 62
7
 10
315.656774
 20
-225.810727
 40
3.000000
  1
ﾋﾞｽ
 41
0.761957
 50
0.000000
 51
0.000000
 72
   5
 73
   0
 11
319.862774
 21
-225.810727
  0
TEXT
  8
5
  6
CONTINUOUS
 62
7
 10
315.656774
 20
-230.810727
 40
3.000000
  1
--
 41
0.854701
 50
0.000000
 51
0.000000
 72
   5
 73
   0
 11
318.656774
 21
-230.810727
  0
TEXT
  8
5
  6
CONTINUOUS
 62
7
 10
335.656774
 20
-230.810727
 40
3.000000
  1
--
 41
0.854701
 50
0.000000
 51
0.000000
 72
   5
 73
   0
 11
338.656774
 21
-230.810727
  0
TEXT
  8
5
  6
CONTINUOUS
 62
7
 10
391.281774
 20
-226.060727
 40
3.500000
  1
2
 41
1.000000
 50
0.000000
 51
0.000000
 72
   5
 73
   0
 11
393.031774
 21
-226.060727
  0
TEXT
  8
5
  6
CONTINUOUS
 62
7
 10
390.406774
 20
-231.060727
 40
3.500000
  1
--
 41
0.854701
 50
0.000000
 51
0.000000
 72
   5
 73
   0
 11
393.906774
 21
-231.060727
  0
LINE
  8
5
  6
CONTINUOUS
 62
6
 10
309.6567742347
 20
-226.8107273403
 11
309.6567742347
 21
-221.8107273403
  0
LINE
  8
5
  6
CONTINUOUS
 62
6
 10
309.6567742347
 20
-231.8107273403
 11
309.6567742347
 21
-226.8107273403
  0
LINE
  8
5
  6
CONTINUOUS
 62
6
 10
314.6567742347
 20
-221.8107273403
 11
314.6567742347
 21
-226.8107273403
  0
LINE
  8
5
  6
CONTINUOUS
 62
6
 10
314.6567742347
 20
-226.8107273403
 11
314.6567742347
 21
-231.8107273403
  0
LINE
  8
5
  6
CONTINUOUS
 62
6
 10
334.6567742347
 20
-221.8107273403
 11
334.6567742347
 21
-226.8107273403
  0
LINE
  8
5
  6
CONTINUOUS
 62
6
 10
334.6567742347
 20
-226.8107273403
 11
334.6567742347
 21
-231.8107273403
  0
LINE
  8
5
  6
CONTINUOUS
 62
6
 10
374.6567742347
 20
-221.8107273403
 11
374.6567742347
 21
-226.8107273403
  0
LINE
  8
5
  6
CONTINUOUS
 62
6
 10
374.6567742347
 20
-226.8107273403
 11
374.6567742347
 21
-231.8107273403
  0
LINE
  8
5
  6
CONTINUOUS
 62
6
 10
389.6567742347
 20
-221.8107273403
 11
389.6567742347
 21
-226.8107273403
  0
LINE
  8
5
  6
CONTINUOUS
 62
6
 10
389.6567742347
 20
-226.8107273403
 11
389.6567742347
 21
-231.8107273403
  0
LINE
  8
5
  6
CONTINUOUS
 62
6
 10
394.6567742347
 20
-221.8107273403
 11
394.6567742347
 21
-226.8107273403
  0
LINE
  8
5
  6
CONTINUOUS
 62
6
 10
394.6567742347
 20
-226.8107273403
 11
394.6567742347
 21
-231.8107273403
  0
TEXT
  8
5
  6
CONTINUOUS
 62
7
 10
335.656774
 20
-226.310727
 40
4.000000
  1
(+)B1ﾅﾍﾞ 3.5×6
 41
0.772400
 50
0.000000
 51
0.000000
 72
   5
 73
   0
 11
365.656774
 21
-226.310727
  0
LINE
  8
5
  6
CONTINUOUS
 62
6
 10
299.6567742347
 20
-216.8107273403
 11
299.6567742348
 21
-211.8107273405
  0
LINE
  8
5
  6
CONTINUOUS
 62
6
 10
299.6567742348
 20
-211.8107273405
 11
309.6567742347
 21
-211.8107273403
  0
LINE
  8
5
  6
CONTINUOUS
 62
6
 10
309.6567742347
 20
-216.8107273403
 11
304.6567742347
 21
-216.8107273403
  0
LINE
  8
5
  6
CONTINUOUS
 62
6
 10
309.6567742347
 20
-211.8107273403
 11
309.6567742347
 21
-216.8107273403
  0
TEXT
  8
5
  6
CONTINUOUS
 62
7
 10
302.194993
 20
-215.810727
 40
3.000000
  1
型番
 41
0.921659
 50
0.000000
 51
0.000000
 72
   5
 73
   0
 11
308.194993
 21
-215.810727
  0
LINE
  8
5
  6
CONTINUOUS
 62
6
 10
299.6567742347
 20
-221.8107273403
 11
299.6567742347
 21
-216.8107273403
  0
LINE
  8
5
  6
CONTINUOUS
 62
6
 10
299.6567742347
 20
-216.8107273403
 11
309.6567742347
 21
-216.8107273403
  0
LINE
  8
5
  6
CONTINUOUS
 62
6
 10
309.6567742347
 20
-216.8107273403
 11
309.6567742347
 21
-221.8107273403
  0
TEXT
  8
5
  6
CONTINUOUS
 62
7
 10
302.912993
 20
-221.310727
 40
4.000000
  1
U0
 41
0.975214
 50
0.000000
 51
0.000000
 72
   5
 73
   0
 11
307.476993
 21
-221.310727
  0
LINE
  8
5
  6
CONTINUOUS
 62
6
 10
299.6567742347
 20
-226.8107273403
 11
299.6567742347
 21
-221.8107273403
  0
LINE
  8
5
  6
CONTINUOUS
 62
6
 10
299.6567742347
 20
-231.8107273403
 11
299.6567742347
 21
-226.8107273403
  0
LINE
  8
5
  6
CONTINUOUS
 62
6
 10
309.6567742347
 20
-221.8107273403
 11
309.6567742347
 21
-226.8107273403
  0
LINE
  8
5
  6
CONTINUOUS
 62
6
 10
309.6567742347
 20
-226.8107273403
 11
309.6567742347
 21
-231.8107273403
  0
LINE
  8
5
  6
CONTINUOUS
 62
6
 10
394.6567742347
 20
-231.8107273403
 11
389.6567742347
 21
-231.8107273403
  0
LINE
  8
5
  6
CONTINUOUS
 62
6
 10
389.6567742347
 20
-231.8107273403
 11
374.6567742347
 21
-231.8107273403
  0
LINE
  8
5
  6
CONTINUOUS
 62
6
 10
374.6567742347
 20
-231.8107273403
 11
334.6567742347
 21
-231.8107273403
  0
LINE
  8
5
  6
CONTINUOUS
 62
6
 10
334.6567742347
 20
-231.8107273403
 11
314.6567742347
 21
-231.8107273403
  0
LINE
  8
5
  6
CONTINUOUS
 62
6
 10
314.6567742347
 20
-231.8107273403
 11
309.6567742347
 21
-231.8107273403
  0
LINE
  8
5
  6
CONTINUOUS
 62
6
 10
309.6567742347
 20
-231.8107273403
 11
299.6567742347
 21
-231.8107273403
  0
LINE
  8
5
  6
CONTINUOUS
 62
6
 10
309.6567742347
 20
-239.3107273403
 11
309.6567742347
 21
-234.3107273403
  0
LINE
  8
5
  6
CONTINUOUS
 62
6
 10
309.6567742347
 20
-234.3107273403
 11
314.6567742347
 21
-234.3107273403
  0
LINE
  8
5
  6
CONTINUOUS
 62
6
 10
314.6567742347
 20
-234.3107273403
 11
334.6567742347
 21
-234.3107273403
  0
LINE
  8
5
  6
CONTINUOUS
 62
6
 10
334.6567742347
 20
-234.3107273403
 11
374.6567742347
 21
-234.3107273403
  0
LINE
  8
5
  6
CONTINUOUS
 62
6
 10
374.6567742347
 20
-234.3107273403
 11
389.6567742347
 21
-234.3107273403
  0
LINE
  8
5
  6
CONTINUOUS
 62
6
 10
389.6567742347
 20
-234.3107273403
 11
394.6567742347
 21
-234.3107273403
  0
LINE
  8
5
  6
CONTINUOUS
 62
6
 10
394.6567742347
 20
-234.3107273403
 11
394.6567742347
 21
-239.3107273403
  0
LINE
  8
5
  6
CONTINUOUS
 62
6
 10
394.6567742347
 20
-239.3107273403
 11
389.6567742347
 21
-239.3107273403
  0
LINE
  8
5
  6
CONTINUOUS
 62
6
 10
389.6567742347
 20
-239.3107273403
 11
374.6567742347
 21
-239.3107273403
  0
LINE
  8
5
  6
CONTINUOUS
 62
6
 10
374.6567742347
 20
-239.3107273403
 11
334.6567742347
 21
-239.3107273403
  0
LINE
  8
5
  6
CONTINUOUS
 62
6
 10
334.6567742347
 20
-239.3107273403
 11
314.6567742347
 21
-239.3107273403
  0
LINE
  8
5
  6
CONTINUOUS
 62
6
 10
314.6567742347
 20
-239.3107273403
 11
309.6567742347
 21
-239.3107273403
  0
LINE
  8
5
  6
CONTINUOUS
 62
6
 10
314.6567742347
 20
-234.3107273403
 11
314.6567742347
 21
-239.3107273403
  0
LINE
  8
5
  6
CONTINUOUS
 62
6
 10
334.6567742347
 20
-234.3107273403
 11
334.6567742347
 21
-239.3107273403
  0
LINE
  8
5
  6
CONTINUOUS
 62
6
 10
374.6567742347
 20
-234.3107273403
 11
374.6567742347
 21
-239.3107273403
  0
LINE
  8
5
  6
CONTINUOUS
 62
6
 10
389.6567742347
 20
-234.3107273403
 11
389.6567742347
 21
-239.3107273403
  0
TEXT
  8
5
  6
CONTINUOUS
 62
7
 10
309.856774
 20
-237.960727
 40
2.300000
  1
項番
 41
0.921659
 50
0.000000
 51
0.000000
 72
   5
 73
   0
 11
314.456774
 21
-237.960727
  0
TEXT
  8
5
  6
CONTINUOUS
 62
7
 10
319.664774
 20
-238.310727
 40
3.000000
  1
品　　名
 41
0.737916
 50
0.000000
 51
0.000000
 72
   5
 73
   0
 11
329.648774
 21
-238.310727
  0
TEXT
  8
5
  6
CONTINUOUS
 62
7
 10
339.503774
 20
-238.310727
 40
3.000000
  1
定  格 / 型  番 / 材　質
 41
0.686277
 50
0.000000
 51
0.000000
 72
   5
 73
   0
 11
369.809774
 21
-238.310727
  0
TEXT
  8
5
  6
CONTINUOUS
 62
7
 10
376.959274
 20
-238.310727
 40
3.000000
  1
メーカー
 41
0.768293
 50
0.000000
 51
0.000000
 72
   5
 73
   0
 11
387.354274
 21
-238.310727
  0
TEXT
  8
5
  6
CONTINUOUS
 62
7
 10
389.856774
 20
-237.960727
 40
2.300000
  1
数量
 41
0.921659
 50
0.000000
 51
0.000000
 72
   5
 73
   0
 11
394.456774
 21
-237.960727
  0
LINE
  8
5
  6
CONTINUOUS
 62
6
 10
309.6567742347
 20
-244.3107273403
 11
309.6567742347
 21
-239.3107273403
  0
LINE
  8
5
  6
CONTINUOUS
 62
6
 10
309.6567742347
 20
-239.3107273403
 11
314.6567742347
 21
-239.3107273403
  0
LINE
  8
5
  6
CONTINUOUS
 62
6
 10
314.6567742347
 20
-239.3107273403
 11
334.6567742347
 21
-239.3107273403
  0
LINE
  8
5
  6
CONTINUOUS
 62
6
 10
334.6567742347
 20
-239.3107273403
 11
374.6567742347
 21
-239.3107273403
  0
LINE
  8
5
  6
CONTINUOUS
 62
6
 10
374.6567742347
 20
-239.3107273403
 11
389.6567742347
 21
-239.3107273403
  0
LINE
  8
5
  6
CONTINUOUS
 62
6
 10
389.6567742347
 20
-239.3107273403
 11
394.6567742347
 21
-239.3107273403
  0
LINE
  8
5
  6
CONTINUOUS
 62
6
 10
394.6567742347
 20
-239.3107273403
 11
394.6567742347
 21
-244.3107273403
  0
LINE
  8
5
  6
CONTINUOUS
 62
6
 10
394.6567742347
 20
-244.3107273403
 11
389.6567742347
 21
-244.3107273403
  0
LINE
  8
5
  6
CONTINUOUS
 62
6
 10
389.6567742347
 20
-244.3107273403
 11
374.6567742347
 21
-244.3107273403
  0
LINE
  8
5
  6
CONTINUOUS
 62
6
 10
374.6567742347
 20
-244.3107273403
 11
334.6567742347
 21
-244.3107273403
  0
LINE
  8
5
  6
CONTINUOUS
 62
6
 10
334.6567742347
 20
-244.3107273403
 11
314.6567742347
 21
-244.3107273403
  0
LINE
  8
5
  6
CONTINUOUS
 62
6
 10
314.6567742347
 20
-244.3107273403
 11
309.6567742347
 21
-244.3107273403
  0
LINE
  8
5
  6
CONTINUOUS
 62
6
 10
314.6567742347
 20
-239.3107273403
 11
314.6567742347
 21
-244.3107273403
  0
LINE
  8
5
  6
CONTINUOUS
 62
6
 10
334.6567742347
 20
-239.3107273403
 11
334.6567742347
 21
-244.3107273403
  0
LINE
  8
5
  6
CONTINUOUS
 62
6
 10
374.6567742347
 20
-239.3107273403
 11
374.6567742347
 21
-244.3107273403
  0
LINE
  8
5
  6
CONTINUOUS
 62
6
 10
389.6567742347
 20
-239.3107273403
 11
389.6567742347
 21
-244.3107273403
  0
TEXT
  8
5
  6
CONTINUOUS
 62
7
 10
309.906774
 20
-243.310727
 40
3.000000
  1
113
 41
0.815217
 50
0.000000
 51
0.000000
 72
   5
 73
   0
 11
314.406774
 21
-243.310727
  0
TEXT
  8
5
  6
CONTINUOUS
 62
7
 10
315.656774
 20
-243.310727
 40
3.000000
  1
USBｺﾈｸﾀ
 41
0.910841
 50
0.000000
 51
0.000000
 72
   5
 73
   0
 11
328.007774
 21
-243.310727
  0
TEXT
  8
5
  6
CONTINUOUS
 62
7
 10
335.656774
 20
-243.810727
 40
4.000000
  1
MIUSB1-A-B
 41
0.765697
 50
0.000000
 51
0.000000
 72
   5
 73
   0
 11
355.656774
 21
-243.810727
  0
TEXT
  8
5
  6
CONTINUOUS
 62
7
 10
391.281774
 20
-243.560727
 40
3.500000
  1
1
 41
1.000000
 50
0.000000
 51
0.000000
 72
   5
 73
   0
 11
393.031774
 21
-243.560727
  0
LINE
  8
5
  6
CONTINUOUS
 62
6
 10
394.6567742347
 20
-249.3107273403
 11
389.6567742347
 21
-249.3107273403
  0
LINE
  8
5
  6
CONTINUOUS
 62
6
 10
389.6567742347
 20
-249.3107273403
 11
374.6567742347
 21
-249.3107273403
  0
LINE
  8
5
  6
CONTINUOUS
 62
6
 10
374.6567742347
 20
-249.3107273403
 11
334.6567742347
 21
-249.3107273403
  0
LINE
  8
5
  6
CONTINUOUS
 62
6
 10
334.6567742347
 20
-249.3107273403
 11
314.6567742347
 21
-249.3107273403
  0
LINE
  8
5
  6
CONTINUOUS
 62
6
 10
314.6567742347
 20
-249.3107273403
 11
309.6567742347
 21
-249.3107273403
  0
TEXT
  8
5
  6
CONTINUOUS
 62
7
 10
309.906774
 20
-248.310727
 40
3.000000
  1
114
 41
0.815217
 50
0.000000
 51
0.000000
 72
   5
 73
   0
 11
314.406774
 21
-248.310727
  0
TEXT
  8
5
  6
CONTINUOUS
 62
7
 10
310.656774
 20
-253.310727
 40
3.000000
  1
--
 41
0.854701
 50
0.000000
 51
0.000000
 72
   5
 73
   0
 11
313.656774
 21
-253.310727
  0
TEXT
  8
5
  6
CONTINUOUS
 62
7
 10
315.656774
 20
-248.310727
 40
3.000000
  1
ﾋﾞｽ
 41
0.761957
 50
0.000000
 51
0.000000
 72
   5
 73
   0
 11
319.862774
 21
-248.310727
  0
TEXT
  8
5
  6
CONTINUOUS
 62
7
 10
315.656774
 20
-253.310727
 40
3.000000
  1
--
 41
0.854701
 50
0.000000
 51
0.000000
 72
   5
 73
   0
 11
318.656774
 21
-253.310727
  0
TEXT
  8
5
  6
CONTINUOUS
 62
7
 10
335.656774
 20
-253.310727
 40
3.000000
  1
--
 41
0.854701
 50
0.000000
 51
0.000000
 72
   5
 73
   0
 11
338.656774
 21
-253.310727
  0
TEXT
  8
5
  6
CONTINUOUS
 62
7
 10
391.281774
 20
-248.560727
 40
3.500000
  1
2
 41
1.000000
 50
0.000000
 51
0.000000
 72
   5
 73
   0
 11
393.031774
 21
-248.560727
  0
TEXT
  8
5
  6
CONTINUOUS
 62
7
 10
390.406774
 20
-253.560727
 40
3.500000
  1
--
 41
0.854701
 50
0.000000
 51
0.000000
 72
   5
 73
   0
 11
393.906774
 21
-253.560727
  0
LINE
  8
5
  6
CONTINUOUS
 62
6
 10
309.6567742347
 20
-249.3107273403
 11
309.6567742347
 21
-244.3107273403
  0
LINE
  8
5
  6
CONTINUOUS
 62
6
 10
309.6567742347
 20
-254.3107273403
 11
309.6567742347
 21
-249.3107273403
  0
LINE
  8
5
  6
CONTINUOUS
 62
6
 10
314.6567742347
 20
-244.3107273403
 11
314.6567742347
 21
-249.3107273403
  0
LINE
  8
5
  6
CONTINUOUS
 62
6
 10
314.6567742347
 20
-249.3107273403
 11
314.6567742347
 21
-254.3107273403
  0
LINE
  8
5
  6
CONTINUOUS
 62
6
 10
334.6567742347
 20
-244.3107273403
 11
334.6567742347
 21
-249.3107273403
  0
LINE
  8
5
  6
CONTINUOUS
 62
6
 10
334.6567742347
 20
-249.3107273403
 11
334.6567742347
 21
-254.3107273403
  0
LINE
  8
5
  6
CONTINUOUS
 62
6
 10
374.6567742347
 20
-244.3107273403
 11
374.6567742347
 21
-249.3107273403
  0
LINE
  8
5
  6
CONTINUOUS
 62
6
 10
374.6567742347
 20
-249.3107273403
 11
374.6567742347
 21
-254.3107273403
  0
LINE
  8
5
  6
CONTINUOUS
 62
6
 10
389.6567742347
 20
-244.3107273403
 11
389.6567742347
 21
-249.3107273403
  0
LINE
  8
5
  6
CONTINUOUS
 62
6
 10
389.6567742347
 20
-249.3107273403
 11
389.6567742347
 21
-254.3107273403
  0
LINE
  8
5
  6
CONTINUOUS
 62
6
 10
394.6567742347
 20
-244.3107273403
 11
394.6567742347
 21
-249.3107273403
  0
LINE
  8
5
  6
CONTINUOUS
 62
6
 10
394.6567742347
 20
-249.3107273403
 11
394.6567742347
 21
-254.3107273403
  0
TEXT
  8
5
  6
CONTINUOUS
 62
7
 10
335.656774
 20
-248.810727
 40
4.000000
  1
M3×8 小ワｾﾑｽ
 41
0.809465
 50
0.000000
 51
0.000000
 72
   5
 73
   0
 11
361.656774
 21
-248.810727
  0
LINE
  8
5
  6
CONTINUOUS
 62
6
 10
299.6567742347
 20
-239.3107273403
 11
299.6567742347
 21
-234.3107273403
  0
LINE
  8
5
  6
CONTINUOUS
 62
6
 10
299.6567742347
 20
-234.3107273403
 11
309.6567742347
 21
-234.3107273403
  0
LINE
  8
5
  6
CONTINUOUS
 62
6
 10
309.6567742347
 20
-239.3107273403
 11
304.6567742347
 21
-239.3107273403
  0
LINE
  8
5
  6
CONTINUOUS
 62
6
 10
309.6567742347
 20
-234.3107273403
 11
309.6567742347
 21
-239.3107273403
  0
TEXT
  8
5
  6
CONTINUOUS
 62
7
 10
302.194993
 20
-238.310727
 40
3.000000
  1
型番
 41
0.921659
 50
0.000000
 51
0.000000
 72
   5
 73
   0
 11
308.194993
 21
-238.310727
  0
LINE
  8
5
  6
CONTINUOUS
 62
6
 10
299.6567742347
 20
-244.3107273403
 11
299.6567742347
 21
-239.3107273403
  0
LINE
  8
5
  6
CONTINUOUS
 62
6
 10
299.6567742347
 20
-239.3107273403
 11
309.6567742347
 21
-239.3107273403
  0
LINE
  8
5
  6
CONTINUOUS
 62
6
 10
309.6567742347
 20
-239.3107273403
 11
309.6567742347
 21
-244.3107273403
  0
TEXT
  8
5
  6
CONTINUOUS
 62
7
 10
302.912993
 20
-243.810727
 40
4.000000
  1
U1
 41
0.975214
 50
0.000000
 51
0.000000
 72
   5
 73
   0
 11
307.476993
 21
-243.810727
  0
LINE
  8
5
  6
CONTINUOUS
 62
6
 10
299.6567742347
 20
-249.3107273403
 11
299.6567742347
 21
-244.3107273403
  0
LINE
  8
5
  6
CONTINUOUS
 62
6
 10
299.6567742347
 20
-254.3107273403
 11
299.6567742347
 21
-249.3107273403
  0
LINE
  8
5
  6
CONTINUOUS
 62
6
 10
309.6567742347
 20
-244.3107273403
 11
309.6567742347
 21
-249.3107273403
  0
LINE
  8
5
  6
CONTINUOUS
 62
6
 10
309.6567742347
 20
-249.3107273403
 11
309.6567742347
 21
-254.3107273403
  0
LINE
  8
5
  6
CONTINUOUS
 62
6
 10
394.6567742347
 20
-254.3107273403
 11
389.6567742347
 21
-254.3107273403
  0
LINE
  8
5
  6
CONTINUOUS
 62
6
 10
389.6567742347
 20
-254.3107273403
 11
374.6567742347
 21
-254.3107273403
  0
LINE
  8
5
  6
CONTINUOUS
 62
6
 10
374.6567742347
 20
-254.3107273403
 11
334.6567742347
 21
-254.3107273403
  0
LINE
  8
5
  6
CONTINUOUS
 62
6
 10
334.6567742347
 20
-254.3107273403
 11
314.6567742347
 21
-254.3107273403
  0
LINE
  8
5
  6
CONTINUOUS
 62
6
 10
314.6567742347
 20
-254.3107273403
 11
309.6567742347
 21
-254.3107273403
  0
LINE
  8
5
  6
CONTINUOUS
 62
6
 10
309.6567742347
 20
-254.3107273403
 11
299.6567742347
 21
-254.3107273403
  0
TEXT
  8
5
  6
CONTINUOUS
 62
7
 10
375.656774
 20
-220.810727
 40
3.000000
  1
MADOKA
 41
1.028831
 50
0.000000
 51
0.000000
 72
   5
 73
   0
 11
387.539774
 21
-220.810727
  0
TEXT
  8
5
  6
CONTINUOUS
 62
7
 10
375.656774
 20
-230.810727
 40
3.000000
  1
--
 41
0.854701
 50
0.000000
 51
0.000000
 72
   5
 73
   0
 11
378.656774
 21
-230.810727
  0
TEXT
  8
5
  6
CONTINUOUS
 62
7
 10
375.656774
 20
-253.310727
 40
3.000000
  1
--
 41
0.854701
 50
0.000000
 51
0.000000
 72
   5
 73
   0
 11
378.656774
 21
-253.310727
  0
TEXT
  8
5
  6
CONTINUOUS
 62
7
 10
375.656774
 20
-225.810727
 40
3.000000
  1
--
 41
0.854701
 50
0.000000
 51
0.000000
 72
   5
 73
   0
 11
378.656774
 21
-225.810727
  0
TEXT
  8
5
  6
CONTINUOUS
 62
7
 10
375.656774
 20
-248.310727
 40
3.000000
  1
--
 41
0.854701
 50
0.000000
 51
0.000000
 72
   5
 73
   0
 11
378.656774
 21
-248.310727
  0
TEXT
  8
3
  6
CONTINUOUS
 62
5
 10
119.466026
 20
-74.082319
 40
4.500000
  1
⑨
 41
1.000000
 50
0.000000
 51
0.000000
 72
   5
 73
   0
 11
123.966026
 21
-74.082319
  0
TEXT
  8
3
  6
CONTINUOUS
 62
5
 10
119.466026
 20
-78.582319
 40
4.500000
  1
ACｱｳﾄﾚｯﾄ詳細
 41
0.796813
 50
0.000000
 51
0.000000
 72
   5
 73
   0
 11
146.466026
 21
-78.582319
  0
TEXT
  8
3
  6
CONTINUOUS
 62
5
 10
109.922604
 20
-178.570293
 40
5.000000
  1
⑩ Mini DIN詳細
 41
0.800427
 50
0.000000
 51
0.000000
 72
   5
 73
   0
 11
147.422604
 21
-178.570293
  0
TEXT
  8
3
  6
CONTINUOUS
 62
5
 10
164.642137
 20
-235.101184
 40
5.000000
  1
⑪ USB詳細
 41
0.830565
 50
0.000000
 51
0.000000
 72
   5
 73
   0
 11
189.642137
 21
-235.101184
  0
INSERT
  8
3
  6
CONTINUOUS
 62
5
  2
BALN1
 10
219.1421374659
 20
-216.6011842222
  0
INSERT
  8
3
  6
CONTINUOUS
 62
5
  2
BALN2
 10
212.0334406374
 20
-219.2431864733
  0
INSERT
  8
3
  6
CONTINUOUS
 62
5
  2
BALN3
 10
261.0921374659
 20
-216.6011842222
  0
INSERT
  8
3
  6
CONTINUOUS
 62
5
  2
BALN4
 10
253.9834406374
 20
-219.2431864733
  0
TEXT
  8
3
  6
CONTINUOUS
 62
7
 10
207.142137
 20
-258.601184
 40
5.000000
  1
U0
 41
0.854701
 50
0.000000
 51
0.000000
 72
   5
 73
   0
 11
212.142137
 21
-258.601184
  0
TEXT
  8
3
  6
CONTINUOUS
 62
7
 10
249.092137
 20
-258.401184
 40
5.000000
  1
U1
 41
0.854701
 50
0.000000
 51
0.000000
 72
   5
 73
   0
 11
254.092137
 21
-258.401184
  0
TEXT
  8
5
  6
CONTINUOUS
 62
7
 10
348.653069
 20
22.742557
 40
4.200000
  1
Panel Interface
 41
0.641296
 50
0.000000
 51
0.000000
 72
   5
 73
   0
 11
375.264269
 21
22.742557
  0
TEXT
  8
5
  6
CONTINUOUS
 62
7
 10
348.653069
 20
18.542557
 40
4.200000
  1
Type:MCON-001-057**DI6**
 41
0.780264
 50
0.000000
 51
0.000000
 72
   5
 73
   0
 11
400.791869
 21
18.542557
  0
TEXT
  8
5
  6
CONTINUOUS
 62
7
 10
348.653069
 20
14.342557
 40
4.200000
  1
                      仕様図　1/2
 41
0.558184
 50
0.000000
 51
0.000000
 72
   5
 73
   0
 11
398.494469
 21
14.342557
  0
TEXT
  8
5
  6
CONTINUOUS
 62
7
 10
348.433321
 20
-308.965523
 40
6.000000
  1
M0051A057D
 41
0.765697
 50
0.000000
 51
0.000000
 72
   5
 73
   0
 11
378.433321
 21
-308.965523
  0
TEXT
  8
3
  6
CONTINUOUS
 62
7
 10
157.407606
 20
39.432029
 40
4.500000
  1
ACｱｳﾄﾚｯﾄ,D-SUB,USBの詳細は仕様2/2を参照してください。
 41
0.812385
 50
0.000000
 51
0.000000
 72
   5
 73
   0
 11
276.657606
 21
39.432029
  0
INSERT
  8
1
  6
CONTINUOUS
 62
5
  2
LTEX0
 10
143.4661466639
 20
87.8525214537
  0
TEXT
  8
3
  6
CONTINUOUS
 62
7
 10
156.563931
 20
273.374654
 40
5.000000
  1
型番仕様
 41
0.886918
 50
0.000000
 51
0.000000
 72
   5
 73
   0
 11
176.563931
 21
273.374654
  0
TEXT
  8
3
  6
CONTINUOUS
 62
7
 10
156.563931
 20
266.374654
 40
5.000000
  1
　MCON-001-057 %%uPB%%u %%uA*%%u %%uDI6**%%u %%uU*%%u
 41
0.759560
 50
0.000000
 51
0.000000
 72
   5
 73
   0
 11
229.063931
 21
266.374654
  0
LINE
  8
3
  6
CONTINUOUS
 62
7
 10
226.8027471511
 20
266.1495586155
 11
226.8027471511
 21
261.1495586155
  0
LINE
  8
3
  6
CONTINUOUS
 62
7
 10
226.8027471510
 20
261.1495586155
 11
229.7128533312
 21
261.1495586155
  0
TEXT
  8
3
  6
CONTINUOUS
 62
7
 10
231.712853
 20
259.368327
 40
4.000000
  1
⑪ U0:USB無し(ﾌﾞﾗﾝｸﾊﾟﾈﾙ)
 41
0.779221
 50
0.000000
 51
0.000000
 72
   5
 73
   0
 11
279.712853
 21
259.368327
  0
TEXT
  8
3
  6
CONTINUOUS
 62
7
 10
231.712853
 20
254.368327
 40
4.000000
  1
　 U1:USB有り
 41
0.809465
 50
0.000000
 51
0.000000
 72
   5
 73
   0
 11
257.712853
 21
254.368327
  0
TEXT
  8
3
  6
CONTINUOUS
 62
7
 10
231.712853
 20
249.149559
 40
4.000000
  1
⑩ DI6:Mini DIN 6P ﾒｽ ｹｰﾌﾞﾙ付
 41
0.766385
 50
0.000000
 51
0.000000
 72
   5
 73
   0
 11
289.712853
 21
249.149559
  0
TEXT
  8
3
  6
CONTINUOUS
 62
7
 10
231.712853
 20
244.149559
 40
4.000000
  1
    **:ｹｰﾌﾞﾙ長
 41
0.774336
 50
0.000000
 51
0.000000
 72
   5
 73
   0
 11
259.712853
 21
244.149559
  0
TEXT
  8
3
  6
CONTINUOUS
 62
7
 10
231.712853
 20
239.149559
 40
4.000000
  1
       [0.5][1][2][3][5](m)
 41
0.753348
 50
0.000000
 51
0.000000
 72
   5
 73
   0
 11
285.712853
 21
239.149559
  0
TEXT
  8
3
  6
CONTINUOUS
 62
7
 10
231.514995
 20
233.501901
 40
4.000000
  1
⑨ A0:ACｱｳﾄﾚｯﾄ通常ﾀｲﾌﾟ
 41
0.782361
 50
0.000000
 51
0.000000
 72
   5
 73
   0
 11
275.514995
 21
233.501901
  0
TEXT
  8
3
  6
CONTINUOUS
 62
7
 10
231.514995
 20
228.501901
 40
4.000000
  1
　 A1:ACｱｳﾄﾚｯﾄ抜け防止ﾀｲﾌﾟ
 41
0.792683
 50
0.000000
 51
0.000000
 72
   5
 73
   0
 11
283.514995
 21
228.501901
  0
TEXT
  8
3
  6
CONTINUOUS
 62
7
 10
231.514995
 20
223.501901
 40
4.000000
  1
　 A2:ACｱｳﾄﾚｯﾄ無し(ﾌﾞﾗﾝｸﾊﾟﾈﾙ)
 41
0.773333
 50
0.000000
 51
0.000000
 72
   5
 73
   0
 11
289.514995
 21
223.501901
  0
LINE
  8
3
  6
CONTINUOUS
 62
7
 10
229.7128533312
 20
251.6838222576
 11
217.1858883777
 21
251.6838222576
  0
LINE
  8
3
  6
CONTINUOUS
 62
7
 10
217.1858883777
 20
251.6838222576
 11
217.1858883777
 21
266.1495586155
  0
LINE
  8
3
  6
CONTINUOUS
 62
7
 10
229.7128533312
 20
236.1495586155
 11
204.1658038575
 21
236.1495586155
  0
LINE
  8
3
  6
CONTINUOUS
 62
7
 10
204.1658038575
 20
236.1495586155
 11
204.1658038575
 21
266.1495586155
  0
LINE
  8
1
  6
CONTINUOUS
 62
7
 10
94.2210513175
 20
-151.2224546205
 11
42.2210513175
 21
-151.2224546205
  0
LINE
  8
1
  6
CONTINUOUS
 62
7
 10
95.7210513175
 20
-274.2224546205
 11
95.7210513175
 21
-152.7224546205
  0
LINE
  8
1
  6
CONTINUOUS
 62
7
 10
42.2210513175
 20
-275.7224546205
 11
94.2210513175
 21
-275.7224546205
  0
LINE
  8
1
  6
CONTINUOUS
 62
7
 10
40.7210513175
 20
-274.2224546205
 11
40.7210513175
 21
-152.7224546205
  0
LINE
  8
1
  6
CONTINUOUS
 62
7
 10
97.7210513175
 20
-276.7224546205
 11
97.7210513175
 21
-150.2224546205
  0
LINE
  8
1
  6
CONTINUOUS
 62
7
 10
96.7210513175
 20
-149.2224546205
 11
39.7210513175
 21
-149.2224546205
  0
LINE
  8
1
  6
CONTINUOUS
 62
7
 10
38.7210513175
 20
-276.7224546205
 11
38.7210513175
 21
-150.2224546205
  0
LINE
  8
1
  6
CONTINUOUS
 62
7
 10
39.7210513175
 20
-277.7224546205
 11
96.7210513175
 21
-277.7224546205
  0
ARC
  8
1
  6
CONTINUOUS
 62
7
 10
42.2210513175
 20
-152.7224546205
 40
1.5000000000
 50
90.0000000000
 51
180.0000000000
  0
ARC
  8
1
  6
CONTINUOUS
 62
7
 10
94.2210513175
 20
-152.7224546205
 40
1.5000000000
 50
0.0000000000
 51
90.0000000000
  0
ARC
  8
1
  6
CONTINUOUS
 62
7
 10
94.2210513175
 20
-274.2224546205
 40
1.5000000000
 50
270.0000000000
 51
0.0000000000
  0
ARC
  8
1
  6
CONTINUOUS
 62
7
 10
42.2210513175
 20
-274.2224546205
 40
1.5000000000
 50
180.0000000000
 51
270.0000000000
  0
CIRCLE
  8
1
  6
HIDDEN
 62
3
 10
48.2210513175
 20
-154.9724546205
 40
1.7500000000
  0
CIRCLE
  8
1
  6
HIDDEN
 62
3
 10
48.2210513175
 20
-154.9724546205
 40
3.2500000000
  0
CIRCLE
  8
1
  6
HIDDEN
 62
3
 10
88.2210513175
 20
-154.9724546205
 40
1.7500000000
  0
CIRCLE
  8
1
  6
HIDDEN
 62
3
 10
88.2210513175
 20
-154.9724546205
 40
3.2500000000
  0
LINE
  8
1
  6
HIDDEN
 62
3
 10
91.2210513175
 20
-159.9724546205
 11
94.2210513175
 21
-159.9724546205
  0
LINE
  8
1
  6
HIDDEN
 62
3
 10
43.2210513175
 20
-159.9724546205
 11
91.2210513175
 21
-159.9724546205
  0
CIRCLE
  8
1
  6
HIDDEN
 62
3
 10
48.2210513175
 20
-271.9724546205
 40
1.7500000000
  0
CIRCLE
  8
1
  6
HIDDEN
 62
3
 10
48.2210513175
 20
-271.9724546205
 40
3.2500000000
  0
CIRCLE
  8
1
  6
HIDDEN
 62
3
 10
88.2210513175
 20
-271.9724546205
 40
1.7500000000
  0
CIRCLE
  8
1
  6
HIDDEN
 62
3
 10
88.2210513175
 20
-271.9724546205
 40
3.2500000000
  0
CIRCLE
  8
1
  6
HIDDEN
 62
3
 10
68.2210513175
 20
-154.9724546205
 40
2.0000000000
  0
LINE
  8
1
  6
CONTINUOUS
 62
7
 10
99.7210513175
 20
-276.7224546205
 11
99.7210513175
 21
-150.2224546205
  0
LINE
  8
1
  6
CONTINUOUS
 62
7
 10
96.7210513175
 20
-147.2224546205
 11
39.7210513175
 21
-147.2224546205
  0
LINE
  8
1
  6
CONTINUOUS
 62
7
 10
36.7210513175
 20
-276.7224546205
 11
36.7210513175
 21
-150.2224546205
  0
LINE
  8
1
  6
CONTINUOUS
 62
7
 10
39.7210513175
 20
-279.7224546205
 11
96.7210513175
 21
-279.7224546205
  0
LINE
  8
1
  6
CONTINUOUS
 62
7
 10
101.7210513175
 20
-286.7224546205
 11
101.7210513175
 21
-142.8474546205
  0
LINE
  8
1
  6
CONTINUOUS
 62
7
 10
34.7210513175
 20
-142.8474546205
 11
34.7210513175
 21
-286.7224546205
  0
LINE
  8
1
  6
CONTINUOUS
 62
7
 10
102.7210513175
 20
-287.7224546205
 11
102.7210513175
 21
-132.2224546205
  0
LINE
  8
1
  6
CONTINUOUS
 62
7
 10
33.7210513175
 20
-132.2224546205
 11
33.7210513175
 21
-287.7224546205
  0
ARC
  8
1
  6
CONTINUOUS
 62
7
 10
39.7210513175
 20
-150.2224546205
 40
1.0000000000
 50
90.0000000000
 51
180.0000000000
  0
ARC
  8
1
  6
CONTINUOUS
 62
7
 10
96.7210513175
 20
-150.2224546205
 40
1.0000000000
 50
0.0000000000
 51
90.0000000000
  0
ARC
  8
1
  6
CONTINUOUS
 62
7
 10
96.7210513175
 20
-276.7224546205
 40
1.0000000000
 50
270.0000000000
 51
0.0000000000
  0
ARC
  8
1
  6
CONTINUOUS
 62
7
 10
39.7210513175
 20
-276.7224546205
 40
1.0000000000
 50
180.0000000000
 51
270.0000000000
  0
LINE
  8
1
  6
HIDDEN
 62
3
 10
94.2210513175
 20
-169.9724546205
 11
94.2210513175
 21
-159.9724546205
  0
ARC
  8
1
  6
CONTINUOUS
 62
7
 10
39.7210513175
 20
-150.2224546205
 40
3.0000000000
 50
90.0000000000
 51
180.0000000000
  0
ARC
  8
1
  6
CONTINUOUS
 62
7
 10
96.7210513175
 20
-150.2224546205
 40
3.0000000000
 50
0.0000000000
 51
90.0000000000
  0
ARC
  8
1
  6
CONTINUOUS
 62
7
 10
96.7210513175
 20
-276.7224546205
 40
3.0000000000
 50
270.0000000000
 51
0.0000000000
  0
ARC
  8
1
  6
CONTINUOUS
 62
7
 10
39.7210513175
 20
-276.7224546205
 40
3.0000000000
 50
180.0000000000
 51
270.0000000000
  0
LINE
  8
1
  6
DASHDOT
 62
1
 10
104.7210513175
 20
-139.2224546205
 11
31.7210513175
 21
-139.2224546205
  0
LINE
  8
1
  6
CONTINUOUS
 62
7
 10
102.7210513175
 20
-287.7224546205
 11
33.7210513175
 21
-287.7224546205
  0
LINE
  8
1
  6
CONTINUOUS
 62
7
 10
34.7210513175
 20
-286.7224546205
 11
101.7210513175
 21
-286.7224546205
  0
LINE
  8
1
  6
CONTINUOUS
 62
7
 10
34.7210513175
 20
-145.2224546205
 11
34.7210513175
 21
-133.2224546205
  0
LINE
  8
1
  6
CONTINUOUS
 62
7
 10
34.7210513175
 20
-133.2224546205
 11
39.7210513175
 21
-133.2224546205
  0
LINE
  8
1
  6
CONTINUOUS
 62
7
 10
39.7210513175
 20
-133.2224546205
 11
39.7210513175
 21
-145.2224546205
  0
LINE
  8
1
  6
CONTINUOUS
 62
7
 10
39.7210513175
 20
-145.2224546205
 11
34.7210513175
 21
-145.2224546205
  0
LINE
  8
1
  6
CONTINUOUS
 62
7
 10
101.7210513175
 20
-133.2224546205
 11
96.7210513175
 21
-133.2224546205
  0
LINE
  8
1
  6
CONTINUOUS
 62
7
 10
96.7210513175
 20
-133.2224546205
 11
96.7210513175
 21
-145.2224546205
  0
LINE
  8
1
  6
CONTINUOUS
 62
7
 10
96.7210513175
 20
-145.2224546205
 11
101.7210513175
 21
-145.2224546205
  0
LINE
  8
1
  6
CONTINUOUS
 62
7
 10
101.7210513175
 20
-145.2224546205
 11
101.7210513175
 21
-133.2224546205
  0
LINE
  8
1
  6
CONTINUOUS
 62
7
 10
96.7210513175
 20
-145.2224546205
 11
96.7210513175
 21
-146.2224546205
  0
LINE
  8
1
  6
CONTINUOUS
 62
7
 10
96.7210513175
 20
-146.2224546205
 11
39.7210513175
 21
-146.2224546205
  0
LINE
  8
1
  6
CONTINUOUS
 62
7
 10
39.7210513175
 20
-146.2224546205
 11
39.7210513175
 21
-145.2224546205
  0
LINE
  8
1
  6
CONTINUOUS
 62
7
 10
102.7210513175
 20
-132.2224546205
 11
33.7210513175
 21
-132.2224546205
  0
CIRCLE
  8
1
  6
HIDDEN
 62
3
 10
68.2210513175
 20
-154.9724546205
 40
1.6500000000
  0
CIRCLE
  8
1
  6
HIDDEN
 62
3
 10
68.2210513175
 20
-271.9724546205
 40
2.0000000000
  0
CIRCLE
  8
1
  6
HIDDEN
 62
3
 10
68.2210513175
 20
-271.9724546205
 40
1.6500000000
  0
CIRCLE
  8
1
  6
HIDDEN
 62
7
 10
68.2210513175
 20
-283.2224546205
 40
2.0000000000
  0
CIRCLE
  8
1
  6
CONTINUOUS
 62
7
 10
68.2210513175
 20
-283.2224546205
 40
1.6500000000
  0
TEXT
  8
1
  6
CONTINUOUS
 62
7
 10
52.719518
 20
-295.980969
 40
4.000000
  1
内 部 図
 41
0.854701
 50
0.000000
 51
0.000000
 72
   5
 73
   0
 11
68.719518
 21
-295.980969
  0
LINE
  8
1
  6
HIDDEN
 62
3
 10
94.2210513175
 20
-169.9724546205
 11
91.2210513175
 21
-169.9724546205
  0
LINE
  8
1
  6
HIDDEN
 62
3
 10
91.2210513175
 20
-169.9724546205
 11
91.2210513175
 21
-159.9724546205
  0
LINE
  8
1
  6
HIDDEN
 62
3
 10
42.2210513175
 20
-266.9724546205
 11
45.2210513175
 21
-266.9724546205
  0
LINE
  8
1
  6
HIDDEN
 62
3
 10
93.2210513175
 20
-266.9724546205
 11
45.2210513175
 21
-266.9724546205
  0
LINE
  8
1
  6
HIDDEN
 62
3
 10
42.2210513175
 20
-256.9724546205
 11
45.2210513175
 21
-256.9724546205
  0
LINE
  8
3
  6
HIDDEN
 62
3
 10
45.2210513175
 20
-256.9724546205
 11
45.2210513175
 21
-266.9724546205
  0
LINE
  8
1
  6
HIDDEN
 62
3
 10
42.2210513175
 20
-256.9724546205
 11
42.2210513175
 21
-266.9724546205
  0
LINE
  8
1
  6
HIDDEN
 62
3
 10
94.2210513175
 20
-265.9724546205
 11
94.2210513175
 21
-169.9724546205
  0
LINE
  8
1
  6
HIDDEN
 62
3
 10
42.2210513175
 20
-160.9724546205
 11
42.2210513175
 21
-256.9724546205
  0
ARC
  8
1
  6
HIDDEN
 62
3
 10
43.2210513175
 20
-160.9724546205
 40
1.0000000000
 50
90.0000000000
 51
180.0000000000
  0
ARC
  8
1
  6
HIDDEN
 62
3
 10
93.2210513175
 20
-265.9724546205
 40
1.0000000000
 50
270.0000000000
 51
0.0000000000
  0
LINE
  8
7
  6
CONTINUOUS
 62
7
 10
95.4710513175
 20
-274.4724546203
 11
95.4710513175
 21
-152.4724546207
  0
LINE
  8
7
  6
CONTINUOUS
 62
7
 10
94.4710513175
 20
-151.4724546207
 11
41.9710513175
 21
-151.4724546203
  0
LINE
  8
7
  6
CONTINUOUS
 62
7
 10
40.9710513175
 20
-274.4724546207
 11
40.9710513175
 21
-152.4724546203
  0
LINE
  8
7
  6
CONTINUOUS
 62
7
 10
94.4710513175
 20
-275.4724546203
 11
41.9710513175
 21
-275.4724546207
  0
LINE
  8
7
  6
CONTINUOUS
 62
7
 10
41.9710513175
 20
-151.4724546203
 11
40.9710513175
 21
-152.4724546203
  0
LINE
  8
7
  6
CONTINUOUS
 62
7
 10
95.4710513175
 20
-152.4724546207
 11
94.4710513175
 21
-151.4724546207
  0
LINE
  8
7
  6
CONTINUOUS
 62
7
 10
95.4710513175
 20
-274.4724546203
 11
94.4710513175
 21
-275.4724546203
  0
LINE
  8
7
  6
CONTINUOUS
 62
7
 10
41.9710513175
 20
-275.4724546207
 11
40.9710513175
 21
-274.4724546207
  0
CIRCLE
  8
3
  6
CONTINUOUS
 62
6
 10
68.2210513175
 20
-154.9724546206
 40
3.9000000000
  0
LINE
  8
3
  6
CONTINUOUS
 62
6
 10
66.4974785384
 20
-153.2488818414
 11
69.9446240967
 21
-156.6960273997
  0
LINE
  8
3
  6
CONTINUOUS
 62
6
 10
66.4974785384
 20
-156.6960273997
 11
69.9446240967
 21
-153.2488818414
  0
CIRCLE
  8
3
  6
CONTINUOUS
 62
6
 10
68.2210513175
 20
-154.9724546206
 40
3.4125000000
  0
CIRCLE
  8
3
  6
CONTINUOUS
 62
6
 10
68.2210513175
 20
-271.9724546205
 40
3.9000000000
  0
LINE
  8
3
  6
CONTINUOUS
 62
6
 10
66.4974785384
 20
-270.2488818414
 11
69.9446240967
 21
-273.6960273996
  0
LINE
  8
3
  6
CONTINUOUS
 62
6
 10
66.4974785384
 20
-273.6960273996
 11
69.9446240967
 21
-270.2488818414
  0
CIRCLE
  8
3
  6
CONTINUOUS
 62
6
 10
68.2210513175
 20
-271.9724546205
 40
3.4125000000
  0
LINE
  8
3
  6
CONTINUOUS
 62
7
 10
83.7210513175
 20
-223.9724546205
 11
52.7210513175
 21
-223.9724546205
  0
LINE
  8
3
  6
CONTINUOUS
 62
7
 10
89.7210513175
 20
-260.9724546205
 11
89.7210513175
 21
-229.9724546205
  0
LINE
  8
3
  6
CONTINUOUS
 62
7
 10
52.7210513175
 20
-266.9724546205
 11
83.7210513175
 21
-266.9724546205
  0
LINE
  8
3
  6
CONTINUOUS
 62
7
 10
46.7210513175
 20
-260.9724546205
 11
46.7210513175
 21
-229.9724546205
  0
POINT
  8
3
  6
CONTINUOUS
 62
7
 10
68.2210513175
 20
-245.4724546205
  0
CIRCLE
  8
3
  6
CONTINUOUS
 62
7
 10
68.2210513175
 20
-245.4724546205
 40
17.2500000000
  0
CIRCLE
  8
3
  6
CONTINUOUS
 62
7
 10
84.4845072848
 20
-229.2089986532
 40
2.0000000000
  0
CIRCLE
  8
3
  6
CONTINUOUS
 62
7
 10
51.9575953502
 20
-261.7359105878
 40
2.0000000000
  0
CIRCLE
  8
3
  6
CONTINUOUS
 62
7
 10
84.4845072848
 20
-229.2089986532
 40
3.0000000000
  0
CIRCLE
  8
3
  6
CONTINUOUS
 62
7
 10
51.9575953502
 20
-261.7359105878
 40
3.0000000000
  0
TEXT
  8
3
  6
CONTINUOUS
 62
7
 10
65.596051
 20
-252.398212
 40
3.500000
  1
125
 41
0.815217
 50
0.000000
 51
0.000000
 72
   5
 73
   0
 11
70.846051
 21
-252.398212
  0
TEXT
  8
3
  6
CONTINUOUS
 62
7
 10
67.471051
 20
-255.079958
 40
3.000000
  1
V
 41
1.000000
 50
0.000000
 51
0.000000
 72
   5
 73
   0
 11
68.971051
 21
-255.079958
  0
INSERT
  8
3
  6
CONTINUOUS
 62
7
  2
S4
 10
73.5343218446
 20
-236.2536191571
  0
ARC
  8
3
  6
CONTINUOUS
 62
7
 10
52.7210513175
 20
-229.9724546205
 40
6.0000000000
 50
90.0000000000
 51
180.0000000000
  0
ARC
  8
3
  6
CONTINUOUS
 62
7
 10
83.7210513175
 20
-229.9724546205
 40
6.0000000000
 50
0.0000000000
 51
90.0000000000
  0
ARC
  8
3
  6
CONTINUOUS
 62
7
 10
83.7210513175
 20
-260.9724546205
 40
6.0000000000
 50
270.0000000000
 51
0.0000000000
  0
ARC
  8
3
  6
CONTINUOUS
 62
7
 10
52.7210513175
 20
-260.9724546205
 40
6.0000000000
 50
180.0000000000
 51
270.0000000000
  0
ARC
  8
3
  6
CONTINUOUS
 62
5
 10
68.2210513175
 20
-236.3224546205
 40
2.6500000000
 50
180.0000000000
 51
0.0000000000
  0
LINE
  8
3
  6
CONTINUOUS
 62
5
 10
65.5710513175
 20
-236.3224546205
 11
65.5710513175
 21
-233.6724546205
  0
LINE
  8
3
  6
CONTINUOUS
 62
5
 10
65.5710513175
 20
-233.6724546205
 11
70.8710513175
 21
-233.6724546205
  0
LINE
  8
3
  6
CONTINUOUS
 62
5
 10
70.8710513175
 20
-233.6724546205
 11
70.8710513175
 21
-236.3224546205
  0
LINE
  8
3
  6
CONTINUOUS
 62
5
 10
73.5210513175
 20
-243.8724546205
 11
75.7210513175
 21
-243.8724546205
  0
LINE
  8
3
  6
CONTINUOUS
 62
5
 10
75.7210513175
 20
-243.8724546205
 11
75.7210513175
 21
-252.5724546205
  0
LINE
  8
3
  6
CONTINUOUS
 62
5
 10
75.7210513175
 20
-252.5724546205
 11
73.5210513175
 21
-252.5724546205
  0
LINE
  8
3
  6
CONTINUOUS
 62
5
 10
73.5210513175
 20
-252.5724546205
 11
73.5210513175
 21
-243.8724546205
  0
LINE
  8
3
  6
CONTINUOUS
 62
5
 10
60.7210513175
 20
-244.7224546205
 11
62.9210513175
 21
-244.7224546205
  0
LINE
  8
3
  6
CONTINUOUS
 62
5
 10
62.9210513175
 20
-244.7224546205
 11
62.9210513175
 21
-251.7224546205
  0
LINE
  8
3
  6
CONTINUOUS
 62
5
 10
62.9210513175
 20
-251.7224546205
 11
60.7210513175
 21
-251.7224546205
  0
LINE
  8
3
  6
CONTINUOUS
 62
5
 10
60.7210513175
 20
-251.7224546205
 11
60.7210513175
 21
-244.7224546205
  0
CIRCLE
  8
3
  6
CONTINUOUS
 62
5
 10
78.1089476497
 20
-248.2224546205
 40
1.5000000000
  0
TEXT
  8
3
  6
CONTINUOUS
 62
5
 10
77.483948
 20
-249.472455
 40
2.500000
  1
N
 41
1.000000
 50
0.000000
 51
0.000000
 72
   5
 73
   0
 11
78.733948
 21
-249.472455
  0
TEXT
  8
3
  6
CONTINUOUS
 62
7
 10
65.971051
 20
-245.472455
 40
4.500000
  1
15
 41
0.854701
 50
0.000000
 51
0.000000
 72
   5
 73
   0
 11
70.471051
 21
-245.472455
  0
TEXT
  8
3
  6
CONTINUOUS
 62
7
 10
67.471051
 20
-248.472455
 40
3.000000
  1
A
 41
1.000000
 50
0.000000
 51
0.000000
 72
   5
 73
   0
 11
68.971051
 21
-248.472455
  0
LINE
  8
3
  6
CONTINUOUS
 62
7
 10
95.4710513175
 20
-274.4724546203
 11
95.4710513175
 21
-152.4724546207
  0
LINE
  8
3
  6
CONTINUOUS
 62
7
 10
95.4710513175
 20
-152.4724546207
 11
94.4710513175
 21
-151.4724546207
  0
LINE
  8
3
  6
CONTINUOUS
 62
7
 10
94.4710513175
 20
-151.4724546207
 11
41.9710513175
 21
-151.4724546203
  0
LINE
  8
3
  6
CONTINUOUS
 62
7
 10
41.9710513175
 20
-151.4724546203
 11
40.9710513175
 21
-152.4724546203
  0
LINE
  8
3
  6
CONTINUOUS
 62
7
 10
40.9710513175
 20
-274.4724546207
 11
40.9710513175
 21
-152.4724546203
  0
LINE
  8
3
  6
CONTINUOUS
 62
7
 10
41.9710513175
 20
-275.4724546207
 11
40.9710513175
 21
-274.4724546207
  0
LINE
  8
3
  6
CONTINUOUS
 62
7
 10
94.4710513175
 20
-275.4724546203
 11
41.9710513175
 21
-275.4724546207
  0
LINE
  8
3
  6
CONTINUOUS
 62
7
 10
95.4710513175
 20
-274.4724546203
 11
94.4710513175
 21
-275.4724546203
  0
POINT
  8
3
  6
CONTINUOUS
 62
7
 10
82.9710513175
 20
-190.4724546205
  0
LINE
  8
3
  6
CONTINUOUS
 62
7
 10
74.4710513175
 20
-178.9724546205
 11
91.4710513175
 21
-178.9724546205
  0
LINE
  8
3
  6
CONTINUOUS
 62
7
 10
74.4710513175
 20
-201.9724546205
 11
74.4710513175
 21
-178.9724546205
  0
LINE
  8
3
  6
CONTINUOUS
 62
7
 10
91.4710513175
 20
-201.9724546205
 11
74.4710513175
 21
-201.9724546205
  0
LINE
  8
3
  6
CONTINUOUS
 62
7
 10
91.4710513175
 20
-178.9724546205
 11
91.4710513175
 21
-201.9724546205
  0
CIRCLE
  8
3
  6
CONTINUOUS
 62
7
 10
82.9710513175
 20
-175.9724546205
 40
1.5000000000
  0
CIRCLE
  8
3
  6
CONTINUOUS
 62
7
 10
82.9710513175
 20
-204.9724546205
 40
1.5000000000
  0
TEXT
  8
3
  6
CONTINUOUS
 62
7
 10
79.221051
 20
-190.472455
 40
5.000000
  1
⑪
 41
1.000000
 50
0.000000
 51
0.000000
 72
   5
 73
   0
 11
84.221051
 21
-190.472455
  0
TEXT
  8
3
  6
CONTINUOUS
 62
7
 10
79.221051
 20
-195.472455
 40
5.000000
  1
USB
 41
0.815217
 50
0.000000
 51
0.000000
 72
   5
 73
   0
 11
86.721051
 21
-195.472455
  0
LINE
  8
3
  6
CONTINUOUS
 62
7
 10
184.8178253186
 20
-77.8784632072
 11
153.8178253186
 21
-77.8784632072
  0
LINE
  8
3
  6
CONTINUOUS
 62
7
 10
190.8178253186
 20
-114.8784632072
 11
190.8178253186
 21
-83.8784632072
  0
LINE
  8
3
  6
CONTINUOUS
 62
7
 10
153.8178253186
 20
-120.8784632072
 11
184.8178253186
 21
-120.8784632072
  0
LINE
  8
3
  6
CONTINUOUS
 62
7
 10
147.8178253186
 20
-114.8784632072
 11
147.8178253186
 21
-83.8784632072
  0
POINT
  8
3
  6
CONTINUOUS
 62
7
 10
169.3178253186
 20
-99.3784632072
  0
CIRCLE
  8
3
  6
CONTINUOUS
 62
7
 10
169.3178253186
 20
-99.3784632072
 40
17.2500000000
  0
CIRCLE
  8
3
  6
CONTINUOUS
 62
7
 10
185.5812812859
 20
-83.1150072399
 40
3.0000000000
  0
CIRCLE
  8
3
  6
CONTINUOUS
 62
7
 10
153.0543693513
 20
-115.6419191745
 40
3.0000000000
  0
TEXT
  8
3
  6
CONTINUOUS
 62
7
 10
166.692825
 20
-106.304221
 40
3.500000
  1
125
 41
0.815217
 50
0.000000
 51
0.000000
 72
   5
 73
   0
 11
171.942825
 21
-106.304221
  0
TEXT
  8
3
  6
CONTINUOUS
 62
7
 10
168.567825
 20
-108.985966
 40
3.000000
  1
V
 41
1.000000
 50
0.000000
 51
0.000000
 72
   5
 73
   0
 11
170.067825
 21
-108.985966
  0
INSERT
  8
3
  6
CONTINUOUS
 62
7
  2
S5
 10
174.6310958456
 20
-90.1596277438
  0
ARC
  8
3
  6
CONTINUOUS
 62
7
 10
153.8178253186
 20
-83.8784632072
 40
6.0000000000
 50
90.0000000000
 51
180.0000000000
  0
ARC
  8
3
  6
CONTINUOUS
 62
7
 10
184.8178253186
 20
-83.8784632072
 40
6.0000000000
 50
0.0000000000
 51
90.0000000000
  0
ARC
  8
3
  6
CONTINUOUS
 62
7
 10
184.8178253186
 20
-114.8784632072
 40
6.0000000000
 50
270.0000000000
 51
0.0000000000
  0
ARC
  8
3
  6
CONTINUOUS
 62
7
 10
153.8178253186
 20
-114.8784632072
 40
6.0000000000
 50
180.0000000000
 51
270.0000000000
  0
ARC
  8
3
  6
CONTINUOUS
 62
5
 10
169.3178253186
 20
-90.2284632072
 40
2.6500000000
 50
180.0000000000
 51
0.0000000000
  0
LINE
  8
3
  6
CONTINUOUS
 62
5
 10
166.6678253186
 20
-90.2284632072
 11
166.6678253186
 21
-87.5784632072
  0
LINE
  8
3
  6
CONTINUOUS
 62
5
 10
166.6678253186
 20
-87.5784632072
 11
171.9678253186
 21
-87.5784632072
  0
LINE
  8
3
  6
CONTINUOUS
 62
5
 10
171.9678253186
 20
-87.5784632072
 11
171.9678253186
 21
-90.2284632072
  0
LINE
  8
3
  6
CONTINUOUS
 62
5
 10
174.6178253186
 20
-97.7784632072
 11
176.8178253186
 21
-97.7784632072
  0
LINE
  8
3
  6
CONTINUOUS
 62
5
 10
176.8178253186
 20
-97.7784632072
 11
176.8178253186
 21
-106.4784632072
  0
LINE
  8
3
  6
CONTINUOUS
 62
5
 10
176.8178253186
 20
-106.4784632072
 11
174.6178253186
 21
-106.4784632072
  0
LINE
  8
3
  6
CONTINUOUS
 62
5
 10
174.6178253186
 20
-106.4784632072
 11
174.6178253186
 21
-97.7784632072
  0
LINE
  8
3
  6
CONTINUOUS
 62
5
 10
161.8178253186
 20
-98.6284632072
 11
164.0178253186
 21
-98.6284632072
  0
LINE
  8
3
  6
CONTINUOUS
 62
5
 10
164.0178253186
 20
-98.6284632072
 11
164.0178253186
 21
-105.6284632072
  0
LINE
  8
3
  6
CONTINUOUS
 62
5
 10
164.0178253186
 20
-105.6284632072
 11
161.8178253186
 21
-105.6284632072
  0
LINE
  8
3
  6
CONTINUOUS
 62
5
 10
161.8178253186
 20
-105.6284632072
 11
161.8178253186
 21
-98.6284632072
  0
CIRCLE
  8
3
  6
CONTINUOUS
 62
5
 10
179.2057216508
 20
-102.1284632072
 40
1.5000000000
  0
TEXT
  8
3
  6
CONTINUOUS
 62
5
 10
178.580722
 20
-103.378463
 40
2.500000
  1
N
 41
1.000000
 50
0.000000
 51
0.000000
 72
   5
 73
   0
 11
179.830722
 21
-103.378463
  0
TEXT
  8
3
  6
CONTINUOUS
 62
7
 10
167.067825
 20
-99.378463
 40
4.500000
  1
15
 41
0.854701
 50
0.000000
 51
0.000000
 72
   5
 73
   0
 11
171.567825
 21
-99.378463
  0
TEXT
  8
3
  6
CONTINUOUS
 62
7
 10
168.567825
 20
-102.378463
 40
3.000000
  1
A
 41
1.000000
 50
0.000000
 51
0.000000
 72
   5
 73
   0
 11
170.067825
 21
-102.378463
  0
TEXT
  8
3
  6
CONTINUOUS
 62
7
 10
200.317825
 20
-128.878463
 40
5.000000
  1
A1
 41
0.854701
 50
0.000000
 51
0.000000
 72
   5
 73
   0
 11
205.317825
 21
-128.878463
  0
TEXT
  8
3
  6
CONTINUOUS
 62
7
 10
200.317825
 20
-133.878463
 40
5.000000
  1
抜け防止ﾀｲﾌﾟ
 41
0.834492
 50
0.000000
 51
0.000000
 72
   5
 73
   0
 11
230.317825
 21
-133.878463
  0
TEXT
  8
3
  6
CONTINUOUS
 62
7
 10
159.317825
 20
-128.878463
 40
5.000000
  1
A0
 41
0.854701
 50
0.000000
 51
0.000000
 72
   5
 73
   0
 11
164.317825
 21
-128.878463
  0
TEXT
  8
3
  6
CONTINUOUS
 62
7
 10
159.317825
 20
-133.878463
 40
5.000000
  1
通常ﾀｲﾌﾟ
 41
0.824742
 50
0.000000
 51
0.000000
 72
   5
 73
   0
 11
179.317825
 21
-133.878463
  0
INSERT
  8
1
  6
CONTINUOUS
 62
5
  2
BALN5
 10
162.3511050565
 20
-80.8142186975
  0
LINE
  8
3
  6
CONTINUOUS
 62
6
 10
184.2428291643
 20
-81.7765551184
 11
186.9197334074
 21
-84.4534593614
  0
LINE
  8
3
  6
CONTINUOUS
 62
6
 10
184.2428291643
 20
-84.4534593614
 11
186.9197334074
 21
-81.7765551184
  0
LINE
  8
3
  6
CONTINUOUS
 62
6
 10
151.7159172298
 20
-114.3034670530
 11
154.3928214728
 21
-116.9803712960
  0
LINE
  8
3
  6
CONTINUOUS
 62
6
 10
151.7159172298
 20
-116.9803712960
 11
154.3928214728
 21
-114.3034670530
  0
LINE
  8
3
  6
CONTINUOUS
 62
6
 10
197.7159172298
 20
-114.3034670530
 11
200.3928214728
 21
-116.9803712960
  0
LINE
  8
3
  6
CONTINUOUS
 62
6
 10
197.7159172298
 20
-116.9803712960
 11
200.3928214728
 21
-114.3034670530
  0
LINE
  8
3
  6
CONTINUOUS
 62
6
 10
230.2428291643
 20
-81.7765551184
 11
232.9197334074
 21
-84.4534593614
  0
LINE
  8
3
  6
CONTINUOUS
 62
6
 10
230.2428291643
 20
-84.4534593614
 11
232.9197334074
 21
-81.7765551184
  0
CIRCLE
  8
3
  6
CONTINUOUS
 62
6
 10
185.5812812859
 20
-83.1150072399
 40
2.6500000000
  0
CIRCLE
  8
3
  6
CONTINUOUS
 62
6
 10
153.0543693513
 20
-115.6419191745
 40
2.6500000000
  0
CIRCLE
  8
3
  6
CONTINUOUS
 62
6
 10
199.0543693513
 20
-115.6419191745
 40
2.6500000000
  0
CIRCLE
  8
3
  6
CONTINUOUS
 62
6
 10
231.5812812859
 20
-83.1150072399
 40
2.6500000000
  0
INSERT
  8
1
  6
CONTINUOUS
 62
5
  2
BALN6
 10
184.3874683405
 20
-80.7491436235
  0
INSERT
  8
1
  6
CONTINUOUS
 62
5
  2
BALN7
 10
230.3874683405
 20
-80.7491436235
  0
INSERT
  8
1
  6
CONTINUOUS
 62
5
  2
BALN8
 10
208.3511050565
 20
-80.8142186975
  0
TEXT
  8
5
  6
CONTINUOUS
 62
7
 10
315.656774
 20
-81.925955
 40
3.000000
  1
ﾋﾞｽ
 41
0.761957
 50
0.000000
 51
0.000000
 72
   5
 73
   0
 11
319.862774
 21
-81.925955
  0
TEXT
  8
5
  6
CONTINUOUS
 62
7
 10
310.656774
 20
-81.925955
 40
3.000000
  1
92
 41
0.854701
 50
0.000000
 51
0.000000
 72
   5
 73
   0
 11
313.656774
 21
-81.925955
  0
TEXT
  8
5
  6
CONTINUOUS
 62
7
 10
335.656774
 20
-81.925955
 40
3.000000
  1
M3×8 ｻﾗ
 41
0.850598
 50
0.000000
 51
0.000000
 72
   5
 73
   0
 11
348.466774
 21
-81.925955
  0
TEXT
  8
5
  6
CONTINUOUS
 62
7
 10
375.656774
 20
-81.925955
 40
3.000000
  1
--
 41
0.854701
 50
0.000000
 51
0.000000
 72
   5
 73
   0
 11
378.656774
 21
-81.925955
  0
TEXT
  8
5
  6
CONTINUOUS
 62
7
 10
391.281774
 20
-82.175955
 40
3.500000
  1
2
 41
1.000000
 50
0.000000
 51
0.000000
 72
   5
 73
   0
 11
393.031774
 21
-82.175955
  0
TEXT
  8
5
  6
CONTINUOUS
 62
7
 10
310.656774
 20
-104.425955
 40
3.000000
  1
94
 41
0.854701
 50
0.000000
 51
0.000000
 72
   5
 73
   0
 11
313.656774
 21
-104.425955
  0
TEXT
  8
5
  6
CONTINUOUS
 62
7
 10
315.656774
 20
-104.425955
 40
3.000000
  1
ﾋﾞｽ
 41
0.761957
 50
0.000000
 51
0.000000
 72
   5
 73
   0
 11
319.862774
 21
-104.425955
  0
TEXT
  8
5
  6
CONTINUOUS
 62
7
 10
335.656774
 20
-104.425955
 40
3.000000
  1
M3×8 ｻﾗ
 41
0.850598
 50
0.000000
 51
0.000000
 72
   5
 73
   0
 11
348.466774
 21
-104.425955
  0
TEXT
  8
5
  6
CONTINUOUS
 62
7
 10
375.656774
 20
-104.425955
 40
3.000000
  1
--
 41
0.854701
 50
0.000000
 51
0.000000
 72
   5
 73
   0
 11
378.656774
 21
-104.425955
  0
TEXT
  8
5
  6
CONTINUOUS
 62
7
 10
391.281774
 20
-104.675955
 40
3.500000
  1
2
 41
1.000000
 50
0.000000
 51
0.000000
 72
   5
 73
   0
 11
393.031774
 21
-104.675955
  0
TEXT
  8
5
  6
CONTINUOUS
 62
7
 10
335.656774
 20
-87.425955
 40
4.000000
  1
Z0252
 41
0.806918
 50
0.000000
 51
0.000000
 72
   5
 73
   0
 11
345.920774
 21
-87.425955
  0
TEXT
  8
5
  6
CONTINUOUS
 62
7
 10
315.656774
 20
-86.925955
 40
3.000000
  1
裏面ｶﾊﾞｰ
 41
0.843299
 50
0.000000
 51
0.000000
 72
   5
 73
   0
 11
327.926774
 21
-86.925955
  0
TEXT
  8
5
  6
CONTINUOUS
 62
7
 10
375.656774
 20
-86.825955
 40
2.800000
  1
ｱﾒﾘｶﾝ電機
 41
0.862681
 50
0.000000
 51
0.000000
 72
   5
 73
   0
 11
388.990374
 21
-86.825955
  0
TEXT
  8
5
  6
CONTINUOUS
 62
7
 10
391.281774
 20
-87.175955
 40
3.500000
  1
1
 41
1.000000
 50
0.000000
 51
0.000000
 72
   5
 73
   0
 11
393.031774
 21
-87.175955
  0
TEXT
  8
5
  6
CONTINUOUS
 62
7
 10
335.656774
 20
-109.925955
 40
4.000000
  1
Z0252
 41
0.806918
 50
0.000000
 51
0.000000
 72
   5
 73
   0
 11
345.920774
 21
-109.925955
  0
TEXT
  8
5
  6
CONTINUOUS
 62
7
 10
315.656774
 20
-109.425955
 40
3.000000
  1
裏面ｶﾊﾞｰ
 41
0.843299
 50
0.000000
 51
0.000000
 72
   5
 73
   0
 11
327.926774
 21
-109.425955
  0
TEXT
  8
5
  6
CONTINUOUS
 62
7
 10
375.656774
 20
-109.325955
 40
2.800000
  1
ｱﾒﾘｶﾝ電機
 41
0.862681
 50
0.000000
 51
0.000000
 72
   5
 73
   0
 11
388.990374
 21
-109.325955
  0
TEXT
  8
5
  6
CONTINUOUS
 62
7
 10
391.281774
 20
-109.675955
 40
3.500000
  1
1
 41
1.000000
 50
0.000000
 51
0.000000
 72
   5
 73
   0
 11
393.031774
 21
-109.675955
  0
LINE
  8
3
  6
CONTINUOUS
 62
7
 10
277.8178253186
 20
-77.8784632072
 11
244.8178253186
 21
-77.8784632072
  0
LINE
  8
3
  6
CONTINUOUS
 62
7
 10
282.8178253186
 20
-82.8784632072
 11
282.8178253186
 21
-115.8784632072
  0
LINE
  8
3
  6
CONTINUOUS
 62
7
 10
277.8178253186
 20
-120.8784632072
 11
244.8178253186
 21
-120.8784632072
  0
LINE
  8
3
  6
CONTINUOUS
 62
7
 10
239.8178253186
 20
-115.8784632072
 11
239.8178253186
 21
-82.8784632072
  0
TEXT
  8
3
  6
CONTINUOUS
 62
7
 10
255.067825
 20
-128.878463
 40
5.000000
  1
A2
 41
0.854701
 50
0.000000
 51
0.000000
 72
   5
 73
   0
 11
260.067825
 21
-128.878463
  0
TEXT
  8
3
  6
CONTINUOUS
 62
7
 10
255.067825
 20
-133.878463
 40
5.000000
  1
ﾌﾞﾗﾝｸ
 41
0.786164
 50
0.000000
 51
0.000000
 72
   5
 73
   0
 11
267.567825
 21
-133.878463
  0
LINE
  8
3
  6
CONTINUOUS
 62
6
 10
243.7159172298
 20
-114.3034670530
 11
246.3928214728
 21
-116.9803712960
  0
LINE
  8
3
  6
CONTINUOUS
 62
6
 10
243.7159172298
 20
-116.9803712960
 11
246.3928214728
 21
-114.3034670530
  0
LINE
  8
3
  6
CONTINUOUS
 62
6
 10
276.2428291643
 20
-81.7765551184
 11
278.9197334074
 21
-84.4534593614
  0
LINE
  8
3
  6
CONTINUOUS
 62
6
 10
276.2428291643
 20
-84.4534593614
 11
278.9197334074
 21
-81.7765551184
  0
CIRCLE
  8
3
  6
CONTINUOUS
 62
6
 10
245.0543693513
 20
-115.6419191745
 40
2.6500000000
  0
CIRCLE
  8
3
  6
CONTINUOUS
 62
6
 10
277.5812812859
 20
-83.1150072399
 40
2.6500000000
  0
INSERT
  8
1
  6
CONTINUOUS
 62
5
  2
BALN9
 10
276.3874683405
 20
-80.7491436235
  0
INSERT
  8
1
  6
CONTINUOUS
 62
5
  2
BALN10
 10
254.3511050565
 20
-80.8142186975
  0
ARC
  8
1
  6
CONTINUOUS
 62
7
 10
244.8178253186
 20
-82.8784632072
 40
5.0000000000
 50
90.0000000000
 51
180.0000000000
  0
ARC
  8
1
  6
CONTINUOUS
 62
7
 10
244.8178253186
 20
-115.8784632072
 40
5.0000000000
 50
180.0000000000
 51
270.0000000000
  0
ARC
  8
1
  6
CONTINUOUS
 62
7
 10
277.8178253186
 20
-115.8784632072
 40
5.0000000000
 50
270.0000000000
 51
0.0000000000
  0
ARC
  8
1
  6
CONTINUOUS
 62
7
 10
277.8178253186
 20
-82.8784632072
 40
5.0000000000
 50
0.0000000000
 51
90.0000000000
  0
LINE
  8
5
  6
CONTINUOUS
 62
6
 10
309.6567742348
 20
-117.9259553293
 11
309.6567742348
 21
-112.9259553293
  0
LINE
  8
5
  6
CONTINUOUS
 62
6
 10
309.6567742348
 20
-112.9259553293
 11
314.6567742348
 21
-112.9259553293
  0
LINE
  8
5
  6
CONTINUOUS
 62
6
 10
314.6567742348
 20
-112.9259553293
 11
334.6567742348
 21
-112.9259553293
  0
LINE
  8
5
  6
CONTINUOUS
 62
6
 10
334.6567742348
 20
-112.9259553293
 11
374.6567742348
 21
-112.9259553293
  0
LINE
  8
5
  6
CONTINUOUS
 62
6
 10
374.6567742348
 20
-112.9259553293
 11
389.6567742348
 21
-112.9259553293
  0
LINE
  8
5
  6
CONTINUOUS
 62
6
 10
389.6567742348
 20
-112.9259553293
 11
394.6567742348
 21
-112.9259553293
  0
LINE
  8
5
  6
CONTINUOUS
 62
6
 10
394.6567742348
 20
-112.9259553293
 11
394.6567742348
 21
-117.9259553293
  0
LINE
  8
5
  6
CONTINUOUS
 62
6
 10
394.6567742348
 20
-117.9259553293
 11
389.6567742348
 21
-117.9259553293
  0
LINE
  8
5
  6
CONTINUOUS
 62
6
 10
389.6567742348
 20
-117.9259553293
 11
374.6567742348
 21
-117.9259553293
  0
LINE
  8
5
  6
CONTINUOUS
 62
6
 10
374.6567742348
 20
-117.9259553293
 11
334.6567742348
 21
-117.9259553293
  0
LINE
  8
5
  6
CONTINUOUS
 62
6
 10
334.6567742348
 20
-117.9259553293
 11
314.6567742348
 21
-117.9259553293
  0
LINE
  8
5
  6
CONTINUOUS
 62
6
 10
314.6567742348
 20
-117.9259553293
 11
309.6567742348
 21
-117.9259553293
  0
LINE
  8
5
  6
CONTINUOUS
 62
6
 10
314.6567742348
 20
-112.9259553293
 11
314.6567742348
 21
-117.9259553293
  0
LINE
  8
5
  6
CONTINUOUS
 62
6
 10
334.6567742348
 20
-112.9259553293
 11
334.6567742348
 21
-117.9259553293
  0
LINE
  8
5
  6
CONTINUOUS
 62
6
 10
374.6567742348
 20
-112.9259553293
 11
374.6567742348
 21
-117.9259553293
  0
LINE
  8
5
  6
CONTINUOUS
 62
6
 10
389.6567742348
 20
-112.9259553293
 11
389.6567742348
 21
-117.9259553293
  0
TEXT
  8
5
  6
CONTINUOUS
 62
7
 10
309.856774
 20
-116.575955
 40
2.300000
  1
項番
 41
0.921659
 50
0.000000
 51
0.000000
 72
   5
 73
   0
 11
314.456774
 21
-116.575955
  0
TEXT
  8
5
  6
CONTINUOUS
 62
7
 10
319.664774
 20
-116.925955
 40
3.000000
  1
品　　名
 41
0.737916
 50
0.000000
 51
0.000000
 72
   5
 73
   0
 11
329.648774
 21
-116.925955
  0
TEXT
  8
5
  6
CONTINUOUS
 62
7
 10
339.503774
 20
-116.925955
 40
3.000000
  1
定  格 / 型  番 / 材　質
 41
0.686277
 50
0.000000
 51
0.000000
 72
   5
 73
   0
 11
369.809774
 21
-116.925955
  0
TEXT
  8
5
  6
CONTINUOUS
 62
7
 10
376.959274
 20
-116.925955
 40
3.000000
  1
メーカー
 41
0.768293
 50
0.000000
 51
0.000000
 72
   5
 73
   0
 11
387.354274
 21
-116.925955
  0
TEXT
  8
5
  6
CONTINUOUS
 62
7
 10
389.856774
 20
-116.575955
 40
2.300000
  1
数量
 41
0.921659
 50
0.000000
 51
0.000000
 72
   5
 73
   0
 11
394.456774
 21
-116.575955
  0
LINE
  8
5
  6
CONTINUOUS
 62
6
 10
309.6567742348
 20
-122.9259553293
 11
309.6567742348
 21
-117.9259553293
  0
LINE
  8
5
  6
CONTINUOUS
 62
6
 10
309.6567742348
 20
-117.9259553293
 11
314.6567742348
 21
-117.9259553293
  0
LINE
  8
5
  6
CONTINUOUS
 62
6
 10
314.6567742348
 20
-117.9259553293
 11
334.6567742348
 21
-117.9259553293
  0
LINE
  8
5
  6
CONTINUOUS
 62
6
 10
334.6567742348
 20
-117.9259553293
 11
374.6567742348
 21
-117.9259553293
  0
LINE
  8
5
  6
CONTINUOUS
 62
6
 10
374.6567742348
 20
-117.9259553293
 11
389.6567742348
 21
-117.9259553293
  0
LINE
  8
5
  6
CONTINUOUS
 62
6
 10
389.6567742348
 20
-117.9259553293
 11
394.6567742348
 21
-117.9259553293
  0
LINE
  8
5
  6
CONTINUOUS
 62
6
 10
394.6567742348
 20
-117.9259553293
 11
394.6567742348
 21
-122.9259553293
  0
LINE
  8
5
  6
CONTINUOUS
 62
6
 10
394.6567742348
 20
-122.9259553293
 11
389.6567742348
 21
-122.9259553293
  0
LINE
  8
5
  6
CONTINUOUS
 62
6
 10
389.6567742348
 20
-122.9259553293
 11
374.6567742348
 21
-122.9259553293
  0
LINE
  8
5
  6
CONTINUOUS
 62
6
 10
374.6567742348
 20
-122.9259553293
 11
334.6567742348
 21
-122.9259553293
  0
LINE
  8
5
  6
CONTINUOUS
 62
6
 10
334.6567742348
 20
-122.9259553293
 11
314.6567742348
 21
-122.9259553293
  0
LINE
  8
5
  6
CONTINUOUS
 62
6
 10
314.6567742348
 20
-122.9259553293
 11
309.6567742348
 21
-122.9259553293
  0
LINE
  8
5
  6
CONTINUOUS
 62
6
 10
314.6567742348
 20
-117.9259553293
 11
314.6567742348
 21
-122.9259553293
  0
LINE
  8
5
  6
CONTINUOUS
 62
6
 10
334.6567742348
 20
-117.9259553293
 11
334.6567742348
 21
-122.9259553293
  0
LINE
  8
5
  6
CONTINUOUS
 62
6
 10
374.6567742348
 20
-117.9259553293
 11
374.6567742348
 21
-122.9259553293
  0
LINE
  8
5
  6
CONTINUOUS
 62
6
 10
389.6567742348
 20
-117.9259553293
 11
389.6567742348
 21
-122.9259553293
  0
TEXT
  8
5
  6
CONTINUOUS
 62
7
 10
310.656774
 20
-121.925955
 40
3.000000
  1
95
 41
0.854701
 50
0.000000
 51
0.000000
 72
   5
 73
   0
 11
313.656774
 21
-121.925955
  0
TEXT
  8
5
  6
CONTINUOUS
 62
7
 10
315.656774
 20
-121.925955
 40
3.000000
  1
ﾌﾞﾗﾝｸﾊﾟﾈﾙ
 41
0.789932
 50
0.000000
 51
0.000000
 72
   5
 73
   0
 11
329.543774
 21
-121.925955
  0
TEXT
  8
5
  6
CONTINUOUS
 62
7
 10
335.656774
 20
-122.425955
 40
4.000000
  1
M0051B303A
 41
0.765697
 50
0.000000
 51
0.000000
 72
   5
 73
   0
 11
355.656774
 21
-122.425955
  0
TEXT
  8
5
  6
CONTINUOUS
 62
7
 10
391.281774
 20
-122.175955
 40
3.500000
  1
1
 41
1.000000
 50
0.000000
 51
0.000000
 72
   5
 73
   0
 11
393.031774
 21
-122.175955
  0
LINE
  8
5
  6
CONTINUOUS
 62
6
 10
394.6567742348
 20
-127.9259553293
 11
389.6567742348
 21
-127.9259553293
  0
LINE
  8
5
  6
CONTINUOUS
 62
6
 10
389.6567742348
 20
-127.9259553293
 11
374.6567742348
 21
-127.9259553293
  0
LINE
  8
5
  6
CONTINUOUS
 62
6
 10
374.6567742348
 20
-127.9259553293
 11
334.6567742348
 21
-127.9259553293
  0
LINE
  8
5
  6
CONTINUOUS
 62
6
 10
334.6567742348
 20
-127.9259553293
 11
314.6567742348
 21
-127.9259553293
  0
LINE
  8
5
  6
CONTINUOUS
 62
6
 10
314.6567742348
 20
-127.9259553293
 11
309.6567742348
 21
-127.9259553293
  0
TEXT
  8
5
  6
CONTINUOUS
 62
7
 10
310.656774
 20
-131.925955
 40
3.000000
  1
--
 41
0.854701
 50
0.000000
 51
0.000000
 72
   5
 73
   0
 11
313.656774
 21
-131.925955
  0
LINE
  8
5
  6
CONTINUOUS
 62
6
 10
309.6567742348
 20
-127.9259553293
 11
309.6567742348
 21
-122.9259553293
  0
LINE
  8
5
  6
CONTINUOUS
 62
6
 10
309.6567742348
 20
-132.9259553293
 11
309.6567742348
 21
-127.9259553293
  0
LINE
  8
5
  6
CONTINUOUS
 62
6
 10
314.6567742348
 20
-122.9259553293
 11
314.6567742348
 21
-127.9259553293
  0
LINE
  8
5
  6
CONTINUOUS
 62
6
 10
314.6567742348
 20
-127.9259553293
 11
314.6567742348
 21
-132.9259553293
  0
LINE
  8
5
  6
CONTINUOUS
 62
6
 10
334.6567742348
 20
-122.9259553293
 11
334.6567742348
 21
-127.9259553293
  0
LINE
  8
5
  6
CONTINUOUS
 62
6
 10
334.6567742348
 20
-127.9259553293
 11
334.6567742348
 21
-132.9259553293
  0
LINE
  8
5
  6
CONTINUOUS
 62
6
 10
374.6567742348
 20
-122.9259553293
 11
374.6567742348
 21
-127.9259553293
  0
LINE
  8
5
  6
CONTINUOUS
 62
6
 10
374.6567742348
 20
-127.9259553293
 11
374.6567742348
 21
-132.9259553293
  0
LINE
  8
5
  6
CONTINUOUS
 62
6
 10
389.6567742348
 20
-122.9259553293
 11
389.6567742348
 21
-127.9259553293
  0
LINE
  8
5
  6
CONTINUOUS
 62
6
 10
389.6567742348
 20
-127.9259553293
 11
389.6567742348
 21
-132.9259553293
  0
LINE
  8
5
  6
CONTINUOUS
 62
6
 10
394.6567742348
 20
-122.9259553293
 11
394.6567742348
 21
-127.9259553293
  0
LINE
  8
5
  6
CONTINUOUS
 62
6
 10
394.6567742348
 20
-127.9259553293
 11
394.6567742348
 21
-132.9259553293
  0
LINE
  8
5
  6
CONTINUOUS
 62
6
 10
299.6567742348
 20
-117.9259553293
 11
299.6567742348
 21
-112.9259553293
  0
LINE
  8
5
  6
CONTINUOUS
 62
6
 10
299.6567742348
 20
-112.9259553293
 11
309.6567742348
 21
-112.9259553293
  0
LINE
  8
5
  6
CONTINUOUS
 62
6
 10
309.6567742348
 20
-117.9259553293
 11
304.6567742348
 21
-117.9259553293
  0
LINE
  8
5
  6
CONTINUOUS
 62
6
 10
309.6567742348
 20
-112.9259553293
 11
309.6567742348
 21
-117.9259553293
  0
TEXT
  8
5
  6
CONTINUOUS
 62
7
 10
302.194993
 20
-116.925955
 40
3.000000
  1
型番
 41
0.921659
 50
0.000000
 51
0.000000
 72
   5
 73
   0
 11
308.194993
 21
-116.925955
  0
LINE
  8
5
  6
CONTINUOUS
 62
6
 10
299.6567742348
 20
-122.9259553293
 11
299.6567742348
 21
-117.9259553293
  0
LINE
  8
5
  6
CONTINUOUS
 62
6
 10
299.6567742348
 20
-117.9259553293
 11
309.6567742348
 21
-117.9259553293
  0
LINE
  8
5
  6
CONTINUOUS
 62
6
 10
309.6567742348
 20
-117.9259553293
 11
309.6567742348
 21
-122.9259553293
  0
TEXT
  8
5
  6
CONTINUOUS
 62
7
 10
302.928993
 20
-122.425955
 40
4.000000
  1
A2
 41
0.968376
 50
0.000000
 51
0.000000
 72
   5
 73
   0
 11
307.460993
 21
-122.425955
  0
LINE
  8
5
  6
CONTINUOUS
 62
6
 10
299.6567742348
 20
-127.9259553293
 11
299.6567742348
 21
-122.9259553293
  0
LINE
  8
5
  6
CONTINUOUS
 62
6
 10
299.6567742348
 20
-132.9259553293
 11
299.6567742348
 21
-127.9259553293
  0
LINE
  8
5
  6
CONTINUOUS
 62
6
 10
309.6567742348
 20
-122.9259553293
 11
309.6567742348
 21
-127.9259553293
  0
LINE
  8
5
  6
CONTINUOUS
 62
6
 10
309.6567742348
 20
-127.9259553293
 11
309.6567742348
 21
-132.9259553293
  0
LINE
  8
5
  6
CONTINUOUS
 62
6
 10
394.6567742348
 20
-132.9259553293
 11
389.6567742348
 21
-132.9259553293
  0
LINE
  8
5
  6
CONTINUOUS
 62
6
 10
389.6567742348
 20
-132.9259553293
 11
374.6567742348
 21
-132.9259553293
  0
LINE
  8
5
  6
CONTINUOUS
 62
6
 10
374.6567742348
 20
-132.9259553293
 11
334.6567742348
 21
-132.9259553293
  0
LINE
  8
5
  6
CONTINUOUS
 62
6
 10
334.6567742348
 20
-132.9259553293
 11
314.6567742348
 21
-132.9259553293
  0
LINE
  8
5
  6
CONTINUOUS
 62
6
 10
314.6567742348
 20
-132.9259553293
 11
309.6567742348
 21
-132.9259553293
  0
LINE
  8
5
  6
CONTINUOUS
 62
6
 10
309.6567742348
 20
-132.9259553293
 11
299.6567742348
 21
-132.9259553293
  0
TEXT
  8
5
  6
CONTINUOUS
 62
7
 10
375.656774
 20
-121.925955
 40
3.000000
  1
MADOKA
 41
1.028831
 50
0.000000
 51
0.000000
 72
   5
 73
   0
 11
387.539774
 21
-121.925955
  0
TEXT
  8
5
  6
CONTINUOUS
 62
7
 10
310.656774
 20
-126.925955
 40
3.000000
  1
96
 41
0.854701
 50
0.000000
 51
0.000000
 72
   5
 73
   0
 11
313.656774
 21
-126.925955
  0
TEXT
  8
5
  6
CONTINUOUS
 62
7
 10
315.656774
 20
-126.925955
 40
3.000000
  1
ﾋﾞｽ
 41
0.761957
 50
0.000000
 51
0.000000
 72
   5
 73
   0
 11
319.862774
 21
-126.925955
  0
TEXT
  8
5
  6
CONTINUOUS
 62
7
 10
335.656774
 20
-126.925955
 40
3.000000
  1
M3×8 小ワｾﾑｽ
 41
0.863014
 50
0.000000
 51
0.000000
 72
   5
 73
   0
 11
356.446774
 21
-126.925955
  0
TEXT
  8
5
  6
CONTINUOUS
 62
7
 10
375.656774
 20
-126.925955
 40
3.000000
  1
--
 41
0.854701
 50
0.000000
 51
0.000000
 72
   5
 73
   0
 11
378.656774
 21
-126.925955
  0
TEXT
  8
5
  6
CONTINUOUS
 62
7
 10
391.281774
 20
-127.175955
 40
3.500000
  1
2
 41
1.000000
 50
0.000000
 51
0.000000
 72
   5
 73
   0
 11
393.031774
 21
-127.175955
  0
TEXT
  8
5
  6
CONTINUOUS
 62
7
 10
335.656774
 20
-132.425955
 40
4.000000
  1
--
 41
0.854701
 50
0.000000
 51
0.000000
 72
   5
 73
   0
 11
339.656774
 21
-132.425955
  0
TEXT
  8
5
  6
CONTINUOUS
 62
7
 10
315.656774
 20
-131.925955
 40
3.000000
  1
--
 41
0.854701
 50
0.000000
 51
0.000000
 72
   5
 73
   0
 11
318.656774
 21
-131.925955
  0
TEXT
  8
5
  6
CONTINUOUS
 62
7
 10
375.656774
 20
-131.825955
 40
2.800000
  1
--
 41
0.854701
 50
0.000000
 51
0.000000
 72
   5
 73
   0
 11
378.456774
 21
-131.825955
  0
TEXT
  8
5
  6
CONTINUOUS
 62
7
 10
390.406774
 20
-132.175955
 40
3.500000
  1
--
 41
0.854701
 50
0.000000
 51
0.000000
 72
   5
 73
   0
 11
393.906774
 21
-132.175955
  0
LINE
  8
4
  6
CONTINUOUS
 62
3
 10
323.7097392007
 20
172.6540475624
 11
376.7097392007
 21
172.6540475624
  0
LINE
  8
4
  6
CONTINUOUS
 62
3
 10
376.7097392007
 20
172.6540475624
 11
376.7097392007
 21
64.6540475624
  0
LINE
  8
4
  6
CONTINUOUS
 62
3
 10
323.7097392007
 20
64.6540475624
 11
323.7097392007
 21
172.6540475624
  0
LINE
  8
4
  6
CONTINUOUS
 62
3
 10
376.7097392007
 20
64.6540475624
 11
323.7097392007
 21
64.6540475624
  0
CIRCLE
  8
4
  6
CONTINUOUS
 62
3
 10
330.2097392007
 20
177.1540475624
 40
1.5000000000
  0
CIRCLE
  8
4
  6
CONTINUOUS
 62
3
 10
370.2097392007
 20
177.1540475624
 40
1.5000000000
  0
CIRCLE
  8
4
  6
CONTINUOUS
 62
3
 10
330.2097392007
 20
60.1540475624
 40
1.5000000000
  0
CIRCLE
  8
4
  6
CONTINUOUS
 62
3
 10
370.2097392007
 20
60.1540475624
 40
1.5000000000
  0
CIRCLE
  8
4
  6
CONTINUOUS
 62
3
 10
350.2097392007
 20
177.1540475624
 40
2.2500000000
  0
CIRCLE
  8
4
  6
CONTINUOUS
 62
3
 10
350.2097392007
 20
60.1540475624
 40
2.2500000000
  0
DIMENSION
  8
4
  6
CONTINUOUS
 62
5
  2
*D7
 10
330.2097392007
 20
183.8474963863
 11
326.9597392007
 21
186.5974963863
  70
0
 13
323.7097392007
 23
172.6540475624
 14
330.2097392007
 24
175.6540475624
 50
0.000000
  0
DIMENSION
  8
4
  6
CONTINUOUS
 62
5
  2
*D8
 10
350.2097392007
 20
183.8474963863
 11
340.2097392007
 21
186.5974963863
  70
0
 13
330.2097392007
 23
175.6540475624
 14
350.2097392007
 24
174.9040475624
 50
0.000000
  0
DIMENSION
  8
4
  6
CONTINUOUS
 62
5
  2
*D9
 10
370.2097392007
 20
183.8474963863
 11
360.2097392007
 21
186.5974963863
  70
0
 13
350.2097392007
 23
174.9040475624
 14
370.2097392007
 24
175.6540475624
 50
0.000000
  0
DIMENSION
  8
4
  6
CONTINUOUS
 62
5
  2
*D10
 10
376.7097392007
 20
183.8474963863
 11
373.4597392007
 21
186.5974963863
  70
0
 13
370.2097392007
 23
175.6540475624
 14
376.7097392007
 24
172.6540475624
 50
0.000000
  0
DIMENSION
  8
4
  6
CONTINUOUS
 62
5
  2
*D11
 10
376.7097392007
 20
190.8474963863
 11
350.2097392007
 21
193.5974963863
  70
0
 13
323.7097392007
 23
172.6540475624
 14
376.7097392007
 24
172.6540475624
 50
0.000000
  0
DIMENSION
  8
4
  6
CONTINUOUS
 62
5
  2
*D12
 10
329.3588695761
 20
178.3893697398
 11
332.4744965259
 21
178.7139752075
  70
3
 15
331.0606088253
 25
175.9187253850
  0
DIMENSION
  8
4
  6
CONTINUOUS
 62
5
  2
*D13
 10
348.8085413633
 20
178.9144863203
 11
352.3613865715
 21
178.8666226970
  70
3
 15
351.6109370382
 25
175.3936088045
  0
TEXT
  8
4
  6
CONTINUOUS
 62
7
 10
327.537763
 20
36.448135
 40
5.000000
  1
パネルカット図
 41
0.872818
 50
0.000000
 51
0.000000
 72
   5
 73
   0
 11
362.537763
 21
36.448135
  0
TEXT
  8
4
  6
CONTINUOUS
 62
7
 10
327.537763
 20
31.448135
 40
5.000000
  1
推奨板厚 t=1.6以上
 41
0.827967
 50
0.000000
 51
0.000000
 72
   5
 73
   0
 11
372.537763
 21
31.448135
  0
LINE
  8
1
  6
HIDDEN
 62
1
 10
384.7097392007
 20
44.4040475624
 11
384.7097392007
 21
199.9040475624
  0
LINE
  8
1
  6
HIDDEN
 62
1
 10
384.7097392007
 20
199.9040475624
 11
315.7097392007
 21
199.9040475624
  0
LINE
  8
1
  6
HIDDEN
 62
1
 10
315.7097392007
 20
199.9040475624
 11
315.7097392007
 21
44.4040475624
  0
LINE
  8
1
  6
HIDDEN
 62
1
 10
384.7097392007
 20
44.4040475624
 11
315.7097392007
 21
44.4040475624
  0
DIMENSION
  8
1
  6
CONTINUOUS
 62
5
  2
*D14
 10
311.5138729176
 20
64.6540475624
 11
309.0138729176
 21
62.4040475624
  70
0
 13
371.7097392007
 23
60.1540475624
 14
323.7097392007
 24
64.6540475624
 50
90.000000
  0
DIMENSION
  8
1
  6
CONTINUOUS
 62
5
  2
*D15
 10
311.5138729176
 20
172.6540475624
 11
308.7638729176
 21
118.6540475624
  70
0
 13
323.7097392007
 23
64.6540475624
 14
323.7097392007
 24
172.6540475624
 50
90.000000
  0
DIMENSION
  8
1
  6
CONTINUOUS
 62
5
  2
*D16
 10
311.5138729176
 20
177.1540475624
 11
309.0138729176
 21
174.9040475624
  70
0
 13
323.7097392007
 23
172.6540475624
 14
371.7097392007
 24
177.1540475624
 50
90.000000
  0
DIMENSION
  8
1
  6
CONTINUOUS
 62
5
  2
*D17
 10
304.5138729176
 20
177.1540475624
 11
301.7638729176
 21
118.6540475624
  70
0
 13
371.7097392007
 23
60.1540475624
 14
371.7097392007
 24
177.1540475624
 50
90.000000
  0
DIMENSION
  8
1
  6
CONTINUOUS
 62
5
  2
*D18
 10
392.3529732637
 20
64.6540475624
 11
389.6029732637
 21
54.5290475624
  70
0
 13
384.7097392007
 23
44.4040475624
 14
376.7097392007
 24
64.6540475624
 50
90.000000
  0
DIMENSION
  8
1
  6
CONTINUOUS
 62
5
  2
*D19
 10
392.3529732637
 20
172.6540475624
 11
389.6029732637
 21
118.6540475624
  70
0
 13
376.7097392007
 23
64.6540475624
 14
376.7097392007
 24
172.6540475624
 50
90.000000
  0
DIMENSION
  8
1
  6
CONTINUOUS
 62
5
  2
*D20
 10
392.3529732637
 20
199.9040475624
 11
389.6029732637
 21
186.2790475624
  70
0
 13
376.7097392007
 23
172.6540475624
 14
384.7097392007
 24
199.9040475624
 50
90.000000
  0
INSERT
  8
1
  6
CONTINUOUS
 62
5
  2
LTEX1
 10
328.5640805301
 20
44.4040475624
  0
LINE
  8
5
  6
CONTINUOUS
 62
6
 10
309.6567742348
 20
-154.3107273406
 11
309.6567742348
 21
-149.3107273406
  0
LINE
  8
5
  6
CONTINUOUS
 62
6
 10
309.6567742348
 20
-149.3107273406
 11
314.6567742348
 21
-149.3107273406
  0
LINE
  8
5
  6
CONTINUOUS
 62
6
 10
314.6567742348
 20
-149.3107273406
 11
334.6567742348
 21
-149.3107273406
  0
LINE
  8
5
  6
CONTINUOUS
 62
6
 10
334.6567742348
 20
-149.3107273406
 11
374.6567742348
 21
-149.3107273406
  0
LINE
  8
5
  6
CONTINUOUS
 62
6
 10
374.6567742348
 20
-149.3107273406
 11
389.6567742348
 21
-149.3107273406
  0
LINE
  8
5
  6
CONTINUOUS
 62
6
 10
389.6567742348
 20
-149.3107273406
 11
394.6567742348
 21
-149.3107273406
  0
LINE
  8
5
  6
CONTINUOUS
 62
6
 10
394.6567742348
 20
-149.3107273406
 11
394.6567742348
 21
-154.3107273406
  0
LINE
  8
5
  6
CONTINUOUS
 62
6
 10
394.6567742348
 20
-154.3107273406
 11
389.6567742348
 21
-154.3107273406
  0
LINE
  8
5
  6
CONTINUOUS
 62
6
 10
389.6567742348
 20
-154.3107273406
 11
374.6567742348
 21
-154.3107273406
  0
LINE
  8
5
  6
CONTINUOUS
 62
6
 10
374.6567742348
 20
-154.3107273406
 11
334.6567742348
 21
-154.3107273406
  0
LINE
  8
5
  6
CONTINUOUS
 62
6
 10
334.6567742348
 20
-154.3107273406
 11
314.6567742348
 21
-154.3107273406
  0
LINE
  8
5
  6
CONTINUOUS
 62
6
 10
314.6567742348
 20
-154.3107273406
 11
309.6567742348
 21
-154.3107273406
  0
LINE
  8
5
  6
CONTINUOUS
 62
6
 10
314.6567742348
 20
-149.3107273406
 11
314.6567742348
 21
-154.3107273406
  0
LINE
  8
5
  6
CONTINUOUS
 62
6
 10
334.6567742348
 20
-149.3107273406
 11
334.6567742348
 21
-154.3107273406
  0
LINE
  8
5
  6
CONTINUOUS
 62
6
 10
374.6567742348
 20
-149.3107273406
 11
374.6567742348
 21
-154.3107273406
  0
LINE
  8
5
  6
CONTINUOUS
 62
6
 10
389.6567742348
 20
-149.3107273406
 11
389.6567742348
 21
-154.3107273406
  0
TEXT
  8
5
  6
CONTINUOUS
 62
7
 10
309.856774
 20
-152.960727
 40
2.300000
  1
項番
 41
0.921659
 50
0.000000
 51
0.000000
 72
   5
 73
   0
 11
314.456774
 21
-152.960727
  0
TEXT
  8
5
  6
CONTINUOUS
 62
7
 10
319.664774
 20
-153.310727
 40
3.000000
  1
品　　名
 41
0.737916
 50
0.000000
 51
0.000000
 72
   5
 73
   0
 11
329.648774
 21
-153.310727
  0
TEXT
  8
5
  6
CONTINUOUS
 62
7
 10
339.503774
 20
-153.310727
 40
3.000000
  1
定  格 / 型  番 / 材　質
 41
0.686277
 50
0.000000
 51
0.000000
 72
   5
 73
   0
 11
369.809774
 21
-153.310727
  0
TEXT
  8
5
  6
CONTINUOUS
 62
7
 10
376.959274
 20
-153.310727
 40
3.000000
  1
メーカー
 41
0.768293
 50
0.000000
 51
0.000000
 72
   5
 73
   0
 11
387.354274
 21
-153.310727
  0
TEXT
  8
5
  6
CONTINUOUS
 62
7
 10
389.856774
 20
-152.960727
 40
2.300000
  1
数量
 41
0.921659
 50
0.000000
 51
0.000000
 72
   5
 73
   0
 11
394.456774
 21
-152.960727
  0
LINE
  8
5
  6
CONTINUOUS
 62
6
 10
309.6567742348
 20
-159.3107273406
 11
309.6567742348
 21
-154.3107273406
  0
LINE
  8
5
  6
CONTINUOUS
 62
6
 10
309.6567742348
 20
-154.3107273406
 11
314.6567742348
 21
-154.3107273406
  0
LINE
  8
5
  6
CONTINUOUS
 62
6
 10
314.6567742348
 20
-154.3107273406
 11
334.6567742348
 21
-154.3107273406
  0
LINE
  8
5
  6
CONTINUOUS
 62
6
 10
334.6567742348
 20
-154.3107273406
 11
374.6567742348
 21
-154.3107273406
  0
LINE
  8
5
  6
CONTINUOUS
 62
6
 10
374.6567742348
 20
-154.3107273406
 11
389.6567742348
 21
-154.3107273406
  0
LINE
  8
5
  6
CONTINUOUS
 62
6
 10
389.6567742348
 20
-154.3107273406
 11
394.6567742348
 21
-154.3107273406
  0
LINE
  8
5
  6
CONTINUOUS
 62
6
 10
394.6567742348
 20
-154.3107273406
 11
394.6567742348
 21
-159.3107273406
  0
LINE
  8
5
  6
CONTINUOUS
 62
6
 10
394.6567742348
 20
-159.3107273406
 11
389.6567742348
 21
-159.3107273406
  0
LINE
  8
5
  6
CONTINUOUS
 62
6
 10
389.6567742348
 20
-159.3107273406
 11
374.6567742348
 21
-159.3107273406
  0
LINE
  8
5
  6
CONTINUOUS
 62
6
 10
374.6567742348
 20
-159.3107273406
 11
334.6567742348
 21
-159.3107273406
  0
LINE
  8
5
  6
CONTINUOUS
 62
6
 10
334.6567742348
 20
-159.3107273406
 11
314.6567742348
 21
-159.3107273406
  0
LINE
  8
5
  6
CONTINUOUS
 62
6
 10
314.6567742348
 20
-159.3107273406
 11
309.6567742348
 21
-159.3107273406
  0
LINE
  8
5
  6
CONTINUOUS
 62
6
 10
314.6567742348
 20
-154.3107273406
 11
314.6567742348
 21
-159.3107273406
  0
LINE
  8
5
  6
CONTINUOUS
 62
6
 10
334.6567742348
 20
-154.3107273406
 11
334.6567742348
 21
-159.3107273406
  0
LINE
  8
5
  6
CONTINUOUS
 62
6
 10
374.6567742348
 20
-154.3107273406
 11
374.6567742348
 21
-159.3107273406
  0
LINE
  8
5
  6
CONTINUOUS
 62
6
 10
389.6567742348
 20
-154.3107273406
 11
389.6567742348
 21
-159.3107273406
  0
TEXT
  8
5
  6
CONTINUOUS
 62
7
 10
309.906774
 20
-158.310727
 40
3.000000
  1
101
 41
0.815217
 50
0.000000
 51
0.000000
 72
   5
 73
   0
 11
314.406774
 21
-158.310727
  0
LINE
  8
5
  6
CONTINUOUS
 62
6
 10
394.6567742348
 20
-164.3107273406
 11
389.6567742348
 21
-164.3107273406
  0
LINE
  8
5
  6
CONTINUOUS
 62
6
 10
389.6567742348
 20
-164.3107273406
 11
374.6567742348
 21
-164.3107273406
  0
LINE
  8
5
  6
CONTINUOUS
 62
6
 10
334.6567742348
 20
-164.3107273406
 11
314.6567742348
 21
-164.3107273406
  0
LINE
  8
5
  6
CONTINUOUS
 62
6
 10
314.6567742348
 20
-164.3107273406
 11
309.6567742348
 21
-164.3107273406
  0
TEXT
  8
5
  6
CONTINUOUS
 62
7
 10
309.906774
 20
-163.310727
 40
3.000000
  1
102
 41
0.815217
 50
0.000000
 51
0.000000
 72
   5
 73
   0
 11
314.406774
 21
-163.310727
  0
TEXT
  8
5
  6
CONTINUOUS
 62
7
 10
310.656774
 20
-168.310727
 40
3.000000
  1
--
 41
0.854701
 50
0.000000
 51
0.000000
 72
   5
 73
   0
 11
313.656774
 21
-168.310727
  0
TEXT
  8
5
  6
CONTINUOUS
 62
7
 10
315.656774
 20
-163.060727
 40
2.500000
  1
Mini DIN 6Pｹｰﾌﾞﾙ
 41
0.724265
 50
0.000000
 51
0.000000
 72
   5
 73
   0
 11
334.759274
 21
-163.060727
  0
TEXT
  8
5
  6
CONTINUOUS
 62
7
 10
315.656774
 20
-168.310727
 40
3.000000
  1
--
 41
0.854701
 50
0.000000
 51
0.000000
 72
   5
 73
   0
 11
318.656774
 21
-168.310727
  0
TEXT
  8
5
  6
CONTINUOUS
 62
7
 10
335.656774
 20
-168.560727
 40
3.500000
  1
**はｹｰﾌﾞﾙ長 [m]
 41
0.786164
 50
0.000000
 51
0.000000
 72
   5
 73
   0
 11
361.906774
 21
-168.560727
  0
TEXT
  8
5
  6
CONTINUOUS
 62
7
 10
390.406774
 20
-163.560727
 40
3.500000
  1
--
 41
0.854701
 50
0.000000
 51
0.000000
 72
   5
 73
   0
 11
393.906774
 21
-163.560727
  0
TEXT
  8
5
  6
CONTINUOUS
 62
7
 10
390.406774
 20
-168.560727
 40
3.500000
  1
--
 41
0.854701
 50
0.000000
 51
0.000000
 72
   5
 73
   0
 11
393.906774
 21
-168.560727
  0
LINE
  8
5
  6
CONTINUOUS
 62
6
 10
309.6567742348
 20
-164.3107273406
 11
309.6567742348
 21
-159.3107273406
  0
LINE
  8
5
  6
CONTINUOUS
 62
6
 10
309.6567742348
 20
-169.3107273406
 11
309.6567742348
 21
-164.3107273406
  0
LINE
  8
5
  6
CONTINUOUS
 62
6
 10
314.6567742348
 20
-159.3107273406
 11
314.6567742348
 21
-164.3107273406
  0
LINE
  8
5
  6
CONTINUOUS
 62
6
 10
314.6567742348
 20
-164.3107273406
 11
314.6567742348
 21
-184.3107273406
  0
LINE
  8
5
  6
CONTINUOUS
 62
6
 10
334.6567742348
 20
-159.3107273406
 11
334.6567742348
 21
-164.3107273406
  0
LINE
  8
5
  6
CONTINUOUS
 62
6
 10
334.6567742348
 20
-164.3107273406
 11
334.6567742348
 21
-184.3107273406
  0
LINE
  8
5
  6
CONTINUOUS
 62
6
 10
374.6567742348
 20
-159.3107273406
 11
374.6567742348
 21
-164.3107273406
  0
LINE
  8
5
  6
CONTINUOUS
 62
6
 10
374.6567742348
 20
-164.3107273406
 11
374.6567742348
 21
-184.3107273406
  0
LINE
  8
5
  6
CONTINUOUS
 62
6
 10
389.6567742348
 20
-159.3107273406
 11
389.6567742348
 21
-164.3107273406
  0
LINE
  8
5
  6
CONTINUOUS
 62
6
 10
389.6567742348
 20
-164.3107273406
 11
389.6567742348
 21
-184.3107273406
  0
LINE
  8
5
  6
CONTINUOUS
 62
6
 10
394.6567742348
 20
-159.3107273406
 11
394.6567742348
 21
-164.3107273406
  0
LINE
  8
5
  6
CONTINUOUS
 62
6
 10
394.6567742348
 20
-164.3107273406
 11
394.6567742348
 21
-184.3107273406
  0
TEXT
  8
5
  6
CONTINUOUS
 62
7
 10
335.656774
 20
-163.810727
 40
4.000000
  1
RMDH-SP-C-6-**
 41
0.760043
 50
0.000000
 51
0.000000
 72
   5
 73
   0
 11
363.656774
 21
-163.810727
  0
LINE
  8
5
  6
CONTINUOUS
 62
6
 10
299.6567742348
 20
-154.3107273406
 11
299.6567742348
 21
-149.3107273406
  0
LINE
  8
5
  6
CONTINUOUS
 62
6
 10
299.6567742348
 20
-149.3107273406
 11
309.6567742348
 21
-149.3107273406
  0
LINE
  8
5
  6
CONTINUOUS
 62
6
 10
309.6567742348
 20
-154.3107273406
 11
304.6567742348
 21
-154.3107273406
  0
LINE
  8
5
  6
CONTINUOUS
 62
6
 10
309.6567742348
 20
-149.3107273406
 11
309.6567742348
 21
-154.3107273406
  0
TEXT
  8
5
  6
CONTINUOUS
 62
7
 10
302.194993
 20
-153.310727
 40
3.000000
  1
型番
 41
0.921659
 50
0.000000
 51
0.000000
 72
   5
 73
   0
 11
308.194993
 21
-153.310727
  0
LINE
  8
5
  6
CONTINUOUS
 62
6
 10
299.6567742348
 20
-159.3107273406
 11
299.6567742348
 21
-154.3107273406
  0
LINE
  8
5
  6
CONTINUOUS
 62
6
 10
299.6567742348
 20
-154.3107273406
 11
309.6567742348
 21
-154.3107273406
  0
LINE
  8
5
  6
CONTINUOUS
 62
6
 10
309.6567742348
 20
-154.3107273406
 11
309.6567742348
 21
-159.3107273406
  0
TEXT
  8
5
  6
CONTINUOUS
 62
7
 10
301.003743
 20
-158.560727
 40
3.500000
  1
DI6**
 41
0.753145
 50
0.000000
 51
0.000000
 72
   5
 73
   0
 11
309.386243
 21
-158.560727
  0
LINE
  8
5
  6
CONTINUOUS
 62
6
 10
299.6567742348
 20
-164.3107273406
 11
299.6567742348
 21
-159.3107273406
  0
LINE
  8
5
  6
CONTINUOUS
 62
6
 10
299.6567742347
 20
-184.3107273406
 11
299.6567742348
 21
-164.3107273406
  0
LINE
  8
5
  6
CONTINUOUS
 62
6
 10
309.6567742348
 20
-159.3107273406
 11
309.6567742348
 21
-164.3107273406
  0
LINE
  8
5
  6
CONTINUOUS
 62
6
 10
309.6567742348
 20
-164.3107273406
 11
309.6567742348
 21
-184.3107273406
  0
LINE
  8
5
  6
CONTINUOUS
 62
6
 10
394.6567742348
 20
-179.3107273406
 11
389.6567742348
 21
-179.3107273406
  0
LINE
  8
5
  6
CONTINUOUS
 62
6
 10
389.6567742348
 20
-179.3107273406
 11
374.6567742348
 21
-179.3107273406
  0
LINE
  8
5
  6
CONTINUOUS
 62
6
 10
374.6567742348
 20
-179.3107273406
 11
334.6567742348
 21
-179.3107273406
  0
LINE
  8
5
  6
CONTINUOUS
 62
6
 10
334.6567742348
 20
-179.3107273406
 11
314.6567742348
 21
-179.3107273406
  0
LINE
  8
5
  6
CONTINUOUS
 62
6
 10
314.6567742348
 20
-179.3107273406
 11
309.6567742348
 21
-179.3107273406
  0
TEXT
  8
5
  6
CONTINUOUS
 62
7
 10
375.656774
 20
-168.310727
 40
3.000000
  1
--
 41
0.854701
 50
0.000000
 51
0.000000
 72
   5
 73
   0
 11
378.656774
 21
-168.310727
  0
TEXT
  8
5
  6
CONTINUOUS
 62
7
 10
375.656774
 20
-163.310727
 40
3.000000
  1
MISUMI
 41
0.836104
 50
0.000000
 51
0.000000
 72
   5
 73
   0
 11
385.313774
 21
-163.310727
  0
TEXT
  8
5
  6
CONTINUOUS
 62
7
 10
315.656774
 20
-158.060727
 40
2.500000
  1
DIN固定ﾌﾟﾚｰﾄ
 41
0.794157
 50
0.000000
 51
0.000000
 72
   5
 73
   0
 11
330.606774
 21
-158.060727
  0
TEXT
  8
5
  6
CONTINUOUS
 62
7
 10
335.656774
 20
-158.810727
 40
4.000000
  1
M0051B508A
 41
0.765697
 50
0.000000
 51
0.000000
 72
   5
 73
   0
 11
355.656774
 21
-158.810727
  0
TEXT
  8
5
  6
CONTINUOUS
 62
7
 10
375.656774
 20
-158.310727
 40
3.000000
  1
MADOKA
 41
1.028831
 50
0.000000
 51
0.000000
 72
   5
 73
   0
 11
387.539774
 21
-158.310727
  0
TEXT
  8
5
  6
CONTINUOUS
 62
7
 10
391.281774
 20
-158.560727
 40
3.500000
  1
1
 41
1.000000
 50
0.000000
 51
0.000000
 72
   5
 73
   0
 11
393.031774
 21
-158.560727
  0
ARC
  8
1
  6
HIDDEN
 62
5
 10
50.9710513175
 20
-190.4724546205
 40
7.0000000000
 50
120.0000000017
 51
239.9999999983
  0
ARC
  8
1
  6
HIDDEN
 62
5
 10
50.9710513175
 20
-190.4724546205
 40
7.0000000000
 50
299.9999999983
 51
60.0000000017
  0
ARC
  8
1
  6
CONTINUOUS
 62
5
 10
50.9710513175
 20
-190.4724546205
 40
3.7500000000
 50
12.3177659823
 51
118.3376489468
  0
ARC
  8
1
  6
CONTINUOUS
 62
5
 10
50.9710513175
 20
-190.4724546205
 40
3.7500000000
 50
138.1896851027
 51
221.8103148974
  0
ARC
  8
1
  6
CONTINUOUS
 62
5
 10
50.9710513175
 20
-190.4724546205
 40
3.7500000000
 50
241.6623510532
 51
347.6822340176
  0
LINE
  8
1
  6
CONTINUOUS
 62
5
 10
54.6347243380
 20
-189.6724546205
 11
53.6710513177
 21
-189.6724546205
  0
LINE
  8
1
  6
CONTINUOUS
 62
5
 10
53.6710513177
 20
-189.6724546205
 11
53.6710513177
 21
-191.2724546205
  0
LINE
  8
1
  6
CONTINUOUS
 62
5
 10
53.6710513177
 20
-191.2724546205
 11
54.6347243380
 21
-191.2724546205
  0
LINE
  8
1
  6
CONTINUOUS
 62
5
 10
49.1910513177
 20
-187.1718334668
 11
49.1910513177
 21
-187.9724546205
  0
LINE
  8
1
  6
CONTINUOUS
 62
5
 10
49.1910513177
 20
-187.9724546205
 11
48.1759663458
 21
-187.9724546205
  0
LINE
  8
1
  6
CONTINUOUS
 62
5
 10
49.1910513177
 20
-193.7730757742
 11
49.1910513177
 21
-192.9724546205
  0
LINE
  8
1
  6
CONTINUOUS
 62
5
 10
49.1910513177
 20
-192.9724546205
 11
48.1759663458
 21
-192.9724546205
  0
LINE
  8
1
  6
CONTINUOUS
 62
5
 10
53.1510513177
 20
-189.7624546205
 11
53.1510513177
 21
-191.1824546205
  0
LINE
  8
1
  6
CONTINUOUS
 62
5
 10
53.1510513177
 20
-191.1824546205
 11
50.9710513177
 21
-191.1824546205
  0
LINE
  8
1
  6
CONTINUOUS
 62
5
 10
50.9710513177
 20
-191.1824546205
 11
50.9710513177
 21
-189.7624546205
  0
LINE
  8
1
  6
CONTINUOUS
 62
5
 10
50.9710513177
 20
-189.7624546205
 11
53.1510513177
 21
-189.7624546205
  0
POINT
  8
1
  6
CONTINUOUS
 62
5
 10
50.9710513175
 20
-190.4724546205
  0
CIRCLE
  8
1
  6
CONTINUOUS
 62
5
 10
48.5810513177
 20
-191.4774546205
 40
0.4000000000
  0
CIRCLE
  8
1
  6
CONTINUOUS
 62
5
 10
48.5810513177
 20
-189.4674546205
 40
0.4000000000
  0
CIRCLE
  8
1
  6
CONTINUOUS
 62
5
 10
50.5610513177
 20
-187.9724546205
 40
0.4000000000
  0
CIRCLE
  8
1
  6
CONTINUOUS
 62
5
 10
50.5610513177
 20
-192.9724546205
 40
0.4000000000
  0
CIRCLE
  8
1
  6
CONTINUOUS
 62
5
 10
52.5710513177
 20
-188.4774546205
 40
0.4000000000
  0
CIRCLE
  8
1
  6
CONTINUOUS
 62
5
 10
52.5710513177
 20
-192.4674546205
 40
0.4000000000
  0
TEXT
  8
1
  6
CONTINUOUS
 62
5
 10
48.981051
 20
-191.227455
 40
1.000000
  1
1
 41
1.000000
 50
270.000000
 51
0.000000
 72
   5
 73
   0
 11
48.981051
 21
-191.727455
  0
TEXT
  8
1
  6
CONTINUOUS
 62
5
 10
48.981051
 20
-189.217455
 40
1.000000
  1
2
 41
1.000000
 50
270.000000
 51
0.000000
 72
   5
 73
   0
 11
48.981051
 21
-189.717455
  0
TEXT
  8
1
  6
CONTINUOUS
 62
5
 10
50.961051
 20
-187.722455
 40
1.000000
  1
4
 41
1.000000
 50
270.000000
 51
0.000000
 72
   5
 73
   0
 11
50.961051
 21
-188.222455
  0
TEXT
  8
1
  6
CONTINUOUS
 62
5
 10
50.961051
 20
-192.722455
 40
1.000000
  1
3
 41
1.000000
 50
270.000000
 51
0.000000
 72
   5
 73
   0
 11
50.961051
 21
-193.222455
  0
TEXT
  8
1
  6
CONTINUOUS
 62
5
 10
52.971051
 20
-192.217455
 40
1.000000
  1
5
 41
1.000000
 50
270.000000
 51
0.000000
 72
   5
 73
   0
 11
52.971051
 21
-192.717455
  0
TEXT
  8
1
  6
CONTINUOUS
 62
5
 10
52.971051
 20
-188.227455
 40
1.000000
  1
6
 41
1.000000
 50
270.000000
 51
0.000000
 72
   5
 73
   0
 11
52.971051
 21
-188.727455
  0
CIRCLE
  8
1
  6
CONTINUOUS
 62
5
 10
50.9710513175
 20
-190.4724546205
 40
4.9000000000
  0
CIRCLE
  8
1
  6
CONTINUOUS
 62
5
 10
50.9710513175
 20
-190.4724546205
 40
4.6000000000
  0
CIRCLE
  8
1
  6
CONTINUOUS
 62
5
 10
50.9710513173
 20
-178.8224546205
 40
1.6000000000
  0
POINT
  8
1
  6
CONTINUOUS
 62
5
 10
50.9710513173
 20
-178.8224546205
  0
ARC
  8
1
  6
HIDDEN
 62
5
 10
50.9710513173
 20
-179.1365171205
 40
3.5140625000
 50
5.1275404229
 51
174.8724595771
  0
CIRCLE
  8
1
  6
CONTINUOUS
 62
7
 10
50.9710513175
 20
-190.4724546205
 40
6.0000000000
  0
CIRCLE
  8
1
  6
CONTINUOUS
 62
5
 10
50.9710513173
 20
-202.1224546205
 40
1.6000000000
  0
POINT
  8
1
  6
CONTINUOUS
 62
5
 10
50.9710513173
 20
-202.1224546205
  0
ARC
  8
1
  6
HIDDEN
 62
5
 10
50.9710513173
 20
-201.8083921205
 40
3.5140625000
 50
185.1275404229
 51
354.8724595771
  0
LINE
  8
1
  6
HIDDEN
 62
5
 10
54.4710513173
 20
-202.1224546205
 11
54.4710513173
 21
-196.5346324470
  0
LINE
  8
1
  6
HIDDEN
 62
5
 10
54.4710513173
 20
-184.4102767940
 11
54.4710513173
 21
-178.8224546205
  0
LINE
  8
1
  6
HIDDEN
 62
5
 10
47.4710513173
 20
-178.8224546205
 11
47.4710513173
 21
-184.4102767940
  0
LINE
  8
1
  6
HIDDEN
 62
5
 10
47.4710513173
 20
-196.5346324470
 11
47.4710513173
 21
-202.1224546205
  0
LINE
  8
1
  6
HIDDEN
 62
7
 10
45.9710513166
 20
-205.1224546205
 11
45.9710513174
 21
-199.1224546205
  0
LINE
  8
1
  6
HIDDEN
 62
7
 10
46.9710513175
 20
-198.1224546205
 11
58.9710513173
 21
-198.1224546205
  0
LINE
  8
1
  6
HIDDEN
 62
7
 10
58.9710513173
 20
-198.1224546205
 11
58.9710513173
 21
-182.8224546205
  0
LINE
  8
1
  6
HIDDEN
 62
7
 10
58.9710513173
 20
-182.8224546205
 11
46.9710513170
 21
-182.8224546205
  0
LINE
  8
1
  6
HIDDEN
 62
7
 10
45.9710513170
 20
-181.8224546205
 11
45.9710513181
 21
-175.8224546205
  0
LINE
  8
1
  6
HIDDEN
 62
7
 10
46.9710513182
 20
-174.8224546205
 11
71.9710513169
 21
-174.8224546190
  0
LINE
  8
1
  6
HIDDEN
 62
7
 10
46.9710513166
 20
-206.1224546205
 11
71.9710513173
 21
-206.1224546203
  0
POINT
  8
1
  6
CONTINUOUS
 62
5
 10
65.9710513173
 20
-178.8224546205
  0
POINT
  8
1
  6
CONTINUOUS
 62
5
 10
65.9710513173
 20
-202.1224546205
  0
CIRCLE
  8
1
  6
HIDDEN
 62
7
 10
65.9710513173
 20
-202.1224546205
 40
1.5000000000
  0
CIRCLE
  8
1
  6
HIDDEN
 62
7
 10
65.9710513173
 20
-178.8224546205
 40
1.5000000000
  0
LINE
  8
1
  6
HIDDEN
 62
7
 10
72.9710513169
 20
-175.8224546189
 11
72.9710513173
 21
-205.1224546203
  0
LINE
  8
1
  6
HIDDEN
 62
7
 10
71.9710513169
 20
-174.8224546190
 11
72.9710513169
 21
-175.8224546189
  0
LINE
  8
1
  6
HIDDEN
 62
7
 10
46.9710513182
 20
-174.8224546205
 11
45.9710513181
 21
-175.8224546205
  0
LINE
  8
1
  6
HIDDEN
 62
7
 10
45.9710513170
 20
-181.8224546205
 11
46.9710513170
 21
-182.8224546205
  0
LINE
  8
1
  6
HIDDEN
 62
7
 10
45.9710513174
 20
-199.1224546205
 11
46.9710513175
 21
-198.1224546205
  0
LINE
  8
1
  6
HIDDEN
 62
7
 10
46.9710513166
 20
-206.1224546205
 11
45.9710513166
 21
-205.1224546205
  0
LINE
  8
1
  6
HIDDEN
 62
7
 10
71.9710513173
 20
-206.1224546203
 11
72.9710513173
 21
-205.1224546203
  0
INSERT
  8
1
  6
CONTINUOUS
 62
5
  2
LTEX2
 10
52.1369338609
 20
-181.5025859312
  0
POINT
  8
3
  6
CONTINUOUS
 62
7
 10
208.6605182328
 20
161.8525214537
  0
LINE
  8
3
  6
CONTINUOUS
 62
7
 10
200.1605182328
 20
173.3525214537
 11
217.1605182328
 21
173.3525214537
  0
LINE
  8
3
  6
CONTINUOUS
 62
7
 10
200.1605182328
 20
150.3525214537
 11
200.1605182328
 21
173.3525214537
  0
LINE
  8
3
  6
CONTINUOUS
 62
7
 10
217.1605182328
 20
150.3525214537
 11
200.1605182328
 21
150.3525214537
  0
LINE
  8
3
  6
CONTINUOUS
 62
7
 10
217.1605182328
 20
173.3525214537
 11
217.1605182328
 21
150.3525214537
  0
CIRCLE
  8
3
  6
CONTINUOUS
 62
7
 10
208.6605182328
 20
176.3525214537
 40
1.5000000000
  0
CIRCLE
  8
3
  6
CONTINUOUS
 62
7
 10
208.6605182328
 20
147.3525214537
 40
1.5000000000
  0
TEXT
  8
3
  6
CONTINUOUS
 62
7
 10
204.910518
 20
161.852521
 40
5.000000
  1
⑪
 41
1.000000
 50
0.000000
 51
0.000000
 72
   5
 73
   0
 11
209.910518
 21
161.852521
  0
TEXT
  8
3
  6
CONTINUOUS
 62
7
 10
204.910518
 20
156.852521
 40
5.000000
  1
USB
 41
0.815217
 50
0.000000
 51
0.000000
 72
   5
 73
   0
 11
212.410518
 21
156.852521
  0
ARC
  8
1
  6
CONTINUOUS
 62
5
 10
176.6605182328
 20
161.8525214537
 40
3.7500000000
 50
12.3177659823
 51
118.3376489468
  0
ARC
  8
1
  6
CONTINUOUS
 62
5
 10
176.6605182328
 20
161.8525214537
 40
3.7500000000
 50
138.1896851027
 51
221.8103148974
  0
ARC
  8
1
  6
CONTINUOUS
 62
5
 10
176.6605182328
 20
161.8525214537
 40
3.7500000000
 50
241.6623510532
 51
347.6822340176
  0
LINE
  8
1
  6
CONTINUOUS
 62
5
 10
180.3241912533
 20
162.6525214537
 11
179.3605182329
 21
162.6525214537
  0
LINE
  8
1
  6
CONTINUOUS
 62
5
 10
179.3605182329
 20
162.6525214537
 11
179.3605182329
 21
161.0525214537
  0
LINE
  8
1
  6
CONTINUOUS
 62
5
 10
179.3605182329
 20
161.0525214537
 11
180.3241912533
 21
161.0525214537
  0
LINE
  8
1
  6
CONTINUOUS
 62
5
 10
174.8805182329
 20
165.1531426073
 11
174.8805182329
 21
164.3525214537
  0
LINE
  8
1
  6
CONTINUOUS
 62
5
 10
174.8805182329
 20
164.3525214537
 11
173.8654332611
 21
164.3525214537
  0
LINE
  8
1
  6
CONTINUOUS
 62
5
 10
174.8805182329
 20
158.5519003000
 11
174.8805182329
 21
159.3525214537
  0
LINE
  8
1
  6
CONTINUOUS
 62
5
 10
174.8805182329
 20
159.3525214537
 11
173.8654332611
 21
159.3525214537
  0
LINE
  8
1
  6
CONTINUOUS
 62
5
 10
178.8405182329
 20
162.5625214537
 11
178.8405182329
 21
161.1425214537
  0
LINE
  8
1
  6
CONTINUOUS
 62
5
 10
178.8405182329
 20
161.1425214537
 11
176.6605182329
 21
161.1425214537
  0
LINE
  8
1
  6
CONTINUOUS
 62
5
 10
176.6605182329
 20
161.1425214537
 11
176.6605182329
 21
162.5625214537
  0
LINE
  8
1
  6
CONTINUOUS
 62
5
 10
176.6605182329
 20
162.5625214537
 11
178.8405182329
 21
162.5625214537
  0
POINT
  8
1
  6
CONTINUOUS
 62
5
 10
176.6605182328
 20
161.8525214537
  0
CIRCLE
  8
1
  6
CONTINUOUS
 62
5
 10
174.2705182329
 20
160.8475214537
 40
0.4000000000
  0
CIRCLE
  8
1
  6
CONTINUOUS
 62
5
 10
174.2705182329
 20
162.8575214537
 40
0.4000000000
  0
CIRCLE
  8
1
  6
CONTINUOUS
 62
5
 10
176.2505182329
 20
164.3525214537
 40
0.4000000000
  0
CIRCLE
  8
1
  6
CONTINUOUS
 62
5
 10
176.2505182329
 20
159.3525214537
 40
0.4000000000
  0
CIRCLE
  8
1
  6
CONTINUOUS
 62
5
 10
178.2605182329
 20
163.8475214537
 40
0.4000000000
  0
CIRCLE
  8
1
  6
CONTINUOUS
 62
5
 10
178.2605182329
 20
159.8575214537
 40
0.4000000000
  0
TEXT
  8
1
  6
CONTINUOUS
 62
5
 10
174.670518
 20
161.097521
 40
1.000000
  1
1
 41
1.000000
 50
270.000000
 51
0.000000
 72
   5
 73
   0
 11
174.670518
 21
160.597521
  0
TEXT
  8
1
  6
CONTINUOUS
 62
5
 10
174.670518
 20
163.107521
 40
1.000000
  1
2
 41
1.000000
 50
270.000000
 51
0.000000
 72
   5
 73
   0
 11
174.670518
 21
162.607521
  0
TEXT
  8
1
  6
CONTINUOUS
 62
5
 10
176.650518
 20
164.602521
 40
1.000000
  1
4
 41
1.000000
 50
270.000000
 51
0.000000
 72
   5
 73
   0
 11
176.650518
 21
164.102521
  0
TEXT
  8
1
  6
CONTINUOUS
 62
5
 10
176.650518
 20
159.602521
 40
1.000000
  1
3
 41
1.000000
 50
270.000000
 51
0.000000
 72
   5
 73
   0
 11
176.650518
 21
159.102521
  0
TEXT
  8
1
  6
CONTINUOUS
 62
5
 10
178.660518
 20
160.107521
 40
1.000000
  1
5
 41
1.000000
 50
270.000000
 51
0.000000
 72
   5
 73
   0
 11
178.660518
 21
159.607521
  0
TEXT
  8
1
  6
CONTINUOUS
 62
5
 10
178.660518
 20
164.097521
 40
1.000000
  1
6
 41
1.000000
 50
270.000000
 51
0.000000
 72
   5
 73
   0
 11
178.660518
 21
163.597521
  0
CIRCLE
  8
1
  6
CONTINUOUS
 62
5
 10
176.6605182328
 20
161.8525214537
 40
4.9000000000
  0
CIRCLE
  8
1
  6
CONTINUOUS
 62
5
 10
176.6605182328
 20
161.8525214537
 40
4.6000000000
  0
CIRCLE
  8
1
  6
CONTINUOUS
 62
5
 10
176.6605182326
 20
173.5025214537
 40
1.6000000000
  0
POINT
  8
1
  6
CONTINUOUS
 62
5
 10
176.6605182326
 20
173.5025214537
  0
CIRCLE
  8
1
  6
CONTINUOUS
 62
7
 10
176.6605182328
 20
161.8525214537
 40
6.0000000000
  0
CIRCLE
  8
1
  6
CONTINUOUS
 62
5
 10
176.6605182326
 20
150.2025214537
 40
1.6000000000
  0
POINT
  8
1
  6
CONTINUOUS
 62
5
 10
176.6605182326
 20
150.2025214537
  0
POINT
  8
1
  6
CONTINUOUS
 62
5
 10
191.6605182326
 20
173.5025214537
  0
POINT
  8
1
  6
CONTINUOUS
 62
5
 10
191.6605182326
 20
150.2025214537
  0
INSERT
  8
1
  6
CONTINUOUS
 62
5
  2
LTEX3
 10
174.2530218084
 20
165.1945205688
  0
ARC
  8
1
  6
HIDDEN
 62
5
 10
158.6753329230
 20
-176.4928923086
 40
7.0000000000
 50
120.0000000017
 51
239.9999999983
  0
ARC
  8
1
  6
HIDDEN
 62
5
 10
158.6753329230
 20
-176.4928923086
 40
7.0000000000
 50
299.9999999983
 51
60.0000000017
  0
ARC
  8
1
  6
CONTINUOUS
 62
5
 10
158.6753329230
 20
-176.4928923086
 40
3.7500000000
 50
12.3177659823
 51
118.3376489468
  0
ARC
  8
1
  6
CONTINUOUS
 62
5
 10
158.6753329230
 20
-176.4928923086
 40
3.7500000000
 50
138.1896851027
 51
221.8103148974
  0
ARC
  8
1
  6
CONTINUOUS
 62
5
 10
158.6753329230
 20
-176.4928923086
 40
3.7500000000
 50
241.6623510532
 51
347.6822340176
  0
LINE
  8
1
  6
CONTINUOUS
 62
5
 10
162.3390059435
 20
-175.6928923086
 11
161.3753329232
 21
-175.6928923086
  0
LINE
  8
1
  6
CONTINUOUS
 62
5
 10
161.3753329232
 20
-175.6928923086
 11
161.3753329232
 21
-177.2928923086
  0
LINE
  8
1
  6
CONTINUOUS
 62
5
 10
161.3753329232
 20
-177.2928923086
 11
162.3390059435
 21
-177.2928923086
  0
LINE
  8
1
  6
CONTINUOUS
 62
5
 10
156.8953329232
 20
-173.1922711549
 11
156.8953329232
 21
-173.9928923086
  0
LINE
  8
1
  6
CONTINUOUS
 62
5
 10
156.8953329232
 20
-173.9928923086
 11
155.8802479513
 21
-173.9928923086
  0
LINE
  8
1
  6
CONTINUOUS
 62
5
 10
156.8953329232
 20
-179.7935134623
 11
156.8953329232
 21
-178.9928923086
  0
LINE
  8
1
  6
CONTINUOUS
 62
5
 10
156.8953329232
 20
-178.9928923086
 11
155.8802479513
 21
-178.9928923086
  0
LINE
  8
1
  6
CONTINUOUS
 62
5
 10
160.8553329232
 20
-175.7828923086
 11
160.8553329232
 21
-177.2028923086
  0
LINE
  8
1
  6
CONTINUOUS
 62
5
 10
160.8553329232
 20
-177.2028923086
 11
158.6753329232
 21
-177.2028923086
  0
LINE
  8
1
  6
CONTINUOUS
 62
5
 10
158.6753329232
 20
-177.2028923086
 11
158.6753329232
 21
-175.7828923086
  0
LINE
  8
1
  6
CONTINUOUS
 62
5
 10
158.6753329232
 20
-175.7828923086
 11
160.8553329232
 21
-175.7828923086
  0
POINT
  8
1
  6
CONTINUOUS
 62
5
 10
158.6753329230
 20
-176.4928923086
  0
CIRCLE
  8
1
  6
CONTINUOUS
 62
5
 10
156.2853329232
 20
-177.4978923086
 40
0.4000000000
  0
CIRCLE
  8
1
  6
CONTINUOUS
 62
5
 10
156.2853329232
 20
-175.4878923086
 40
0.4000000000
  0
CIRCLE
  8
1
  6
CONTINUOUS
 62
5
 10
158.2653329232
 20
-173.9928923086
 40
0.4000000000
  0
CIRCLE
  8
1
  6
CONTINUOUS
 62
5
 10
158.2653329232
 20
-178.9928923086
 40
0.4000000000
  0
CIRCLE
  8
1
  6
CONTINUOUS
 62
5
 10
160.2753329232
 20
-174.4978923086
 40
0.4000000000
  0
CIRCLE
  8
1
  6
CONTINUOUS
 62
5
 10
160.2753329232
 20
-178.4878923086
 40
0.4000000000
  0
TEXT
  8
1
  6
CONTINUOUS
 62
5
 10
156.685333
 20
-177.247892
 40
1.000000
  1
1
 41
1.000000
 50
270.000000
 51
0.000000
 72
   5
 73
   0
 11
156.685333
 21
-177.747892
  0
TEXT
  8
1
  6
CONTINUOUS
 62
5
 10
156.685333
 20
-175.237892
 40
1.000000
  1
2
 41
1.000000
 50
270.000000
 51
0.000000
 72
   5
 73
   0
 11
156.685333
 21
-175.737892
  0
TEXT
  8
1
  6
CONTINUOUS
 62
5
 10
158.665333
 20
-173.742892
 40
1.000000
  1
4
 41
1.000000
 50
270.000000
 51
0.000000
 72
   5
 73
   0
 11
158.665333
 21
-174.242892
  0
TEXT
  8
1
  6
CONTINUOUS
 62
5
 10
158.665333
 20
-178.742892
 40
1.000000
  1
3
 41
1.000000
 50
270.000000
 51
0.000000
 72
   5
 73
   0
 11
158.665333
 21
-179.242892
  0
TEXT
  8
1
  6
CONTINUOUS
 62
5
 10
160.675333
 20
-178.237892
 40
1.000000
  1
5
 41
1.000000
 50
270.000000
 51
0.000000
 72
   5
 73
   0
 11
160.675333
 21
-178.737892
  0
TEXT
  8
1
  6
CONTINUOUS
 62
5
 10
160.675333
 20
-174.247892
 40
1.000000
  1
6
 41
1.000000
 50
270.000000
 51
0.000000
 72
   5
 73
   0
 11
160.675333
 21
-174.747892
  0
CIRCLE
  8
1
  6
CONTINUOUS
 62
5
 10
158.6753329230
 20
-176.4928923086
 40
4.9000000000
  0
CIRCLE
  8
1
  6
CONTINUOUS
 62
5
 10
158.6753329230
 20
-176.4928923086
 40
4.6000000000
  0
POINT
  8
1
  6
CONTINUOUS
 62
5
 10
158.6753329228
 20
-164.8428923086
  0
ARC
  8
1
  6
HIDDEN
 62
5
 10
158.6753329228
 20
-165.1569548086
 40
3.5140625000
 50
5.1275404229
 51
174.8724595771
  0
CIRCLE
  8
1
  6
CONTINUOUS
 62
7
 10
158.6753329230
 20
-176.4928923086
 40
6.0000000000
  0
POINT
  8
1
  6
CONTINUOUS
 62
5
 10
158.6753329228
 20
-188.1428923086
  0
ARC
  8
1
  6
HIDDEN
 62
5
 10
158.6753329228
 20
-187.8288298086
 40
3.5140625000
 50
185.1275404229
 51
354.8724595771
  0
LINE
  8
1
  6
HIDDEN
 62
5
 10
162.1753329228
 20
-188.1428923086
 11
162.1753329228
 21
-182.5550701351
  0
LINE
  8
1
  6
HIDDEN
 62
5
 10
162.1753329228
 20
-170.4307144821
 11
162.1753329228
 21
-164.8428923086
  0
LINE
  8
1
  6
HIDDEN
 62
5
 10
155.1753329228
 20
-164.8428923086
 11
155.1753329228
 21
-170.4307144821
  0
LINE
  8
1
  6
HIDDEN
 62
5
 10
155.1753329228
 20
-182.5550701351
 11
155.1753329228
 21
-188.1428923086
  0
LINE
  8
1
  6
HIDDEN
 62
7
 10
153.6753329221
 20
-191.1428923086
 11
153.6753329229
 21
-185.1428923086
  0
LINE
  8
1
  6
HIDDEN
 62
7
 10
154.6753329230
 20
-184.1428923086
 11
166.6753329228
 21
-184.1428923086
  0
LINE
  8
1
  6
HIDDEN
 62
7
 10
166.6753329228
 20
-184.1428923086
 11
166.6753329228
 21
-168.8428923086
  0
LINE
  8
1
  6
HIDDEN
 62
7
 10
166.6753329228
 20
-168.8428923086
 11
154.6753329225
 21
-168.8428923086
  0
LINE
  8
1
  6
HIDDEN
 62
7
 10
153.6753329225
 20
-167.8428923086
 11
153.6753329235
 21
-161.8428923086
  0
LINE
  8
1
  6
HIDDEN
 62
7
 10
154.6753329237
 20
-160.8428923086
 11
179.6753329224
 21
-160.8428923071
  0
LINE
  8
1
  6
HIDDEN
 62
7
 10
154.6753329221
 20
-192.1428923086
 11
179.6753329228
 21
-192.1428923084
  0
POINT
  8
1
  6
CONTINUOUS
 62
5
 10
173.6753329228
 20
-164.8428923086
  0
POINT
  8
1
  6
CONTINUOUS
 62
5
 10
173.6753329228
 20
-188.1428923086
  0
CIRCLE
  8
1
  6
HIDDEN
 62
7
 10
173.6753329228
 20
-188.1428923086
 40
1.5000000000
  0
CIRCLE
  8
1
  6
HIDDEN
 62
7
 10
173.6753329228
 20
-164.8428923086
 40
1.5000000000
  0
LINE
  8
1
  6
HIDDEN
 62
7
 10
180.6753329224
 20
-161.8428923070
 11
180.6753329228
 21
-191.1428923083
  0
LINE
  8
1
  6
HIDDEN
 62
7
 10
179.6753329224
 20
-160.8428923071
 11
180.6753329224
 21
-161.8428923070
  0
LINE
  8
1
  6
HIDDEN
 62
7
 10
154.6753329237
 20
-160.8428923086
 11
153.6753329235
 21
-161.8428923086
  0
LINE
  8
1
  6
HIDDEN
 62
7
 10
153.6753329225
 20
-167.8428923086
 11
154.6753329225
 21
-168.8428923086
  0
LINE
  8
1
  6
HIDDEN
 62
7
 10
153.6753329229
 20
-185.1428923086
 11
154.6753329230
 21
-184.1428923086
  0
LINE
  8
1
  6
HIDDEN
 62
7
 10
154.6753329221
 20
-192.1428923086
 11
153.6753329221
 21
-191.1428923086
  0
LINE
  8
1
  6
HIDDEN
 62
7
 10
179.6753329228
 20
-192.1428923084
 11
180.6753329228
 21
-191.1428923083
  0
LINE
  8
1
  6
CONTINUOUS
 62
5
 10
186.4311134095
 20
-171.5928923086
 11
192.7311134095
 21
-171.5928923086
  0
LINE
  8
1
  6
CONTINUOUS
 62
5
 10
192.7311134095
 20
-181.3928923086
 11
186.4311134095
 21
-181.3928923086
  0
LINE
  8
1
  6
CONTINUOUS
 62
5
 10
186.4311134095
 20
-181.3928923086
 11
186.4311134095
 21
-171.5928923086
  0
LINE
  8
1
  6
CONTINUOUS
 62
5
 10
192.7311134095
 20
-161.6428923086
 11
197.7311134095
 21
-161.6428923086
  0
LINE
  8
1
  6
CONTINUOUS
 62
5
 10
197.7311134095
 20
-161.6428923086
 11
197.7311134095
 21
-191.3428923086
  0
LINE
  8
1
  6
CONTINUOUS
 62
5
 10
197.7311134095
 20
-191.3428923086
 11
192.7311134095
 21
-191.3428923086
  0
LINE
  8
1
  6
CONTINUOUS
 62
5
 10
192.7311134095
 20
-191.3428923086
 11
192.7311134095
 21
-161.6428923086
  0
LINE
  8
1
  6
DASHDOT
 62
1
 10
199.7311134095
 20
-164.8428923086
 11
190.7311134095
 21
-164.8428923086
  0
LINE
  8
1
  6
HIDDEN
 62
5
 10
192.7311134095
 20
-166.4428923086
 11
197.7311134095
 21
-166.4428923086
  0
LINE
  8
1
  6
HIDDEN
 62
5
 10
197.7311134095
 20
-163.2428923086
 11
192.7311134095
 21
-163.2428923086
  0
LINE
  8
1
  6
DASHDOT
 62
1
 10
199.7311134095
 20
-188.1428923086
 11
190.7311134095
 21
-188.1428923086
  0
LINE
  8
1
  6
HIDDEN
 62
5
 10
192.7311134095
 20
-186.5428923086
 11
197.7311134095
 21
-186.5428923086
  0
LINE
  8
1
  6
HIDDEN
 62
5
 10
197.7311134095
 20
-189.7428923086
 11
192.7311134095
 21
-189.7428923086
  0
LINE
  8
1
  6
CONTINUOUS
 62
5
 10
197.7311134095
 20
-169.4928923086
 11
215.7311134095
 21
-169.4928923086
  0
LINE
  8
1
  6
CONTINUOUS
 62
5
 10
215.7311134095
 20
-169.4928923086
 11
215.7311134095
 21
-183.4928923086
  0
LINE
  8
1
  6
CONTINUOUS
 62
5
 10
215.7311134095
 20
-183.4928923086
 11
197.7311134095
 21
-183.4928923086
  0
LINE
  8
1
  6
CONTINUOUS
 62
5
 10
215.7311134095
 20
-171.7428923086
 11
218.7311134095
 21
-171.7428923086
  0
LINE
  8
1
  6
CONTINUOUS
 62
5
 10
218.7311134095
 20
-171.7428923086
 11
218.7311134095
 21
-181.2428923086
  0
LINE
  8
1
  6
CONTINUOUS
 62
5
 10
218.7311134095
 20
-181.2428923086
 11
215.7311134095
 21
-181.2428923086
  0
LINE
  8
1
  6
CONTINUOUS
 62
5
 10
218.7311134095
 20
-173.9928923086
 11
230.5545014011
 21
-173.9928923085
  0
LINE
  8
1
  6
CONTINUOUS
 62
5
 10
229.5018698221
 20
-178.9928923086
 11
218.7311134095
 21
-178.9928923086
  0
LINE
  8
1
  6
CONTINUOUS
 62
5
 10
237.0281856116
 20
-173.9928923086
 11
231.5545014011
 21
-173.9928923086
  0
LINE
  8
1
  6
CONTINUOUS
 62
5
 10
237.0281856116
 20
-178.9928923086
 11
230.5018698221
 21
-178.9928923086
  0
LINE
  8
1
  6
DIVIDE
 62
1
 10
231.0281856116
 20
-171.7428923086
 11
229.0281856116
 21
-181.2428923086
  0
LINE
  8
1
  6
DIVIDE
 62
1
 10
232.0281856116
 20
-171.7428923086
 11
230.0281856116
 21
-181.2428923086
  0
LINE
  8
1
  6
DASHDOT
 62
1
 10
295.1281856116
 20
-176.4928923086
 11
185.4311134095
 21
-176.4928923086
  0
POLYLINE
  8
1
  6
HIDDEN
 62
5
 66
     1
 70
     1
  0
VERTEX
  8
1
 10
206.7311134095
 20
-172.4928923086
 42
0.0868249479
  0
VERTEX
  8
1
 10
204.2714386341
 20
-172.9151835444
 42
0.0698492581
  0
VERTEX
  8
1
 10
202.8420261127
 20
-173.6644651837
 42
0.0849111615
  0
VERTEX
  8
1
 10
201.8117638587
 20
-174.7040379265
 42
0.1528339408
  0
VERTEX
  8
1
 10
201.2311134095
 20
-176.4928923086
 42
0.1528339408
  0
VERTEX
  8
1
 10
201.8117638587
 20
-178.2817466907
 42
0.0849111615
  0
VERTEX
  8
1
 10
202.8420261127
 20
-179.3213194335
 42
0.0698492581
  0
VERTEX
  8
1
 10
204.2714386341
 20
-180.0706010728
 42
0.0868249479
  0
VERTEX
  8
1
 10
206.7311134095
 20
-180.4928923086
 42
0.0868249479
  0
VERTEX
  8
1
 10
209.1907881848
 20
-180.0706010728
 42
0.0698492581
  0
VERTEX
  8
1
 10
210.6202007062
 20
-179.3213194335
 42
0.0849111615
  0
VERTEX
  8
1
 10
211.6504629602
 20
-178.2817466907
 42
0.1528339408
  0
VERTEX
  8
1
 10
212.2311134095
 20
-176.4928923086
 42
0.1528339408
  0
VERTEX
  8
1
 10
211.6504629602
 20
-174.7040379265
 42
0.0849111615
  0
VERTEX
  8
1
 10
210.6202007062
 20
-173.6644651837
 42
0.0698492581
  0
VERTEX
  8
1
 10
209.1907881848
 20
-172.9151835444
 42
0.0868249479
  0
SEQEND
  8
1
  0
INSERT
  8
1
  6
CONTINUOUS
 62
5
  2
BALN11
 10
112.1348058892
 20
202.0171741535
  0
INSERT
  8
1
  6
CONTINUOUS
 62
5
  2
BALN12
 10
131.0889601190
 20
214.9344220794
  0
INSERT
  8
1
  6
CONTINUOUS
 62
5
  2
BALN13
 10
173.9105182328
 20
197.3525214537
  0
INSERT
  8
1
  6
CONTINUOUS
 62
5
  2
BALN14
 10
193.9105182328
 20
201.2525214536
  0
INSERT
  8
1
  6
CONTINUOUS
 62
5
  2
BALN15
 10
208.7458902071
 20
187.3847268719
  0
LINE
  8
1
  6
CONTINUOUS
 62
5
 10
261.5281856116
 20
-170.7428923085
 11
237.0281856116
 21
-172.3928923085
  0
LINE
  8
1
  6
CONTINUOUS
 62
5
 10
237.0281856116
 20
-172.3928923085
 11
237.0281856116
 21
-180.5928923085
  0
LINE
  8
1
  6
CONTINUOUS
 62
5
 10
237.0281856116
 20
-180.5928923085
 11
261.5281856116
 21
-182.2428923085
  0
LINE
  8
1
  6
CONTINUOUS
 62
5
 10
261.5281856116
 20
-169.6428923085
 11
269.7281856116
 21
-169.6428923085
  0
LINE
  8
1
  6
CONTINUOUS
 62
5
 10
269.7281856116
 20
-169.6428923085
 11
269.7281856116
 21
-183.3428923085
  0
LINE
  8
1
  6
CONTINUOUS
 62
5
 10
269.7281856116
 20
-183.3428923085
 11
261.5281856116
 21
-183.3428923085
  0
LINE
  8
1
  6
CONTINUOUS
 62
5
 10
261.5281856116
 20
-183.3428923085
 11
261.5281856116
 21
-169.6428923085
  0
LINE
  8
1
  6
CONTINUOUS
 62
5
 10
269.7281856116
 20
-170.3928923085
 11
287.3281856116
 21
-170.3928923085
  0
LINE
  8
1
  6
CONTINUOUS
 62
5
 10
287.3281856116
 20
-170.3928923085
 11
287.3281856116
 21
-182.5928923085
  0
LINE
  8
1
  6
CONTINUOUS
 62
5
 10
287.3281856116
 20
-182.5928923085
 11
269.7281856116
 21
-182.5928923085
  0
LINE
  8
1
  6
CONTINUOUS
 62
5
 10
287.3281856116
 20
-171.9928923085
 11
294.1281856116
 21
-171.9928923085
  0
LINE
  8
1
  6
CONTINUOUS
 62
5
 10
294.1281856116
 20
-171.9928923085
 11
294.1281856116
 21
-180.9928923085
  0
LINE
  8
1
  6
CONTINUOUS
 62
5
 10
294.1281856116
 20
-180.9928923085
 11
287.3281856116
 21
-180.9928923085
  0
LINE
  8
1
  6
CONTINUOUS
 62
5
 10
285.8281856116
 20
-176.4928923085
 11
283.8281856116
 21
-174.6928923085
  0
LINE
  8
1
  6
CONTINUOUS
 62
5
 10
283.8281856116
 20
-174.6928923085
 11
283.8281856116
 21
-175.5928923085
  0
LINE
  8
1
  6
CONTINUOUS
 62
5
 10
283.8281856116
 20
-175.5928923085
 11
281.8281856116
 21
-175.5928923085
  0
LINE
  8
1
  6
CONTINUOUS
 62
5
 10
281.8281856116
 20
-175.5928923085
 11
281.8281856116
 21
-177.3928923085
  0
LINE
  8
1
  6
CONTINUOUS
 62
5
 10
281.8281856116
 20
-177.3928923085
 11
283.8281856116
 21
-177.3928923085
  0
LINE
  8
1
  6
CONTINUOUS
 62
5
 10
283.8281856116
 20
-177.3928923085
 11
283.8281856116
 21
-178.2928923085
  0
LINE
  8
1
  6
CONTINUOUS
 62
5
 10
283.8281856116
 20
-178.2928923085
 11
285.8281856116
 21
-176.4928923085
  0
LINE
  8
1
  6
CONTINUOUS
 62
5
 10
291.1281856116
 20
-175.9928923085
 11
293.1281856116
 21
-175.9928923085
  0
LINE
  8
1
  6
CONTINUOUS
 62
5
 10
293.1281856116
 20
-175.9928923085
 11
293.1281856116
 21
-176.9928923085
  0
LINE
  8
1
  6
CONTINUOUS
 62
5
 10
293.1281856116
 20
-176.9928923085
 11
291.1281856116
 21
-176.9928923085
  0
LINE
  8
1
  6
CONTINUOUS
 62
5
 10
291.1281856116
 20
-176.9928923085
 11
291.1281856116
 21
-175.9928923085
  0
ARC
  8
1
  6
CONTINUOUS
 62
5
 10
240.9781856116
 20
-174.6428923085
 40
0.7500000000
 50
180.0000000000
 51
0.0000000000
  0
ARC
  8
1
  6
CONTINUOUS
 62
5
 10
257.5781856116
 20
-174.6428923085
 40
0.7500000000
 50
180.0000000000
 51
0.0000000000
  0
ARC
  8
1
  6
CONTINUOUS
 62
5
 10
244.2981856116
 20
-174.6428923085
 40
0.7500000000
 50
180.0000000000
 51
0.0000000000
  0
ARC
  8
1
  6
CONTINUOUS
 62
5
 10
247.6181856116
 20
-174.6428923085
 40
0.7500000000
 50
180.0000000000
 51
0.0000000000
  0
ARC
  8
1
  6
CONTINUOUS
 62
5
 10
250.9381856116
 20
-174.6428923085
 40
0.7500000000
 50
180.0000000000
 51
0.0000000000
  0
ARC
  8
1
  6
CONTINUOUS
 62
5
 10
254.2581856116
 20
-174.6428923085
 40
0.7500000000
 50
180.0000000000
 51
0.0000000000
  0
LINE
  8
1
  6
CONTINUOUS
 62
5
 10
240.2281856116
 20
-174.6428923085
 11
240.2281856116
 21
-172.1773821044
  0
LINE
  8
1
  6
CONTINUOUS
 62
5
 10
241.7281856116
 20
-174.6428923085
 11
241.7281856116
 21
-172.0763616963
  0
LINE
  8
1
  6
CONTINUOUS
 62
5
 10
245.0481856116
 20
-174.6428923085
 11
245.0481856116
 21
-171.8527698595
  0
LINE
  8
1
  6
CONTINUOUS
 62
5
 10
248.3681856116
 20
-174.6428923085
 11
248.3681856116
 21
-171.6291780228
  0
LINE
  8
1
  6
CONTINUOUS
 62
5
 10
251.6881856116
 20
-174.6428923085
 11
251.6881856116
 21
-171.4055861861
  0
LINE
  8
1
  6
CONTINUOUS
 62
5
 10
255.0081856116
 20
-174.6428923085
 11
255.0081856116
 21
-171.1819943493
  0
LINE
  8
1
  6
CONTINUOUS
 62
5
 10
243.5481856116
 20
-174.6428923085
 11
243.5481856116
 21
-171.9537902677
  0
LINE
  8
1
  6
CONTINUOUS
 62
5
 10
246.8681856116
 20
-174.6428923085
 11
246.8681856116
 21
-171.7301984310
  0
LINE
  8
1
  6
CONTINUOUS
 62
5
 10
250.1881856116
 20
-174.6428923085
 11
250.1881856116
 21
-171.5066065942
  0
LINE
  8
1
  6
CONTINUOUS
 62
5
 10
253.5081856116
 20
-174.6428923085
 11
253.5081856116
 21
-171.2830147575
  0
LINE
  8
1
  6
CONTINUOUS
 62
5
 10
256.8281856116
 20
-174.6428923085
 11
256.8281856116
 21
-171.0594229208
  0
LINE
  8
1
  6
CONTINUOUS
 62
5
 10
258.3281856116
 20
-174.6428923085
 11
258.3281856116
 21
-170.9584025126
  0
ARC
  8
1
  6
CONTINUOUS
 62
5
 10
240.9781856116
 20
-178.3428923085
 40
0.7500000000
 50
0.0000000000
 51
180.0000000000
  0
ARC
  8
1
  6
CONTINUOUS
 62
5
 10
257.5781856116
 20
-178.3428923085
 40
0.7500000000
 50
0.0000000000
 51
180.0000000000
  0
ARC
  8
1
  6
CONTINUOUS
 62
5
 10
244.2981856116
 20
-178.3428923085
 40
0.7500000000
 50
0.0000000000
 51
180.0000000000
  0
ARC
  8
1
  6
CONTINUOUS
 62
5
 10
247.6181856116
 20
-178.3428923085
 40
0.7500000000
 50
0.0000000000
 51
180.0000000000
  0
ARC
  8
1
  6
CONTINUOUS
 62
5
 10
250.9381856116
 20
-178.3428923085
 40
0.7500000000
 50
0.0000000000
 51
180.0000000000
  0
ARC
  8
1
  6
CONTINUOUS
 62
5
 10
254.2581856116
 20
-178.3428923085
 40
0.7500000000
 50
0.0000000000
 51
180.0000000000
  0
LINE
  8
1
  6
CONTINUOUS
 62
5
 10
240.2281856116
 20
-178.3428923085
 11
240.2281856116
 21
-180.8084025126
  0
LINE
  8
1
  6
CONTINUOUS
 62
5
 10
241.7281856116
 20
-178.3428923085
 11
241.7281856116
 21
-180.9094229208
  0
LINE
  8
1
  6
CONTINUOUS
 62
5
 10
245.0481856116
 20
-178.3428923085
 11
245.0481856116
 21
-181.1330147575
  0
LINE
  8
1
  6
CONTINUOUS
 62
5
 10
248.3681856116
 20
-178.3428923085
 11
248.3681856116
 21
-181.3566065942
  0
LINE
  8
1
  6
CONTINUOUS
 62
5
 10
251.6881856116
 20
-178.3428923085
 11
251.6881856116
 21
-181.5801984310
  0
LINE
  8
1
  6
CONTINUOUS
 62
5
 10
255.0081856116
 20
-178.3428923085
 11
255.0081856116
 21
-181.8037902677
  0
LINE
  8
1
  6
CONTINUOUS
 62
5
 10
243.5481856116
 20
-178.3428923085
 11
243.5481856116
 21
-181.0319943493
  0
LINE
  8
1
  6
CONTINUOUS
 62
5
 10
246.8681856116
 20
-178.3428923085
 11
246.8681856116
 21
-181.2555861861
  0
LINE
  8
1
  6
CONTINUOUS
 62
5
 10
250.1881856116
 20
-178.3428923085
 11
250.1881856116
 21
-181.4791780228
  0
LINE
  8
1
  6
CONTINUOUS
 62
5
 10
253.5081856116
 20
-178.3428923085
 11
253.5081856116
 21
-181.7027698595
  0
LINE
  8
1
  6
CONTINUOUS
 62
5
 10
256.8281856116
 20
-178.3428923085
 11
256.8281856116
 21
-181.9263616963
  0
LINE
  8
1
  6
CONTINUOUS
 62
5
 10
258.3281856116
 20
-178.3428923085
 11
258.3281856116
 21
-182.0273821044
  0
INSERT
  8
1
  6
CONTINUOUS
 62
5
  2
LTEX4
 10
186.4311134095
 20
-181.3928923086
  0
INSERT
  8
1
  6
CONTINUOUS
 62
5
  2
LTEX5
 10
294.1281856116
 20
-180.9928923085
  0
DIMENSION
  8
1
  6
CONTINUOUS
 62
5
  2
*D21
 10
287.3281856116
 20
-158.8300882952
 11
240.0296495105
 21
-156.0800882952
  70
0
  1
ｹｰﾌﾞﾙ長
 13
192.7311134095
 23
-161.6428923086
 14
287.3281856116
 24
-170.3928923085
 50
0.000000
  0
INSERT
  8
1
  6
CONTINUOUS
 62
5
  2
BALN16
 10
223.6670689932
 20
-173.9928923086
  0
INSERT
  8
1
  6
CONTINUOUS
 62
5
  2
BALN17
 10
170.0369638569
 20
-160.8428923086
  0
TEXT
  8
5
  6
CONTINUOUS
 62
7
 10
335.656774
 20
-173.560727
 40
3.500000
  1
0.5   1.0   2.0
 41
0.759109
 50
0.000000
 51
0.000000
 72
   5
 73
   0
 11
361.906774
 21
-173.560727
  0
TEXT
  8
5
  6
CONTINUOUS
 62
7
 10
335.656774
 20
-178.560727
 40
3.500000
  1
3.0   5.0   
 41
0.762389
 50
0.000000
 51
0.000000
 72
   5
 73
   0
 11
356.656774
 21
-178.560727
  0
INSERT
  8
1
  6
CONTINUOUS
 62
5
  2
LTEX6
 10
167.6780007695
 20
-192.1428923086
  0
LINE
  8
5
  6
CONTINUOUS
 62
6
 10
314.6567742348
 20
-184.3107273406
 11
309.6567742348
 21
-184.3107273406
  0
LINE
  8
5
  6
CONTINUOUS
 62
6
 10
334.6567742348
 20
-184.3107273406
 11
314.6567742348
 21
-184.3107273406
  0
LINE
  8
5
  6
CONTINUOUS
 62
6
 10
374.6567742348
 20
-184.3107273406
 11
334.6567742348
 21
-184.3107273406
  0
LINE
  8
5
  6
CONTINUOUS
 62
6
 10
389.6567742348
 20
-184.3107273406
 11
374.6567742348
 21
-184.3107273406
  0
LINE
  8
5
  6
CONTINUOUS
 62
6
 10
394.6567742348
 20
-184.3107273406
 11
389.6567742348
 21
-184.3107273406
  0
TEXT
  8
5
  6
CONTINUOUS
 62
7
 10
391.281774
 20
-183.560727
 40
3.500000
  1
2
 41
1.000000
 50
0.000000
 51
0.000000
 72
   5
 73
   0
 11
393.031774
 21
-183.560727
  0
TEXT
  8
5
  6
CONTINUOUS
 62
7
 10
375.656774
 20
-183.310727
 40
3.000000
  1
--
 41
0.854701
 50
0.000000
 51
0.000000
 72
   5
 73
   0
 11
378.656774
 21
-183.310727
  0
TEXT
  8
5
  6
CONTINUOUS
 62
7
 10
335.656774
 20
-183.310727
 40
3.000000
  1
M3×12 小ワｾﾑｽ
 41
0.854023
 50
0.000000
 51
0.000000
 72
   5
 73
   0
 11
357.946774
 21
-183.310727
  0
TEXT
  8
5
  6
CONTINUOUS
 62
7
 10
315.656774
 20
-183.310727
 40
3.000000
  1
ﾋﾞｽ
 41
0.761957
 50
0.000000
 51
0.000000
 72
   5
 73
   0
 11
319.862774
 21
-183.310727
  0
TEXT
  8
5
  6
CONTINUOUS
 62
7
 10
309.906774
 20
-183.310727
 40
3.000000
  1
103
 41
0.815217
 50
0.000000
 51
0.000000
 72
   5
 73
   0
 11
314.406774
 21
-183.310727
  0
LINE
  8
5
  6
CONTINUOUS
 62
6
 10
309.6567742348
 20
-184.3107273406
 11
299.6567742348
 21
-184.3107273406
  0
LINE
  8
3
  6
CONTINUOUS
 62
6
 10
157.3368808013
 20
-163.5044401871
 11
160.0137850443
 21
-166.1813444301
  0
LINE
  8
3
  6
CONTINUOUS
 62
6
 10
157.3368808013
 20
-166.1813444301
 11
160.0137850443
 21
-163.5044401871
  0
CIRCLE
  8
3
  6
CONTINUOUS
 62
6
 10
158.6753329228
 20
-164.8428923086
 40
2.6500000000
  0
LINE
  8
3
  6
CONTINUOUS
 62
6
 10
157.3368808013
 20
-186.8044401871
 11
160.0137850443
 21
-189.4813444301
  0
LINE
  8
3
  6
CONTINUOUS
 62
6
 10
157.3368808013
 20
-189.4813444301
 11
160.0137850443
 21
-186.8044401871
  0
CIRCLE
  8
3
  6
CONTINUOUS
 62
6
 10
158.6753329228
 20
-188.1428923086
 40
2.6500000000
  0
INSERT
  8
1
  6
CONTINUOUS
 62
5
  2
BALN18
 10
158.8813961490
 20
-163.3440805477
  0
INSERT
  8
1
  6
CONTINUOUS
 62
7
  2
S6
 10
7.7490435001
 20
-51.9655230621
  0
TEXT
  8
1
  6
CONTINUOUS
 62
7
 10
12.124044
 20
-53.715523
 40
3.500000
  1
'09.7.8
 41
0.774336
 50
0.000000
 51
0.000000
 72
   5
 73
   0
 11
24.374044
 21
-53.715523
  0
TEXT
  8
1
  6
CONTINUOUS
 62
7
 10
25.100701
 20
-53.756746
 40
3.500000
  1
DINｹｰﾌﾞﾙのｹｰﾌﾞﾙ長[1.5],[8.0]削除
 41
0.777076
 50
0.000000
 51
0.000000
 72
   5
 73
   0
 11
81.100701
 21
-53.756746
  0
TEXT
  8
1
  6
CONTINUOUS
 62
7
 10
89.249044
 20
-53.965523
 40
4.000000
  1
山田
 41
0.921659
 50
0.000000
 51
0.000000
 72
   5
 73
   0
 11
97.249044
 21
-53.965523
  0
TEXT
  8
1
  6
CONTINUOUS
 62
7
 10
90.500000
 20
260.000000
 40
4.000000
  1
山田
 41
0.921659
 50
0.000000
 51
0.000000
 72
   5
 73
   0
 11
98.500000
 21
260.000000
  0
TEXT
  8
1
  6
CONTINUOUS
 62
7
 10
26.351658
 20
260.208777
 40
3.500000
  1
DINｹｰﾌﾞﾙのｹｰﾌﾞﾙ長[1.5],[8.0]削除
 41
0.777076
 50
0.000000
 51
0.000000
 72
   5
 73
   0
 11
82.351658
 21
260.208777
  0
TEXT
  8
1
  6
CONTINUOUS
 62
7
 10
13.375000
 20
260.250000
 40
3.500000
  1
'09.7.8
 41
0.774336
 50
0.000000
 51
0.000000
 72
   5
 73
   0
 11
25.625000
 21
260.250000
  0
POINT
  8
5
  6
CONTINUOUS
 62
6
 10
9.0000000000
 20
262.0000000000
  0
INSERT
  8
1
  6
CONTINUOUS
 62
7
  2
S7
 10
9.0000000000
 20
262.0000000000
  0
INSERT
  8
1
  6
CONTINUOUS
 62
7
  2
S8
 10
309.4608768379
 20
234.2864772224
  0
TEXT
  8
1
  6
CONTINUOUS
 62
7
 10
26.530740
 20
265.475467
 40
3.000000
  1
M0051B057 改訂A→B (USBｺﾈｸﾀ変更による)
 41
0.793982
 50
0.000000
 51
0.000000
 72
   5
 73
   0
 11
83.530740
 21
265.475467
  0
TEXT
  8
1
  6
CONTINUOUS
 62
7
 10
91.000000
 20
265.250000
 40
3.500000
  1
山田
 41
0.921659
 50
0.000000
 51
0.000000
 72
   5
 73
   0
 11
98.000000
 21
265.250000
  0
TEXT
  8
1
  6
CONTINUOUS
 62
7
 10
14.836500
 20
265.500000
 40
3.000000
  1
'09.12.8
 41
0.599037
 50
0.000000
 51
0.000000
 72
   5
 73
   0
 11
24.163500
 21
265.500000
  0
POINT
  8
5
  6
CONTINUOUS
 62
6
 10
9.0000000000
 20
267.0000000000
  0
LINE
  8
1
  6
CONTINUOUS
 62
7
 10
11.5000000000
 20
265.0000000000
 11
6.5000000000
 21
265.0000000000
  0
TEXT
  8
1
  6
CONTINUOUS
 62
7
 10
7.904400
 20
264.621673
 40
3.300000
  1
C
 41
1.328000
 50
0.000000
 51
0.000000
 72
   5
 73
   0
 11
10.095600
 21
264.621673
  0
LINE
  8
1
  6
CONTINUOUS
 62
7
 10
9.0000000000
 20
269.0000000000
 11
6.5000000000
 21
265.0000000000
  0
LINE
  8
1
  6
CONTINUOUS
 62
7
 10
9.0000000000
 20
269.0000000000
 11
11.5000000000
 21
265.0000000000
  0
POINT
  8
1
  6
CONTINUOUS
 62
7
 10
9.0000000000
 20
267.0000000000
  0
INSERT
  8
1
  6
CONTINUOUS
 62
7
  2
S9
 10
397.8420657442
 20
-219.2445005045
  0
INSERT
  8
1
  6
CONTINUOUS
 62
7
  2
S10
 10
397.8420657443
 20
-224.2445005045
  0
INSERT
  8
1
  6
CONTINUOUS
 62
7
  2
S11
 10
397.8420657442
 20
-241.7445005045
  0
TEXT
  8
5
  6
CONTINUOUS
 62
7
 10
375.656774
 20
-243.310727
 40
3.000000
  1
MADOKA
 41
1.028831
 50
0.000000
 51
0.000000
 72
   5
 73
   0
 11
387.539774
 21
-243.310727
  0
TEXT
  8
1
  6
CONTINUOUS
 62
7
 10
235.003353
 20
-267.242345
 40
3.000000
  1
USB中継は表裏を
 41
0.846501
 50
0.000000
 51
0.000000
 72
   5
 73
   0
 11
257.503353
 21
-267.242345
  0
TEXT
  8
1
  6
CONTINUOUS
 62
7
 10
235.003353
 20
-270.242345
 40
3.000000
  1
変えることが可能です。
 41
0.866142
 50
0.000000
 51
0.000000
 72
   5
 73
   0
 11
268.003353
 21
-270.242345
  0
LINE
  8
1
  6
CONTINUOUS
 62
1
 10
243.0921374659
 20
-271.6758939425
 11
260.0921374659
 21
-271.6758939425
  0
LINE
  8
1
  6
CONTINUOUS
 62
1
 10
261.0921374659
 20
-306.2758939425
 11
261.0921374659
 21
-305.4758939425
  0
LINE
  8
1
  6
CONTINUOUS
 62
1
 10
261.0921374659
 20
-302.4758939425
 11
261.0921374659
 21
-276.4758939425
  0
LINE
  8
1
  6
CONTINUOUS
 62
1
 10
261.0921374659
 20
-273.4758939425
 11
261.0921374659
 21
-272.6758939425
  0
LINE
  8
1
  6
CONTINUOUS
 62
1
 10
260.0921374659
 20
-307.2758939425
 11
243.0921374659
 21
-307.2758939425
  0
LINE
  8
1
  6
CONTINUOUS
 62
1
 10
242.0921374659
 20
-306.2758939425
 11
242.0921374659
 21
-305.4758939425
  0
LINE
  8
1
  6
CONTINUOUS
 62
1
 10
242.0921374659
 20
-302.4758939425
 11
242.0921374659
 21
-276.4758939425
  0
LINE
  8
1
  6
CONTINUOUS
 62
1
 10
242.0921374659
 20
-273.4758939425
 11
242.0921374659
 21
-272.6758939425
  0
LINE
  8
1
  6
CONTINUOUS
 62
1
 10
259.4921374659
 20
-278.0758939425
 11
243.6921374659
 21
-278.0758939425
  0
LINE
  8
1
  6
CONTINUOUS
 62
1
 10
259.9921374659
 20
-300.3758939425
 11
259.9921374659
 21
-278.5758939425
  0
LINE
  8
1
  6
CONTINUOUS
 62
1
 10
243.6921374659
 20
-300.8758939425
 11
259.4921374659
 21
-300.8758939425
  0
LINE
  8
1
  6
CONTINUOUS
 62
1
 10
243.1921374659
 20
-300.3758939425
 11
243.1921374659
 21
-278.5758939425
  0
CIRCLE
  8
1
  6
CONTINUOUS
 62
1
 10
251.5921374659
 20
-274.9758939425
 40
1.5000000000
  0
CIRCLE
  8
1
  6
CONTINUOUS
 62
1
 10
251.5921374659
 20
-303.9758939425
 40
1.5000000000
  0
ARC
  8
1
  6
CONTINUOUS
 62
1
 10
260.0921374659
 20
-272.6758939425
 40
1.0000000000
 50
0.0000000000
 51
90.0000000000
  0
ARC
  8
1
  6
CONTINUOUS
 62
1
 10
243.0921374659
 20
-272.6758939425
 40
1.0000000000
 50
90.0000000000
 51
180.0000000000
  0
ARC
  8
1
  6
CONTINUOUS
 62
1
 10
243.0921374659
 20
-306.2758939425
 40
1.0000000000
 50
180.0000000000
 51
270.0000000000
  0
ARC
  8
1
  6
CONTINUOUS
 62
1
 10
260.0921374659
 20
-306.2758939425
 40
1.0000000000
 50
270.0000000000
 51
0.0000000000
  0
LINE
  8
1
  6
CONTINUOUS
 62
1
 10
261.0921374659
 20
-305.4758939425
 11
259.0921374659
 21
-305.4758939425
  0
LINE
  8
1
  6
CONTINUOUS
 62
1
 10
259.0921374659
 20
-305.4758939425
 11
259.0921374659
 21
-302.4758939425
  0
LINE
  8
1
  6
CONTINUOUS
 62
1
 10
259.0921374659
 20
-302.4758939425
 11
261.0921374659
 21
-302.4758939425
  0
LINE
  8
1
  6
CONTINUOUS
 62
1
 10
242.0921374659
 20
-305.4758939425
 11
244.0921374659
 21
-305.4758939425
  0
LINE
  8
1
  6
CONTINUOUS
 62
1
 10
244.0921374659
 20
-305.4758939425
 11
244.0921374659
 21
-302.4758939425
  0
LINE
  8
1
  6
CONTINUOUS
 62
1
 10
244.0921374659
 20
-302.4758939425
 11
242.0921374659
 21
-302.4758939425
  0
LINE
  8
1
  6
CONTINUOUS
 62
1
 10
242.0921374659
 20
-273.4758939425
 11
244.0921374659
 21
-273.4758939425
  0
LINE
  8
1
  6
CONTINUOUS
 62
1
 10
244.0921374659
 20
-273.4758939425
 11
244.0921374659
 21
-276.4758939425
  0
LINE
  8
1
  6
CONTINUOUS
 62
1
 10
244.0921374659
 20
-276.4758939425
 11
242.0921374659
 21
-276.4758939425
  0
LINE
  8
1
  6
CONTINUOUS
 62
1
 10
261.0921374659
 20
-273.4758939425
 11
259.0921374659
 21
-273.4758939425
  0
LINE
  8
1
  6
CONTINUOUS
 62
1
 10
259.0921374659
 20
-273.4758939425
 11
259.0921374659
 21
-276.4758939425
  0
LINE
  8
1
  6
CONTINUOUS
 62
1
 10
259.0921374659
 20
-276.4758939425
 11
261.0921374659
 21
-276.4758939425
  0
ARC
  8
1
  6
CONTINUOUS
 62
1
 10
243.6921374659
 20
-278.5758939425
 40
0.5000000000
 50
90.0000000000
 51
180.0000000000
  0
ARC
  8
1
  6
CONTINUOUS
 62
1
 10
259.4921374659
 20
-278.5758939425
 40
0.5000000000
 50
0.0000000000
 51
90.0000000000
  0
ARC
  8
1
  6
CONTINUOUS
 62
1
 10
259.4921374659
 20
-300.3758939425
 40
0.5000000000
 50
270.0000000000
 51
0.0000000000
  0
ARC
  8
1
  6
CONTINUOUS
 62
1
 10
243.6921374659
 20
-300.3758939425
 40
0.5000000000
 50
180.0000000000
 51
270.0000000000
  0
LINE
  8
2
  6
CONTINUOUS
 62
1
 10
246.6821359659
 20
-287.7358939425
 11
251.5921379659
 21
-287.7358939425
  0
LINE
  8
2
  6
CONTINUOUS
 62
1
 10
246.0421409659
 20
-288.3758939425
 11
246.0421409659
 21
-289.5758939425
  0
LINE
  8
2
  6
CONTINUOUS
 62
1
 10
246.5421409659
 20
-289.1958949425
 11
256.6421349659
 21
-289.1958949425
  0
LINE
  8
2
  6
CONTINUOUS
 62
1
 10
246.0421409659
 20
-289.5758939425
 11
251.5921379659
 21
-289.5758939425
  0
LINE
  8
2
  6
CONTINUOUS
 62
1
 10
245.3921349659
 20
-287.6558939425
 11
245.3921349659
 21
-288.6158929425
  0
LINE
  8
2
  6
CONTINUOUS
 62
1
 10
246.5421409659
 20
-289.1958949425
 11
246.5421409659
 21
-288.2358939425
  0
LINE
  8
2
  6
CONTINUOUS
 62
1
 10
248.6821359659
 20
-289.5758939425
 11
248.6821359659
 21
-290.9558939425
  0
LINE
  8
2
  6
CONTINUOUS
 62
1
 10
247.5021379659
 20
-289.5758939425
 11
247.5021379659
 21
-290.9558939425
  0
LINE
  8
2
  6
CONTINUOUS
 62
1
 10
251.1821359659
 20
-289.5758939425
 11
251.1821359659
 21
-290.9558939425
  0
LINE
  8
2
  6
CONTINUOUS
 62
1
 10
250.0021379659
 20
-289.5758939425
 11
250.0021379659
 21
-290.9558939425
  0
LINE
  8
2
  6
CONTINUOUS
 62
1
 10
250.0021379659
 20
-290.9558939425
 11
251.1821359659
 21
-290.9558939425
  0
LINE
  8
2
  6
CONTINUOUS
 62
1
 10
247.5021379659
 20
-290.9558939425
 11
248.6821359659
 21
-290.9558939425
  0
LINE
  8
2
  6
CONTINUOUS
 62
1
 10
245.8921349659
 20
-287.5558929425
 11
247.8826099659
 21
-287.5558929425
  0
LINE
  8
2
  6
CONTINUOUS
 62
1
 10
245.8921349659
 20
-287.5558929425
 11
245.8921349659
 21
-288.6658969425
  0
LINE
  8
2
  6
CONTINUOUS
 62
1
 10
247.9641149659
 20
-287.7058929425
 11
247.8750879659
 21
-287.6168659425
  0
LINE
  8
2
  6
CONTINUOUS
 62
1
 10
245.9921319659
 20
-288.7658929425
 11
245.8421319659
 21
-288.6158929425
  0
LINE
  8
2
  6
CONTINUOUS
 62
1
 10
245.8421359659
 20
-288.6158929425
 11
245.3421359659
 21
-288.6158929425
  0
LINE
  8
2
  6
CONTINUOUS
 62
1
 10
245.8421359659
 20
-290.6158939425
 11
245.3421359659
 21
-290.6158939425
  0
LINE
  8
2
  6
CONTINUOUS
 62
1
 10
245.9921369659
 20
-290.4658929425
 11
245.9921369659
 21
-288.7658929425
  0
LINE
  8
2
  6
CONTINUOUS
 62
1
 10
245.9921349659
 20
-290.4658939425
 11
245.8421349659
 21
-290.6158939425
  0
LINE
  8
2
  6
CONTINUOUS
 62
1
 10
248.5921299659
 20
-287.7058949425
 11
249.2201509659
 21
-287.7058949425
  0
LINE
  8
2
  6
CONTINUOUS
 62
1
 10
249.2201489659
 20
-287.7058959425
 11
249.3091789659
 21
-287.6168659425
  0
LINE
  8
2
  6
CONTINUOUS
 62
1
 10
248.5921379659
 20
-287.7058949425
 11
247.9641149659
 21
-287.7058949425
  0
LINE
  8
2
  6
CONTINUOUS
 62
1
 10
247.9641209659
 20
-287.7058929425
 11
247.8750899659
 21
-287.6168629425
  0
LINE
  8
2
  6
CONTINUOUS
 62
1
 10
247.4026059659
 20
-287.0781869425
 11
247.6201969659
 21
-287.1454329425
  0
LINE
  8
2
  6
CONTINUOUS
 62
1
 10
247.8256549659
 20
-287.3725609425
 11
247.8750869659
 21
-287.6168639425
  0
LINE
  8
2
  6
CONTINUOUS
 62
1
 10
247.8902589659
 20
-287.1876139425
 11
247.9137069659
 21
-287.3034959425
  0
LINE
  8
2
  6
CONTINUOUS
 62
1
 10
249.7816649659
 20
-287.0781849425
 11
249.5640759659
 21
-287.1454309425
  0
LINE
  8
2
  6
CONTINUOUS
 62
1
 10
249.3586119659
 20
-287.3725609425
 11
249.3091789659
 21
-287.6168639425
  0
LINE
  8
2
  6
CONTINUOUS
 62
1
 10
249.2940069659
 20
-287.1876129425
 11
249.2705599659
 21
-287.3034949425
  0
LINE
  8
2
  6
CONTINUOUS
 62
1
 10
249.3091809659
 20
-287.6168659425
 11
249.2425127235
 21
-287.0758939425
  0
LINE
  8
2
  6
CONTINUOUS
 62
1
 10
247.8750919659
 20
-287.6168659425
 11
247.9417593628
 21
-287.0758939425
  0
LINE
  8
2
  6
CONTINUOUS
 62
1
 10
248.5921379659
 20
-291.5258939425
 11
247.9641149659
 21
-291.5258939425
  0
LINE
  8
2
  6
CONTINUOUS
 62
1
 10
247.9641189659
 20
-291.5258949425
 11
247.8750899659
 21
-291.6149239425
  0
LINE
  8
2
  6
CONTINUOUS
 62
1
 10
248.5921299659
 20
-291.5258939425
 11
249.2201509659
 21
-291.5258939425
  0
LINE
  8
2
  6
CONTINUOUS
 62
1
 10
249.2201529659
 20
-291.5258919425
 11
249.3091819659
 21
-291.6149209425
  0
LINE
  8
2
  6
CONTINUOUS
 62
1
 10
249.7816639659
 20
-292.1535999425
 11
249.5640749659
 21
-292.0863539425
  0
LINE
  8
2
  6
CONTINUOUS
 62
1
 10
249.2940089659
 20
-292.0441759425
 11
249.2705619659
 21
-291.9282939425
  0
LINE
  8
2
  6
CONTINUOUS
 62
1
 10
247.4026099659
 20
-292.1535989425
 11
247.6202009659
 21
-292.0863529425
  0
LINE
  8
2
  6
CONTINUOUS
 62
1
 10
247.8256579659
 20
-291.8592299425
 11
247.8750909659
 21
-291.6149249425
  0
LINE
  8
2
  6
CONTINUOUS
 62
1
 10
247.8902619659
 20
-292.0441769425
 11
247.9137099659
 21
-291.9282949425
  0
LINE
  8
2
  6
CONTINUOUS
 62
1
 10
247.8750889659
 20
-291.6149209425
 11
247.9442209659
 21
-292.1758929425
  0
LINE
  8
2
  6
CONTINUOUS
 62
1
 10
249.3091869659
 20
-291.6149219425
 11
249.2400549659
 21
-292.1758919425
  0
LINE
  8
2
  6
CONTINUOUS
 62
1
 10
249.3586119659
 20
-291.8592289425
 11
249.3091789659
 21
-291.6149239425
  0
LINE
  8
2
  6
CONTINUOUS
 62
1
 10
249.3016639659
 20
-287.5558929425
 11
251.5921379659
 21
-287.5558929425
  0
LINE
  8
2
  6
CONTINUOUS
 62
1
 10
245.3921349659
 20
-290.6158939425
 11
245.3921349659
 21
-292.0276519425
  0
LINE
  8
2
  6
CONTINUOUS
 62
1
 10
245.8921349659
 20
-290.5658939425
 11
245.8921349659
 21
-292.1758939425
  0
LINE
  8
2
  6
CONTINUOUS
 62
1
 10
250.3421399659
 20
-290.0758939425
 11
250.0921379659
 21
-290.0758939425
  0
LINE
  8
2
  6
CONTINUOUS
 62
1
 10
250.0921379659
 20
-289.7081209425
 11
250.0921379659
 21
-290.0758939425
  0
LINE
  8
2
  6
CONTINUOUS
 62
1
 10
250.3421399659
 20
-290.0290459425
 11
250.3421399659
 21
-290.0758939425
  0
LINE
  8
2
  6
CONTINUOUS
 62
1
 10
250.8421399659
 20
-290.0758939425
 11
251.0921399659
 21
-290.0758939425
  0
LINE
  8
2
  6
CONTINUOUS
 62
1
 10
250.8421399659
 20
-290.0290459425
 11
250.8421399659
 21
-290.0758939425
  0
LINE
  8
2
  6
CONTINUOUS
 62
1
 10
251.0921399659
 20
-289.7081209425
 11
251.0921399659
 21
-290.0758939425
  0
LINE
  8
2
  6
CONTINUOUS
 62
1
 10
250.9983879659
 20
-289.5758939425
 11
251.0461279659
 21
-289.6793439425
  0
LINE
  8
2
  6
CONTINUOUS
 62
1
 10
250.1858899659
 20
-289.5758929425
 11
250.1381489659
 21
-289.6793439425
  0
LINE
  8
2
  6
CONTINUOUS
 62
1
 10
247.8421399659
 20
-290.0758939425
 11
247.5921359659
 21
-290.0758939425
  0
LINE
  8
2
  6
CONTINUOUS
 62
1
 10
247.5921359659
 20
-289.7081209425
 11
247.5921359659
 21
-290.0758939425
  0
LINE
  8
2
  6
CONTINUOUS
 62
1
 10
247.8421359659
 20
-290.0290459425
 11
247.8421359659
 21
-290.0758939425
  0
LINE
  8
2
  6
CONTINUOUS
 62
1
 10
248.3421399659
 20
-290.0758939425
 11
248.5921399659
 21
-290.0758939425
  0
LINE
  8
2
  6
CONTINUOUS
 62
1
 10
248.3421399659
 20
-290.0290459425
 11
248.3421399659
 21
-290.0758939425
  0
LINE
  8
2
  6
CONTINUOUS
 62
1
 10
248.5921399659
 20
-289.7081209425
 11
248.5921399659
 21
-290.0758939425
  0
LINE
  8
2
  6
CONTINUOUS
 62
1
 10
248.4983869659
 20
-289.5758939425
 11
248.5461269659
 21
-289.6793449425
  0
LINE
  8
2
  6
CONTINUOUS
 62
1
 10
247.6858879659
 20
-289.5758949425
 11
247.6381489659
 21
-289.6793439425
  0
LINE
  8
2
  6
CONTINUOUS
 62
1
 10
256.5021399659
 20
-287.7358939425
 11
251.5921379659
 21
-287.7358939425
  0
LINE
  8
2
  6
CONTINUOUS
 62
1
 10
257.1421349659
 20
-288.3758939425
 11
257.1421349659
 21
-289.5758939425
  0
LINE
  8
2
  6
CONTINUOUS
 62
1
 10
256.6421349659
 20
-288.2358939425
 11
246.5421409659
 21
-288.2358939425
  0
LINE
  8
2
  6
CONTINUOUS
 62
1
 10
257.1421349659
 20
-289.5758939425
 11
251.5921379659
 21
-289.5758939425
  0
LINE
  8
2
  6
CONTINUOUS
 62
1
 10
257.7921389659
 20
-287.6558939425
 11
257.7921389659
 21
-288.6158929425
  0
LINE
  8
2
  6
CONTINUOUS
 62
1
 10
256.6421349659
 20
-289.1958949425
 11
256.6421349659
 21
-288.2358939425
  0
LINE
  8
2
  6
CONTINUOUS
 62
1
 10
254.5021399659
 20
-289.5758939425
 11
254.5021399659
 21
-290.9558939425
  0
LINE
  8
2
  6
CONTINUOUS
 62
1
 10
255.6821379659
 20
-289.5758939425
 11
255.6821379659
 21
-290.9558939425
  0
LINE
  8
2
  6
CONTINUOUS
 62
1
 10
252.0021379659
 20
-289.5758939425
 11
252.0021379659
 21
-290.9558939425
  0
LINE
  8
2
  6
CONTINUOUS
 62
1
 10
253.1821379659
 20
-289.5758939425
 11
253.1821379659
 21
-290.9558939425
  0
LINE
  8
2
  6
CONTINUOUS
 62
1
 10
253.1821379659
 20
-290.9558939425
 11
252.0021379659
 21
-290.9558939425
  0
LINE
  8
2
  6
CONTINUOUS
 62
1
 10
255.6821379659
 20
-290.9558939425
 11
254.5021399659
 21
-290.9558939425
  0
LINE
  8
2
  6
CONTINUOUS
 62
1
 10
257.2921389659
 20
-287.5558929425
 11
255.3016659659
 21
-287.5558929425
  0
LINE
  8
2
  6
CONTINUOUS
 62
1
 10
257.2921389659
 20
-287.5558929425
 11
257.2921389659
 21
-288.6658969425
  0
LINE
  8
2
  6
CONTINUOUS
 62
1
 10
255.2201589659
 20
-287.7058939425
 11
255.3091879659
 21
-287.6168649425
  0
LINE
  8
2
  6
CONTINUOUS
 62
1
 10
257.1921419659
 20
-288.7658939425
 11
257.3421419659
 21
-288.6158939425
  0
LINE
  8
2
  6
CONTINUOUS
 62
1
 10
257.3421379659
 20
-288.6158929425
 11
257.8421379659
 21
-288.6158929425
  0
LINE
  8
2
  6
CONTINUOUS
 62
1
 10
257.3421379659
 20
-290.6158939425
 11
257.8421379659
 21
-290.6158939425
  0
LINE
  8
2
  6
CONTINUOUS
 62
1
 10
257.1921379659
 20
-290.4658929425
 11
257.1921379659
 21
-288.7658929425
  0
LINE
  8
2
  6
CONTINUOUS
 62
1
 10
257.1921409659
 20
-290.4658939425
 11
257.3421409659
 21
-290.6158939425
  0
LINE
  8
2
  6
CONTINUOUS
 62
1
 10
254.5921439659
 20
-287.7058949425
 11
253.9641219659
 21
-287.7058949425
  0
LINE
  8
2
  6
CONTINUOUS
 62
1
 10
253.9641249659
 20
-287.7058939425
 11
253.8750949659
 21
-287.6168649425
  0
LINE
  8
2
  6
CONTINUOUS
 62
1
 10
254.5921379659
 20
-287.7058949425
 11
255.2201589659
 21
-287.7058949425
  0
LINE
  8
2
  6
CONTINUOUS
 62
1
 10
255.2201539659
 20
-287.7058919425
 11
255.3091829659
 21
-287.6168629425
  0
LINE
  8
2
  6
CONTINUOUS
 62
1
 10
255.7816679659
 20
-287.0781869425
 11
255.5640789659
 21
-287.1454319425
  0
LINE
  8
2
  6
CONTINUOUS
 62
1
 10
255.3586219659
 20
-287.3725609425
 11
255.3091899659
 21
-287.6168629425
  0
LINE
  8
2
  6
CONTINUOUS
 62
1
 10
255.2940179659
 20
-287.1876129425
 11
255.2705699659
 21
-287.3034959425
  0
LINE
  8
2
  6
CONTINUOUS
 62
1
 10
253.4026119659
 20
-287.0781849425
 11
253.6202009659
 21
-287.1454299425
  0
LINE
  8
2
  6
CONTINUOUS
 62
1
 10
253.8256649659
 20
-287.3725599425
 11
253.8750979659
 21
-287.6168629425
  0
LINE
  8
2
  6
CONTINUOUS
 62
1
 10
253.8902679659
 20
-287.1876129425
 11
253.9137159659
 21
-287.3034949425
  0
LINE
  8
2
  6
CONTINUOUS
 62
1
 10
253.8750959659
 20
-287.6168659425
 11
253.9417632439
 21
-287.0758939425
  0
LINE
  8
2
  6
CONTINUOUS
 62
1
 10
255.3091849659
 20
-287.6168659425
 11
255.2425167235
 21
-287.0758939425
  0
LINE
  8
2
  6
CONTINUOUS
 62
1
 10
254.5921379659
 20
-291.5258939425
 11
255.2201589659
 21
-291.5258939425
  0
LINE
  8
2
  6
CONTINUOUS
 62
1
 10
255.2201569659
 20
-291.5258959425
 11
255.3091859659
 21
-291.6149249425
  0
LINE
  8
2
  6
CONTINUOUS
 62
1
 10
254.5921439659
 20
-291.5258939425
 11
253.9641219659
 21
-291.5258939425
  0
LINE
  8
2
  6
CONTINUOUS
 62
1
 10
253.9641229659
 20
-291.5258949425
 11
253.8750939659
 21
-291.6149239425
  0
LINE
  8
2
  6
CONTINUOUS
 62
1
 10
253.4026109659
 20
-292.1536009425
 11
253.6202019659
 21
-292.0863549425
  0
LINE
  8
2
  6
CONTINUOUS
 62
1
 10
253.8902669659
 20
-292.0441769425
 11
253.9137149659
 21
-291.9282949425
  0
LINE
  8
2
  6
CONTINUOUS
 62
1
 10
255.7816639659
 20
-292.1535999425
 11
255.5640729659
 21
-292.0863539425
  0
LINE
  8
2
  6
CONTINUOUS
 62
1
 10
255.3586189659
 20
-291.8592279425
 11
255.3091859659
 21
-291.6149239425
  0
LINE
  8
2
  6
CONTINUOUS
 62
1
 10
255.2940159659
 20
-292.0441739425
 11
255.2705679659
 21
-291.9282929425
  0
LINE
  8
2
  6
CONTINUOUS
 62
1
 10
255.3091839659
 20
-291.6149199425
 11
255.2400509659
 21
-292.1758919425
  0
LINE
  8
2
  6
CONTINUOUS
 62
1
 10
253.8750869659
 20
-291.6149219425
 11
253.9442199659
 21
-292.1758939425
  0
LINE
  8
2
  6
CONTINUOUS
 62
1
 10
253.8256629659
 20
-291.8592289425
 11
253.8750959659
 21
-291.6149249425
  0
LINE
  8
2
  6
CONTINUOUS
 62
1
 10
253.8826119659
 20
-287.5558929425
 11
251.5921379659
 21
-287.5558929425
  0
LINE
  8
2
  6
CONTINUOUS
 62
1
 10
257.7921389659
 20
-290.6158939425
 11
257.7921389659
 21
-292.0276519425
  0
LINE
  8
2
  6
CONTINUOUS
 62
1
 10
257.2921389659
 20
-290.5658939425
 11
257.2921389659
 21
-292.1758939425
  0
LINE
  8
2
  6
CONTINUOUS
 62
1
 10
252.8421359659
 20
-290.0758939425
 11
253.0921359659
 21
-290.0758939425
  0
LINE
  8
2
  6
CONTINUOUS
 62
1
 10
253.0921359659
 20
-289.7081209425
 11
253.0921359659
 21
-290.0758939425
  0
LINE
  8
2
  6
CONTINUOUS
 62
1
 10
252.8421359659
 20
-290.0290459425
 11
252.8421359659
 21
-290.0758939425
  0
LINE
  8
2
  6
CONTINUOUS
 62
1
 10
252.3421359659
 20
-290.0758939425
 11
252.0921359659
 21
-290.0758939425
  0
LINE
  8
2
  6
CONTINUOUS
 62
1
 10
252.3421359659
 20
-290.0290459425
 11
252.3421359659
 21
-290.0758939425
  0
LINE
  8
2
  6
CONTINUOUS
 62
1
 10
252.0921359659
 20
-289.7081209425
 11
252.0921359659
 21
-290.0758939425
  0
LINE
  8
2
  6
CONTINUOUS
 62
1
 10
252.1858879659
 20
-289.5758949425
 11
252.1381479659
 21
-289.6793439425
  0
LINE
  8
2
  6
CONTINUOUS
 62
1
 10
252.9983869659
 20
-289.5758949425
 11
253.0461269659
 21
-289.6793449425
  0
LINE
  8
2
  6
CONTINUOUS
 62
1
 10
255.3421359659
 20
-290.0758939425
 11
255.5921359659
 21
-290.0758939425
  0
LINE
  8
2
  6
CONTINUOUS
 62
1
 10
255.5921359659
 20
-289.7081209425
 11
255.5921359659
 21
-290.0758939425
  0
LINE
  8
2
  6
CONTINUOUS
 62
1
 10
255.3421359659
 20
-290.0290459425
 11
255.3421359659
 21
-290.0758939425
  0
LINE
  8
2
  6
CONTINUOUS
 62
1
 10
254.8421359659
 20
-290.0758939425
 11
254.5921359659
 21
-290.0758939425
  0
LINE
  8
2
  6
CONTINUOUS
 62
1
 10
254.8421359659
 20
-290.0290459425
 11
254.8421359659
 21
-290.0758939425
  0
LINE
  8
2
  6
CONTINUOUS
 62
1
 10
254.5921359659
 20
-289.7081209425
 11
254.5921359659
 21
-290.0758939425
  0
LINE
  8
2
  6
CONTINUOUS
 62
1
 10
254.6858869659
 20
-289.5758939425
 11
254.6381469659
 21
-289.6793439425
  0
LINE
  8
2
  6
CONTINUOUS
 62
1
 10
255.4983859659
 20
-289.5758959425
 11
255.5461259659
 21
-289.6793449425
  0
ARC
  8
2
  6
CONTINUOUS
 62
1
 10
246.6821359659
 20
-288.3758939425
 40
0.6400000000
 50
89.9999960000
 51
180.0000050000
  0
ARC
  8
2
  6
CONTINUOUS
 62
1
 10
245.9921369659
 20
-287.6558939425
 40
0.6000000000
 50
104.8351115820
 51
180.0000050000
  0
ARC
  8
2
  6
CONTINUOUS
 62
1
 10
245.6621359659
 20
-291.8558929425
 40
0.3200000000
 50
180.0000090000
 51
269.9999970000
  0
ARC
  8
2
  6
CONTINUOUS
 62
1
 10
247.4001939659
 20
-287.2867739425
 40
0.5000000000
 50
11.4389220000
 51
24.9457536051
  0
ARC
  8
2
  6
CONTINUOUS
 62
1
 10
247.5316139659
 20
-287.4320559425
 40
0.3000000000
 50
11.4389220000
 51
72.8263110000
  0
ARC
  8
2
  6
CONTINUOUS
 62
1
 10
249.7840779659
 20
-287.2867739425
 40
0.5000000000
 50
155.0542463949
 51
168.5610770000
  0
ARC
  8
2
  6
CONTINUOUS
 62
1
 10
249.6526539659
 20
-287.4320559425
 40
0.3000000000
 50
107.1736870000
 51
168.5610770000
  0
ARC
  8
2
  6
CONTINUOUS
 62
1
 10
249.7840799659
 20
-291.9450139425
 40
0.5000000000
 50
191.4389230000
 51
207.5006860000
  0
ARC
  8
2
  6
CONTINUOUS
 62
1
 10
249.9292959659
 20
-291.6758929425
 40
0.5000000000
 50
252.8263130000
 51
270.0000040000
  0
ARC
  8
2
  6
CONTINUOUS
 62
1
 10
249.6526539659
 20
-291.7997319425
 40
0.3000000000
 50
191.4389230000
 51
252.8263130000
  0
ARC
  8
2
  6
CONTINUOUS
 62
1
 10
247.4001939659
 20
-291.9450139425
 40
0.5000000000
 50
332.4993140000
 51
348.5610780000
  0
ARC
  8
2
  6
CONTINUOUS
 62
1
 10
247.2549719659
 20
-291.6758929425
 40
0.5000000000
 50
270.0000040000
 51
287.1736890000
  0
ARC
  8
2
  6
CONTINUOUS
 62
1
 10
247.5316139659
 20
-291.7997319425
 40
0.3000000000
 50
287.1736890000
 51
348.5610780000
  0
ARC
  8
2
  6
CONTINUOUS
 62
1
 10
250.5921399659
 20
-290.0290459425
 40
0.2500000000
 50
0.0000090000
 51
90.0000030000
  0
ARC
  8
2
  6
CONTINUOUS
 62
1
 10
250.5921399659
 20
-289.7081209425
 40
0.5000000000
 50
164.6655340000
 51
179.9999910000
  0
ARC
  8
2
  6
CONTINUOUS
 62
1
 10
250.5921399659
 20
-289.4758929425
 40
0.6500000000
 50
247.3801390000
 51
270.0000040000
  0
ARC
  8
2
  6
CONTINUOUS
 62
1
 10
250.5921399659
 20
-290.0290459425
 40
0.2500000000
 50
89.9999960000
 51
179.9999910000
  0
ARC
  8
2
  6
CONTINUOUS
 62
1
 10
250.5921399659
 20
-289.8888519425
 40
0.5000000000
 50
0.0000090000
 51
24.7724080000
  0
ARC
  8
2
  6
CONTINUOUS
 62
1
 10
250.5921399659
 20
-289.7081209425
 40
0.5000000000
 50
0.0000090000
 51
15.3344680000
  0
ARC
  8
2
  6
CONTINUOUS
 62
1
 10
250.5921399659
 20
-289.4758929425
 40
0.6500000000
 50
270.0000040000
 51
292.6198700000
  0
ARC
  8
2
  6
CONTINUOUS
 62
1
 10
250.5921399659
 20
-289.8888519425
 40
0.5000000000
 50
155.2275920000
 51
179.9999910000
  0
ARC
  8
2
  6
CONTINUOUS
 62
1
 10
248.0921399659
 20
-289.8888519425
 40
0.5000000000
 50
155.2275920000
 51
179.9999910000
  0
ARC
  8
2
  6
CONTINUOUS
 62
1
 10
248.0921399659
 20
-290.0290459425
 40
0.2500000000
 50
0.0000090000
 51
90.0000030000
  0
ARC
  8
2
  6
CONTINUOUS
 62
1
 10
248.0921399659
 20
-289.7081209425
 40
0.5000000000
 50
164.6655340000
 51
179.9999910000
  0
ARC
  8
2
  6
CONTINUOUS
 62
1
 10
248.0921399659
 20
-289.4758929425
 40
0.6500000000
 50
247.3801390000
 51
270.0000040000
  0
ARC
  8
2
  6
CONTINUOUS
 62
1
 10
248.0921399659
 20
-290.0290459425
 40
0.2500000000
 50
89.9999960000
 51
179.9999910000
  0
ARC
  8
2
  6
CONTINUOUS
 62
1
 10
248.0921399659
 20
-289.8888519425
 40
0.5000000000
 50
0.0000090000
 51
24.7724080000
  0
ARC
  8
2
  6
CONTINUOUS
 62
1
 10
248.0921399659
 20
-289.7081209425
 40
0.5000000000
 50
0.0000090000
 51
15.3344680000
  0
ARC
  8
2
  6
CONTINUOUS
 62
1
 10
248.0921399659
 20
-289.4758929425
 40
0.6500000000
 50
270.0000040000
 51
292.6198700000
  0
ARC
  8
2
  6
CONTINUOUS
 62
1
 10
255.0921359659
 20
-289.4758929425
 40
0.6500000000
 50
247.3801320000
 51
269.9999970000
  0
ARC
  8
2
  6
CONTINUOUS
 62
1
 10
255.0921359659
 20
-289.7081209425
 40
0.5000000000
 50
164.6655340000
 51
179.9999910000
  0
ARC
  8
2
  6
CONTINUOUS
 62
1
 10
256.5021399659
 20
-288.3758939425
 40
0.6400000000
 50
0.0000000000
 51
90.0000030000
  0
ARC
  8
2
  6
CONTINUOUS
 62
1
 10
257.1921379659
 20
-287.6558939425
 40
0.6000000000
 50
0.0000000000
 51
75.1648884180
  0
ARC
  8
2
  6
CONTINUOUS
 62
1
 10
257.5221399659
 20
-291.8558929425
 40
0.3200000000
 50
269.9999970000
 51
0.0000000000
  0
ARC
  8
2
  6
CONTINUOUS
 62
1
 10
255.7840819659
 20
-287.2867739425
 40
0.5000000000
 50
155.0542463949
 51
168.5610770000
  0
ARC
  8
2
  6
CONTINUOUS
 62
1
 10
255.6526599659
 20
-287.4320559425
 40
0.3000000000
 50
107.1736870000
 51
168.5610770000
  0
ARC
  8
2
  6
CONTINUOUS
 62
1
 10
253.4001979659
 20
-287.2867739425
 40
0.5000000000
 50
11.4389220000
 51
24.9457536051
  0
ARC
  8
2
  6
CONTINUOUS
 62
1
 10
253.5316219659
 20
-287.4320559425
 40
0.3000000000
 50
11.4389220000
 51
72.8263110000
  0
ARC
  8
2
  6
CONTINUOUS
 62
1
 10
253.4001939659
 20
-291.9450139425
 40
0.5000000000
 50
332.4993140000
 51
348.5610780000
  0
ARC
  8
2
  6
CONTINUOUS
 62
1
 10
253.2549799659
 20
-291.6758929425
 40
0.5000000000
 50
269.9999970000
 51
287.1736890000
  0
ARC
  8
2
  6
CONTINUOUS
 62
1
 10
253.5316219659
 20
-291.7997319425
 40
0.3000000000
 50
287.1736890000
 51
348.5610780000
  0
ARC
  8
2
  6
CONTINUOUS
 62
1
 10
255.7840819659
 20
-291.9450139425
 40
0.5000000000
 50
191.4389230000
 51
207.5006860000
  0
ARC
  8
2
  6
CONTINUOUS
 62
1
 10
255.9293019659
 20
-291.6758929425
 40
0.5000000000
 50
252.8263130000
 51
269.9999970000
  0
ARC
  8
2
  6
CONTINUOUS
 62
1
 10
255.6526599659
 20
-291.7997319425
 40
0.3000000000
 50
191.4389230000
 51
252.8263130000
  0
ARC
  8
2
  6
CONTINUOUS
 62
1
 10
252.5921359659
 20
-290.0290459425
 40
0.2500000000
 50
89.9999960000
 51
179.9999910000
  0
ARC
  8
2
  6
CONTINUOUS
 62
1
 10
252.5921359659
 20
-289.7081209425
 40
0.5000000000
 50
0.0000030000
 51
15.3344680000
  0
ARC
  8
2
  6
CONTINUOUS
 62
1
 10
252.5921359659
 20
-289.4758929425
 40
0.6500000000
 50
269.9999970000
 51
292.6198630000
  0
ARC
  8
2
  6
CONTINUOUS
 62
1
 10
252.5921359659
 20
-290.0290459425
 40
0.2500000000
 50
0.0000030000
 51
90.0000030000
  0
ARC
  8
2
  6
CONTINUOUS
 62
1
 10
252.5921359659
 20
-289.8888519425
 40
0.5000000000
 50
155.2275920000
 51
179.9999910000
  0
ARC
  8
2
  6
CONTINUOUS
 62
1
 10
252.5921359659
 20
-289.7081209425
 40
0.5000000000
 50
164.6655340000
 51
179.9999910000
  0
ARC
  8
2
  6
CONTINUOUS
 62
1
 10
252.5921359659
 20
-289.4758929425
 40
0.6500000000
 50
247.3801320000
 51
269.9999970000
  0
ARC
  8
2
  6
CONTINUOUS
 62
1
 10
252.5921359659
 20
-289.8888519425
 40
0.5000000000
 50
0.0000090000
 51
24.7724080000
  0
ARC
  8
2
  6
CONTINUOUS
 62
1
 10
255.0921359659
 20
-289.8888519425
 40
0.5000000000
 50
0.0000090000
 51
24.7724080000
  0
ARC
  8
2
  6
CONTINUOUS
 62
1
 10
255.0921359659
 20
-290.0290459425
 40
0.2500000000
 50
89.9999960000
 51
179.9999910000
  0
ARC
  8
2
  6
CONTINUOUS
 62
1
 10
255.0921359659
 20
-289.7081209425
 40
0.5000000000
 50
0.0000030000
 51
15.3344680000
  0
ARC
  8
2
  6
CONTINUOUS
 62
1
 10
255.0921359659
 20
-289.4758929425
 40
0.6500000000
 50
269.9999970000
 51
292.6198630000
  0
ARC
  8
2
  6
CONTINUOUS
 62
1
 10
255.0921359659
 20
-290.0290459425
 40
0.2500000000
 50
0.0000030000
 51
90.0000030000
  0
ARC
  8
2
  6
CONTINUOUS
 62
1
 10
255.0921359659
 20
-289.8888519425
 40
0.5000000000
 50
155.2275920000
 51
179.9999910000
  0
LINE
  8
2
  6
CONTINUOUS
 62
1
 10
257.5221399491
 20
-292.1758929425
 11
245.6621359659
 21
-292.1758929425
  0
LINE
  8
1
  6
CONTINUOUS
 62
1
 10
245.3421374659
 20
-287.0758939425
 11
257.8421374659
 21
-287.0758939425
  0
LINE
  8
1
  6
CONTINUOUS
 62
1
 10
257.8421374659
 20
-287.0758939425
 11
257.8421374659
 21
-292.4758939425
  0
LINE
  8
1
  6
CONTINUOUS
 62
1
 10
257.8421374659
 20
-292.4758939425
 11
245.3421374659
 21
-292.4758939425
  0
LINE
  8
1
  6
CONTINUOUS
 62
1
 10
245.3421374659
 20
-292.4758939425
 11
245.3421374659
 21
-287.0758939425
  0
POINT
  8
3
  6
CONTINUOUS
 62
7
 10
251.5921374659
 20
-289.4758939425
  0
CIRCLE
  8
3
  6
CONTINUOUS
 62
6
 10
251.5921374659
 20
-247.1011842222
 40
3.0285714286
  0
LINE
  8
3
  6
CONTINUOUS
 62
6
 10
250.2536853443
 20
-245.7627321006
 11
252.9305895874
 21
-248.4396363437
  0
LINE
  8
3
  6
CONTINUOUS
 62
6
 10
250.2536853443
 20
-248.4396363437
 11
252.9305895874
 21
-245.7627321006
  0
CIRCLE
  8
3
  6
CONTINUOUS
 62
6
 10
251.5921374659
 20
-247.1011842222
 40
2.6500000000
  0
CIRCLE
  8
3
  6
CONTINUOUS
 62
6
 10
251.5921374659
 20
-218.1011842222
 40
3.0285714286
  0
LINE
  8
3
  6
CONTINUOUS
 62
6
 10
250.2536853443
 20
-216.7627321006
 11
252.9305895874
 21
-219.4396363437
  0
LINE
  8
3
  6
CONTINUOUS
 62
6
 10
250.2536853443
 20
-219.4396363437
 11
252.9305895874
 21
-216.7627321006
  0
CIRCLE
  8
3
  6
CONTINUOUS
 62
6
 10
251.5921374659
 20
-218.1011842222
 40
2.6500000000
  0
LINE
  8
1
  6
HIDDEN
 62
1
 10
260.0921374659
 20
-214.8011842222
 11
243.0921374659
 21
-214.8011842222
  0
LINE
  8
1
  6
HIDDEN
 62
1
 10
242.0921374659
 20
-249.4011842222
 11
242.0921374659
 21
-248.6011842222
  0
LINE
  8
1
  6
HIDDEN
 62
1
 10
242.0921374659
 20
-245.6011842222
 11
242.0921374659
 21
-219.6011842222
  0
LINE
  8
1
  6
HIDDEN
 62
1
 10
242.0921374659
 20
-216.6011842222
 11
242.0921374659
 21
-215.8011842222
  0
LINE
  8
1
  6
HIDDEN
 62
1
 10
243.0921374659
 20
-250.4011842222
 11
260.0921374659
 21
-250.4011842222
  0
LINE
  8
1
  6
HIDDEN
 62
1
 10
261.0921374659
 20
-249.4011842222
 11
261.0921374659
 21
-248.6011842222
  0
LINE
  8
1
  6
HIDDEN
 62
1
 10
261.0921374659
 20
-245.6011842222
 11
261.0921374659
 21
-219.6011842222
  0
LINE
  8
1
  6
HIDDEN
 62
1
 10
261.0921374659
 20
-216.6011842222
 11
261.0921374659
 21
-215.8011842222
  0
LINE
  8
1
  6
CONTINUOUS
 62
1
 10
243.6921374659
 20
-221.2011842222
 11
259.4921374659
 21
-221.2011842222
  0
LINE
  8
1
  6
CONTINUOUS
 62
1
 10
243.1921374659
 20
-243.5011842222
 11
243.1921374659
 21
-221.7011842222
  0
LINE
  8
1
  6
CONTINUOUS
 62
1
 10
259.4921374659
 20
-244.0011842222
 11
243.6921374659
 21
-244.0011842222
  0
LINE
  8
1
  6
CONTINUOUS
 62
1
 10
259.9921374659
 20
-243.5011842222
 11
259.9921374659
 21
-221.7011842222
  0
ARC
  8
1
  6
HIDDEN
 62
1
 10
243.0921374659
 20
-215.8011842222
 40
1.0000000000
 50
90.0000000000
 51
180.0000000000
  0
ARC
  8
1
  6
HIDDEN
 62
1
 10
260.0921374659
 20
-215.8011842222
 40
1.0000000000
 50
0.0000000000
 51
90.0000000000
  0
ARC
  8
1
  6
HIDDEN
 62
1
 10
260.0921374659
 20
-249.4011842222
 40
1.0000000000
 50
270.0000000000
 51
0.0000000000
  0
ARC
  8
1
  6
HIDDEN
 62
1
 10
243.0921374659
 20
-249.4011842222
 40
1.0000000000
 50
180.0000000000
 51
270.0000000000
  0
LINE
  8
1
  6
HIDDEN
 62
1
 10
242.0921374659
 20
-248.6011842222
 11
244.0921374659
 21
-248.6011842222
  0
LINE
  8
1
  6
HIDDEN
 62
1
 10
244.0921374659
 20
-248.6011842222
 11
244.0921374659
 21
-245.6011842222
  0
LINE
  8
1
  6
HIDDEN
 62
1
 10
244.0921374659
 20
-245.6011842222
 11
242.0921374659
 21
-245.6011842222
  0
LINE
  8
1
  6
HIDDEN
 62
1
 10
261.0921374659
 20
-248.6011842222
 11
259.0921374659
 21
-248.6011842222
  0
LINE
  8
1
  6
HIDDEN
 62
1
 10
259.0921374659
 20
-248.6011842222
 11
259.0921374659
 21
-245.6011842222
  0
LINE
  8
1
  6
HIDDEN
 62
1
 10
259.0921374659
 20
-245.6011842222
 11
261.0921374659
 21
-245.6011842222
  0
LINE
  8
1
  6
HIDDEN
 62
1
 10
261.0921374659
 20
-216.6011842222
 11
259.0921374659
 21
-216.6011842222
  0
LINE
  8
1
  6
HIDDEN
 62
1
 10
259.0921374659
 20
-216.6011842222
 11
259.0921374659
 21
-219.6011842222
  0
LINE
  8
1
  6
HIDDEN
 62
1
 10
259.0921374659
 20
-219.6011842222
 11
261.0921374659
 21
-219.6011842222
  0
LINE
  8
1
  6
HIDDEN
 62
1
 10
242.0921374659
 20
-216.6011842222
 11
244.0921374659
 21
-216.6011842222
  0
LINE
  8
1
  6
HIDDEN
 62
1
 10
244.0921374659
 20
-216.6011842222
 11
244.0921374659
 21
-219.6011842222
  0
LINE
  8
1
  6
HIDDEN
 62
1
 10
244.0921374659
 20
-219.6011842222
 11
242.0921374659
 21
-219.6011842222
  0
ARC
  8
1
  6
CONTINUOUS
 62
1
 10
259.4921374659
 20
-221.7011842222
 40
0.5000000000
 50
0.0000000000
 51
90.0000000000
  0
ARC
  8
1
  6
CONTINUOUS
 62
1
 10
243.6921374659
 20
-221.7011842222
 40
0.5000000000
 50
90.0000000000
 51
180.0000000000
  0
ARC
  8
1
  6
CONTINUOUS
 62
1
 10
243.6921374659
 20
-243.5011842222
 40
0.5000000000
 50
180.0000000000
 51
270.0000000000
  0
ARC
  8
1
  6
CONTINUOUS
 62
1
 10
259.4921374659
 20
-243.5011842222
 40
0.5000000000
 50
270.0000000000
 51
0.0000000000
  0
LINE
  8
3
  6
CONTINUOUS
 62
1
 10
247.0803607706
 20
-228.5629609175
 11
248.7639141612
 21
-226.8794075269
  0
LINE
  8
3
  6
CONTINUOUS
 62
1
 10
247.4784368890
 20
-228.6898847990
 11
248.8558380427
 21
-227.3124836453
  0
LINE
  8
3
  6
CONTINUOUS
 62
1
 10
247.0071374659
 20
-235.0461842222
 11
247.0071374659
 21
-234.1511842222
  0
LINE
  8
3
  6
CONTINUOUS
 62
1
 10
247.0071374659
 20
-229.6511842222
 11
247.0071374659
 21
-228.7397376128
  0
LINE
  8
3
  6
CONTINUOUS
 62
1
 10
247.2121374659
 20
-230.1511842222
 11
247.2121374659
 21
-233.6511842222
  0
LINE
  8
3
  6
CONTINUOUS
 62
1
 10
247.2729541220
 20
-230.1511842222
 11
247.2729541220
 21
-233.6511842222
  0
LINE
  8
3
  6
CONTINUOUS
 62
1
 10
247.3671374659
 20
-234.6211842222
 11
247.3671374659
 21
-234.1511842222
  0
LINE
  8
3
  6
CONTINUOUS
 62
1
 10
247.3671374659
 20
-229.6511842222
 11
247.3671374659
 21
-228.9585853759
  0
LINE
  8
3
  6
CONTINUOUS
 62
1
 10
248.7921374659
 20
-232.3911842222
 11
248.7921374659
 21
-229.8111842222
  0
LINE
  8
3
  6
CONTINUOUS
 62
1
 10
255.9271374659
 20
-235.2961842222
 11
247.2571374659
 21
-235.2961842222
  0
LINE
  8
3
  6
CONTINUOUS
 62
1
 10
249.2921374659
 20
-232.1911842222
 11
249.2921374659
 21
-230.0111842222
  0
LINE
  8
3
  6
CONTINUOUS
 62
1
 10
255.4371374659
 20
-235.0011842222
 11
247.7471374659
 21
-235.0011842222
  0
LINE
  8
3
  6
CONTINUOUS
 62
1
 10
249.8421374659
 20
-233.7010743592
 11
249.8421374659
 21
-232.6911842222
  0
LINE
  8
3
  6
CONTINUOUS
 62
1
 10
249.8421374659
 20
-229.5111842222
 11
249.8421374659
 21
-228.5012940851
  0
LINE
  8
3
  6
CONTINUOUS
 62
1
 10
250.8421374659
 20
-233.7010743592
 11
250.8421374659
 21
-232.6911842222
  0
LINE
  8
3
  6
CONTINUOUS
 62
1
 10
250.8421374659
 20
-229.5111842222
 11
250.8421374659
 21
-228.5012940851
  0
LINE
  8
3
  6
CONTINUOUS
 62
1
 10
253.3421374659
 20
-233.7011842222
 11
252.3421374659
 21
-233.7011842222
  0
LINE
  8
3
  6
CONTINUOUS
 62
1
 10
250.8421374659
 20
-233.7011842222
 11
249.8421374659
 21
-233.7011842222
  0
LINE
  8
3
  6
CONTINUOUS
 62
1
 10
254.0921374659
 20
-232.6911842222
 11
249.0921374659
 21
-232.6911842222
  0
LINE
  8
3
  6
CONTINUOUS
 62
1
 10
253.8921374659
 20
-232.1911842222
 11
249.2921374659
 21
-232.1911842222
  0
LINE
  8
3
  6
CONTINUOUS
 62
1
 10
252.3421374659
 20
-233.7010743592
 11
252.3421374659
 21
-232.6911842222
  0
LINE
  8
3
  6
CONTINUOUS
 62
1
 10
252.3421374659
 20
-229.5111842222
 11
252.3421374659
 21
-228.5012940851
  0
LINE
  8
3
  6
CONTINUOUS
 62
1
 10
253.3421374659
 20
-233.7010743592
 11
253.3421374659
 21
-232.6911842222
  0
LINE
  8
3
  6
CONTINUOUS
 62
1
 10
253.3421374659
 20
-229.5111842222
 11
253.3421374659
 21
-228.5012940851
  0
LINE
  8
3
  6
CONTINUOUS
 62
1
 10
253.8921374659
 20
-230.0111842222
 11
253.8921374659
 21
-232.1911842222
  0
LINE
  8
3
  6
CONTINUOUS
 62
1
 10
254.3921374659
 20
-232.3911842222
 11
254.3921374659
 21
-229.8111842222
  0
LINE
  8
3
  6
CONTINUOUS
 62
1
 10
249.2921374659
 20
-230.0111842222
 11
253.8921374659
 21
-230.0111842222
  0
LINE
  8
3
  6
CONTINUOUS
 62
1
 10
249.0921374659
 20
-229.5111842222
 11
254.0921374659
 21
-229.5111842222
  0
LINE
  8
3
  6
CONTINUOUS
 62
1
 10
255.5171055104
 20
-230.1511842222
 11
255.5171055104
 21
-233.6511842222
  0
LINE
  8
3
  6
CONTINUOUS
 62
1
 10
255.5725559910
 20
-230.1511842222
 11
255.5725559910
 21
-233.6511842222
  0
LINE
  8
3
  6
CONTINUOUS
 62
1
 10
255.8171374659
 20
-228.9585853759
 11
255.8171374659
 21
-229.6511842222
  0
LINE
  8
3
  6
CONTINUOUS
 62
1
 10
255.8171374659
 20
-234.1511842222
 11
255.8171374659
 21
-234.6211842222
  0
LINE
  8
3
  6
CONTINUOUS
 62
1
 10
255.9113208097
 20
-230.1511842222
 11
255.9113208097
 21
-233.6511842222
  0
LINE
  8
3
  6
CONTINUOUS
 62
1
 10
255.9721374659
 20
-230.1511842222
 11
255.9721374659
 21
-233.6511842222
  0
LINE
  8
3
  6
CONTINUOUS
 62
1
 10
256.1771374659
 20
-228.7397376128
 11
256.1771374659
 21
-229.6511842222
  0
LINE
  8
3
  6
CONTINUOUS
 62
1
 10
256.1771374659
 20
-234.1511842222
 11
256.1771374659
 21
-235.0461842222
  0
LINE
  8
3
  6
CONTINUOUS
 62
1
 10
253.3421374659
 20
-228.5011842222
 11
252.3421374659
 21
-228.5011842222
  0
LINE
  8
3
  6
CONTINUOUS
 62
1
 10
250.8421374659
 20
-228.5011842222
 11
249.8421374659
 21
-228.5011842222
  0
LINE
  8
3
  6
CONTINUOUS
 62
1
 10
249.1245386196
 20
-227.2011842222
 11
254.0597363122
 21
-227.2011842222
  0
LINE
  8
3
  6
CONTINUOUS
 62
1
 10
254.3284368890
 20
-227.3124836453
 11
255.7058380427
 21
-228.6898847990
  0
LINE
  8
3
  6
CONTINUOUS
 62
1
 10
248.9406908565
 20
-226.8061842222
 11
254.2435840753
 21
-226.8061842222
  0
LINE
  8
3
  6
CONTINUOUS
 62
1
 10
254.4203607706
 20
-226.8794075269
 11
256.1039141612
 21
-228.5629609175
  0
ARC
  8
3
  6
CONTINUOUS
 62
1
 10
255.9271374659
 20
-235.0461842222
 40
0.2500000000
 50
270.0000000000
 51
0.0000000000
  0
ARC
  8
3
  6
CONTINUOUS
 62
1
 10
247.2571374659
 20
-235.0461842222
 40
0.2500000000
 50
180.0000000000
 51
270.0000000000
  0
ARC
  8
3
  6
CONTINUOUS
 62
1
 10
255.9271374659
 20
-228.7397376128
 40
0.2500000000
 50
0.0000000000
 51
45.0000000000
  0
ARC
  8
3
  6
CONTINUOUS
 62
1
 10
254.2435840753
 20
-227.0561842222
 40
0.2500000000
 50
45.0000000000
 51
90.0000000000
  0
ARC
  8
3
  6
CONTINUOUS
 62
1
 10
247.2571374659
 20
-228.7397376128
 40
0.2500000000
 50
135.0000000000
 51
180.0000000000
  0
ARC
  8
3
  6
CONTINUOUS
 62
1
 10
248.9406908565
 20
-227.0561842222
 40
0.2500000000
 50
90.0000000000
 51
135.0000000000
  0
ARC
  8
3
  6
CONTINUOUS
 62
1
 10
254.0921374659
 20
-232.3911842222
 40
0.3000000000
 50
270.0000000000
 51
0.0000000000
  0
ARC
  8
3
  6
CONTINUOUS
 62
1
 10
249.0921374659
 20
-232.3911842222
 40
0.3000000000
 50
180.0000000000
 51
270.0000000000
  0
ARC
  8
3
  6
CONTINUOUS
 62
1
 10
249.0921374659
 20
-229.8111842222
 40
0.3000000000
 50
90.0000000000
 51
180.0000000000
  0
ARC
  8
3
  6
CONTINUOUS
 62
1
 10
254.0921374659
 20
-229.8111842222
 40
0.3000000000
 50
0.0000000000
 51
90.0000000000
  0
ARC
  8
3
  6
CONTINUOUS
 62
1
 10
255.4371374659
 20
-228.9585853759
 40
0.3800000000
 50
0.0000000000
 51
45.0000000000
  0
ARC
  8
3
  6
CONTINUOUS
 62
1
 10
254.0597363122
 20
-227.5811842222
 40
0.3800000000
 50
45.0000000000
 51
90.0000000000
  0
ARC
  8
3
  6
CONTINUOUS
 62
1
 10
249.1245386196
 20
-227.5811842222
 40
0.3800000000
 50
90.0000000000
 51
135.0000000000
  0
ARC
  8
3
  6
CONTINUOUS
 62
1
 10
247.7471374659
 20
-228.9585853759
 40
0.3800000000
 50
135.0000000000
 51
180.0000000000
  0
ARC
  8
3
  6
CONTINUOUS
 62
1
 10
255.4371374659
 20
-234.6211842222
 40
0.3800000000
 50
270.0000000000
 51
0.0000000000
  0
ARC
  8
3
  6
CONTINUOUS
 62
1
 10
247.7471374659
 20
-234.6211842222
 40
0.3800000000
 50
180.0000000000
 51
270.0000000000
  0
LINE
  8
3
  6
CONTINUOUS
 62
1
 10
247.6671694214
 20
-230.1511842222
 11
247.6671694214
 21
-233.6511842222
  0
LINE
  8
3
  6
CONTINUOUS
 62
1
 10
247.6117189408
 20
-230.1511842222
 11
247.6117189408
 21
-233.6511842222
  0
LINE
  8
3
  6
CONTINUOUS
 62
1
 10
255.8171374659
 20
-229.6511842222
 11
256.1771374659
 21
-229.6511842222
  0
LINE
  8
3
  6
CONTINUOUS
 62
1
 10
255.5171374659
 20
-230.1511842222
 11
256.1771374659
 21
-230.1511842220
  0
LINE
  8
3
  6
CONTINUOUS
 62
1
 10
256.1771374659
 20
-233.6511842221
 11
255.5171374659
 21
-233.6511842222
  0
LINE
  8
3
  6
CONTINUOUS
 62
1
 10
247.6671694214
 20
-233.6511842222
 11
247.0071374659
 21
-233.6511842222
  0
LINE
  8
3
  6
CONTINUOUS
 62
1
 10
247.0071374659
 20
-234.1511842222
 11
247.3671374659
 21
-234.1511842222
  0
LINE
  8
3
  6
CONTINUOUS
 62
1
 10
247.0071374659
 20
-230.1511842222
 11
247.6671694214
 21
-230.1511842222
  0
LINE
  8
3
  6
CONTINUOUS
 62
1
 10
247.0071374659
 20
-229.6511842222
 11
247.3671374659
 21
-229.6511842222
  0
LINE
  8
1
  6
CONTINUOUS
 62
1
 10
247.0071374659
 20
-228.6361842222
 11
248.8371374659
 21
-226.8061842222
  0
LINE
  8
1
  6
CONTINUOUS
 62
1
 10
248.8371374659
 20
-226.8061842222
 11
254.3471374659
 21
-226.8061842222
  0
LINE
  8
1
  6
CONTINUOUS
 62
1
 10
254.3471374659
 20
-226.8061842222
 11
256.1771374659
 21
-228.6361842222
  0
LINE
  8
1
  6
CONTINUOUS
 62
1
 10
256.1771374659
 20
-228.6361842222
 11
256.1771374659
 21
-235.2961842222
  0
LINE
  8
1
  6
CONTINUOUS
 62
1
 10
256.1771374659
 20
-235.2961842222
 11
247.0071374659
 21
-235.2961842222
  0
LINE
  8
1
  6
CONTINUOUS
 62
1
 10
247.0071374659
 20
-235.2961842222
 11
247.0071374659
 21
-228.6361842222
  0
POINT
  8
3
  6
CONTINUOUS
 62
7
 10
251.5921374659
 20
-232.6011842222
  0
LINE
  8
1
  6
CONTINUOUS
 62
7
 10
243.0921374659
 20
-221.1011842222
 11
260.0921374659
 21
-221.1011842222
  0
LINE
  8
1
  6
CONTINUOUS
 62
7
 10
260.0921374659
 20
-221.1011842222
 11
260.0921374659
 21
-244.1011842222
  0
LINE
  8
1
  6
CONTINUOUS
 62
7
 10
260.0921374659
 20
-244.1011842222
 11
243.0921374659
 21
-244.1011842222
  0
LINE
  8
1
  6
CONTINUOUS
 62
7
 10
243.0921374659
 20
-244.1011842222
 11
243.0921374659
 21
-221.1011842222
  0
CIRCLE
  8
3
  6
CONTINUOUS
 62
6
 10
209.6421374659
 20
-247.1011842222
 40
3.0285714286
  0
LINE
  8
3
  6
CONTINUOUS
 62
6
 10
208.3036853443
 20
-245.7627321006
 11
210.9805895874
 21
-248.4396363437
  0
LINE
  8
3
  6
CONTINUOUS
 62
6
 10
208.3036853443
 20
-248.4396363437
 11
210.9805895874
 21
-245.7627321006
  0
CIRCLE
  8
3
  6
CONTINUOUS
 62
6
 10
209.6421374659
 20
-218.1011842222
 40
3.0285714286
  0
LINE
  8
3
  6
CONTINUOUS
 62
6
 10
208.3036853443
 20
-216.7627321006
 11
210.9805895874
 21
-219.4396363437
  0
LINE
  8
3
  6
CONTINUOUS
 62
6
 10
208.3036853443
 20
-219.4396363437
 11
210.9805895874
 21
-216.7627321006
  0
LINE
  8
1
  6
HIDDEN
 62
1
 10
218.1421374659
 20
-214.8011842222
 11
201.1421374659
 21
-214.8011842222
  0
LINE
  8
1
  6
HIDDEN
 62
1
 10
200.1421374659
 20
-249.4011842222
 11
200.1421374659
 21
-248.6011842222
  0
LINE
  8
1
  6
HIDDEN
 62
1
 10
200.1421374659
 20
-245.6011842222
 11
200.1421374659
 21
-219.6011842222
  0
LINE
  8
1
  6
HIDDEN
 62
1
 10
200.1421374659
 20
-216.6011842222
 11
200.1421374659
 21
-215.8011842222
  0
LINE
  8
1
  6
HIDDEN
 62
1
 10
201.1421374659
 20
-250.4011842222
 11
218.1421374659
 21
-250.4011842222
  0
LINE
  8
1
  6
HIDDEN
 62
1
 10
219.1421374659
 20
-249.4011842222
 11
219.1421374659
 21
-248.6011842222
  0
LINE
  8
1
  6
HIDDEN
 62
1
 10
219.1421374659
 20
-245.6011842222
 11
219.1421374659
 21
-219.6011842222
  0
LINE
  8
1
  6
HIDDEN
 62
1
 10
219.1421374659
 20
-216.6011842222
 11
219.1421374659
 21
-215.8011842222
  0
LINE
  8
1
  6
CONTINUOUS
 62
1
 10
201.7421374659
 20
-221.2011842222
 11
217.5421374659
 21
-221.2011842222
  0
LINE
  8
1
  6
CONTINUOUS
 62
1
 10
201.2421374659
 20
-243.5011842222
 11
201.2421374659
 21
-221.7011842222
  0
LINE
  8
1
  6
CONTINUOUS
 62
1
 10
217.5421374659
 20
-244.0011842222
 11
201.7421374659
 21
-244.0011842222
  0
LINE
  8
1
  6
CONTINUOUS
 62
1
 10
218.0421374659
 20
-243.5011842222
 11
218.0421374659
 21
-221.7011842222
  0
ARC
  8
1
  6
HIDDEN
 62
1
 10
201.1421374659
 20
-215.8011842222
 40
1.0000000000
 50
90.0000000000
 51
180.0000000000
  0
ARC
  8
1
  6
HIDDEN
 62
1
 10
218.1421374659
 20
-215.8011842222
 40
1.0000000000
 50
0.0000000000
 51
90.0000000000
  0
ARC
  8
1
  6
HIDDEN
 62
1
 10
218.1421374659
 20
-249.4011842222
 40
1.0000000000
 50
270.0000000000
 51
0.0000000000
  0
ARC
  8
1
  6
HIDDEN
 62
1
 10
201.1421374659
 20
-249.4011842222
 40
1.0000000000
 50
180.0000000000
 51
270.0000000000
  0
LINE
  8
1
  6
HIDDEN
 62
1
 10
200.1421374659
 20
-248.6011842222
 11
202.1421374659
 21
-248.6011842222
  0
LINE
  8
1
  6
HIDDEN
 62
1
 10
202.1421374659
 20
-248.6011842222
 11
202.1421374659
 21
-245.6011842222
  0
LINE
  8
1
  6
HIDDEN
 62
1
 10
202.1421374659
 20
-245.6011842222
 11
200.1421374659
 21
-245.6011842222
  0
LINE
  8
1
  6
HIDDEN
 62
1
 10
219.1421374659
 20
-248.6011842222
 11
217.1421374659
 21
-248.6011842222
  0
LINE
  8
1
  6
HIDDEN
 62
1
 10
217.1421374659
 20
-248.6011842222
 11
217.1421374659
 21
-245.6011842222
  0
LINE
  8
1
  6
HIDDEN
 62
1
 10
217.1421374659
 20
-245.6011842222
 11
219.1421374659
 21
-245.6011842222
  0
LINE
  8
1
  6
HIDDEN
 62
1
 10
219.1421374659
 20
-216.6011842222
 11
217.1421374659
 21
-216.6011842222
  0
LINE
  8
1
  6
HIDDEN
 62
1
 10
217.1421374659
 20
-216.6011842222
 11
217.1421374659
 21
-219.6011842222
  0
LINE
  8
1
  6
HIDDEN
 62
1
 10
217.1421374659
 20
-219.6011842222
 11
219.1421374659
 21
-219.6011842222
  0
LINE
  8
1
  6
HIDDEN
 62
1
 10
200.1421374659
 20
-216.6011842222
 11
202.1421374659
 21
-216.6011842222
  0
LINE
  8
1
  6
HIDDEN
 62
1
 10
202.1421374659
 20
-216.6011842222
 11
202.1421374659
 21
-219.6011842222
  0
LINE
  8
1
  6
HIDDEN
 62
1
 10
202.1421374659
 20
-219.6011842222
 11
200.1421374659
 21
-219.6011842222
  0
ARC
  8
1
  6
CONTINUOUS
 62
1
 10
217.5421374659
 20
-221.7011842222
 40
0.5000000000
 50
0.0000000000
 51
90.0000000000
  0
ARC
  8
1
  6
CONTINUOUS
 62
1
 10
201.7421374659
 20
-221.7011842222
 40
0.5000000000
 50
90.0000000000
 51
180.0000000000
  0
ARC
  8
1
  6
CONTINUOUS
 62
1
 10
201.7421374659
 20
-243.5011842222
 40
0.5000000000
 50
180.0000000000
 51
270.0000000000
  0
ARC
  8
1
  6
CONTINUOUS
 62
1
 10
217.5421374659
 20
-243.5011842222
 40
0.5000000000
 50
270.0000000000
 51
0.0000000000
  0
LINE
  8
1
  6
CONTINUOUS
 62
7
 10
201.1421374659
 20
-221.1011842222
 11
218.1421374659
 21
-221.1011842222
  0
LINE
  8
1
  6
CONTINUOUS
 62
7
 10
218.1421374659
 20
-221.1011842222
 11
218.1421374659
 21
-244.1011842222
  0
LINE
  8
1
  6
CONTINUOUS
 62
7
 10
218.1421374659
 20
-244.1011842222
 11
201.1421374659
 21
-244.1011842222
  0
LINE
  8
1
  6
CONTINUOUS
 62
7
 10
201.1421374659
 20
-244.1011842222
 11
201.1421374659
 21
-221.1011842222
  0
POINT
  8
3
  6
CONTINUOUS
 62
7
 10
209.6421374659
 20
-232.6011842222
  0
POINT
  8
3
  6
CONTINUOUS
 62
7
 10
209.6421374659
 20
-232.6011842222
  0
POINT
  8
5
  6
CONTINUOUS
 62
6
 10
9.0000000001
 20
272.0000000000
  0
POINT
  8
5
  6
CONTINUOUS
 62
6
 10
9.0000000001
 20
272.0000000000
  0
POINT
  8
5
  6
CONTINUOUS
 62
6
 10
9.0000000001
 20
272.0000000000
  0
POINT
  8
5
  6
CONTINUOUS
 62
6
 10
9.0000000001
 20
272.0000000000
  0
POINT
  8
5
  6
CONTINUOUS
 62
6
 10
9.0000000001
 20
272.0000000000
  0
POINT
  8
1
  6
CONTINUOUS
 62
7
 10
9.0000000001
 20
272.0000000000
  0
POINT
  8
5
  6
CONTINUOUS
 62
6
 10
9.0000000001
 20
272.0000000000
  0
POINT
  8
5
  6
CONTINUOUS
 62
6
 10
9.0000000001
 20
272.0000000000
  0
POINT
  8
5
  6
CONTINUOUS
 62
6
 10
9.0000000001
 20
272.0000000000
  0
POINT
  8
5
  6
CONTINUOUS
 62
6
 10
9.0000000001
 20
272.0000000000
  0
INSERT
  8
1
  6
CONTINUOUS
 62
7
  2
S12
 10
9.0000000001
 20
272.0000000000
  0
INSERT
  8
1
  6
CONTINUOUS
 62
7
  2
S13
 10
9.0000000001
 20
272.0000000000
  0
TEXT
  8
1
  6
CONTINUOUS
 62
7
 10
14.500000
 20
270.750000
 40
2.500000
  1
'22/3/23
 41
0.770713
 50
0.000000
 51
0.000000
 72
   5
 73
   0
 11
24.500000
 21
270.750000
  0
TEXT
  8
1
  6
CONTINUOUS
 62
7
 10
26.397854
 20
270.612114
 40
2.500000
  1
PB追加に伴う変更
 41
0.854701
 50
0.000000
 51
0.000000
 72
   5
 73
   0
 11
46.397854
 21
270.612114
  0
TEXT
  8
1
  6
CONTINUOUS
 62
7
 10
91.500000
 20
270.500000
 40
3.000000
  1
山田
 41
0.921659
 50
0.000000
 51
0.000000
 72
   5
 73
   0
 11
97.500000
 21
270.500000
  0
POINT
  8
5
  6
CONTINUOUS
 62
6
 10
7.7490435001
 20
-46.9655230621
  0
POINT
  8
5
  6
CONTINUOUS
 62
6
 10
7.7490435002
 20
-46.9655230621
  0
POINT
  8
5
  6
CONTINUOUS
 62
6
 10
7.7490435002
 20
-46.9655230621
  0
POINT
  8
5
  6
CONTINUOUS
 62
6
 10
7.7490435002
 20
-46.9655230621
  0
POINT
  8
5
  6
CONTINUOUS
 62
6
 10
7.7490435002
 20
-46.9655230621
  0
POINT
  8
5
  6
CONTINUOUS
 62
6
 10
7.7490435002
 20
-46.9655230621
  0
POINT
  8
1
  6
CONTINUOUS
 62
7
 10
7.7490435002
 20
-46.9655230621
  0
POINT
  8
5
  6
CONTINUOUS
 62
6
 10
7.7490435002
 20
-46.9655230621
  0
POINT
  8
5
  6
CONTINUOUS
 62
6
 10
7.7490435002
 20
-46.9655230621
  0
POINT
  8
5
  6
CONTINUOUS
 62
6
 10
7.7490435002
 20
-46.9655230621
  0
POINT
  8
5
  6
CONTINUOUS
 62
6
 10
7.7490435002
 20
-46.9655230621
  0
INSERT
  8
1
  6
CONTINUOUS
 62
7
  2
S14
 10
7.7490435002
 20
-46.9655230621
  0
INSERT
  8
1
  6
CONTINUOUS
 62
7
  2
S15
 10
7.7490435002
 20
-46.9655230621
  0
TEXT
  8
1
  6
CONTINUOUS
 62
7
 10
13.249044
 20
-48.215523
 40
2.500000
  1
'22/3/23
 41
0.770713
 50
0.000000
 51
0.000000
 72
   5
 73
   0
 11
23.249044
 21
-48.215523
  0
TEXT
  8
1
  6
CONTINUOUS
 62
7
 10
25.146897
 20
-48.353409
 40
2.500000
  1
PB追加に伴う変更
 41
0.854701
 50
0.000000
 51
0.000000
 72
   5
 73
   0
 11
45.146897
 21
-48.353409
  0
TEXT
  8
1
  6
CONTINUOUS
 62
7
 10
90.249044
 20
-48.465523
 40
3.000000
  1
山田
 41
0.921659
 50
0.000000
 51
0.000000
 72
   5
 73
   0
 11
96.249044
 21
-48.465523
  0
POINT
  8
5
  6
CONTINUOUS
 62
6
 10
148.4288178935
 20
246.1407367880
  0
POINT
  8
5
  6
CONTINUOUS
 62
6
 10
148.4288178935
 20
246.1407367880
  0
POINT
  8
1
  6
CONTINUOUS
 62
6
 10
148.4288178935
 20
246.1407367880
  0
POINT
  8
5
  6
CONTINUOUS
 62
6
 10
148.4288178935
 20
246.1407367880
  0
INSERT
  8
1
  6
CONTINUOUS
 62
7
  2
S16
 10
148.4288178935
 20
246.1407367880
  0
TEXT
  8
1
  6
CONTINUOUS
 62
7
 10
154.186138
 20
243.619954
 40
3.500000
  1
①ﾍﾞｰｽ,②ｶﾊﾞｰ材質
 41
0.806452
 50
0.000000
 51
0.000000
 72
   5
 73
   0
 11
183.936138
 21
243.619954
  0
TEXT
  8
1
  6
CONTINUOUS
 62
7
 10
154.186138
 20
240.119954
 40
3.500000
  1
無印:ｱﾙﾐﾀﾞｲｷｬｽﾄ
 41
0.786164
 50
0.000000
 51
0.000000
 72
   5
 73
   0
 11
180.436138
 21
240.119954
  0
TEXT
  8
1
  6
CONTINUOUS
 62
7
 10
154.186138
 20
236.619954
 40
3.500000
  1
PB:PBT(UL:V-0)
 41
0.760043
 50
0.000000
 51
0.000000
 72
   5
 73
   0
 11
178.686138
 21
236.619954
  0
LINE
  8
1
  6
CONTINUOUS
 62
7
 10
156.0967819185
 20
257.4905364057
 11
156.0967819185
 21
248.2791923856
  0
LINE
  8
1
  6
CONTINUOUS
 62
7
 10
197.0836925195
 20
257.4905364057
 11
156.0967819185
 21
257.4905364057
  0
LINE
  8
1
  6
CONTINUOUS
 62
7
 10
197.0836925195
 20
266.4876631229
 11
197.0836925195
 21
257.4905364057
  0
TEXT
  8
3
  6
CONTINUOUS
 62
7
 10
10.805310
 20
-77.141576
 40
5.000000
  1
型番仕様
 41
0.886918
 50
0.000000
 51
0.000000
 72
   5
 73
   0
 11
30.805310
 21
-77.141576
  0
TEXT
  8
3
  6
CONTINUOUS
 62
7
 10
10.805310
 20
-84.141576
 40
5.000000
  1
　MCON-001-057 %%uPB%%u %%uA*%%u %%uDI6**%%u %%uU*%%u
 41
0.759560
 50
0.000000
 51
0.000000
 72
   5
 73
   0
 11
83.305310
 21
-84.141576
  0
LINE
  8
3
  6
CONTINUOUS
 62
7
 10
81.0441261415
 20
-84.3666719876
 11
81.0441261415
 21
-89.3666719876
  0
LINE
  8
3
  6
CONTINUOUS
 62
7
 10
81.0441261414
 20
-89.3666719876
 11
83.9542323216
 21
-89.3666719876
  0
TEXT
  8
3
  6
CONTINUOUS
 62
7
 10
85.954232
 20
-91.147904
 40
4.000000
  1
⑪ U0:USB無し(ﾌﾞﾗﾝｸﾊﾟﾈﾙ)
 41
0.779221
 50
0.000000
 51
0.000000
 72
   5
 73
   0
 11
133.954232
 21
-91.147904
  0
TEXT
  8
3
  6
CONTINUOUS
 62
7
 10
85.954232
 20
-96.147904
 40
4.000000
  1
　 U1:USB有り
 41
0.809465
 50
0.000000
 51
0.000000
 72
   5
 73
   0
 11
111.954232
 21
-96.147904
  0
TEXT
  8
3
  6
CONTINUOUS
 62
7
 10
85.954232
 20
-101.366672
 40
4.000000
  1
⑩ DI6:Mini DIN 6P ﾒｽ ｹｰﾌﾞﾙ付
 41
0.766385
 50
0.000000
 51
0.000000
 72
   5
 73
   0
 11
143.954232
 21
-101.366672
  0
TEXT
  8
3
  6
CONTINUOUS
 62
7
 10
85.954232
 20
-106.366672
 40
4.000000
  1
    **:ｹｰﾌﾞﾙ長
 41
0.774336
 50
0.000000
 51
0.000000
 72
   5
 73
   0
 11
113.954232
 21
-106.366672
  0
TEXT
  8
3
  6
CONTINUOUS
 62
7
 10
85.954232
 20
-111.366672
 40
4.000000
  1
       [0.5][1][2][3][5](m)
 41
0.753348
 50
0.000000
 51
0.000000
 72
   5
 73
   0
 11
139.954232
 21
-111.366672
  0
TEXT
  8
3
  6
CONTINUOUS
 62
7
 10
85.756374
 20
-117.014330
 40
4.000000
  1
⑨ A0:ACｱｳﾄﾚｯﾄ通常ﾀｲﾌﾟ
 41
0.782361
 50
0.000000
 51
0.000000
 72
   5
 73
   0
 11
129.756374
 21
-117.014330
  0
TEXT
  8
3
  6
CONTINUOUS
 62
7
 10
85.756374
 20
-122.014330
 40
4.000000
  1
　 A1:ACｱｳﾄﾚｯﾄ抜け防止ﾀｲﾌﾟ
 41
0.792683
 50
0.000000
 51
0.000000
 72
   5
 73
   0
 11
137.756374
 21
-122.014330
  0
TEXT
  8
3
  6
CONTINUOUS
 62
7
 10
85.756374
 20
-127.014330
 40
4.000000
  1
　 A2:ACｱｳﾄﾚｯﾄ無し(ﾌﾞﾗﾝｸﾊﾟﾈﾙ)
 41
0.773333
 50
0.000000
 51
0.000000
 72
   5
 73
   0
 11
143.756374
 21
-127.014330
  0
LINE
  8
3
  6
CONTINUOUS
 62
7
 10
83.9542323216
 20
-98.8324083456
 11
71.4272673681
 21
-98.8324083456
  0
LINE
  8
3
  6
CONTINUOUS
 62
7
 10
71.4272673681
 20
-98.8324083455
 11
71.4272673681
 21
-84.3666719876
  0
LINE
  8
3
  6
CONTINUOUS
 62
7
 10
83.9542323216
 20
-114.3666719876
 11
58.4071828479
 21
-114.3666719876
  0
LINE
  8
3
  6
CONTINUOUS
 62
7
 10
58.4071828479
 20
-114.3666719876
 11
58.4071828479
 21
-84.3666719876
  0
POINT
  8
5
  6
CONTINUOUS
 62
6
 10
17.2502919709
 20
-104.3754938152
  0
POINT
  8
5
  6
CONTINUOUS
 62
6
 10
17.2502919709
 20
-104.3754938152
  0
POINT
  8
1
  6
CONTINUOUS
 62
6
 10
17.2502919709
 20
-104.3754938152
  0
POINT
  8
5
  6
CONTINUOUS
 62
6
 10
17.2502919709
 20
-104.3754938152
  0
INSERT
  8
1
  6
CONTINUOUS
 62
7
  2
S17
 10
17.2502919709
 20
-104.3754938152
  0
TEXT
  8
1
  6
CONTINUOUS
 62
7
 10
23.007613
 20
-106.896276
 40
3.500000
  1
①ﾍﾞｰｽ,②ｶﾊﾞｰ材質
 41
0.806452
 50
0.000000
 51
0.000000
 72
   5
 73
   0
 11
52.757613
 21
-106.896276
  0
TEXT
  8
1
  6
CONTINUOUS
 62
7
 10
23.007613
 20
-110.396276
 40
3.500000
  1
無印:ｱﾙﾐﾀﾞｲｷｬｽﾄ
 41
0.786164
 50
0.000000
 51
0.000000
 72
   5
 73
   0
 11
49.257613
 21
-110.396276
  0
TEXT
  8
1
  6
CONTINUOUS
 62
7
 10
23.007613
 20
-113.896276
 40
3.500000
  1
PB:PBT(UL:V-0)
 41
0.760043
 50
0.000000
 51
0.000000
 72
   5
 73
   0
 11
47.507613
 21
-113.896276
  0
LINE
  8
1
  6
CONTINUOUS
 62
7
 10
24.9182559959
 20
-93.0256941975
 11
24.9182559959
 21
-102.2370382176
  0
LINE
  8
1
  6
CONTINUOUS
 62
7
 10
51.3250715099
 20
-93.0256941975
 11
24.9182559959
 21
-93.0256941975
  0
LINE
  8
1
  6
CONTINUOUS
 62
7
 10
51.3250715099
 20
-84.0285674802
 11
51.3250715099
 21
-93.0256941975
  0
INSERT
  8
1
  6
CONTINUOUS
 62
7
  2
S18
 10
309.6589196101
 20
266.9570411776
  0
TEXT
  8
5
  6
CONTINUOUS
 62
7
 10
339.214499
 20
268.261754
 40
3.000000
  1
ｱﾙﾐﾀﾞｲｷｬｽﾄ銀色塗装
 41
0.833541
 50
0.000000
 51
0.000000
 72
   5
 73
   0
 11
367.246499
 21
268.261754
  0
TEXT
  8
5
  6
CONTINUOUS
 62
7
 10
339.214499
 20
265.261754
 40
3.000000
  1
又は
 41
0.921659
 50
0.000000
 51
0.000000
 72
   5
 73
   0
 11
345.214499
 21
265.261754
  0
TEXT
  8
5
  6
CONTINUOUS
 62
7
 10
339.214499
 20
262.261754
 40
3.000000
  1
PBT 黒色(UL  V-0)
 41
0.751838
 50
0.000000
 51
0.000000
 72
   5
 73
   0
 11
363.754499
 21
262.261754
  0
POINT
  8
5
  6
CONTINUOUS
 62
6
 10
137.2868002249
 20
38.5097255163
  0
POINT
  8
5
  6
CONTINUOUS
 62
6
 10
137.2868002249
 20
38.5097255163
  0
POINT
  8
1
  6
CONTINUOUS
 62
6
 10
137.2868002249
 20
38.5097255163
  0
POINT
  8
5
  6
CONTINUOUS
 62
6
 10
137.2868002249
 20
38.5097255163
  0
INSERT
  8
1
  6
CONTINUOUS
 62
7
  2
S19
 10
137.2868002249
 20
38.5097255163
  0
INSERT
  8
3
  6
CONTINUOUS
 62
5
  2
LTEX7
 10
134.5962334454
 20
86.7605564293
  0
INSERT
  8
3
  6
CONTINUOUS
 62
5
  2
LTEX8
 10
88.2645106558
 20
17.3439335173
  0
INSERT
  8
3
  6
CONTINUOUS
 62
5
  2
LTEX9
 10
39.2645106558
 20
18.7789024664
  0
INSERT
  8
1
  6
CONTINUOUS
 62
7
  2
S20
 10
304.3055519275
 20
234.2864772224
  0
CIRCLE
  8
1
  6
HIDDEN
 62
6
 10
174.6605182328
 20
130.8525214537
 40
4.0000000000
  0
CIRCLE
  8
1
  6
HIDDEN
 62
6
 10
174.6605182328
 20
130.8525214537
 40
2.0000000000
  0
INSERT
  8
1
  6
CONTINUOUS
 62
7
  2
S21
 10
190.4105182328
 20
130.8525214537
  0
INSERT
  8
1
  6
CONTINUOUS
 62
7
  2
S22
 10
145.4123684031
 20
132.5342321022
  0
INSERT
  8
1
  6
CONTINUOUS
 62
5
  2
LTEX10
 10
170.6605182328
 20
130.8525214537
  0
INSERT
  8
1
  6
CONTINUOUS
 62
7
  2
S23
 10
19.7229014879
 20
-219.7907439720
  0
INSERT
  8
1
  6
CONTINUOUS
 62
5
  2
LTEX11
 10
44.9710513175
 20
-221.4724546205
  0
CIRCLE
  8
1
  6
HIDDEN
 62
6
 10
48.9710513175
 20
-221.4724546205
 40
4.0000000000
  0
CIRCLE
  8
1
  6
HIDDEN
 62
6
 10
48.9710513175
 20
-221.4724546205
 40
2.0000000000
  0
INSERT
  8
1
  6
CONTINUOUS
 62
7
  2
S24
 10
64.7210513175
 20
-221.4724546205
  0
INSERT
  8
1
  6
CONTINUOUS
 62
5
  2
LTEX12
 10
82.4712953712
 20
-225.3187099399
  0
INSERT
  8
1
  6
CONTINUOUS
 62
5
  2
LTEX13
 10
208.1607622865
 20
127.0062661343
  0
ENDSEC
  0
EOF
