  0
SECTION
  2
HEADER
  9
$ACADVER
  1
AC1009
  9
$DWGCODEPAGE
  3
dos932
  9
$INSBASE
 10
202.2490435001
 20
-18.2327615310
  9
$EXTMIN
 10
-377.8398049671
 20
-374.0016081634
  9
$EXTMAX
 10
912.3908903013
 20
335.5122943135
  9
$LIMMIN
 10
-377.8398049671
 20
-374.0016081634
  9
$LIMMAX
 10
912.3908903013
 20
335.5122943135
  9
$VIEWCTR
 10
0.0000000000
 20
0.0000000000
  9
$VIEWSIZE
 40
0.0000000000
  9
$SNAPMODE
 70
     0
  9
$SNAPUNIT
 10
20.0
 20
20.0
  9
$SNAPBASE
 10
0.000000
 20
0.000000
  9
$SNAPANG
 50
0.0
  9
$SNAPSTYLE
 70
     0
  9
$SNAPISOPAIR
 70
     0
  9
$GRIDMODE
 70
     0
  9
$GRIDUNIT
 10
10.000000
 20
10.000000
  9
$ORTHOMODE
 70
     0
  9
$REGENMODE
 70
     0
  9
$FILLMODE
 70
     1
  9
$QTEXTMODE
 70
     0
  9
$DRAGMODE
 70
     1
  9
$LTSCALE
 40
1.0
  9
$OSMODE
 70
     0
  9
$ATTMODE
 70
     1
  9
$TEXTSIZE
 40
4.000000
  9
$TRACEWID
 40
0.05
  9
$TEXTSTYLE
  7
STANDARD
  9
$CLAYER
  8
1
  9
$CELTYPE
  6
CONTINUOUS
  9
$CECOLOR
  62
7
  9
$DIMSCALE
 40
1.0000000000
  9
$DIMASZ
 40
2.0000000000
  9
$DIMEXO
 40
0.5000000000
  9
$DIMDLI
 40
7.000000
  9
$DIMRND
 40
0.0
  9
$DIMDLE
 40
0.0
  9
$DIMEXE
 40
1.0000000000
  9
$DIMTP
 40
0.0
  9
$DIMTM
 40
0.0
  9
$DIMTXT
 40
3.500000
  9
$DIMCEN
 40
0.09
  9
$DIMTSZ
 40
0.0
  9
$DIMTOL
 70
     0
  9
$DIMLIM
 70
     0
  9
$DIMTIH
 70
     0
  9
$DIMTOH
 70
     0
  9
$DIMSE1
 70
     0
  9
$DIMSE2
 70
     0
  9
$DIMTAD
 70
     1
  9
$DIMZIN
 70
     0
  9
$DIMBLK
  1

  9
$DIMASO
 70
     1
  9
$DIMSHO
 70
     0
  9
$DIMPOST
  1

  9
$DIMAPOST
  1

  9
$DIMALT
 70
     0
  9
$DIMALTD
 70
     3
  9
$DIMCLRD
 70
     5
  9
$DIMCLRE
 70
     5
  9
$DIMCLRT
 70
     7
  9
$DIMALTF
 40
25.4
  9
$DIMLFAC
 40
1.0
  9
$DIMTOFL
 70
     0
  9
$DIMTVP
 40
0.0
  9
$DIMTIX
 70
     0
  9
$DIMSOXD
 70
     0
  9
$DIMSAH
 70
     0
  9
$LUNITS
 70
     2
  9
$LUPREC
 70
     4
  9
$AXISMODE
 70
     0
  9
$AXISUNIT
 10
0.0
 20
0.0
  9
$SKETCHINC
 40
0.1
  9
$FILLETRAD
 40
0.0
  9
$AUNITS
 70
     0
  9
$AUPREC
 70
     0
  9
$MENU
  1
ACAD
  9
$ELEVATION
 40
0.0
  9
$THICKNESS
 40
0.0
  9
$VIEWDIR
 10
0.0
 20
0.0
 30
1.0
  9
$LIMCHECK
 70
     0
  9
$BLIPMODE
 70
     1
  9
$CHAMFERA
 40
0.0
  9
$CHAMFERB
 40
0.0
  9
$FASTZOOM
 70
     1
  9
$SKPOLY
 70
     0
  9
$TDCREATE
 40
2460019.0000000051
  9
$TDUPDATE
 40
2460019.0000000051
  9
$TDINDWG
 40
0.0000000000
  9
$TDUSRTIMER
 40
0.0000000000
  9
$USRTIMER
 70
     1
  9
$ANGBASE
 50
0.0
  9
$ANGDIR
 70
     0
  9
$PDMODE
 70
     65
  9
$PDSIZE
 40
0.2
  9
$PLINEWID
 40
0.0
  9
$COORDS
 70
     2
  9
$USERI1
 70
     0
  9
$USERI2
 70
     0
  9
$USERI3
 70
     0
  9
$USERI4
 70
     0
  9
$USERI5
 70
     0
  9
$USERR1
 40
0.0
  9
$USERR2
 40
0.0
  9
$USERR3
 40
0.0
  9
$USERR4
 40
0.0
  9
$USERR5
 40
0.0
  0
ENDSEC
  0
SECTION
  2
TABLES
  0
TABLE
  2
LTYPE
 70
     9
  0
LTYPE
  2
CONTINUOUS
 70
    64
  3
Solid line
 72
    65
 73
     0
 40
0.0
  0
LTYPE
  2
DASHED
 70
    64
  3
__ __ __ __ __ __ __ __ __ __ __ __ __ __ __
 72
    65
 73
     2
 40
3.0
 49
2.0
 49
-1.0
  0
LTYPE
  2
HIDDEN
 70
    64
  3
_ _ _ _ _ _ _ _ _ _ _ _ _ _ _ _ _ _ _ _ _ _ _
 72
    65
 73
     2
 40
1.5
 49
1.0
 49
-0.5
  0
LTYPE
  2
CENTER
 70
    64
  3
____ _ ____ _ ____ _ ____ _ ____ _ ____ _ ____
 72
    65
 73
     4
 40
24.0
 49
20.0
 49
-1.0
 49
2.0
 49
-1.0
  0
LTYPE
  2
PHANTOM
 70
    64
  3
_____ _ _ _____ _ _ _____ _ _ _____ _ _ ____
 72
    65
 73
     6
 40
27.0
 49
20.0
 49
-1.0
 49
2.0
 49
-1.0
 49
2.0
 49
-1.0
  0
LTYPE
  2
DOT
 70
    64
  3
...............................................
 72
    65
 73
     2
 40
1.5
 49
0.5
 49
-1.0
  0
LTYPE
  2
DASHDOT
 70
    64
  3
__ . __ . __ . __ . __ . __ . __ . __ . __ . __
 72
    65
 73
     4
 40
8.5
 49
6.0
 49
-1.0
 49
0.5
 49
-1.0
  0
LTYPE
  2
DIVIDE
 70
    64
  3
__ . . __ . . __ . . __ . . __ . . __ . . __
 72
    65
 73
     6
 40
10.0
 49
6.0
 49
-1.0
 49
0.5
 49
-1.0
 49
0.5
 49
-1.0
  0
LTYPE
  2
BORDER
 70
    64
  3
__ __ . __ __ . __ __ . __ __ . __ __ . __ __
 72
    65
 73
     6
 40
15.5
 49
6.0
 49
-1.0
 49
6.0
 49
-1.0
 49
0.5
 49
-1.0
  0
ENDTAB
  0
TABLE
  2
LAYER
 70
  8
  0
LAYER
  2
0
 70
    64
 62
     7
  6
CONTINUOUS
  0
LAYER
  2
1
 70
    64
 62
     7
  6
CONTINUOUS
  0
LAYER
  2
2
 70
    64
 62
     7
  6
CONTINUOUS
  0
LAYER
  2
3
 70
    64
 62
     7
  6
CONTINUOUS
  0
LAYER
  2
4
 70
    64
 62
     7
  6
CONTINUOUS
  0
LAYER
  2
5
 70
    64
 62
     7
  6
CONTINUOUS
  0
LAYER
  2
7
 70
    64
 62
     7
  6
CONTINUOUS
  0
LAYER
  2
DEFPOINTS
 70
     0
 62
    -7
  6
CONTINUOUS
  0
ENDTAB
  0
TABLE
  2
STYLE
 70
     1
  0
STYLE
  2
STANDARD
 70
    64
 40
0.0
 41
1.0
 71
     0
 42
4.000000
  3
TXT
  4
EXTFONT
 50
0.0
  0
ENDTAB
  0
TABLE
  2
VIEW
 70
     0
  0
ENDTAB
  0
ENDSEC
  0
SECTION
  2
BLOCKS
  0
BLOCK
  8
0
  2
CI
 70
   0
 10
0.0
 20
0.0
  0
CIRCLE
  8
0
  62
0
 10
0.0
 20
0.0
 40
0.1666666666
  0
ENDBLK
  8
0
  0
BLOCK
  8
5
  2
S0
 70
     0
 10
0.0000000000
 20
0.0000000000
  3
S0
  0
POINT
  8
5
  6
CONTINUOUS
 62
6
 10
-6.5000000000
 20
-6.5000000000
  0
LINE
  8
5
  6
CONTINUOUS
 62
6
 10
4.5000000000
 20
4.5000000000
 11
402.5000000000
 21
4.5000000000
  0
LINE
  8
5
  6
CONTINUOUS
 62
6
 10
4.5000000000
 20
4.5000000000
 11
4.5000000000
 21
279.5000000000
  0
LINE
  8
5
  6
CONTINUOUS
 62
6
 10
44.5000000000
 20
284.0000000000
 11
44.5000000000
 21
279.5000000000
  0
LINE
  8
5
  6
CONTINUOUS
 62
6
 10
44.5000000000
 20
4.5000000000
 11
44.5000000000
 21
0.0000000000
  0
LINE
  8
5
  6
CONTINUOUS
 62
6
 10
84.5000000000
 20
284.0000000000
 11
84.5000000000
 21
279.5000000000
  0
LINE
  8
5
  6
CONTINUOUS
 62
6
 10
124.5000000000
 20
284.0000000000
 11
124.5000000000
 21
279.5000000000
  0
LINE
  8
5
  6
CONTINUOUS
 62
6
 10
164.5000000000
 20
284.0000000000
 11
164.5000000000
 21
279.5000000000
  0
LINE
  8
5
  6
CONTINUOUS
 62
6
 10
204.5000000000
 20
284.0000000000
 11
204.5000000000
 21
279.5000000000
  0
LINE
  8
5
  6
CONTINUOUS
 62
6
 10
244.5000000000
 20
284.0000000000
 11
244.5000000000
 21
279.5000000000
  0
LINE
  8
5
  6
CONTINUOUS
 62
6
 10
84.5000000000
 20
4.5000000000
 11
84.5000000000
 21
0.0000000000
  0
LINE
  8
5
  6
CONTINUOUS
 62
6
 10
124.5000000000
 20
4.5000000000
 11
124.5000000000
 21
0.0000000000
  0
LINE
  8
5
  6
CONTINUOUS
 62
6
 10
164.5000000000
 20
4.5000000000
 11
164.5000000000
 21
0.0000000000
  0
LINE
  8
5
  6
CONTINUOUS
 62
6
 10
204.5000000000
 20
4.5000000000
 11
204.5000000000
 21
0.0000000000
  0
LINE
  8
5
  6
CONTINUOUS
 62
6
 10
244.5000000000
 20
4.5000000000
 11
244.5000000000
 21
0.0000000000
  0
LINE
  8
5
  6
CONTINUOUS
 62
6
 10
0.0000000000
 20
239.5000000000
 11
4.5000000000
 21
239.5000000000
  0
LINE
  8
5
  6
CONTINUOUS
 62
6
 10
402.5000000000
 20
239.5000000000
 11
407.0000000000
 21
239.5000000000
  0
LINE
  8
5
  6
CONTINUOUS
 62
6
 10
0.0000000000
 20
199.5000000000
 11
4.5000000000
 21
199.5000000000
  0
LINE
  8
5
  6
CONTINUOUS
 62
6
 10
0.0000000000
 20
159.5000000000
 11
4.5000000000
 21
159.5000000000
  0
LINE
  8
5
  6
CONTINUOUS
 62
6
 10
0.0000000000
 20
119.5000000000
 11
4.5000000000
 21
119.5000000000
  0
LINE
  8
5
  6
CONTINUOUS
 62
6
 10
402.5000000000
 20
199.5000000000
 11
407.0000000000
 21
199.5000000000
  0
LINE
  8
5
  6
CONTINUOUS
 62
6
 10
402.5000000000
 20
159.5000000000
 11
407.0000000000
 21
159.5000000000
  0
LINE
  8
5
  6
CONTINUOUS
 62
6
 10
402.5000000000
 20
119.5000000000
 11
407.0000000000
 21
119.5000000000
  0
TEXT
  8
5
  6
CONTINUOUS
 62
6
 10
23.500000
 20
279.500000
 40
4.000000
  1
1
 41
1.000000
 50
0.000000
 51
0.000000
 72
   5
 73
   0
 11
25.500000
 21
279.500000
  0
TEXT
  8
5
  6
CONTINUOUS
 62
6
 10
23.500000
 20
0.500000
 40
4.000000
  1
1
 41
1.000000
 50
0.000000
 51
0.000000
 72
   5
 73
   0
 11
25.500000
 21
0.500000
  0
TEXT
  8
5
  6
CONTINUOUS
 62
6
 10
63.500000
 20
279.500000
 40
4.000000
  1
2
 41
1.000000
 50
0.000000
 51
0.000000
 72
   5
 73
   0
 11
65.500000
 21
279.500000
  0
TEXT
  8
5
  6
CONTINUOUS
 62
6
 10
103.500000
 20
279.500000
 40
4.000000
  1
3
 41
1.000000
 50
0.000000
 51
0.000000
 72
   5
 73
   0
 11
105.500000
 21
279.500000
  0
TEXT
  8
5
  6
CONTINUOUS
 62
6
 10
143.500000
 20
279.500000
 40
4.000000
  1
4
 41
1.000000
 50
0.000000
 51
0.000000
 72
   5
 73
   0
 11
145.500000
 21
279.500000
  0
TEXT
  8
5
  6
CONTINUOUS
 62
6
 10
183.500000
 20
279.500000
 40
4.000000
  1
5
 41
1.000000
 50
0.000000
 51
0.000000
 72
   5
 73
   0
 11
185.500000
 21
279.500000
  0
TEXT
  8
5
  6
CONTINUOUS
 62
6
 10
223.500000
 20
279.500000
 40
4.000000
  1
6
 41
1.000000
 50
0.000000
 51
0.000000
 72
   5
 73
   0
 11
225.500000
 21
279.500000
  0
TEXT
  8
5
  6
CONTINUOUS
 62
6
 10
263.500000
 20
279.500000
 40
4.000000
  1
7
 41
1.000000
 50
0.000000
 51
0.000000
 72
   5
 73
   0
 11
265.500000
 21
279.500000
  0
TEXT
  8
5
  6
CONTINUOUS
 62
6
 10
63.500000
 20
0.500000
 40
4.000000
  1
2
 41
1.000000
 50
0.000000
 51
0.000000
 72
   5
 73
   0
 11
65.500000
 21
0.500000
  0
TEXT
  8
5
  6
CONTINUOUS
 62
6
 10
103.500000
 20
0.500000
 40
4.000000
  1
3
 41
1.000000
 50
0.000000
 51
0.000000
 72
   5
 73
   0
 11
105.500000
 21
0.500000
  0
TEXT
  8
5
  6
CONTINUOUS
 62
6
 10
143.500000
 20
0.500000
 40
4.000000
  1
4
 41
1.000000
 50
0.000000
 51
0.000000
 72
   5
 73
   0
 11
145.500000
 21
0.500000
  0
TEXT
  8
5
  6
CONTINUOUS
 62
6
 10
183.500000
 20
0.500000
 40
4.000000
  1
5
 41
1.000000
 50
0.000000
 51
0.000000
 72
   5
 73
   0
 11
185.500000
 21
0.500000
  0
TEXT
  8
5
  6
CONTINUOUS
 62
6
 10
223.500000
 20
0.500000
 40
4.000000
  1
6
 41
1.000000
 50
0.000000
 51
0.000000
 72
   5
 73
   0
 11
225.500000
 21
0.500000
  0
TEXT
  8
5
  6
CONTINUOUS
 62
6
 10
263.500000
 20
0.500000
 40
4.000000
  1
7
 41
1.000000
 50
0.000000
 51
0.000000
 72
   5
 73
   0
 11
265.500000
 21
0.500000
  0
TEXT
  8
5
  6
CONTINUOUS
 62
6
 10
1.626773
 20
257.454143
 40
4.000000
  1
A
 41
1.266000
 50
0.000000
 51
0.000000
 72
   5
 73
   0
 11
4.158773
 21
257.454143
  0
TEXT
  8
5
  6
CONTINUOUS
 62
6
 10
402.786513
 20
257.492354
 40
4.000000
  1
A
 41
1.266000
 50
0.000000
 51
0.000000
 72
   5
 73
   0
 11
405.318513
 21
257.492354
  0
TEXT
  8
5
  6
CONTINUOUS
 62
6
 10
1.610773
 20
217.454143
 40
4.000000
  1
B
 41
1.274000
 50
0.000000
 51
0.000000
 72
   5
 73
   0
 11
4.158773
 21
217.454143
  0
TEXT
  8
5
  6
CONTINUOUS
 62
6
 10
1.502773
 20
177.454143
 40
4.000000
  1
C
 41
1.328000
 50
0.000000
 51
0.000000
 72
   5
 73
   0
 11
4.158773
 21
177.454143
  0
TEXT
  8
5
  6
CONTINUOUS
 62
6
 10
1.566773
 20
137.454143
 40
4.000000
  1
D
 41
1.296000
 50
0.000000
 51
0.000000
 72
   5
 73
   0
 11
4.158773
 21
137.454143
  0
TEXT
  8
5
  6
CONTINUOUS
 62
6
 10
1.894773
 20
97.454143
 40
4.000000
  1
E
 41
1.132000
 50
0.000000
 51
0.000000
 72
   5
 73
   0
 11
4.158773
 21
97.454143
  0
TEXT
  8
5
  6
CONTINUOUS
 62
6
 10
402.786513
 20
217.492354
 40
4.000000
  1
B
 41
1.274000
 50
0.000000
 51
0.000000
 72
   5
 73
   0
 11
405.334513
 21
217.492354
  0
TEXT
  8
5
  6
CONTINUOUS
 62
6
 10
402.786513
 20
177.492354
 40
4.000000
  1
C
 41
1.328000
 50
0.000000
 51
0.000000
 72
   5
 73
   0
 11
405.442513
 21
177.492354
  0
TEXT
  8
5
  6
CONTINUOUS
 62
6
 10
402.786513
 20
137.492354
 40
4.000000
  1
D
 41
1.296000
 50
0.000000
 51
0.000000
 72
   5
 73
   0
 11
405.378513
 21
137.492354
  0
TEXT
  8
5
  6
CONTINUOUS
 62
6
 10
402.786513
 20
97.492354
 40
4.000000
  1
E
 41
1.132000
 50
0.000000
 51
0.000000
 72
   5
 73
   0
 11
405.050513
 21
97.492354
  0
LINE
  8
5
  6
CONTINUOUS
 62
6
 10
347.5000000000
 20
29.5000000000
 11
347.5000000000
 21
4.5000000000
  0
LINE
  8
5
  6
CONTINUOUS
 62
6
 10
347.5000000000
 20
14.5000000000
 11
402.5000000000
 21
14.5000000000
  0
LINE
  8
5
  6
CONTINUOUS
 62
6
 10
347.5000000000
 20
7.5000000000
 11
281.5000000000
 21
7.5000000000
  0
LINE
  8
5
  6
CONTINUOUS
 62
6
 10
303.5000000000
 20
4.5000000000
 11
303.5000000000
 21
21.0000000000
  0
LINE
  8
5
  6
CONTINUOUS
 62
6
 10
336.5000000000
 20
17.0000000000
 11
336.5000000000
 21
4.5000000000
  0
LINE
  8
5
  6
CONTINUOUS
 62
6
 10
325.5000000000
 20
4.5000000000
 11
325.4999999999
 21
21.0000000000
  0
LINE
  8
5
  6
CONTINUOUS
 62
6
 10
314.5000000000
 20
17.0000000000
 11
314.5000000000
 21
4.5000000000
  0
TEXT
  8
5
  6
CONTINUOUS
 62
6
 10
294.250000
 20
4.750000
 40
2.500000
  1
Design
 41
0.779221
 50
0.000000
 51
0.000000
 72
   5
 73
   0
 11
301.750000
 21
4.750000
  0
TEXT
  8
5
  6
CONTINUOUS
 62
6
 10
305.875000
 20
4.750000
 40
2.500000
  1
Draft
 41
0.786164
 50
0.000000
 51
0.000000
 72
   5
 73
   0
 11
312.125000
 21
4.750000
  0
TEXT
  8
5
  6
CONTINUOUS
 62
6
 10
316.875000
 20
4.750000
 40
2.500000
  1
Check
 41
0.786164
 50
0.000000
 51
0.000000
 72
   5
 73
   0
 11
323.125000
 21
4.750000
  0
LINE
  8
5
  6
CONTINUOUS
 62
6
 10
281.5000000000
 20
29.5000000000
 11
402.5000000000
 21
29.5000000000
  0
LINE
  8
5
  6
CONTINUOUS
 62
6
 10
281.5000000000
 20
17.0000000000
 11
347.5000000000
 21
17.0000000000
  0
LINE
  8
5
  6
CONTINUOUS
 62
6
 10
392.5000000000
 20
14.5000000000
 11
392.5000000000
 21
4.5000000000
  0
TEXT
  8
5
  6
CONTINUOUS
 62
6
 10
395.520000
 20
5.000000
 40
2.000000
  1
SIZE
 41
0.788845
 50
0.000000
 51
0.000000
 72
   5
 73
   0
 11
399.480000
 21
5.000000
  0
LINE
  8
5
  6
CONTINUOUS
 62
6
 10
392.5000000000
 20
7.5000000000
 11
402.5000000000
 21
7.5000000000
  0
TEXT
  8
5
  6
CONTINUOUS
 62
6
 10
394.005000
 20
8.500000
 40
5.000000
  1
Ａ３
 41
0.644240
 50
0.000000
 51
0.000000
 72
   5
 73
   0
 11
400.995000
 21
8.500000
  0
TEXT
  8
5
  6
CONTINUOUS
 62
6
 10
338.875000
 20
4.750000
 40
2.500000
  1
Scale
 41
0.786164
 50
0.000000
 51
0.000000
 72
   5
 73
   0
 11
345.125000
 21
4.750000
  0
TEXT
  8
5
  6
CONTINUOUS
 62
6
 10
338.250000
 20
9.750000
 40
5.000000
  1
1/1
 41
0.815217
 50
0.000000
 51
0.000000
 72
   5
 73
   0
 11
345.750000
 21
9.750000
  0
TEXT
  8
5
  6
CONTINUOUS
 62
6
 10
326.625000
 20
4.750000
 40
2.500000
  1
Confirm
 41
0.774336
 50
0.000000
 51
0.000000
 72
   5
 73
   0
 11
335.375000
 21
4.750000
  0
TEXT
  8
5
  6
CONTINUOUS
 62
6
 10
284.500000
 20
4.750000
 40
2.500000
  1
Date
 41
0.796813
 50
0.000000
 51
0.000000
 72
   5
 73
   0
 11
289.500000
 21
4.750000
  0
TEXT
  8
5
  6
CONTINUOUS
 62
6
 10
283.250000
 20
12.462500
 40
3.000000
  1
2008/
 41
0.786164
 50
0.000000
 51
0.000000
 72
   5
 73
   0
 11
290.750000
 21
12.462500
  0
TEXT
  8
5
  6
CONTINUOUS
 62
6
 10
283.250000
 20
9.037500
 40
3.000000
  1
04/25
 41
0.786164
 50
0.000000
 51
0.000000
 72
   5
 73
   0
 11
290.750000
 21
9.037500
  0
LINE
  8
5
  6
CONTINUOUS
 62
6
 10
292.5000000000
 20
17.0000000000
 11
292.5000000000
 21
4.5000000000
  0
LINE
  8
5
  6
CONTINUOUS
 62
6
 10
281.5000000000
 20
4.5000000000
 11
281.5000000000
 21
29.5000000000
  0
TEXT
  8
5
  6
CONTINUOUS
 62
6
 10
281.755293
 20
18.213190
 40
2.000000
  1
Material
 41
0.638921
 50
0.000000
 51
0.000000
 72
   5
 73
   0
 11
288.387293
 21
18.213190
  0
LINE
  8
5
  6
CONTINUOUS
 62
6
 10
288.5000000000
 20
21.0000000000
 11
288.5000000000
 21
17.0000000000
  0
TEXT
  8
5
  6
CONTINUOUS
 62
6
 10
303.605000
 20
18.000000
 40
2.000000
  1
Process
 41
0.751106
 50
0.000000
 51
0.000000
 72
   5
 73
   0
 11
310.395000
 21
18.000000
  0
LINE
  8
5
  6
CONTINUOUS
 62
6
 10
310.5000000000
 20
21.0000000000
 11
310.5000000000
 21
17.0000000000
  0
TEXT
  8
5
  6
CONTINUOUS
 62
6
 10
325.773000
 20
18.000000
 40
2.000000
  1
Amount
 41
0.838182
 50
0.000000
 51
0.000000
 72
   5
 73
   0
 11
332.227000
 21
18.000000
  0
LINE
  8
5
  6
CONTINUOUS
 62
6
 10
332.4999999999
 20
21.0000000000
 11
332.4999999999
 21
17.0000000000
  0
LINE
  8
5
  6
CONTINUOUS
 62
6
 10
347.5000000000
 20
21.0000000000
 11
281.5000000000
 21
21.0000000000
  0
POINT
  8
5
  6
CONTINUOUS
 62
6
 10
289.5000000000
 20
19.0000000000
  0
POINT
  8
5
  6
CONTINUOUS
 62
6
 10
311.5000000000
 20
19.0000000000
  0
POINT
  8
5
  6
CONTINUOUS
 62
6
 10
339.9999999999
 20
19.0000000000
  0
POINT
  8
5
  6
CONTINUOUS
 62
6
 10
298.0000000000
 20
12.2500000000
  0
POINT
  8
5
  6
CONTINUOUS
 62
6
 10
309.0000000000
 20
12.2500000000
  0
POINT
  8
5
  6
CONTINUOUS
 62
6
 10
320.0000000000
 20
12.2500000000
  0
POINT
  8
5
  6
CONTINUOUS
 62
6
 10
331.0000000000
 20
12.2500000000
  0
POINT
  8
5
  6
CONTINUOUS
 62
6
 10
0.0000000000
 20
0.0000000000
  0
TEXT
  8
5
  6
CONTINUOUS
 62
7
 10
301.099806
 20
20.780083
 40
4.000000
  1
MADOKA SYSTEM co,.ltd
 41
0.778201
 50
0.000000
 51
0.000000
 72
   5
 73
   0
 11
344.367806
 21
20.780083
  0
LINE
  8
5
  6
CONTINUOUS
 62
6
 10
284.5000000000
 20
284.0000000000
 11
284.5000000000
 21
279.5000000000
  0
LINE
  8
5
  6
CONTINUOUS
 62
6
 10
284.5000000000
 20
4.5000000000
 11
284.5000000000
 21
0.0000000000
  0
TEXT
  8
5
  6
CONTINUOUS
 62
6
 10
303.500000
 20
279.500000
 40
4.000000
  1
8
 41
1.000000
 50
0.000000
 51
0.000000
 72
   5
 73
   0
 11
305.500000
 21
279.500000
  0
TEXT
  8
5
  6
CONTINUOUS
 62
6
 10
303.500000
 20
0.500000
 40
4.000000
  1
8
 41
1.000000
 50
0.000000
 51
0.000000
 72
   5
 73
   0
 11
305.500000
 21
0.500000
  0
LINE
  8
5
  6
CONTINUOUS
 62
6
 10
324.5000000000
 20
284.0000000000
 11
324.5000000000
 21
279.5000000000
  0
LINE
  8
5
  6
CONTINUOUS
 62
6
 10
324.5000000000
 20
4.5000000000
 11
324.5000000000
 21
0.0000000000
  0
TEXT
  8
5
  6
CONTINUOUS
 62
6
 10
343.500000
 20
279.500000
 40
4.000000
  1
9
 41
1.000000
 50
0.000000
 51
0.000000
 72
   5
 73
   0
 11
345.500000
 21
279.500000
  0
TEXT
  8
5
  6
CONTINUOUS
 62
6
 10
343.500000
 20
0.500000
 40
4.000000
  1
9
 41
1.000000
 50
0.000000
 51
0.000000
 72
   5
 73
   0
 11
345.500000
 21
0.500000
  0
LINE
  8
5
  6
CONTINUOUS
 62
6
 10
364.5000000000
 20
284.0000000000
 11
364.5000000000
 21
279.5000000000
  0
LINE
  8
5
  6
CONTINUOUS
 62
6
 10
364.5000000000
 20
4.5000000000
 11
364.5000000000
 21
0.0000000000
  0
TEXT
  8
5
  6
CONTINUOUS
 62
6
 10
382.500000
 20
279.500000
 40
4.000000
  1
10
 41
0.854701
 50
0.000000
 51
0.000000
 72
   5
 73
   0
 11
386.500000
 21
279.500000
  0
TEXT
  8
5
  6
CONTINUOUS
 62
6
 10
382.500000
 20
0.500000
 40
4.000000
  1
10
 41
0.854701
 50
0.000000
 51
0.000000
 72
   5
 73
   0
 11
386.500000
 21
0.500000
  0
LINE
  8
5
  6
CONTINUOUS
 62
6
 10
0.0000000000
 20
79.5000000000
 11
4.5000000000
 21
79.5000000000
  0
LINE
  8
5
  6
CONTINUOUS
 62
6
 10
402.5000000000
 20
79.5000000000
 11
407.0000000000
 21
79.5000000000
  0
LINE
  8
5
  6
CONTINUOUS
 62
6
 10
0.0000000000
 20
39.5000000000
 11
4.5000000000
 21
39.5000000000
  0
LINE
  8
5
  6
CONTINUOUS
 62
6
 10
402.5000000000
 20
39.5000000000
 11
407.0000000000
 21
39.5000000000
  0
TEXT
  8
5
  6
CONTINUOUS
 62
6
 10
1.954773
 20
57.454143
 40
4.000000
  1
F
 41
1.102000
 50
0.000000
 51
0.000000
 72
   5
 73
   0
 11
4.158773
 21
57.454143
  0
TEXT
  8
5
  6
CONTINUOUS
 62
6
 10
402.786513
 20
57.492354
 40
4.000000
  1
F
 41
1.102000
 50
0.000000
 51
0.000000
 72
   5
 73
   0
 11
404.990513
 21
57.492354
  0
TEXT
  8
5
  6
CONTINUOUS
 62
6
 10
1.438773
 20
17.454143
 40
4.000000
  1
G
 41
1.360000
 50
0.000000
 51
0.000000
 72
   5
 73
   0
 11
4.158773
 21
17.454143
  0
TEXT
  8
5
  6
CONTINUOUS
 62
6
 10
402.786513
 20
17.492354
 40
4.000000
  1
G
 41
1.360000
 50
0.000000
 51
0.000000
 72
   5
 73
   0
 11
405.506513
 21
17.492354
  0
LINE
  8
5
  6
CONTINUOUS
 62
6
 10
4.5000000000
 20
279.5000000000
 11
402.5000000000
 21
279.5000000000
  0
LINE
  8
5
  6
CONTINUOUS
 62
6
 10
402.5000000000
 20
279.5000000000
 11
402.5000000000
 21
4.5000000000
  0
POINT
  8
5
  6
CONTINUOUS
 62
6
 10
353.5000000000
 20
20.5000000000
  0
POINT
  8
5
  6
CONTINUOUS
 62
6
 10
353.5000000000
 20
8.0000000000
  0
LINE
  8
5
  6
CONTINUOUS
 62
6
 10
347.5000000000
 20
26.5000000000
 11
402.5000000000
 21
26.5000000000
  0
LINE
  8
5
  6
CONTINUOUS
 62
6
 10
347.5000000000
 20
11.5000000000
 11
392.5000000000
 21
11.5000000000
  0
TEXT
  8
5
  6
CONTINUOUS
 62
7
 10
362.928500
 20
26.250000
 40
3.500000
  1
Document Name
 41
0.807728
 50
0.000000
 51
0.000000
 72
   5
 73
   0
 11
387.071500
 21
26.250000
  0
TEXT
  8
5
  6
CONTINUOUS
 62
7
 10
359.678500
 20
11.250000
 40
3.500000
  1
Document No.
 41
0.749428
 50
0.000000
 51
0.000000
 72
   5
 73
   0
 11
380.321500
 21
11.250000
  0
ENDBLK
  8
0
  0
BLOCK
  8
1
  2
*D0
 70
     1
 10
0.0000000000
 20
0.0000000000
  3
*D0
  0
LINE
  8
1
  6
BYBLOCK
 62
5
 10
127.9661466639
 20
89.5270036784
 11
127.9661466639
 21
94.9218520358
  0
LINE
  8
1
  6
BYBLOCK
 62
5
 10
111.4661466639
 20
89.5270036784
 11
111.4661466639
 21
94.9218520358
  0
LINE
  8
1
  6
BYBLOCK
 62
5
 10
111.4661466639
 20
93.9218520358
 11
127.9661466639
 21
93.9218520358
  0
SOLID
  8
1
  6
CONTINUOUS
 62
5
 10
126.0342950114
 20
93.4042139456
 11
126.0342950114
 21
94.4394901260
 12
127.9661466639
 22
93.9218520358
 13
127.9661466639
 23
93.9218520358
  0
SOLID
  8
1
  6
CONTINUOUS
 62
5
 10
113.3979983165
 20
94.4394901260
 11
113.3979983165
 21
93.4042139456
 12
111.4661466639
 22
93.9218520358
 13
111.4661466639
 23
93.9218520358
  0
TEXT
  8
1
  6
CONTINUOUS
 62
7
 10
116.216147
 20
94.921852
 40
3.500000
  1
16.5
 41
0.796813
 50
0.000000
 51
0.000000
 72
   5
 73
   0
 11
123.216147
 21
94.921852
  0
POINT
  8
DEFPOINTS
  6
BYBLOCK
 62
5
 10
127.9661466639
 20
89.0270036784
  0
POINT
  8
DEFPOINTS
  6
BYBLOCK
 62
5
 10
111.4661466639
 20
89.0270036784
  0
POINT
  8
DEFPOINTS
  6
BYBLOCK
 62
5
 10
111.4661466639
 20
93.9218520358
  0
ENDBLK
  8
0
  0
BLOCK
  8
1
  2
*D1
 70
     1
 10
0.0000000000
 20
0.0000000000
  3
*D1
  0
LINE
  8
1
  6
BYBLOCK
 62
5
 10
27.2645106558
 20
22.7509723912
 11
19.9779016700
 21
22.7509723912
  0
LINE
  8
1
  6
BYBLOCK
 62
5
 10
28.2645106558
 20
31.7509723912
 11
19.9779016700
 21
31.7509723912
  0
LINE
  8
1
  6
BYBLOCK
 62
5
 10
20.9779016700
 20
31.7509723912
 11
20.9779016700
 21
22.7509723912
  0
SOLID
  8
1
  6
CONTINUOUS
 62
5
 10
20.4602635798
 20
24.6828240438
 11
21.4955397602
 21
24.6828240438
 12
20.9779016700
 22
22.7509723912
 13
20.9779016700
 23
22.7509723912
  0
SOLID
  8
1
  6
CONTINUOUS
 62
5
 10
21.4955397602
 20
29.8191207387
 11
20.4602635798
 21
29.8191207387
 12
20.9779016700
 22
31.7509723912
 13
20.9779016700
 23
31.7509723912
  0
TEXT
  8
1
  6
CONTINUOUS
 62
7
 10
19.977902
 20
26.375972
 40
3.500000
  1
9
 41
1.000000
 50
90.000000
 51
0.000000
 72
   5
 73
   0
 11
19.977902
 21
28.125972
  0
POINT
  8
DEFPOINTS
  6
BYBLOCK
 62
5
 10
27.7645106558
 20
22.7509723912
  0
POINT
  8
DEFPOINTS
  6
BYBLOCK
 62
5
 10
28.7645106558
 20
31.7509723912
  0
POINT
  8
DEFPOINTS
  6
BYBLOCK
 62
5
 10
20.9779016700
 20
31.7509723912
  0
ENDBLK
  8
0
  0
BLOCK
  8
1
  2
*D2
 70
     1
 10
0.0000000000
 20
0.0000000000
  3
*D2
  0
LINE
  8
1
  6
BYBLOCK
 62
5
 10
29.2645106558
 20
32.2509723912
 11
19.7383253733
 21
32.2509723912
  0
LINE
  8
1
  6
BYBLOCK
 62
5
 10
35.7645106558
 20
46.7509723912
 11
19.7383253733
 21
46.7509723912
  0
LINE
  8
1
  6
BYBLOCK
 62
5
 10
20.7383253733
 20
46.7509723912
 11
20.7383253733
 21
32.2509723912
  0
SOLID
  8
1
  6
CONTINUOUS
 62
5
 10
20.2206872831
 20
34.1828240438
 11
21.2559634635
 21
34.1828240438
 12
20.7383253733
 22
32.2509723912
 13
20.7383253733
 23
32.2509723912
  0
SOLID
  8
1
  6
CONTINUOUS
 62
5
 10
21.2559634635
 20
44.8191207387
 11
20.2206872831
 21
44.8191207387
 12
20.7383253733
 22
46.7509723912
 13
20.7383253733
 23
46.7509723912
  0
TEXT
  8
1
  6
CONTINUOUS
 62
7
 10
19.738325
 20
36.000972
 40
3.500000
  1
14.5
 41
0.796813
 50
90.000000
 51
0.000000
 72
   5
 73
   0
 11
19.738325
 21
43.000972
  0
POINT
  8
DEFPOINTS
  6
BYBLOCK
 62
5
 10
29.7645106558
 20
32.2509723912
  0
POINT
  8
DEFPOINTS
  6
BYBLOCK
 62
5
 10
36.2645106558
 20
46.7509723912
  0
POINT
  8
DEFPOINTS
  6
BYBLOCK
 62
5
 10
20.7383253733
 20
46.7509723912
  0
ENDBLK
  8
0
  0
BLOCK
  8
1
  2
*D3
 70
     1
 10
0.0000000000
 20
0.0000000000
  3
*D3
  0
LINE
  8
1
  6
BYBLOCK
 62
5
 10
27.2645106558
 20
22.7509723912
 11
12.2316014101
 21
22.7509723912
  0
LINE
  8
1
  6
BYBLOCK
 62
5
 10
35.7645106558
 20
46.7509723912
 11
12.2316014101
 21
46.7509723912
  0
LINE
  8
1
  6
BYBLOCK
 62
5
 10
13.2316014101
 20
46.7509723912
 11
13.2316014101
 21
22.7509723912
  0
SOLID
  8
1
  6
CONTINUOUS
 62
5
 10
12.7139633199
 20
24.6828240438
 11
13.7492395003
 21
24.6828240438
 12
13.2316014101
 22
22.7509723912
 13
13.2316014101
 23
22.7509723912
  0
SOLID
  8
1
  6
CONTINUOUS
 62
5
 10
13.7492395003
 20
44.8191207387
 11
12.7139633199
 21
44.8191207387
 12
13.2316014101
 22
46.7509723912
 13
13.2316014101
 23
46.7509723912
  0
TEXT
  8
1
  6
CONTINUOUS
 62
7
 10
12.231601
 20
33.000972
 40
3.500000
  1
24
 41
0.854701
 50
90.000000
 51
0.000000
 72
   5
 73
   0
 11
12.231601
 21
36.500972
  0
POINT
  8
DEFPOINTS
  6
BYBLOCK
 62
5
 10
27.7645106558
 20
22.7509723912
  0
POINT
  8
DEFPOINTS
  6
BYBLOCK
 62
5
 10
36.2645106558
 20
46.7509723912
  0
POINT
  8
DEFPOINTS
  6
BYBLOCK
 62
5
 10
13.2316014101
 20
46.7509723912
  0
ENDBLK
  8
0
  0
BLOCK
  8
1
  2
*D4
 70
     1
 10
0.0000000000
 20
0.0000000000
  3
*D4
  0
LINE
  8
1
  6
BYBLOCK
 62
5
 10
27.2645106558
 20
215.3050725884
 11
16.2916228022
 21
215.3050725884
  0
LINE
  8
1
  6
BYBLOCK
 62
5
 10
27.2645106558
 20
59.8050725884
 11
16.2916228022
 21
59.8050725884
  0
LINE
  8
1
  6
BYBLOCK
 62
5
 10
17.2916228022
 20
59.8050725884
 11
17.2916228022
 21
215.3050725884
  0
SOLID
  8
1
  6
CONTINUOUS
 62
5
 10
17.8092608924
 20
213.3732209359
 11
16.7739847120
 21
213.3732209359
 12
17.2916228022
 22
215.3050725884
 13
17.2916228022
 23
215.3050725884
  0
SOLID
  8
1
  6
CONTINUOUS
 62
5
 10
16.7739847120
 20
61.7369242410
 11
17.8092608924
 21
61.7369242410
 12
17.2916228022
 22
59.8050725884
 13
17.2916228022
 23
59.8050725884
  0
TEXT
  8
1
  6
CONTINUOUS
 62
7
 10
16.291623
 20
131.305073
 40
5.000000
  1
155.5
 41
0.786164
 50
90.000000
 51
0.000000
 72
   5
 73
   0
 11
16.291623
 21
143.805073
  0
POINT
  8
DEFPOINTS
  6
BYBLOCK
 62
5
 10
27.7645106558
 20
215.3050725884
  0
POINT
  8
DEFPOINTS
  6
BYBLOCK
 62
5
 10
27.7645106558
 20
59.8050725884
  0
POINT
  8
DEFPOINTS
  6
BYBLOCK
 62
5
 10
17.2916228022
 20
59.8050725884
  0
ENDBLK
  8
0
  0
BLOCK
  8
1
  2
*D5
 70
     1
 10
0.0000000000
 20
0.0000000000
  3
*D5
  0
LINE
  8
1
  6
BYBLOCK
 62
5
 10
27.7645106558
 20
215.8050725884
 11
27.7645106558
 21
220.2674058392
  0
LINE
  8
1
  6
BYBLOCK
 62
5
 10
96.7645106558
 20
215.8050725884
 11
96.7645106558
 21
220.2674058392
  0
LINE
  8
1
  6
BYBLOCK
 62
5
 10
96.7645106558
 20
219.2674058392
 11
27.7645106558
 21
219.2674058392
  0
SOLID
  8
1
  6
CONTINUOUS
 62
5
 10
29.6963623084
 20
219.7850439294
 11
29.6963623084
 21
218.7497677489
 12
27.7645106558
 22
219.2674058392
 13
27.7645106558
 23
219.2674058392
  0
SOLID
  8
1
  6
CONTINUOUS
 62
5
 10
94.8326590033
 20
218.7497677489
 11
94.8326590033
 21
219.7850439294
 12
96.7645106558
 22
219.2674058392
 13
96.7645106558
 23
219.2674058392
  0
TEXT
  8
1
  6
CONTINUOUS
 62
7
 10
59.764511
 20
220.267406
 40
5.000000
  1
69
 41
0.854701
 50
0.000000
 51
0.000000
 72
   5
 73
   0
 11
64.764511
 21
220.267406
  0
POINT
  8
DEFPOINTS
  6
BYBLOCK
 62
5
 10
27.7645106558
 20
215.3050725884
  0
POINT
  8
DEFPOINTS
  6
BYBLOCK
 62
5
 10
96.7645106558
 20
215.3050725884
  0
POINT
  8
DEFPOINTS
  6
BYBLOCK
 62
5
 10
96.7645106558
 20
219.2674058392
  0
ENDBLK
  8
0
  0
BLOCK
  8
3
  2
S1
 70
     0
 10
227.1941385442
 20
111.2739080518
  3
S1
  0
CIRCLE
  8
3
  6
CONTINUOUS
 62
5
 10
227.1941385442
 20
111.2739080518
 40
1.5000000000
  0
LINE
  8
3
  6
CONTINUOUS
 62
5
 10
228.3191385443
 20
111.2739080518
 11
226.0691385443
 21
111.2739080518
  0
LINE
  8
3
  6
CONTINUOUS
 62
5
 10
227.9441385443
 20
110.7114080518
 11
226.4441385443
 21
110.7114080518
  0
LINE
  8
3
  6
CONTINUOUS
 62
5
 10
227.5691385443
 20
110.1489080518
 11
226.8191385443
 21
110.1489080518
  0
LINE
  8
3
  6
CONTINUOUS
 62
5
 10
227.1941385442
 20
111.2739080518
 11
227.1941385443
 21
112.3989080518
  0
ENDBLK
  8
0
  0
BLOCK
  8
3
  2
S2
 70
     0
 10
204.5996856920
 20
-94.5517949092
  3
S2
  0
CIRCLE
  8
3
  6
CONTINUOUS
 62
5
 10
204.5996856920
 20
-94.5517949092
 40
1.5000000000
  0
LINE
  8
3
  6
CONTINUOUS
 62
5
 10
205.7246856921
 20
-94.5517949092
 11
203.4746856921
 21
-94.5517949092
  0
LINE
  8
3
  6
CONTINUOUS
 62
5
 10
205.3496856921
 20
-95.1142949092
 11
203.8496856921
 21
-95.1142949092
  0
LINE
  8
3
  6
CONTINUOUS
 62
5
 10
204.9746856921
 20
-95.6767949092
 11
204.2246856921
 21
-95.6767949092
  0
LINE
  8
3
  6
CONTINUOUS
 62
5
 10
204.5996856920
 20
-94.5517949092
 11
204.5996856921
 21
-93.4267949092
  0
ENDBLK
  8
0
  0
BLOCK
  8
1
  2
BALN0
 70
     0
 10
65.1092980532
 20
62.2661550659
  3
BALN0
  0
SOLID
  8
1
  6
CONTINUOUS
 62
5
 10
67.0995994495
 20
62.0694310156
 11
66.7345875985
 21
61.1006363427
 12
65.1092980532
 22
62.2661550659
 13
65.1092980532
 23
62.2661550659
  0
LINE
  8
1
  6
BYBLOCK
 62
5
 10
65.1092980532
 20
62.2661550659
 11
88.4832927053
 21
53.4595572463
  0
CIRCLE
  8
1
  6
BYBLOCK
 62
5
 10
91.2906440902
 20
52.4018341248
 40
3.0000000000
  0
TEXT
  8
1
  6
CONTINUOUS
 62
7
 10
90.415644
 20
50.651834
 40
3.500000
  1
3
 41
1.000000
 50
0.000000
 51
0.000000
 72
   5
 73
   0
 11
92.165644
 21
50.651834
  0
ENDBLK
  8
0
  0
BLOCK
  8
5
  2
S3
 70
     0
 10
-1.2509564999
 20
-313.9655230621
  3
S3
  0
POINT
  8
5
  6
CONTINUOUS
 62
6
 10
-7.7509564999
 20
-320.4655230621
  0
LINE
  8
5
  6
CONTINUOUS
 62
6
 10
3.2490435001
 20
-309.4655230621
 11
401.2490435001
 21
-309.4655230621
  0
LINE
  8
5
  6
CONTINUOUS
 62
6
 10
3.2490435001
 20
-309.4655230621
 11
3.2490435001
 21
-34.4655230621
  0
LINE
  8
5
  6
CONTINUOUS
 62
6
 10
43.2490435001
 20
-29.9655230621
 11
43.2490435001
 21
-34.4655230621
  0
LINE
  8
5
  6
CONTINUOUS
 62
6
 10
43.2490435001
 20
-309.4655230621
 11
43.2490435001
 21
-313.9655230621
  0
LINE
  8
5
  6
CONTINUOUS
 62
6
 10
83.2490435001
 20
-29.9655230621
 11
83.2490435001
 21
-34.4655230621
  0
LINE
  8
5
  6
CONTINUOUS
 62
6
 10
123.2490435001
 20
-29.9655230621
 11
123.2490435001
 21
-34.4655230621
  0
LINE
  8
5
  6
CONTINUOUS
 62
6
 10
163.2490435001
 20
-29.9655230621
 11
163.2490435001
 21
-34.4655230621
  0
LINE
  8
5
  6
CONTINUOUS
 62
6
 10
203.2490435001
 20
-29.9655230621
 11
203.2490435001
 21
-34.4655230621
  0
LINE
  8
5
  6
CONTINUOUS
 62
6
 10
243.2490435001
 20
-29.9655230621
 11
243.2490435001
 21
-34.4655230621
  0
LINE
  8
5
  6
CONTINUOUS
 62
6
 10
83.2490435001
 20
-309.4655230621
 11
83.2490435001
 21
-313.9655230621
  0
LINE
  8
5
  6
CONTINUOUS
 62
6
 10
123.2490435001
 20
-309.4655230621
 11
123.2490435001
 21
-313.9655230621
  0
LINE
  8
5
  6
CONTINUOUS
 62
6
 10
163.2490435001
 20
-309.4655230621
 11
163.2490435001
 21
-313.9655230621
  0
LINE
  8
5
  6
CONTINUOUS
 62
6
 10
203.2490435001
 20
-309.4655230621
 11
203.2490435001
 21
-313.9655230621
  0
LINE
  8
5
  6
CONTINUOUS
 62
6
 10
243.2490435001
 20
-309.4655230621
 11
243.2490435001
 21
-313.9655230621
  0
LINE
  8
5
  6
CONTINUOUS
 62
6
 10
-1.2509564999
 20
-74.4655230621
 11
3.2490435001
 21
-74.4655230621
  0
LINE
  8
5
  6
CONTINUOUS
 62
6
 10
401.2490435001
 20
-74.4655230621
 11
405.7490435001
 21
-74.4655230621
  0
LINE
  8
5
  6
CONTINUOUS
 62
6
 10
-1.2509564999
 20
-114.4655230621
 11
3.2490435001
 21
-114.4655230621
  0
LINE
  8
5
  6
CONTINUOUS
 62
6
 10
-1.2509564999
 20
-154.4655230621
 11
3.2490435001
 21
-154.4655230621
  0
LINE
  8
5
  6
CONTINUOUS
 62
6
 10
-1.2509564999
 20
-194.4655230621
 11
3.2490435001
 21
-194.4655230621
  0
LINE
  8
5
  6
CONTINUOUS
 62
6
 10
401.2490435001
 20
-114.4655230621
 11
405.7490435001
 21
-114.4655230621
  0
LINE
  8
5
  6
CONTINUOUS
 62
6
 10
401.2490435001
 20
-154.4655230621
 11
405.7490435001
 21
-154.4655230621
  0
LINE
  8
5
  6
CONTINUOUS
 62
6
 10
401.2490435001
 20
-194.4655230621
 11
405.7490435001
 21
-194.4655230621
  0
TEXT
  8
5
  6
CONTINUOUS
 62
6
 10
22.249044
 20
-34.465523
 40
4.000000
  1
1
 41
1.000000
 50
0.000000
 51
0.000000
 72
   5
 73
   0
 11
24.249044
 21
-34.465523
  0
TEXT
  8
5
  6
CONTINUOUS
 62
6
 10
22.249044
 20
-313.465523
 40
4.000000
  1
1
 41
1.000000
 50
0.000000
 51
0.000000
 72
   5
 73
   0
 11
24.249044
 21
-313.465523
  0
TEXT
  8
5
  6
CONTINUOUS
 62
6
 10
62.249044
 20
-34.465523
 40
4.000000
  1
2
 41
1.000000
 50
0.000000
 51
0.000000
 72
   5
 73
   0
 11
64.249044
 21
-34.465523
  0
TEXT
  8
5
  6
CONTINUOUS
 62
6
 10
102.249044
 20
-34.465523
 40
4.000000
  1
3
 41
1.000000
 50
0.000000
 51
0.000000
 72
   5
 73
   0
 11
104.249044
 21
-34.465523
  0
TEXT
  8
5
  6
CONTINUOUS
 62
6
 10
142.249044
 20
-34.465523
 40
4.000000
  1
4
 41
1.000000
 50
0.000000
 51
0.000000
 72
   5
 73
   0
 11
144.249044
 21
-34.465523
  0
TEXT
  8
5
  6
CONTINUOUS
 62
6
 10
182.249044
 20
-34.465523
 40
4.000000
  1
5
 41
1.000000
 50
0.000000
 51
0.000000
 72
   5
 73
   0
 11
184.249044
 21
-34.465523
  0
TEXT
  8
5
  6
CONTINUOUS
 62
6
 10
222.249044
 20
-34.465523
 40
4.000000
  1
6
 41
1.000000
 50
0.000000
 51
0.000000
 72
   5
 73
   0
 11
224.249044
 21
-34.465523
  0
TEXT
  8
5
  6
CONTINUOUS
 62
6
 10
262.249044
 20
-34.465523
 40
4.000000
  1
7
 41
1.000000
 50
0.000000
 51
0.000000
 72
   5
 73
   0
 11
264.249044
 21
-34.465523
  0
TEXT
  8
5
  6
CONTINUOUS
 62
6
 10
62.249044
 20
-313.465523
 40
4.000000
  1
2
 41
1.000000
 50
0.000000
 51
0.000000
 72
   5
 73
   0
 11
64.249044
 21
-313.465523
  0
TEXT
  8
5
  6
CONTINUOUS
 62
6
 10
102.249044
 20
-313.465523
 40
4.000000
  1
3
 41
1.000000
 50
0.000000
 51
0.000000
 72
   5
 73
   0
 11
104.249044
 21
-313.465523
  0
TEXT
  8
5
  6
CONTINUOUS
 62
6
 10
142.249044
 20
-313.465523
 40
4.000000
  1
4
 41
1.000000
 50
0.000000
 51
0.000000
 72
   5
 73
   0
 11
144.249044
 21
-313.465523
  0
TEXT
  8
5
  6
CONTINUOUS
 62
6
 10
182.249044
 20
-313.465523
 40
4.000000
  1
5
 41
1.000000
 50
0.000000
 51
0.000000
 72
   5
 73
   0
 11
184.249044
 21
-313.465523
  0
TEXT
  8
5
  6
CONTINUOUS
 62
6
 10
222.249044
 20
-313.465523
 40
4.000000
  1
6
 41
1.000000
 50
0.000000
 51
0.000000
 72
   5
 73
   0
 11
224.249044
 21
-313.465523
  0
TEXT
  8
5
  6
CONTINUOUS
 62
6
 10
262.249044
 20
-313.465523
 40
4.000000
  1
7
 41
1.000000
 50
0.000000
 51
0.000000
 72
   5
 73
   0
 11
264.249044
 21
-313.465523
  0
TEXT
  8
5
  6
CONTINUOUS
 62
6
 10
0.375816
 20
-56.511380
 40
4.000000
  1
A
 41
1.266000
 50
0.000000
 51
0.000000
 72
   5
 73
   0
 11
2.907816
 21
-56.511380
  0
TEXT
  8
5
  6
CONTINUOUS
 62
6
 10
401.535557
 20
-56.473169
 40
4.000000
  1
A
 41
1.266000
 50
0.000000
 51
0.000000
 72
   5
 73
   0
 11
404.067557
 21
-56.473169
  0
TEXT
  8
5
  6
CONTINUOUS
 62
6
 10
0.359816
 20
-96.511380
 40
4.000000
  1
B
 41
1.274000
 50
0.000000
 51
0.000000
 72
   5
 73
   0
 11
2.907816
 21
-96.511380
  0
TEXT
  8
5
  6
CONTINUOUS
 62
6
 10
0.251816
 20
-136.511380
 40
4.000000
  1
C
 41
1.328000
 50
0.000000
 51
0.000000
 72
   5
 73
   0
 11
2.907816
 21
-136.511380
  0
TEXT
  8
5
  6
CONTINUOUS
 62
6
 10
0.315816
 20
-176.511380
 40
4.000000
  1
D
 41
1.296000
 50
0.000000
 51
0.000000
 72
   5
 73
   0
 11
2.907816
 21
-176.511380
  0
TEXT
  8
5
  6
CONTINUOUS
 62
6
 10
0.643816
 20
-216.511380
 40
4.000000
  1
E
 41
1.132000
 50
0.000000
 51
0.000000
 72
   5
 73
   0
 11
2.907816
 21
-216.511380
  0
TEXT
  8
5
  6
CONTINUOUS
 62
6
 10
401.535557
 20
-96.473169
 40
4.000000
  1
B
 41
1.274000
 50
0.000000
 51
0.000000
 72
   5
 73
   0
 11
404.083557
 21
-96.473169
  0
TEXT
  8
5
  6
CONTINUOUS
 62
6
 10
401.535557
 20
-136.473169
 40
4.000000
  1
C
 41
1.328000
 50
0.000000
 51
0.000000
 72
   5
 73
   0
 11
404.191557
 21
-136.473169
  0
TEXT
  8
5
  6
CONTINUOUS
 62
6
 10
401.535557
 20
-176.473169
 40
4.000000
  1
D
 41
1.296000
 50
0.000000
 51
0.000000
 72
   5
 73
   0
 11
404.127557
 21
-176.473169
  0
TEXT
  8
5
  6
CONTINUOUS
 62
6
 10
401.535557
 20
-216.473169
 40
4.000000
  1
E
 41
1.132000
 50
0.000000
 51
0.000000
 72
   5
 73
   0
 11
403.799557
 21
-216.473169
  0
LINE
  8
5
  6
CONTINUOUS
 62
6
 10
346.2490435001
 20
-284.4655230621
 11
346.2490435001
 21
-309.4655230621
  0
LINE
  8
5
  6
CONTINUOUS
 62
6
 10
346.2490435001
 20
-299.4655230621
 11
401.2490435001
 21
-299.4655230621
  0
LINE
  8
5
  6
CONTINUOUS
 62
6
 10
346.2490435001
 20
-306.4655230621
 11
280.2490435001
 21
-306.4655230621
  0
LINE
  8
5
  6
CONTINUOUS
 62
6
 10
302.2490435001
 20
-309.4655230621
 11
302.2490435001
 21
-292.9655230621
  0
LINE
  8
5
  6
CONTINUOUS
 62
6
 10
335.2490435001
 20
-296.9655230621
 11
335.2490435001
 21
-309.4655230621
  0
LINE
  8
5
  6
CONTINUOUS
 62
6
 10
324.2490435001
 20
-309.4655230621
 11
324.2490434999
 21
-292.9655230621
  0
LINE
  8
5
  6
CONTINUOUS
 62
6
 10
313.2490435001
 20
-296.9655230621
 11
313.2490435001
 21
-309.4655230621
  0
TEXT
  8
5
  6
CONTINUOUS
 62
6
 10
293.272794
 20
-309.215523
 40
2.500000
  1
Design
 41
0.722338
 50
0.000000
 51
0.000000
 72
   5
 73
   0
 11
300.225294
 21
-309.215523
  0
TEXT
  8
5
  6
CONTINUOUS
 62
6
 10
305.087794
 20
-309.215523
 40
2.500000
  1
Draft
 41
0.669497
 50
0.000000
 51
0.000000
 72
   5
 73
   0
 11
310.410294
 21
-309.215523
  0
TEXT
  8
5
  6
CONTINUOUS
 62
6
 10
315.467794
 20
-309.215523
 40
2.500000
  1
Check
 41
0.825472
 50
0.000000
 51
0.000000
 72
   5
 73
   0
 11
322.030294
 21
-309.215523
  0
LINE
  8
5
  6
CONTINUOUS
 62
6
 10
280.2490435001
 20
-284.4655230621
 11
401.2490435001
 21
-284.4655230621
  0
LINE
  8
5
  6
CONTINUOUS
 62
6
 10
280.2490435001
 20
-296.9655230621
 11
346.2490435001
 21
-296.9655230621
  0
LINE
  8
5
  6
CONTINUOUS
 62
6
 10
391.2490435001
 20
-299.4655230621
 11
391.2490435001
 21
-309.4655230621
  0
TEXT
  8
5
  6
CONTINUOUS
 62
6
 10
394.269044
 20
-308.965523
 40
2.000000
  1
SIZE
 41
0.788845
 50
0.000000
 51
0.000000
 72
   5
 73
   0
 11
398.229044
 21
-308.965523
  0
LINE
  8
5
  6
CONTINUOUS
 62
6
 10
391.2490435001
 20
-306.4655230621
 11
401.2490435001
 21
-306.4655230621
  0
TEXT
  8
5
  6
CONTINUOUS
 62
6
 10
392.754044
 20
-305.465523
 40
5.000000
  1
Ａ３
 41
0.644240
 50
0.000000
 51
0.000000
 72
   5
 73
   0
 11
399.744044
 21
-305.465523
  0
TEXT
  8
5
  6
CONTINUOUS
 62
6
 10
337.887794
 20
-309.215523
 40
2.500000
  1
Scale
 41
0.719811
 50
0.000000
 51
0.000000
 72
   5
 73
   0
 11
343.610294
 21
-309.215523
  0
TEXT
  8
5
  6
CONTINUOUS
 62
6
 10
336.999044
 20
-304.215523
 40
5.000000
  1
1/1
 41
0.815217
 50
0.000000
 51
0.000000
 72
   5
 73
   0
 11
344.499044
 21
-304.215523
  0
TEXT
  8
5
  6
CONTINUOUS
 62
6
 10
325.661544
 20
-309.215523
 40
2.500000
  1
Confirm
 41
0.723451
 50
0.000000
 51
0.000000
 72
   5
 73
   0
 11
333.836544
 21
-309.215523
  0
TEXT
  8
5
  6
CONTINUOUS
 62
6
 10
283.277794
 20
-309.215523
 40
2.500000
  1
Date
 41
0.787649
 50
0.000000
 51
0.000000
 72
   5
 73
   0
 11
288.220294
 21
-309.215523
  0
TEXT
  8
5
  6
CONTINUOUS
 62
6
 10
281.999044
 20
-301.503023
 40
3.000000
  1
2008/
 41
0.786164
 50
0.000000
 51
0.000000
 72
   5
 73
   0
 11
289.499044
 21
-301.503023
  0
TEXT
  8
5
  6
CONTINUOUS
 62
6
 10
281.999044
 20
-304.928023
 40
3.000000
  1
04/25
 41
0.786164
 50
0.000000
 51
0.000000
 72
   5
 73
   0
 11
289.499044
 21
-304.928023
  0
LINE
  8
5
  6
CONTINUOUS
 62
6
 10
291.2490435001
 20
-296.9655230621
 11
291.2490435001
 21
-309.4655230621
  0
LINE
  8
5
  6
CONTINUOUS
 62
6
 10
280.2490435001
 20
-309.4655230621
 11
280.2490435001
 21
-284.4655230621
  0
TEXT
  8
5
  6
CONTINUOUS
 62
6
 10
280.504337
 20
-295.752333
 40
2.000000
  1
Material
 41
0.638921
 50
0.000000
 51
0.000000
 72
   5
 73
   0
 11
287.136337
 21
-295.752333
  0
LINE
  8
5
  6
CONTINUOUS
 62
6
 10
287.2490435001
 20
-292.9655230621
 11
287.2490435001
 21
-296.9655230621
  0
TEXT
  8
5
  6
CONTINUOUS
 62
6
 10
302.354044
 20
-295.965523
 40
2.000000
  1
Process
 41
0.751106
 50
0.000000
 51
0.000000
 72
   5
 73
   0
 11
309.144044
 21
-295.965523
  0
LINE
  8
5
  6
CONTINUOUS
 62
6
 10
309.2490435001
 20
-292.9655230621
 11
309.2490435001
 21
-296.9655230621
  0
TEXT
  8
5
  6
CONTINUOUS
 62
6
 10
324.522043
 20
-295.965523
 40
2.000000
  1
Amount
 41
0.838182
 50
0.000000
 51
0.000000
 72
   5
 73
   0
 11
330.976043
 21
-295.965523
  0
LINE
  8
5
  6
CONTINUOUS
 62
6
 10
331.2490435000
 20
-292.9655230621
 11
331.2490435000
 21
-296.9655230621
  0
LINE
  8
5
  6
CONTINUOUS
 62
6
 10
346.2490435001
 20
-292.9655230621
 11
280.2490435001
 21
-292.9655230621
  0
POINT
  8
5
  6
CONTINUOUS
 62
6
 10
288.2490435001
 20
-294.9655230621
  0
POINT
  8
5
  6
CONTINUOUS
 62
6
 10
310.2490435001
 20
-294.9655230621
  0
POINT
  8
5
  6
CONTINUOUS
 62
6
 10
338.7490435000
 20
-294.9655230621
  0
POINT
  8
5
  6
CONTINUOUS
 62
6
 10
296.7490435001
 20
-301.7155230621
  0
POINT
  8
5
  6
CONTINUOUS
 62
6
 10
307.7490435001
 20
-301.7155230621
  0
POINT
  8
5
  6
CONTINUOUS
 62
6
 10
318.7490435001
 20
-301.7155230621
  0
POINT
  8
5
  6
CONTINUOUS
 62
6
 10
329.7490435001
 20
-301.7155230621
  0
POINT
  8
5
  6
CONTINUOUS
 62
6
 10
-1.2509564999
 20
-313.9655230621
  0
TEXT
  8
5
  6
CONTINUOUS
 62
7
 10
299.848849
 20
-293.185440
 40
4.000000
  1
MADOKA SYSTEM co,.ltd
 41
0.778201
 50
0.000000
 51
0.000000
 72
   5
 73
   0
 11
343.116849
 21
-293.185440
  0
LINE
  8
5
  6
CONTINUOUS
 62
6
 10
283.2490435001
 20
-29.9655230621
 11
283.2490435001
 21
-34.4655230621
  0
LINE
  8
5
  6
CONTINUOUS
 62
6
 10
283.2490435001
 20
-309.4655230621
 11
283.2490435001
 21
-313.9655230621
  0
TEXT
  8
5
  6
CONTINUOUS
 62
6
 10
302.249044
 20
-34.465523
 40
4.000000
  1
8
 41
1.000000
 50
0.000000
 51
0.000000
 72
   5
 73
   0
 11
304.249044
 21
-34.465523
  0
TEXT
  8
5
  6
CONTINUOUS
 62
6
 10
302.249044
 20
-313.465523
 40
4.000000
  1
8
 41
1.000000
 50
0.000000
 51
0.000000
 72
   5
 73
   0
 11
304.249044
 21
-313.465523
  0
LINE
  8
5
  6
CONTINUOUS
 62
6
 10
323.2490435001
 20
-29.9655230621
 11
323.2490435001
 21
-34.4655230621
  0
LINE
  8
5
  6
CONTINUOUS
 62
6
 10
323.2490435001
 20
-309.4655230621
 11
323.2490435001
 21
-313.9655230621
  0
TEXT
  8
5
  6
CONTINUOUS
 62
6
 10
342.249044
 20
-34.465523
 40
4.000000
  1
9
 41
1.000000
 50
0.000000
 51
0.000000
 72
   5
 73
   0
 11
344.249044
 21
-34.465523
  0
TEXT
  8
5
  6
CONTINUOUS
 62
6
 10
342.249044
 20
-313.465523
 40
4.000000
  1
9
 41
1.000000
 50
0.000000
 51
0.000000
 72
   5
 73
   0
 11
344.249044
 21
-313.465523
  0
LINE
  8
5
  6
CONTINUOUS
 62
6
 10
363.2490435001
 20
-29.9655230621
 11
363.2490435001
 21
-34.4655230621
  0
LINE
  8
5
  6
CONTINUOUS
 62
6
 10
363.2490435001
 20
-309.4655230621
 11
363.2490435001
 21
-313.9655230621
  0
TEXT
  8
5
  6
CONTINUOUS
 62
6
 10
381.249044
 20
-34.465523
 40
4.000000
  1
10
 41
0.854701
 50
0.000000
 51
0.000000
 72
   5
 73
   0
 11
385.249044
 21
-34.465523
  0
TEXT
  8
5
  6
CONTINUOUS
 62
6
 10
381.249044
 20
-313.465523
 40
4.000000
  1
10
 41
0.854701
 50
0.000000
 51
0.000000
 72
   5
 73
   0
 11
385.249044
 21
-313.465523
  0
LINE
  8
5
  6
CONTINUOUS
 62
6
 10
-1.2509564999
 20
-234.4655230621
 11
3.2490435001
 21
-234.4655230621
  0
LINE
  8
5
  6
CONTINUOUS
 62
6
 10
401.2490435001
 20
-234.4655230621
 11
405.7490435001
 21
-234.4655230621
  0
LINE
  8
5
  6
CONTINUOUS
 62
6
 10
-1.2509564999
 20
-274.4655230621
 11
3.2490435001
 21
-274.4655230621
  0
LINE
  8
5
  6
CONTINUOUS
 62
6
 10
401.2490435001
 20
-274.4655230621
 11
405.7490435001
 21
-274.4655230621
  0
TEXT
  8
5
  6
CONTINUOUS
 62
6
 10
0.703816
 20
-256.511380
 40
4.000000
  1
F
 41
1.102000
 50
0.000000
 51
0.000000
 72
   5
 73
   0
 11
2.907816
 21
-256.511380
  0
TEXT
  8
5
  6
CONTINUOUS
 62
6
 10
401.535557
 20
-256.473169
 40
4.000000
  1
F
 41
1.102000
 50
0.000000
 51
0.000000
 72
   5
 73
   0
 11
403.739557
 21
-256.473169
  0
TEXT
  8
5
  6
CONTINUOUS
 62
6
 10
0.187816
 20
-296.511380
 40
4.000000
  1
G
 41
1.360000
 50
0.000000
 51
0.000000
 72
   5
 73
   0
 11
2.907816
 21
-296.511380
  0
TEXT
  8
5
  6
CONTINUOUS
 62
6
 10
401.535557
 20
-296.473169
 40
4.000000
  1
G
 41
1.360000
 50
0.000000
 51
0.000000
 72
   5
 73
   0
 11
404.255557
 21
-296.473169
  0
LINE
  8
5
  6
CONTINUOUS
 62
6
 10
3.2490435001
 20
-34.4655230621
 11
401.2490435001
 21
-34.4655230621
  0
LINE
  8
5
  6
CONTINUOUS
 62
6
 10
401.2490435001
 20
-34.4655230621
 11
401.2490435001
 21
-309.4655230621
  0
POINT
  8
5
  6
CONTINUOUS
 62
6
 10
352.2490435001
 20
-293.4655230621
  0
POINT
  8
5
  6
CONTINUOUS
 62
6
 10
352.2490435001
 20
-305.9655230621
  0
LINE
  8
5
  6
CONTINUOUS
 62
6
 10
346.2490435001
 20
-287.4655230621
 11
401.2490435001
 21
-287.4655230621
  0
LINE
  8
5
  6
CONTINUOUS
 62
6
 10
346.2490435001
 20
-302.4655230621
 11
391.2490435001
 21
-302.4655230621
  0
TEXT
  8
5
  6
CONTINUOUS
 62
7
 10
361.677544
 20
-287.715523
 40
3.500000
  1
Document Name
 41
0.807728
 50
0.000000
 51
0.000000
 72
   5
 73
   0
 11
385.820544
 21
-287.715523
  0
TEXT
  8
5
  6
CONTINUOUS
 62
7
 10
358.427544
 20
-302.715523
 40
3.500000
  1
Document No.
 41
0.749428
 50
0.000000
 51
0.000000
 72
   5
 73
   0
 11
379.070544
 21
-302.715523
  0
ENDBLK
  8
0
  0
BLOCK
  8
3
  2
BALN1
 70
     0
 10
220.6171374659
 20
-157.0777679959
  3
BALN1
  0
SOLID
  8
3
  6
CONTINUOUS
 62
5
 10
221.8821805410
 20
-155.5286824534
 11
222.4872396771
 21
-156.3687421011
 12
220.6171374659
 22
-157.0777679959
 13
220.6171374659
 23
-157.0777679959
  0
LINE
  8
3
  6
BYBLOCK
 62
5
 10
220.6171374659
 20
-157.0777679959
 11
228.1828315380
 21
-151.6285212288
  0
CIRCLE
  8
3
  6
BYBLOCK
 62
5
 10
230.6171374659
 20
-149.8751944909
 40
3.0000000000
  0
TEXT
  8
3
  6
CONTINUOUS
 62
7
 10
227.992137
 20
-151.625194
 40
3.500000
  1
101
 41
0.815217
 50
0.000000
 51
0.000000
 72
   5
 73
   0
 11
233.242137
 21
-151.625194
  0
ENDBLK
  8
0
  0
BLOCK
  8
3
  2
BALN2
 70
     0
 10
262.5671374659
 20
-157.0777679959
  3
BALN2
  0
SOLID
  8
3
  6
CONTINUOUS
 62
5
 10
263.8321805410
 20
-155.5286824534
 11
264.4372396771
 21
-156.3687421011
 12
262.5671374659
 22
-157.0777679959
 13
262.5671374659
 23
-157.0777679959
  0
LINE
  8
3
  6
BYBLOCK
 62
5
 10
262.5671374659
 20
-157.0777679959
 11
270.1328315380
 21
-151.6285212288
  0
CIRCLE
  8
3
  6
BYBLOCK
 62
5
 10
272.5671374659
 20
-149.8751944909
 40
3.0000000000
  0
TEXT
  8
3
  6
CONTINUOUS
 62
7
 10
269.942137
 20
-151.625194
 40
3.500000
  1
102
 41
0.815217
 50
0.000000
 51
0.000000
 72
   5
 73
   0
 11
275.192137
 21
-151.625194
  0
ENDBLK
  8
0
  0
BLOCK
  8
3
  2
BALN3
 70
     0
 10
251.5921374659
 20
-164.2803415009
  3
BALN3
  0
SOLID
  8
3
  6
CONTINUOUS
 62
5
 10
253.5913653613
 20
-164.2247733247
 11
253.3513036994
 21
-165.2318319964
 12
251.5921374659
 22
-164.2803415009
 13
251.5921374659
 23
-164.2803415009
  0
LINE
  8
3
  6
BYBLOCK
 62
5
 10
251.5921374659
 20
-164.2803415009
 11
269.6489055272
 21
-168.5846962235
  0
CIRCLE
  8
3
  6
BYBLOCK
 62
5
 10
272.5671374659
 20
-169.2803415009
 40
3.0000000000
  0
TEXT
  8
3
  6
CONTINUOUS
 62
7
 10
269.942137
 20
-171.030342
 40
3.500000
  1
103
 41
0.815217
 50
0.000000
 51
0.000000
 72
   5
 73
   0
 11
275.192137
 21
-171.030342
  0
ENDBLK
  8
0
  0
BLOCK
  8
3
  2
BALN4
 70
     0
 10
219.1421374659
 20
-216.6011842222
  3
BALN4
  0
SOLID
  8
3
  6
CONTINUOUS
 62
5
 10
220.7873304727
 20
-215.4639331635
 11
221.1355419332
 21
-216.4388924183
 12
219.1421374659
 22
-216.6011842222
 13
219.1421374659
 23
-216.6011842222
  0
LINE
  8
3
  6
BYBLOCK
 62
5
 10
219.1421374659
 20
-216.6011842222
 11
227.7919224945
 21
-213.5118712447
  0
CIRCLE
  8
3
  6
BYBLOCK
 62
5
 10
230.6171374658
 20
-212.5028319165
 40
3.0000000000
  0
TEXT
  8
3
  6
CONTINUOUS
 62
7
 10
227.992137
 20
-214.252832
 40
3.500000
  1
111
 41
0.815217
 50
0.000000
 51
0.000000
 72
   5
 73
   0
 11
233.242137
 21
-214.252832
  0
ENDBLK
  8
0
  0
BLOCK
  8
3
  2
BALN5
 70
     0
 10
212.0334406374
 20
-219.2431864733
  3
BALN5
  0
SOLID
  8
3
  6
CONTINUOUS
 62
5
 10
214.0324978485
 20
-219.3045889721
 11
213.7339737164
 21
-220.2958912027
 12
212.0334406374
 22
-219.2431864733
 13
212.0334406374
 23
-219.2431864733
  0
LINE
  8
3
  6
BYBLOCK
 62
5
 10
212.0334406374
 20
-219.2431864733
 11
227.7445641874
 21
-223.9744877626
  0
CIRCLE
  8
3
  6
BYBLOCK
 62
5
 10
230.6171374659
 20
-224.8395442694
 40
3.0000000000
  0
TEXT
  8
3
  6
CONTINUOUS
 62
7
 10
227.992137
 20
-226.589544
 40
3.500000
  1
112
 41
0.815217
 50
0.000000
 51
0.000000
 72
   5
 73
   0
 11
233.242137
 21
-226.589544
  0
ENDBLK
  8
0
  0
BLOCK
  8
3
  2
BALN6
 70
     0
 10
261.0921374659
 20
-216.6011842222
  3
BALN6
  0
SOLID
  8
3
  6
CONTINUOUS
 62
5
 10
262.7373304727
 20
-215.4639331635
 11
263.0855419332
 21
-216.4388924183
 12
261.0921374659
 22
-216.6011842222
 13
261.0921374659
 23
-216.6011842222
  0
LINE
  8
3
  6
BYBLOCK
 62
5
 10
261.0921374659
 20
-216.6011842222
 11
269.7419224945
 21
-213.5118712447
  0
CIRCLE
  8
3
  6
BYBLOCK
 62
5
 10
272.5671374658
 20
-212.5028319165
 40
3.0000000000
  0
TEXT
  8
3
  6
CONTINUOUS
 62
7
 10
269.942137
 20
-214.252832
 40
3.500000
  1
113
 41
0.815217
 50
0.000000
 51
0.000000
 72
   5
 73
   0
 11
275.192137
 21
-214.252832
  0
ENDBLK
  8
0
  0
BLOCK
  8
3
  2
BALN7
 70
     0
 10
253.9834406374
 20
-219.2431864733
  3
BALN7
  0
SOLID
  8
3
  6
CONTINUOUS
 62
5
 10
255.9824978485
 20
-219.3045889721
 11
255.6839737164
 21
-220.2958912027
 12
253.9834406374
 22
-219.2431864733
 13
253.9834406374
 23
-219.2431864733
  0
LINE
  8
3
  6
BYBLOCK
 62
5
 10
253.9834406374
 20
-219.2431864733
 11
269.6945641874
 21
-223.9744877626
  0
CIRCLE
  8
3
  6
BYBLOCK
 62
5
 10
272.5671374659
 20
-224.8395442694
 40
3.0000000000
  0
TEXT
  8
3
  6
CONTINUOUS
 62
7
 10
269.942137
 20
-226.589544
 40
3.500000
  1
114
 41
0.815217
 50
0.000000
 51
0.000000
 72
   5
 73
   0
 11
275.192137
 21
-226.589544
  0
ENDBLK
  8
0
  0
BLOCK
  8
1
  2
LTEX0
 70
     0
 10
212.0621269876
 20
120.3428937795
  3
LTEX0
  0
SOLID
  8
1
  6
CONTINUOUS
 62
5
 10
212.0571917058
 20
122.3428876902
 11
213.0578498635
 21
122.0774069545
 12
212.0621269876
 22
120.3428937795
 13
212.0621269876
 23
120.3428937795
  0
TEXT
  8
1
  6
CONTINUOUS
 62
7
 10
214.647233
 20
131.086755
 40
5.000000
  1
⑨ ACｱｳﾄﾚｯﾄ
 41
0.782361
 50
0.000000
 51
0.000000
 72
   5
 73
   0
 11
242.147233
 21
131.086755
  0
LINE
  8
1
  6
BYBLOCK
 62
5
 10
212.0621269876
 20
120.3428937795
 11
214.6472329817
 21
130.0867548342
  0
LINE
  8
1
  6
BYBLOCK
 62
5
 10
214.6472329817
 20
130.0867548342
 11
242.1472329817
 21
130.0867548342
  0
ENDBLK
  8
0
  0
BLOCK
  8
1
  2
LTEX1
 70
     0
 10
143.4661466639
 20
83.0550725884
  3
LTEX1
  0
SOLID
  8
1
  6
CONTINUOUS
 62
5
 10
143.3932367761
 20
81.0564019932
 11
142.4036695513
 21
81.3606280231
 12
143.4661466639
 22
83.0550725884
 13
143.4661466639
 23
83.0550725884
  0
TEXT
  8
1
  6
CONTINUOUS
 62
7
 10
135.592421
 20
58.443915
 40
5.000000
  1
 ⑥⑦
 41
0.880282
 50
0.000000
 51
0.000000
 72
   5
 73
   0
 11
148.092421
 21
58.443915
  0
LINE
  8
1
  6
BYBLOCK
 62
5
 10
143.4661466639
 20
83.0550725884
 11
135.5924212135
 21
57.4439154939
  0
LINE
  8
1
  6
BYBLOCK
 62
5
 10
135.5924212135
 20
57.4439154939
 11
148.0924212135
 21
57.4439154939
  0
ENDBLK
  8
0
  0
BLOCK
  8
3
  2
S4
 70
     0
 10
73.5343218446
 20
-236.2536191571
  3
S4
  0
CIRCLE
  8
3
  6
CONTINUOUS
 62
5
 10
73.5343218446
 20
-236.2536191571
 40
1.5000000000
  0
LINE
  8
3
  6
CONTINUOUS
 62
5
 10
74.6593218446
 20
-236.2536191571
 11
72.4093218446
 21
-236.2536191571
  0
LINE
  8
3
  6
CONTINUOUS
 62
5
 10
74.2843218446
 20
-236.8161191571
 11
72.7843218446
 21
-236.8161191571
  0
LINE
  8
3
  6
CONTINUOUS
 62
5
 10
73.9093218446
 20
-237.3786191571
 11
73.1593218446
 21
-237.3786191571
  0
LINE
  8
3
  6
CONTINUOUS
 62
5
 10
73.5343218446
 20
-236.2536191571
 11
73.5343218446
 21
-235.1286191571
  0
ENDBLK
  8
0
  0
BLOCK
  8
1
  2
LTEX2
 70
     0
 10
58.4023102879
 20
-227.1846334294
  3
LTEX2
  0
SOLID
  8
1
  6
CONTINUOUS
 62
5
 10
58.3973750061
 20
-225.1846395187
 11
59.3980331639
 21
-225.4501202544
 12
58.4023102879
 22
-227.1846334294
 13
58.4023102879
 23
-227.1846334294
  0
TEXT
  8
1
  6
CONTINUOUS
 62
7
 10
60.987416
 20
-216.440772
 40
5.000000
  1
⑨ ACｱｳﾄﾚｯﾄ
 41
0.782361
 50
0.000000
 51
0.000000
 72
   5
 73
   0
 11
88.487416
 21
-216.440772
  0
LINE
  8
1
  6
BYBLOCK
 62
5
 10
58.4023102879
 20
-227.1846334294
 11
60.9874162820
 21
-217.4407723747
  0
LINE
  8
1
  6
BYBLOCK
 62
5
 10
60.9874162820
 20
-217.4407723747
 11
88.4874162820
 21
-217.4407723747
  0
ENDBLK
  8
0
  0
BLOCK
  8
3
  2
S5
 70
     0
 10
174.6310958456
 20
-90.1596277438
  3
S5
  0
CIRCLE
  8
3
  6
CONTINUOUS
 62
5
 10
174.6310958456
 20
-90.1596277438
 40
1.5000000000
  0
LINE
  8
3
  6
CONTINUOUS
 62
5
 10
175.7560958457
 20
-90.1596277438
 11
173.5060958457
 21
-90.1596277438
  0
LINE
  8
3
  6
CONTINUOUS
 62
5
 10
175.3810958457
 20
-90.7221277438
 11
173.8810958457
 21
-90.7221277438
  0
LINE
  8
3
  6
CONTINUOUS
 62
5
 10
175.0060958457
 20
-91.2846277438
 11
174.2560958457
 21
-91.2846277438
  0
LINE
  8
3
  6
CONTINUOUS
 62
5
 10
174.6310958456
 20
-90.1596277438
 11
174.6310958457
 21
-89.0346277438
  0
ENDBLK
  8
0
  0
BLOCK
  8
1
  2
BALN8
 70
     0
 10
162.3511050565
 20
-80.8142186975
  3
BALN8
  0
SOLID
  8
1
  6
CONTINUOUS
 62
5
 10
161.3188283599
 20
-79.1012082417
 11
162.3136324414
 21
-78.8145697775
 12
162.3511050565
 22
-80.8142186975
 13
162.3511050565
 23
-80.8142186975
  0
LINE
  8
1
  6
BYBLOCK
 62
5
 10
162.3511050565
 20
-80.8142186975
 11
159.4681521313
 21
-70.8086761926
  0
CIRCLE
  8
1
  6
BYBLOCK
 62
5
 10
158.6375376453
 20
-67.9259553294
 40
3.0000000000
  0
TEXT
  8
1
  6
CONTINUOUS
 62
7
 10
156.887538
 20
-69.675955
 40
3.500000
  1
91
 41
0.854701
 50
0.000000
 51
0.000000
 72
   5
 73
   0
 11
160.387538
 21
-69.675955
  0
ENDBLK
  8
0
  0
BLOCK
  8
1
  2
BALN9
 70
     0
 10
184.3874683405
 20
-80.7491436235
  3
BALN9
  0
SOLID
  8
1
  6
CONTINUOUS
 62
5
 10
183.2766123562
 20
-79.0860143494
 11
184.2570034752
 21
-78.7534034303
 12
184.3874683405
 22
-80.7491436235
 13
184.3874683405
 23
-80.7491436235
  0
LINE
  8
1
  6
BYBLOCK
 62
5
 10
184.3874683405
 20
-80.7491436235
 11
181.0008610716
 21
-70.7669106344
  0
CIRCLE
  8
1
  6
BYBLOCK
 62
5
 10
180.0370286408
 20
-67.9259553294
 40
3.0000000000
  0
TEXT
  8
1
  6
CONTINUOUS
 62
7
 10
178.287029
 20
-69.675955
 40
3.500000
  1
92
 41
0.854701
 50
0.000000
 51
0.000000
 72
   5
 73
   0
 11
181.787029
 21
-69.675955
  0
ENDBLK
  8
0
  0
BLOCK
  8
1
  2
BALN10
 70
     0
 10
230.3874683405
 20
-80.7491436235
  3
BALN10
  0
SOLID
  8
1
  6
CONTINUOUS
 62
5
 10
229.2766123562
 20
-79.0860143494
 11
230.2570034752
 21
-78.7534034303
 12
230.3874683405
 22
-80.7491436235
 13
230.3874683405
 23
-80.7491436235
  0
LINE
  8
1
  6
BYBLOCK
 62
5
 10
230.3874683405
 20
-80.7491436235
 11
227.0008610716
 21
-70.7669106344
  0
CIRCLE
  8
1
  6
BYBLOCK
 62
5
 10
226.0370286408
 20
-67.9259553294
 40
3.0000000000
  0
TEXT
  8
1
  6
CONTINUOUS
 62
7
 10
224.287029
 20
-69.675955
 40
3.500000
  1
94
 41
0.854701
 50
0.000000
 51
0.000000
 72
   5
 73
   0
 11
227.787029
 21
-69.675955
  0
ENDBLK
  8
0
  0
BLOCK
  8
1
  2
BALN11
 70
     0
 10
208.3511050565
 20
-80.8142186975
  3
BALN11
  0
SOLID
  8
1
  6
CONTINUOUS
 62
5
 10
207.3188283599
 20
-79.1012082417
 11
208.3136324414
 21
-78.8145697775
 12
208.3511050565
 22
-80.8142186975
 13
208.3511050565
 23
-80.8142186975
  0
LINE
  8
1
  6
BYBLOCK
 62
5
 10
208.3511050565
 20
-80.8142186975
 11
205.4681521313
 21
-70.8086761926
  0
CIRCLE
  8
1
  6
BYBLOCK
 62
5
 10
204.6375376453
 20
-67.9259553294
 40
3.0000000000
  0
TEXT
  8
1
  6
CONTINUOUS
 62
7
 10
202.887538
 20
-69.675955
 40
3.500000
  1
93
 41
0.854701
 50
0.000000
 51
0.000000
 72
   5
 73
   0
 11
206.387538
 21
-69.675955
  0
ENDBLK
  8
0
  0
BLOCK
  8
1
  2
S6
 70
     0
 10
309.6307705942
 20
234.5561403077
  3
S6
  0
LINE
  8
1
  6
CONTINUOUS
 62
6
 10
312.1307705942
 20
232.5561403077
 11
307.1307705942
 21
232.5561403076
  0
TEXT
  8
1
  6
CONTINUOUS
 62
6
 10
308.579721
 20
232.177813
 40
3.300000
  1
B
 41
1.274000
 50
0.000000
 51
0.000000
 72
   5
 73
   0
 11
310.681821
 21
232.177813
  0
LINE
  8
1
  6
CONTINUOUS
 62
6
 10
309.6307705942
 20
236.5561403077
 11
307.1307705942
 21
232.5561403076
  0
LINE
  8
1
  6
CONTINUOUS
 62
6
 10
309.6307705942
 20
236.5561403077
 11
312.1307705942
 21
232.5561403077
  0
POINT
  8
1
  6
CONTINUOUS
 62
6
 10
309.6307705942
 20
234.5561403077
  0
ENDBLK
  8
0
  0
BLOCK
  8
1
  2
S7
 70
     0
 10
292.4597931678
 20
-85.1634739345
  3
S7
  0
LINE
  8
1
  6
CONTINUOUS
 62
6
 10
294.9597931678
 20
-87.1634739345
 11
289.9597931678
 21
-87.1634739345
  0
TEXT
  8
1
  6
CONTINUOUS
 62
6
 10
291.364193
 20
-87.541801
 40
3.300000
  1
C
 41
1.328000
 50
0.000000
 51
0.000000
 72
   5
 73
   0
 11
293.555393
 21
-87.541801
  0
LINE
  8
1
  6
CONTINUOUS
 62
6
 10
292.4597931678
 20
-83.1634739345
 11
289.9597931678
 21
-87.1634739345
  0
LINE
  8
1
  6
CONTINUOUS
 62
6
 10
292.4597931678
 20
-83.1634739345
 11
294.9597931678
 21
-87.1634739345
  0
POINT
  8
1
  6
CONTINUOUS
 62
6
 10
292.4597931678
 20
-85.1634739345
  0
ENDBLK
  8
0
  0
BLOCK
  8
1
  2
S8
 70
     0
 10
292.4597931678
 20
-107.6634739345
  3
S8
  0
LINE
  8
1
  6
CONTINUOUS
 62
6
 10
294.9597931678
 20
-109.6634739345
 11
289.9597931678
 21
-109.6634739345
  0
TEXT
  8
1
  6
CONTINUOUS
 62
6
 10
291.364193
 20
-110.041801
 40
3.300000
  1
C
 41
1.328000
 50
0.000000
 51
0.000000
 72
   5
 73
   0
 11
293.555393
 21
-110.041801
  0
LINE
  8
1
  6
CONTINUOUS
 62
6
 10
292.4597931678
 20
-105.6634739345
 11
289.9597931678
 21
-109.6634739345
  0
LINE
  8
1
  6
CONTINUOUS
 62
6
 10
292.4597931678
 20
-105.6634739345
 11
294.9597931678
 21
-109.6634739345
  0
POINT
  8
1
  6
CONTINUOUS
 62
6
 10
292.4597931678
 20
-107.6634739345
  0
ENDBLK
  8
0
  0
BLOCK
  8
1
  2
S9
 70
     0
 10
7.7490435001
 20
-56.9655230621
  3
S9
  0
LINE
  8
1
  6
CONTINUOUS
 62
6
 10
10.2490435001
 20
-58.9655230621
 11
5.2490435001
 21
-58.9655230621
  0
TEXT
  8
1
  6
CONTINUOUS
 62
6
 10
6.653444
 20
-59.343850
 40
3.300000
  1
C
 41
1.328000
 50
0.000000
 51
0.000000
 72
   5
 73
   0
 11
8.844644
 21
-59.343850
  0
LINE
  8
1
  6
CONTINUOUS
 62
6
 10
7.7490435001
 20
-54.9655230621
 11
5.2490435001
 21
-58.9655230621
  0
LINE
  8
1
  6
CONTINUOUS
 62
6
 10
7.7490435001
 20
-54.9655230621
 11
10.2490435001
 21
-58.9655230621
  0
POINT
  8
1
  6
CONTINUOUS
 62
6
 10
7.7490435001
 20
-56.9655230621
  0
ENDBLK
  8
0
  0
BLOCK
  8
1
  2
BALN12
 70
     0
 10
276.3874683405
 20
-80.7491436235
  3
BALN12
  0
SOLID
  8
1
  6
CONTINUOUS
 62
5
 10
275.2766123562
 20
-79.0860143494
 11
276.2570034752
 21
-78.7534034303
 12
276.3874683405
 22
-80.7491436235
 13
276.3874683405
 23
-80.7491436235
  0
LINE
  8
1
  6
BYBLOCK
 62
5
 10
276.3874683405
 20
-80.7491436235
 11
273.0008610716
 21
-70.7669106344
  0
CIRCLE
  8
1
  6
BYBLOCK
 62
5
 10
272.0370286408
 20
-67.9259553294
 40
3.0000000000
  0
TEXT
  8
1
  6
CONTINUOUS
 62
7
 10
270.287029
 20
-69.675955
 40
3.500000
  1
96
 41
0.854701
 50
0.000000
 51
0.000000
 72
   5
 73
   0
 11
273.787029
 21
-69.675955
  0
ENDBLK
  8
0
  0
BLOCK
  8
1
  2
BALN13
 70
     0
 10
254.3511050565
 20
-80.8142186975
  3
BALN13
  0
SOLID
  8
1
  6
CONTINUOUS
 62
5
 10
253.3188283599
 20
-79.1012082417
 11
254.3136324414
 21
-78.8145697775
 12
254.3511050565
 22
-80.8142186975
 13
254.3511050565
 23
-80.8142186975
  0
LINE
  8
1
  6
BYBLOCK
 62
5
 10
254.3511050565
 20
-80.8142186975
 11
251.4681521313
 21
-70.8086761926
  0
CIRCLE
  8
1
  6
BYBLOCK
 62
5
 10
250.6375376453
 20
-67.9259553294
 40
3.0000000000
  0
TEXT
  8
1
  6
CONTINUOUS
 62
7
 10
248.887538
 20
-69.675955
 40
3.500000
  1
95
 41
0.854701
 50
0.000000
 51
0.000000
 72
   5
 73
   0
 11
252.387538
 21
-69.675955
  0
ENDBLK
  8
0
  0
BLOCK
  8
1
  2
S10
 70
     0
 10
292.4597931678
 20
-120.1634739345
  3
S10
  0
LINE
  8
1
  6
CONTINUOUS
 62
6
 10
294.9597931678
 20
-122.1634739345
 11
289.9597931678
 21
-122.1634739345
  0
TEXT
  8
1
  6
CONTINUOUS
 62
6
 10
291.390593
 20
-122.541801
 40
3.300000
  1
D
 41
1.296000
 50
0.000000
 51
0.000000
 72
   5
 73
   0
 11
293.528993
 21
-122.541801
  0
LINE
  8
1
  6
CONTINUOUS
 62
6
 10
292.4597931678
 20
-118.1634739345
 11
289.9597931678
 21
-122.1634739345
  0
LINE
  8
1
  6
CONTINUOUS
 62
6
 10
292.4597931678
 20
-118.1634739345
 11
294.9597931678
 21
-122.1634739345
  0
POINT
  8
1
  6
CONTINUOUS
 62
6
 10
292.4597931678
 20
-120.1634739345
  0
ENDBLK
  8
0
  0
BLOCK
  8
1
  2
S11
 70
     0
 10
7.7490435001
 20
-51.9655230621
  3
S11
  0
LINE
  8
1
  6
CONTINUOUS
 62
6
 10
10.2490435001
 20
-53.9655230621
 11
5.2490435001
 21
-53.9655230621
  0
TEXT
  8
1
  6
CONTINUOUS
 62
6
 10
6.679844
 20
-54.343850
 40
3.300000
  1
D
 41
1.296000
 50
0.000000
 51
0.000000
 72
   5
 73
   0
 11
8.818244
 21
-54.343850
  0
LINE
  8
1
  6
CONTINUOUS
 62
6
 10
7.7490435001
 20
-49.9655230621
 11
5.2490435001
 21
-53.9655230621
  0
LINE
  8
1
  6
CONTINUOUS
 62
6
 10
7.7490435001
 20
-49.9655230621
 11
10.2490435001
 21
-53.9655230621
  0
POINT
  8
1
  6
CONTINUOUS
 62
6
 10
7.7490435001
 20
-51.9655230621
  0
ENDBLK
  8
0
  0
BLOCK
  8
4
  2
*D6
 70
     1
 10
0.0000000000
 20
0.0000000000
  3
*D6
  0
LINE
  8
4
  6
BYBLOCK
 62
5
 10
323.7097392007
 20
173.1540475624
 11
323.7097392007
 21
184.8474963863
  0
LINE
  8
4
  6
BYBLOCK
 62
5
 10
330.2097392007
 20
176.1540475624
 11
330.2097392007
 21
184.8474963863
  0
LINE
  8
4
  6
BYBLOCK
 62
5
 10
330.2097392007
 20
183.8474963863
 11
323.7097392007
 21
183.8474963863
  0
SOLID
  8
4
  6
CONTINUOUS
 62
5
 10
325.6415908533
 20
184.3651344765
 11
325.6415908533
 21
183.3298582961
 12
323.7097392007
 22
183.8474963863
 13
323.7097392007
 23
183.8474963863
  0
SOLID
  8
4
  6
CONTINUOUS
 62
5
 10
328.2778875481
 20
183.3298582961
 11
328.2778875481
 21
184.3651344765
 12
330.2097392007
 22
183.8474963863
 13
330.2097392007
 23
183.8474963863
  0
TEXT
  8
4
  6
CONTINUOUS
 62
7
 10
324.334739
 20
184.847496
 40
3.500000
  1
6.5
 41
0.815217
 50
0.000000
 51
0.000000
 72
   5
 73
   0
 11
329.584739
 21
184.847496
  0
POINT
  8
DEFPOINTS
  6
BYBLOCK
 62
5
 10
323.7097392007
 20
172.6540475624
  0
POINT
  8
DEFPOINTS
  6
BYBLOCK
 62
5
 10
330.2097392007
 20
175.6540475624
  0
POINT
  8
DEFPOINTS
  6
BYBLOCK
 62
5
 10
330.2097392007
 20
183.8474963863
  0
ENDBLK
  8
0
  0
BLOCK
  8
4
  2
*D7
 70
     1
 10
0.0000000000
 20
0.0000000000
  3
*D7
  0
LINE
  8
4
  6
BYBLOCK
 62
5
 10
350.2097392007
 20
175.4040475624
 11
350.2097392007
 21
184.8474963863
  0
LINE
  8
4
  6
BYBLOCK
 62
5
 10
350.2097392007
 20
183.8474963863
 11
330.2097392007
 21
183.8474963863
  0
SOLID
  8
4
  6
CONTINUOUS
 62
5
 10
332.1415908533
 20
184.3651344765
 11
332.1415908533
 21
183.3298582961
 12
330.2097392007
 22
183.8474963863
 13
330.2097392007
 23
183.8474963863
  0
SOLID
  8
4
  6
CONTINUOUS
 62
5
 10
348.2778875481
 20
183.3298582961
 11
348.2778875481
 21
184.3651344765
 12
350.2097392007
 22
183.8474963863
 13
350.2097392007
 23
183.8474963863
  0
TEXT
  8
4
  6
CONTINUOUS
 62
7
 10
338.459739
 20
184.847496
 40
3.500000
  1
20
 41
0.854701
 50
0.000000
 51
0.000000
 72
   5
 73
   0
 11
341.959739
 21
184.847496
  0
POINT
  8
DEFPOINTS
  6
BYBLOCK
 62
5
 10
330.2097392007
 20
175.6540475624
  0
POINT
  8
DEFPOINTS
  6
BYBLOCK
 62
5
 10
350.2097392007
 20
174.9040475624
  0
POINT
  8
DEFPOINTS
  6
BYBLOCK
 62
5
 10
350.2097392007
 20
183.8474963863
  0
ENDBLK
  8
0
  0
BLOCK
  8
4
  2
*D8
 70
     1
 10
0.0000000000
 20
0.0000000000
  3
*D8
  0
LINE
  8
4
  6
BYBLOCK
 62
5
 10
370.2097392007
 20
176.1540475624
 11
370.2097392007
 21
184.8474963863
  0
LINE
  8
4
  6
BYBLOCK
 62
5
 10
370.2097392007
 20
183.8474963863
 11
350.2097392007
 21
183.8474963863
  0
SOLID
  8
4
  6
CONTINUOUS
 62
5
 10
352.1415908533
 20
184.3651344765
 11
352.1415908533
 21
183.3298582961
 12
350.2097392007
 22
183.8474963863
 13
350.2097392007
 23
183.8474963863
  0
SOLID
  8
4
  6
CONTINUOUS
 62
5
 10
368.2778875481
 20
183.3298582961
 11
368.2778875481
 21
184.3651344765
 12
370.2097392007
 22
183.8474963863
 13
370.2097392007
 23
183.8474963863
  0
TEXT
  8
4
  6
CONTINUOUS
 62
7
 10
358.459739
 20
184.847496
 40
3.500000
  1
20
 41
0.854701
 50
0.000000
 51
0.000000
 72
   5
 73
   0
 11
361.959739
 21
184.847496
  0
POINT
  8
DEFPOINTS
  6
BYBLOCK
 62
5
 10
350.2097392007
 20
174.9040475624
  0
POINT
  8
DEFPOINTS
  6
BYBLOCK
 62
5
 10
370.2097392007
 20
175.6540475624
  0
POINT
  8
DEFPOINTS
  6
BYBLOCK
 62
5
 10
370.2097392007
 20
183.8474963863
  0
ENDBLK
  8
0
  0
BLOCK
  8
4
  2
*D9
 70
     1
 10
0.0000000000
 20
0.0000000000
  3
*D9
  0
LINE
  8
4
  6
BYBLOCK
 62
5
 10
376.7097392007
 20
173.1540475624
 11
376.7097392007
 21
184.8474963863
  0
LINE
  8
4
  6
BYBLOCK
 62
5
 10
376.7097392007
 20
183.8474963863
 11
370.2097392007
 21
183.8474963863
  0
SOLID
  8
4
  6
CONTINUOUS
 62
5
 10
372.1415908533
 20
184.3651344765
 11
372.1415908533
 21
183.3298582961
 12
370.2097392007
 22
183.8474963863
 13
370.2097392007
 23
183.8474963863
  0
SOLID
  8
4
  6
CONTINUOUS
 62
5
 10
374.7778875481
 20
183.3298582961
 11
374.7778875481
 21
184.3651344765
 12
376.7097392007
 22
183.8474963863
 13
376.7097392007
 23
183.8474963863
  0
TEXT
  8
4
  6
CONTINUOUS
 62
7
 10
370.834739
 20
184.847496
 40
3.500000
  1
6.5
 41
0.815217
 50
0.000000
 51
0.000000
 72
   5
 73
   0
 11
376.084739
 21
184.847496
  0
POINT
  8
DEFPOINTS
  6
BYBLOCK
 62
5
 10
370.2097392007
 20
175.6540475624
  0
POINT
  8
DEFPOINTS
  6
BYBLOCK
 62
5
 10
376.7097392007
 20
172.6540475624
  0
POINT
  8
DEFPOINTS
  6
BYBLOCK
 62
5
 10
376.7097392007
 20
183.8474963863
  0
ENDBLK
  8
0
  0
BLOCK
  8
4
  2
*D10
 70
     1
 10
0.0000000000
 20
0.0000000000
  3
*D10
  0
LINE
  8
4
  6
BYBLOCK
 62
5
 10
323.7097392007
 20
184.8474963863
 11
323.7097392007
 21
191.8474963863
  0
LINE
  8
4
  6
BYBLOCK
 62
5
 10
376.7097392007
 20
173.1540475624
 11
376.7097392007
 21
191.8474963863
  0
LINE
  8
4
  6
BYBLOCK
 62
5
 10
376.7097392007
 20
190.8474963863
 11
323.7097392007
 21
190.8474963863
  0
SOLID
  8
4
  6
CONTINUOUS
 62
5
 10
325.6415908533
 20
191.3651344765
 11
325.6415908533
 21
190.3298582961
 12
323.7097392007
 22
190.8474963863
 13
323.7097392007
 23
190.8474963863
  0
SOLID
  8
4
  6
CONTINUOUS
 62
5
 10
374.7778875481
 20
190.3298582961
 11
374.7778875481
 21
191.3651344765
 12
376.7097392007
 22
190.8474963863
 13
376.7097392007
 23
190.8474963863
  0
TEXT
  8
4
  6
CONTINUOUS
 62
7
 10
348.459739
 20
191.847496
 40
3.500000
  1
53
 41
0.854701
 50
0.000000
 51
0.000000
 72
   5
 73
   0
 11
351.959739
 21
191.847496
  0
POINT
  8
DEFPOINTS
  6
BYBLOCK
 62
5
 10
323.7097392007
 20
172.6540475624
  0
POINT
  8
DEFPOINTS
  6
BYBLOCK
 62
5
 10
376.7097392007
 20
172.6540475624
  0
POINT
  8
DEFPOINTS
  6
BYBLOCK
 62
5
 10
376.7097392007
 20
190.8474963863
  0
ENDBLK
  8
0
  0
BLOCK
  8
4
  2
*D11
 70
     1
 10
0.0000000000
 20
0.0000000000
  3
*D11
  0
LINE
  8
4
  6
BYBLOCK
 62
5
 10
329.3588695761
 20
178.3893697398
 11
327.9407535351
 21
180.4482400354
  0
LINE
  8
4
  6
BYBLOCK
 62
5
 10
331.0606088253
 20
175.9187253850
 11
332.4787248663
 21
173.8598550893
  0
SOLID
  8
4
  6
CONTINUOUS
 62
5
 10
327.8367337741
 20
179.6867141813
 11
328.6893335243
 21
180.2739708847
 12
329.3588695761
 22
178.3893697398
 13
329.3588695761
 23
178.3893697398
  0
SOLID
  8
4
  6
CONTINUOUS
 62
5
 10
332.5827446274
 20
174.6213809434
 11
331.7301448771
 21
174.0341242401
 12
331.0606088253
 22
175.9187253850
 13
331.0606088253
 23
175.9187253850
  0
TEXT
  8
4
  6
CONTINUOUS
 62
7
 10
337.089904
 20
168.928087
 40
3.500000
  1
4-M3
 41
0.796813
 50
304.558432
 51
0.000000
 72
   5
 73
   0
 11
341.060629
 21
163.163250
  0
POINT
  8
DEFPOINTS
  6
BYBLOCK
 62
5
 10
329.3588695761
 20
178.3893697398
  0
POINT
  8
DEFPOINTS
  6
BYBLOCK
 62
5
 10
331.0606088253
 20
175.9187253850
  0
LINE
  8
4
  6
BYBLOCK
 62
5
 10
329.3588695761
 20
178.3893697398
 11
340.2370804662
 21
162.5960040178
  0
ENDBLK
  8
0
  0
BLOCK
  8
4
  2
*D12
 70
     1
 10
0.0000000000
 20
0.0000000000
  3
*D12
  0
LINE
  8
4
  6
BYBLOCK
 62
5
 10
348.8085413633
 20
178.9144863203
 11
347.2516548772
 21
180.8705293846
  0
LINE
  8
4
  6
BYBLOCK
 62
5
 10
351.6109370382
 20
175.3936088045
 11
353.1678235242
 21
173.4375657401
  0
SOLID
  8
4
  6
CONTINUOUS
 62
5
 10
347.2004629124
 20
180.1036388319
 11
348.0104808294
 21
180.7483618297
 12
348.8085413633
 22
178.9144863203
 13
348.8085413633
 23
178.9144863203
  0
SOLID
  8
4
  6
CONTINUOUS
 62
5
 10
353.2190154890
 20
174.2044562928
 11
352.4089975721
 21
173.5597332950
 12
351.6109370382
 22
175.3936088045
 13
351.6109370382
 23
175.3936088045
  0
TEXT
  8
4
  6
CONTINUOUS
 62
7
 10
358.235387
 20
168.676543
 40
3.500000
  1
2-φ4.5
 41
0.804598
 50
308.517570
 51
0.000000
 72
   5
 73
   0
 11
365.864131
 21
159.091932
  0
POINT
  8
DEFPOINTS
  6
BYBLOCK
 62
5
 10
348.8085413633
 20
178.9144863203
  0
POINT
  8
DEFPOINTS
  6
BYBLOCK
 62
5
 10
351.6109370382
 20
175.3936088045
  0
LINE
  8
4
  6
BYBLOCK
 62
5
 10
348.8085413633
 20
178.9144863203
 11
365.0817132872
 21
158.4691774542
  0
ENDBLK
  8
0
  0
BLOCK
  8
1
  2
*D13
 70
     1
 10
0.0000000000
 20
0.0000000000
  3
*D13
  0
LINE
  8
1
  6
BYBLOCK
 62
5
 10
371.2097392007
 20
60.1540475624
 11
310.5138729176
 21
60.1540475624
  0
LINE
  8
1
  6
BYBLOCK
 62
5
 10
323.2097392007
 20
64.6540475624
 11
310.5138729176
 21
64.6540475624
  0
LINE
  8
1
  6
BYBLOCK
 62
5
 10
311.5138729176
 20
67.1540475624
 11
311.5138729176
 21
57.6540475624
  0
SOLID
  8
1
  6
CONTINUOUS
 62
5
 10
312.0315110078
 20
58.2221959098
 11
310.9962348274
 21
58.2221959098
 12
311.5138729176
 22
60.1540475624
 13
311.5138729176
 23
60.1540475624
  0
SOLID
  8
1
  6
CONTINUOUS
 62
5
 10
310.9962348274
 20
66.5858992150
 11
312.0315110078
 21
66.5858992150
 12
311.5138729176
 22
64.6540475624
 13
311.5138729176
 23
64.6540475624
  0
TEXT
  8
1
  6
CONTINUOUS
 62
7
 10
310.513873
 20
60.154048
 40
3.000000
  1
4.5
 41
0.815217
 50
90.000000
 51
0.000000
 72
   5
 73
   0
 11
310.513873
 21
64.654048
  0
POINT
  8
DEFPOINTS
  6
BYBLOCK
 62
5
 10
371.7097392007
 20
60.1540475624
  0
POINT
  8
DEFPOINTS
  6
BYBLOCK
 62
5
 10
323.7097392007
 20
64.6540475624
  0
POINT
  8
DEFPOINTS
  6
BYBLOCK
 62
5
 10
311.5138729176
 20
64.6540475624
  0
ENDBLK
  8
0
  0
BLOCK
  8
1
  2
*D14
 70
     1
 10
0.0000000000
 20
0.0000000000
  3
*D14
  0
LINE
  8
1
  6
BYBLOCK
 62
5
 10
323.2097392007
 20
172.6540475624
 11
310.5138729176
 21
172.6540475624
  0
LINE
  8
1
  6
BYBLOCK
 62
5
 10
311.5138729176
 20
172.6540475624
 11
311.5138729176
 21
64.6540475624
  0
SOLID
  8
1
  6
CONTINUOUS
 62
5
 10
310.9962348274
 20
66.5858992150
 11
312.0315110078
 21
66.5858992150
 12
311.5138729176
 22
64.6540475624
 13
311.5138729176
 23
64.6540475624
  0
SOLID
  8
1
  6
CONTINUOUS
 62
5
 10
312.0315110078
 20
170.7221959098
 11
310.9962348274
 21
170.7221959098
 12
311.5138729176
 22
172.6540475624
 13
311.5138729176
 23
172.6540475624
  0
TEXT
  8
1
  6
CONTINUOUS
 62
7
 10
310.513873
 20
116.029048
 40
3.500000
  1
108
 41
0.815217
 50
90.000000
 51
0.000000
 72
   5
 73
   0
 11
310.513873
 21
121.279048
  0
POINT
  8
DEFPOINTS
  6
BYBLOCK
 62
5
 10
323.7097392007
 20
64.6540475624
  0
POINT
  8
DEFPOINTS
  6
BYBLOCK
 62
5
 10
323.7097392007
 20
172.6540475624
  0
POINT
  8
DEFPOINTS
  6
BYBLOCK
 62
5
 10
311.5138729176
 20
172.6540475624
  0
ENDBLK
  8
0
  0
BLOCK
  8
1
  2
*D15
 70
     1
 10
0.0000000000
 20
0.0000000000
  3
*D15
  0
LINE
  8
1
  6
BYBLOCK
 62
5
 10
371.2097392007
 20
177.1540475624
 11
310.5138729176
 21
177.1540475624
  0
LINE
  8
1
  6
BYBLOCK
 62
5
 10
311.5138729176
 20
179.6540475624
 11
311.5138729176
 21
170.1540475624
  0
SOLID
  8
1
  6
CONTINUOUS
 62
5
 10
312.0315110078
 20
170.7221959098
 11
310.9962348274
 21
170.7221959098
 12
311.5138729176
 22
172.6540475624
 13
311.5138729176
 23
172.6540475624
  0
SOLID
  8
1
  6
CONTINUOUS
 62
5
 10
310.9962348274
 20
179.0858992150
 11
312.0315110078
 21
179.0858992150
 12
311.5138729176
 22
177.1540475624
 13
311.5138729176
 23
177.1540475624
  0
TEXT
  8
1
  6
CONTINUOUS
 62
7
 10
309.513873
 20
172.654048
 40
3.000000
  1
4.5
 41
0.815217
 50
90.000000
 51
0.000000
 72
   5
 73
   0
 11
309.513873
 21
177.154048
  0
POINT
  8
DEFPOINTS
  6
BYBLOCK
 62
5
 10
323.7097392007
 20
172.6540475624
  0
POINT
  8
DEFPOINTS
  6
BYBLOCK
 62
5
 10
371.7097392007
 20
177.1540475624
  0
POINT
  8
DEFPOINTS
  6
BYBLOCK
 62
5
 10
311.5138729176
 20
177.1540475624
  0
ENDBLK
  8
0
  0
BLOCK
  8
1
  2
*D16
 70
     1
 10
0.0000000000
 20
0.0000000000
  3
*D16
  0
LINE
  8
1
  6
BYBLOCK
 62
5
 10
310.5138729176
 20
60.1540475624
 11
303.5138729176
 21
60.1540475624
  0
LINE
  8
1
  6
BYBLOCK
 62
5
 10
371.2097392007
 20
177.1540475624
 11
303.5138729176
 21
177.1540475624
  0
LINE
  8
1
  6
BYBLOCK
 62
5
 10
304.5138729176
 20
177.1540475624
 11
304.5138729176
 21
60.1540475624
  0
SOLID
  8
1
  6
CONTINUOUS
 62
5
 10
303.9962348274
 20
62.0858992150
 11
305.0315110078
 21
62.0858992150
 12
304.5138729176
 22
60.1540475624
 13
304.5138729176
 23
60.1540475624
  0
SOLID
  8
1
  6
CONTINUOUS
 62
5
 10
305.0315110078
 20
175.2221959098
 11
303.9962348274
 21
175.2221959098
 12
304.5138729176
 22
177.1540475624
 13
304.5138729176
 23
177.1540475624
  0
TEXT
  8
1
  6
CONTINUOUS
 62
7
 10
303.513873
 20
116.029048
 40
3.500000
  1
117
 41
0.815217
 50
90.000000
 51
0.000000
 72
   5
 73
   0
 11
303.513873
 21
121.279048
  0
POINT
  8
DEFPOINTS
  6
BYBLOCK
 62
5
 10
371.7097392007
 20
60.1540475624
  0
POINT
  8
DEFPOINTS
  6
BYBLOCK
 62
5
 10
371.7097392007
 20
177.1540475624
  0
POINT
  8
DEFPOINTS
  6
BYBLOCK
 62
5
 10
304.5138729176
 20
177.1540475624
  0
ENDBLK
  8
0
  0
BLOCK
  8
1
  2
*D17
 70
     1
 10
0.0000000000
 20
0.0000000000
  3
*D17
  0
LINE
  8
1
  6
BYBLOCK
 62
5
 10
385.2097392007
 20
44.4040475624
 11
393.3529732637
 21
44.4040475624
  0
LINE
  8
1
  6
BYBLOCK
 62
5
 10
377.2097392007
 20
64.6540475624
 11
393.3529732637
 21
64.6540475624
  0
LINE
  8
1
  6
BYBLOCK
 62
5
 10
392.3529732637
 20
64.6540475624
 11
392.3529732637
 21
44.4040475624
  0
SOLID
  8
1
  6
CONTINUOUS
 62
5
 10
391.8353351735
 20
46.3358992150
 11
392.8706113539
 21
46.3358992150
 12
392.3529732637
 22
44.4040475624
 13
392.3529732637
 23
44.4040475624
  0
SOLID
  8
1
  6
CONTINUOUS
 62
5
 10
392.8706113539
 20
62.7221959098
 11
391.8353351735
 21
62.7221959098
 12
392.3529732637
 22
64.6540475624
 13
392.3529732637
 23
64.6540475624
  0
TEXT
  8
1
  6
CONTINUOUS
 62
7
 10
391.352973
 20
50.154048
 40
3.500000
  1
20.25
 41
0.786164
 50
90.000000
 51
0.000000
 72
   5
 73
   0
 11
391.352973
 21
58.904048
  0
POINT
  8
DEFPOINTS
  6
BYBLOCK
 62
5
 10
384.7097392007
 20
44.4040475624
  0
POINT
  8
DEFPOINTS
  6
BYBLOCK
 62
5
 10
376.7097392007
 20
64.6540475624
  0
POINT
  8
DEFPOINTS
  6
BYBLOCK
 62
5
 10
392.3529732637
 20
64.6540475624
  0
ENDBLK
  8
0
  0
BLOCK
  8
1
  2
*D18
 70
     1
 10
0.0000000000
 20
0.0000000000
  3
*D18
  0
LINE
  8
1
  6
BYBLOCK
 62
5
 10
377.2097392007
 20
172.6540475624
 11
393.3529732637
 21
172.6540475624
  0
LINE
  8
1
  6
BYBLOCK
 62
5
 10
392.3529732637
 20
172.6540475624
 11
392.3529732637
 21
64.6540475624
  0
SOLID
  8
1
  6
CONTINUOUS
 62
5
 10
391.8353351735
 20
66.5858992150
 11
392.8706113539
 21
66.5858992150
 12
392.3529732637
 22
64.6540475624
 13
392.3529732637
 23
64.6540475624
  0
SOLID
  8
1
  6
CONTINUOUS
 62
5
 10
392.8706113539
 20
170.7221959098
 11
391.8353351735
 21
170.7221959098
 12
392.3529732637
 22
172.6540475624
 13
392.3529732637
 23
172.6540475624
  0
TEXT
  8
1
  6
CONTINUOUS
 62
7
 10
391.352973
 20
116.029048
 40
3.500000
  1
108
 41
0.815217
 50
90.000000
 51
0.000000
 72
   5
 73
   0
 11
391.352973
 21
121.279048
  0
POINT
  8
DEFPOINTS
  6
BYBLOCK
 62
5
 10
376.7097392007
 20
64.6540475624
  0
POINT
  8
DEFPOINTS
  6
BYBLOCK
 62
5
 10
376.7097392007
 20
172.6540475624
  0
POINT
  8
DEFPOINTS
  6
BYBLOCK
 62
5
 10
392.3529732637
 20
172.6540475624
  0
ENDBLK
  8
0
  0
BLOCK
  8
1
  2
*D19
 70
     1
 10
0.0000000000
 20
0.0000000000
  3
*D19
  0
LINE
  8
1
  6
BYBLOCK
 62
5
 10
385.2097392007
 20
199.9040475624
 11
393.3529732637
 21
199.9040475624
  0
LINE
  8
1
  6
BYBLOCK
 62
5
 10
392.3529732637
 20
199.9040475624
 11
392.3529732637
 21
172.6540475624
  0
SOLID
  8
1
  6
CONTINUOUS
 62
5
 10
391.8353351735
 20
174.5858992150
 11
392.8706113539
 21
174.5858992150
 12
392.3529732637
 22
172.6540475624
 13
392.3529732637
 23
172.6540475624
  0
SOLID
  8
1
  6
CONTINUOUS
 62
5
 10
392.8706113539
 20
197.9721959098
 11
391.8353351735
 21
197.9721959098
 12
392.3529732637
 22
199.9040475624
 13
392.3529732637
 23
199.9040475624
  0
TEXT
  8
1
  6
CONTINUOUS
 62
7
 10
391.352973
 20
181.904048
 40
3.500000
  1
27.25
 41
0.786164
 50
90.000000
 51
0.000000
 72
   5
 73
   0
 11
391.352973
 21
190.654048
  0
POINT
  8
DEFPOINTS
  6
BYBLOCK
 62
5
 10
376.7097392007
 20
172.6540475624
  0
POINT
  8
DEFPOINTS
  6
BYBLOCK
 62
5
 10
384.7097392007
 20
199.9040475624
  0
POINT
  8
DEFPOINTS
  6
BYBLOCK
 62
5
 10
392.3529732637
 20
199.9040475624
  0
ENDBLK
  8
0
  0
BLOCK
  8
1
  2
LTEX3
 70
     0
 10
328.5640805301
 20
44.4040475624
  3
LTEX3
  0
SOLID
  8
1
  6
CONTINUOUS
 62
5
 10
329.3863241380
 20
46.2272084026
 11
330.1877448027
 21
45.5718293613
 12
328.5640805301
 22
44.4040475624
 13
328.5640805301
 23
44.4040475624
  0
TEXT
  8
1
  6
CONTINUOUS
 62
7
 10
333.059582
 20
50.901306
 40
2.500000
  1
製品外形
 41
0.886918
 50
0.000000
 51
0.000000
 72
   5
 73
   0
 11
343.059582
 21
50.901306
  0
LINE
  8
1
  6
BYBLOCK
 62
5
 10
328.5640805301
 20
44.4040475624
 11
333.0595822602
 21
49.9013060307
  0
LINE
  8
1
  6
BYBLOCK
 62
5
 10
333.0595822602
 20
49.9013060307
 11
343.0595822602
 21
49.9013060307
  0
ENDBLK
  8
0
  0
BLOCK
  8
1
  2
BALN14
 70
     0
 10
112.1348058892
 20
197.2197252882
  3
BALN14
  0
SOLID
  8
1
  6
CONTINUOUS
 62
5
 10
111.1236061903
 20
198.9452614858
 11
112.1218493605
 21
199.2196833199
 12
112.1348058892
 22
197.2197252882
 13
112.1348058892
 23
197.2197252882
  0
LINE
  8
1
  6
BYBLOCK
 62
5
 10
112.1348058892
 20
197.2197252882
 11
106.5837466317
 21
217.4123860116
  0
CIRCLE
  8
1
  6
BYBLOCK
 62
5
 10
105.7885332211
 20
220.3050725884
 40
3.0000000000
  0
TEXT
  8
1
  6
CONTINUOUS
 62
7
 10
104.913533
 20
218.555073
 40
3.500000
  1
2
 41
1.000000
 50
0.000000
 51
0.000000
 72
   5
 73
   0
 11
106.663533
 21
218.555073
  0
ENDBLK
  8
0
  0
BLOCK
  8
1
  2
BALN15
 70
     0
 10
131.0889601190
 20
210.1369732142
  3
BALN15
  0
SOLID
  8
1
  6
CONTINUOUS
 62
5
 10
130.8059559987
 20
212.1168491365
 11
131.8338093227
 21
211.9930981194
 12
131.0889601190
 22
210.1369732142
 13
131.0889601190
 23
210.1369732142
  0
LINE
  8
1
  6
BYBLOCK
 62
5
 10
131.0889601190
 20
210.1369732142
 11
131.9545714135
 21
217.3265823748
  0
CIRCLE
  8
1
  6
BYBLOCK
 62
5
 10
132.3131743238
 20
220.3050725884
 40
3.0000000000
  0
TEXT
  8
1
  6
CONTINUOUS
 62
7
 10
131.438174
 20
218.555073
 40
3.500000
  1
1
 41
1.000000
 50
0.000000
 51
0.000000
 72
   5
 73
   0
 11
133.188174
 21
218.555073
  0
ENDBLK
  8
0
  0
BLOCK
  8
1
  2
BALN16
 70
     0
 10
201.8808680172
 20
192.5550725884
  3
BALN16
  0
SOLID
  8
1
  6
CONTINUOUS
 62
5
 10
201.6643930193
 20
194.5433227174
 11
202.6875202342
 21
194.3851852081
 12
201.8808680172
 22
192.5550725884
 13
201.8808680172
 23
192.5550725884
  0
LINE
  8
1
  6
BYBLOCK
 62
5
 10
201.8808680172
 20
192.5550725884
 11
205.7117411749
 21
217.3402775870
  0
CIRCLE
  8
1
  6
BYBLOCK
 62
5
 10
206.1699884877
 20
220.3050725884
 40
3.0000000000
  0
TEXT
  8
1
  6
CONTINUOUS
 62
7
 10
205.294988
 20
218.555073
 40
3.500000
  1
4
 41
1.000000
 50
0.000000
 51
0.000000
 72
   5
 73
   0
 11
207.044988
 21
218.555073
  0
ENDBLK
  8
0
  0
BLOCK
  8
1
  2
BALN17
 70
     0
 10
221.8808680172
 20
196.4550725884
  3
BALN17
  0
SOLID
  8
1
  6
CONTINUOUS
 62
5
 10
221.8616238779
 20
198.4549800020
 11
222.8641558105
 21
198.1966652834
 12
221.8808680172
 22
196.4550725884
 13
221.8808680172
 23
196.4550725884
  0
LINE
  8
1
  6
BYBLOCK
 62
5
 10
221.8808680172
 20
196.4550725884
 11
227.2775761308
 21
217.3999581323
  0
CIRCLE
  8
1
  6
BYBLOCK
 62
5
 10
228.0261147048
 20
220.3050725884
 40
3.0000000000
  0
TEXT
  8
1
  6
CONTINUOUS
 62
7
 10
227.151115
 20
218.555073
 40
3.500000
  1
5
 41
1.000000
 50
0.000000
 51
0.000000
 72
   5
 73
   0
 11
228.901115
 21
218.555073
  0
ENDBLK
  8
0
  0
BLOCK
  8
1
  2
BALN18
 70
     0
 10
236.7162399915
 20
182.5872780066
  3
BALN18
  0
SOLID
  8
1
  6
CONTINUOUS
 62
5
 10
236.7233928678
 20
184.5872652157
 11
237.7224281686
 21
184.3157412987
 12
236.7162399915
 22
182.5872780066
 13
236.7162399915
 23
182.5872780066
  0
LINE
  8
1
  6
BYBLOCK
 62
5
 10
236.7162399915
 20
182.5872780066
 11
246.1805967207
 21
217.4100905932
  0
CIRCLE
  8
1
  6
BYBLOCK
 62
5
 10
246.9674126122
 20
220.3050725884
 40
3.0000000000
  0
TEXT
  8
1
  6
CONTINUOUS
 62
7
 10
246.092413
 20
218.555073
 40
3.500000
  1
8
 41
1.000000
 50
0.000000
 51
0.000000
 72
   5
 73
   0
 11
247.842413
 21
218.555073
  0
ENDBLK
  8
0
  0
BLOCK
  8
1
  2
*D20
 70
     1
 10
0.0000000000
 20
0.0000000000
  3
*D20
  0
LINE
  8
1
  6
BYBLOCK
 62
5
 10
133.4661466639
 20
118.3050725884
 11
133.4661466639
 21
124.5560241183
  0
LINE
  8
1
  6
BYBLOCK
 62
5
 10
156.8661466639
 20
118.3050725884
 11
156.8661466639
 21
124.5560241183
  0
LINE
  8
1
  6
BYBLOCK
 62
5
 10
156.8661466639
 20
123.5560241183
 11
133.4661466639
 21
123.5560241183
  0
SOLID
  8
1
  6
CONTINUOUS
 62
5
 10
135.3979983165
 20
124.0736622085
 11
135.3979983165
 21
123.0383860281
 12
133.4661466639
 22
123.5560241183
 13
133.4661466639
 23
123.5560241183
  0
SOLID
  8
1
  6
CONTINUOUS
 62
5
 10
154.9342950114
 20
123.0383860281
 11
154.9342950114
 21
124.0736622085
 12
156.8661466639
 22
123.5560241183
 13
156.8661466639
 23
123.5560241183
  0
TEXT
  8
1
  6
CONTINUOUS
 62
7
 10
141.666147
 20
124.556024
 40
3.500000
  1
23.4
 41
0.796813
 50
0.000000
 51
0.000000
 72
   5
 73
   0
 11
148.666147
 21
124.556024
  0
POINT
  8
DEFPOINTS
  6
BYBLOCK
 62
5
 10
133.4661466639
 20
117.8050725884
  0
POINT
  8
DEFPOINTS
  6
BYBLOCK
 62
5
 10
156.8661466639
 20
117.8050725884
  0
POINT
  8
DEFPOINTS
  6
BYBLOCK
 62
5
 10
156.8661466639
 20
123.5560241183
  0
ENDBLK
  8
0
  0
BLOCK
  8
1
  2
*D21
 70
     1
 10
0.0000000000
 20
0.0000000000
  3
*D21
  0
LINE
  8
1
  6
BYBLOCK
 62
5
 10
158.1661466639
 20
148.4550725884
 11
158.1661466639
 21
139.6307177679
  0
LINE
  8
1
  6
BYBLOCK
 62
5
 10
133.4661466639
 20
148.4550725884
 11
133.4661466639
 21
139.6307177679
  0
LINE
  8
1
  6
BYBLOCK
 62
5
 10
133.4661466639
 20
140.6307177679
 11
158.1661466639
 21
140.6307177679
  0
SOLID
  8
1
  6
CONTINUOUS
 62
5
 10
156.2342950114
 20
140.1130796777
 11
156.2342950114
 21
141.1483558581
 12
158.1661466639
 22
140.6307177679
 13
158.1661466639
 23
140.6307177679
  0
SOLID
  8
1
  6
CONTINUOUS
 62
5
 10
135.3979983165
 20
141.1483558581
 11
135.3979983165
 21
140.1130796777
 12
133.4661466639
 22
140.6307177679
 13
133.4661466639
 23
140.6307177679
  0
TEXT
  8
1
  6
CONTINUOUS
 62
7
 10
142.316147
 20
141.630718
 40
3.500000
  1
24.7
 41
0.796813
 50
0.000000
 51
0.000000
 72
   5
 73
   0
 11
149.316147
 21
141.630718
  0
POINT
  8
DEFPOINTS
  6
BYBLOCK
 62
5
 10
158.1661466639
 20
148.9550725884
  0
POINT
  8
DEFPOINTS
  6
BYBLOCK
 62
5
 10
133.4661466639
 20
148.9550725884
  0
POINT
  8
DEFPOINTS
  6
BYBLOCK
 62
5
 10
133.4661466639
 20
140.6307177679
  0
ENDBLK
  8
0
  0
BLOCK
  8
1
  2
*D22
 70
     1
 10
0.0000000000
 20
0.0000000000
  3
*D22
  0
LINE
  8
1
  6
BYBLOCK
 62
5
 10
141.9478150314
 20
87.5411916820
 11
140.4294833989
 21
89.5273107755
  0
LINE
  8
1
  6
BYBLOCK
 62
5
 10
144.9844782965
 20
83.5689534949
 11
146.5028099290
 21
81.5828344014
  0
SOLID
  8
1
  6
CONTINUOUS
 62
5
 10
140.3633020842
 20
88.7615681485
 11
141.1857747998
 21
89.3903251778
 12
141.9478150314
 22
87.5411916820
 13
141.9478150314
 23
87.5411916820
  0
SOLID
  8
1
  6
CONTINUOUS
 62
5
 10
146.5689912436
 20
82.3485770283
 11
145.7465185281
 21
81.7198199991
 12
144.9844782965
 22
83.5689534949
 13
144.9844782965
 23
83.5689534949
  0
TEXT
  8
1
  6
CONTINUOUS
 62
7
 10
149.660057
 20
79.099405
 40
3.500000
  1
2-M5
 41
0.796813
 50
307.396885
 51
0.000000
 72
   5
 73
   0
 11
153.911386
 21
73.538272
  0
POINT
  8
DEFPOINTS
  6
BYBLOCK
 62
5
 10
141.9478150314
 20
87.5411916820
  0
POINT
  8
DEFPOINTS
  6
BYBLOCK
 62
5
 10
144.9844782965
 20
83.5689534949
  0
LINE
  8
1
  6
BYBLOCK
 62
5
 10
141.9478150314
 20
87.5411916820
 11
153.1169379357
 21
72.9309393610
  0
ENDBLK
  8
0
  0
BLOCK
  8
1
  2
S12
 70
     0
 10
309.6307705942
 20
229.5561403077
  3
S12
  0
LINE
  8
1
  6
CONTINUOUS
 62
6
 10
312.1307705942
 20
227.5561403077
 11
307.1307705942
 21
227.5561403076
  0
TEXT
  8
1
  6
CONTINUOUS
 62
6
 10
308.696871
 20
227.177813
 40
3.300000
  1
E
 41
1.132000
 50
0.000000
 51
0.000000
 72
   5
 73
   0
 11
310.564671
 21
227.177813
  0
LINE
  8
1
  6
CONTINUOUS
 62
6
 10
309.6307705942
 20
231.5561403077
 11
307.1307705942
 21
227.5561403076
  0
LINE
  8
1
  6
CONTINUOUS
 62
6
 10
309.6307705942
 20
231.5561403077
 11
312.1307705942
 21
227.5561403077
  0
POINT
  8
1
  6
CONTINUOUS
 62
6
 10
309.6307705942
 20
229.5561403077
  0
ENDBLK
  8
0
  0
BLOCK
  8
1
  2
S13
 70
     0
 10
7.7490435001
 20
-46.9655230621
  3
S13
  0
LINE
  8
1
  6
CONTINUOUS
 62
6
 10
10.2490435001
 20
-48.9655230621
 11
5.2490435001
 21
-48.9655230621
  0
TEXT
  8
1
  6
CONTINUOUS
 62
6
 10
6.815144
 20
-49.343850
 40
3.300000
  1
E
 41
1.132000
 50
0.000000
 51
0.000000
 72
   5
 73
   0
 11
8.682944
 21
-49.343850
  0
LINE
  8
1
  6
CONTINUOUS
 62
6
 10
7.7490435001
 20
-44.9655230621
 11
5.2490435001
 21
-48.9655230621
  0
LINE
  8
1
  6
CONTINUOUS
 62
6
 10
7.7490435001
 20
-44.9655230621
 11
10.2490435001
 21
-48.9655230621
  0
POINT
  8
1
  6
CONTINUOUS
 62
6
 10
7.7490435001
 20
-46.9655230621
  0
ENDBLK
  8
0
  0
BLOCK
  8
1
  2
S14
 70
     0
 10
292.4597931678
 20
-241.5482459455
  3
S14
  0
LINE
  8
1
  6
CONTINUOUS
 62
6
 10
294.9597931678
 20
-243.5482459455
 11
289.9597931678
 21
-243.5482459455
  0
TEXT
  8
1
  6
CONTINUOUS
 62
6
 10
291.525893
 20
-243.926573
 40
3.300000
  1
E
 41
1.132000
 50
0.000000
 51
0.000000
 72
   5
 73
   0
 11
293.393693
 21
-243.926573
  0
LINE
  8
1
  6
CONTINUOUS
 62
6
 10
292.4597931678
 20
-239.5482459455
 11
289.9597931678
 21
-243.5482459455
  0
LINE
  8
1
  6
CONTINUOUS
 62
6
 10
292.4597931678
 20
-239.5482459455
 11
294.9597931678
 21
-243.5482459455
  0
POINT
  8
1
  6
CONTINUOUS
 62
6
 10
292.4597931678
 20
-241.5482459455
  0
ENDBLK
  8
0
  0
BLOCK
  8
1
  2
S15
 70
     0
 10
292.4597931678
 20
-219.0482459455
  3
S15
  0
LINE
  8
1
  6
CONTINUOUS
 62
6
 10
294.9597931678
 20
-221.0482459455
 11
289.9597931678
 21
-221.0482459455
  0
TEXT
  8
1
  6
CONTINUOUS
 62
6
 10
291.525893
 20
-221.426573
 40
3.300000
  1
E
 41
1.132000
 50
0.000000
 51
0.000000
 72
   5
 73
   0
 11
293.393693
 21
-221.426573
  0
LINE
  8
1
  6
CONTINUOUS
 62
6
 10
292.4597931678
 20
-217.0482459455
 11
289.9597931678
 21
-221.0482459455
  0
LINE
  8
1
  6
CONTINUOUS
 62
6
 10
292.4597931678
 20
-217.0482459455
 11
294.9597931678
 21
-221.0482459455
  0
POINT
  8
1
  6
CONTINUOUS
 62
6
 10
292.4597931678
 20
-219.0482459455
  0
ENDBLK
  8
0
  0
BLOCK
  8
1
  2
S16
 70
     0
 10
292.4597931678
 20
-224.0482459455
  3
S16
  0
LINE
  8
1
  6
CONTINUOUS
 62
6
 10
294.9597931678
 20
-226.0482459455
 11
289.9597931678
 21
-226.0482459455
  0
TEXT
  8
1
  6
CONTINUOUS
 62
6
 10
291.525893
 20
-226.426573
 40
3.300000
  1
E
 41
1.132000
 50
0.000000
 51
0.000000
 72
   5
 73
   0
 11
293.393693
 21
-226.426573
  0
LINE
  8
1
  6
CONTINUOUS
 62
6
 10
292.4597931678
 20
-222.0482459455
 11
289.9597931678
 21
-226.0482459455
  0
LINE
  8
1
  6
CONTINUOUS
 62
6
 10
292.4597931678
 20
-222.0482459455
 11
294.9597931678
 21
-226.0482459455
  0
POINT
  8
1
  6
CONTINUOUS
 62
6
 10
292.4597931678
 20
-224.0482459455
  0
ENDBLK
  8
0
  0
BLOCK
  8
1
  2
S17
 70
     0
 10
137.2868002249
 20
33.7122766511
  3
S17
  0
LINE
  8
1
  6
CONTINUOUS
 62
6
 10
139.7868002249
 20
31.7122766511
 11
134.7868002249
 21
31.7122766510
  0
TEXT
  8
1
  6
CONTINUOUS
 62
6
 10
136.377650
 20
31.333949
 40
3.300000
  1
F
 41
1.102000
 50
0.000000
 51
0.000000
 72
   5
 73
   0
 11
138.195950
 21
31.333949
  0
LINE
  8
1
  6
CONTINUOUS
 62
6
 10
137.2868002249
 20
35.7122766511
 11
134.7868002249
 21
31.7122766510
  0
LINE
  8
1
  6
CONTINUOUS
 62
6
 10
137.2868002249
 20
35.7122766511
 11
139.7868002249
 21
31.7122766511
  0
POINT
  8
1
  6
CONTINUOUS
 62
6
 10
137.2868002249
 20
33.7122766511
  0
ENDBLK
  8
0
  0
BLOCK
  8
3
  2
LTEX4
 70
     0
 10
134.5962334454
 20
81.9631075640
  3
LTEX4
  0
SOLID
  8
3
  6
CONTINUOUS
 62
5
 10
135.0708243304
 20
80.0202325058
 11
134.0358036791
 21
80.0432329647
 12
134.5962334454
 22
81.9631075640
 13
134.5962334454
 23
81.9631075640
  0
TEXT
  8
3
  6
CONTINUOUS
 62
7
 10
133.340636
 20
26.461205
 40
3.500000
  1
 PBT品はｱｰｽ部(2箇所) は無いです
 41
0.820106
 50
0.000000
 51
0.000000
 72
   5
 73
   0
 11
187.590636
 21
26.461205
  0
LINE
  8
3
  6
BYBLOCK
 62
5
 10
134.5962334454
 20
81.9631075640
 11
133.3406356149
 21
25.4612051938
  0
LINE
  8
3
  6
BYBLOCK
 62
5
 10
133.3406356149
 20
25.4612051938
 11
187.5906356149
 21
25.4612051938
  0
ENDBLK
  8
0
  0
BLOCK
  8
3
  2
LTEX5
 70
     0
 10
88.2645106558
 20
12.5464846521
  3
LTEX5
  0
SOLID
  8
3
  6
CONTINUOUS
 62
5
 10
89.9790701192
 20
13.5761864761
 11
90.2642136195
 21
12.5809528583
 12
88.2645106558
 22
12.5464846521
 13
88.2645106558
 23
12.5464846521
  0
TEXT
  8
3
  6
CONTINUOUS
 62
7
 10
133.340636
 20
26.461205
 40
3.500000
  1
 
 41
1.000000
 50
0.000000
 51
0.000000
 72
   5
 73
   0
 11
135.090636
 21
26.461205
  0
LINE
  8
3
  6
BYBLOCK
 62
5
 10
88.2645106558
 20
12.5464846521
 11
133.3406356149
 21
25.4612051938
  0
LINE
  8
3
  6
BYBLOCK
 62
5
 10
133.3406356149
 20
25.4612051938
 11
135.0906356149
 21
25.4612051938
  0
ENDBLK
  8
0
  0
BLOCK
  8
3
  2
LTEX6
 70
     0
 10
39.2645106558
 20
13.9814536012
  3
LTEX6
  0
SOLID
  8
3
  6
CONTINUOUS
 62
5
 10
41.1194376375
 20
14.7292810498
 11
41.2448382684
 21
13.7016276785
 12
39.2645106558
 22
13.9814536012
 13
39.2645106558
 23
13.9814536012
  0
TEXT
  8
3
  6
CONTINUOUS
 62
7
 10
133.340636
 20
26.461205
 40
3.500000
  1
 
 41
1.000000
 50
0.000000
 51
0.000000
 72
   5
 73
   0
 11
135.090636
 21
26.461205
  0
LINE
  8
3
  6
BYBLOCK
 62
5
 10
39.2645106558
 20
13.9814536012
 11
133.3406356149
 21
25.4612051938
  0
LINE
  8
3
  6
BYBLOCK
 62
5
 10
133.3406356149
 20
25.4612051938
 11
135.0906356149
 21
25.4612051938
  0
ENDBLK
  8
0
  0
BLOCK
  8
1
  2
S18
 70
     0
 10
183.0822025385
 20
239.8450378988
  3
S18
  0
LINE
  8
1
  6
CONTINUOUS
 62
6
 10
185.5822025385
 20
237.8450378988
 11
180.5822025385
 21
237.8450378988
  0
TEXT
  8
1
  6
CONTINUOUS
 62
6
 10
182.173053
 20
237.466711
 40
3.300000
  1
F
 41
1.102000
 50
0.000000
 51
0.000000
 72
   5
 73
   0
 11
183.991353
 21
237.466711
  0
LINE
  8
1
  6
CONTINUOUS
 62
6
 10
183.0822025385
 20
241.8450378988
 11
180.5822025385
 21
237.8450378988
  0
LINE
  8
1
  6
CONTINUOUS
 62
6
 10
183.0822025385
 20
241.8450378988
 11
185.5822025385
 21
237.8450378988
  0
POINT
  8
1
  6
CONTINUOUS
 62
6
 10
183.0822025385
 20
239.8450378988
  0
ENDBLK
  8
0
  0
BLOCK
  8
1
  2
S19
 70
     0
 10
9.0000000000
 20
272.0000000000
  3
S19
  0
LINE
  8
1
  6
CONTINUOUS
 62
6
 10
11.5000000000
 20
270.0000000000
 11
6.5000000000
 21
270.0000000000
  0
TEXT
  8
1
  6
CONTINUOUS
 62
6
 10
8.090850
 20
269.621673
 40
3.300000
  1
F
 41
1.102000
 50
0.000000
 51
0.000000
 72
   5
 73
   0
 11
9.909150
 21
269.621673
  0
LINE
  8
1
  6
CONTINUOUS
 62
6
 10
9.0000000000
 20
274.0000000000
 11
6.5000000000
 21
270.0000000000
  0
LINE
  8
1
  6
CONTINUOUS
 62
6
 10
9.0000000000
 20
274.0000000000
 11
11.5000000000
 21
270.0000000000
  0
POINT
  8
1
  6
CONTINUOUS
 62
6
 10
9.0000000000
 20
272.0000000000
  0
ENDBLK
  8
0
  0
BLOCK
  8
1
  2
S20
 70
     0
 10
7.7490435001
 20
-36.9655230621
  3
S20
  0
LINE
  8
1
  6
CONTINUOUS
 62
6
 10
10.2490435000
 20
-38.9655230621
 11
5.2490435000
 21
-38.9655230621
  0
TEXT
  8
1
  6
CONTINUOUS
 62
6
 10
6.839894
 20
-39.343850
 40
3.300000
  1
F
 41
1.102000
 50
0.000000
 51
0.000000
 72
   5
 73
   0
 11
8.658194
 21
-39.343850
  0
LINE
  8
1
  6
CONTINUOUS
 62
6
 10
7.7490435000
 20
-34.9655230621
 11
5.2490435000
 21
-38.9655230621
  0
LINE
  8
1
  6
CONTINUOUS
 62
6
 10
7.7490435000
 20
-34.9655230621
 11
10.2490435000
 21
-38.9655230621
  0
POINT
  8
1
  6
CONTINUOUS
 62
6
 10
7.7490435001
 20
-36.9655230621
  0
ENDBLK
  8
0
  0
BLOCK
  8
1
  2
S21
 70
     0
 10
38.0480956619
 20
-106.0815984497
  3
S21
  0
LINE
  8
1
  6
CONTINUOUS
 62
6
 10
40.5480956619
 20
-108.0815984497
 11
35.5480956619
 21
-108.0815984497
  0
TEXT
  8
1
  6
CONTINUOUS
 62
6
 10
37.138946
 20
-108.459926
 40
3.300000
  1
F
 41
1.102000
 50
0.000000
 51
0.000000
 72
   5
 73
   0
 11
38.957246
 21
-108.459926
  0
LINE
  8
1
  6
CONTINUOUS
 62
6
 10
38.0480956619
 20
-104.0815984497
 11
35.5480956619
 21
-108.0815984497
  0
LINE
  8
1
  6
CONTINUOUS
 62
6
 10
38.0480956619
 20
-104.0815984497
 11
40.5480956619
 21
-108.0815984497
  0
POINT
  8
1
  6
CONTINUOUS
 62
6
 10
38.0480956619
 20
-106.0815984497
  0
ENDBLK
  8
0
  0
BLOCK
  8
1
  2
S22
 70
     0
 10
309.7617758437
 20
266.7893135890
  3
S22
  0
LINE
  8
1
  6
CONTINUOUS
 62
6
 10
312.2617758437
 20
264.7893135890
 11
307.2617758437
 21
264.7893135890
  0
TEXT
  8
1
  6
CONTINUOUS
 62
6
 10
308.852626
 20
264.410986
 40
3.300000
  1
F
 41
1.102000
 50
0.000000
 51
0.000000
 72
   5
 73
   0
 11
310.670926
 21
264.410986
  0
LINE
  8
1
  6
CONTINUOUS
 62
6
 10
309.7617758437
 20
268.7893135890
 11
307.2617758437
 21
264.7893135890
  0
LINE
  8
1
  6
CONTINUOUS
 62
6
 10
309.7617758437
 20
268.7893135890
 11
312.2617758437
 21
264.7893135890
  0
POINT
  8
1
  6
CONTINUOUS
 62
6
 10
309.7617758437
 20
266.7893135890
  0
ENDBLK
  8
0
  0
BLOCK
  8
1
  2
S23
 70
     0
 10
211.3808672423
 20
181.5550725884
  3
S23
  0
CIRCLE
  8
1
  6
HIDDEN
 62
5
 10
211.3808672423
 20
181.5550725884
 40
4.5000000000
  0
LINE
  8
1
  6
HIDDEN
 62
5
 10
214.7558672425
 20
181.5550725884
 11
208.0058672425
 21
181.5550725884
  0
LINE
  8
1
  6
HIDDEN
 62
5
 10
213.6308672425
 20
179.8675725884
 11
209.1308672425
 21
179.8675725884
  0
LINE
  8
1
  6
HIDDEN
 62
5
 10
212.5058672425
 20
178.1800725884
 11
210.2558672425
 21
178.1800725884
  0
LINE
  8
1
  6
HIDDEN
 62
5
 10
211.3808672423
 20
181.5550725884
 11
211.3808672425
 21
184.9300725884
  0
ENDBLK
  8
0
  0
BLOCK
  8
1
  2
S24
 70
     0
 10
309.6307705942
 20
224.5561403077
  3
S24
  0
LINE
  8
1
  6
CONTINUOUS
 62
6
 10
312.1307705942
 20
222.5561403077
 11
307.1307705942
 21
222.5561403076
  0
TEXT
  8
1
  6
CONTINUOUS
 62
6
 10
308.721621
 20
222.177813
 40
3.300000
  1
F
 41
1.102000
 50
0.000000
 51
0.000000
 72
   5
 73
   0
 11
310.539921
 21
222.177813
  0
LINE
  8
1
  6
CONTINUOUS
 62
6
 10
309.6307705942
 20
226.5561403077
 11
307.1307705942
 21
222.5561403076
  0
LINE
  8
1
  6
CONTINUOUS
 62
6
 10
309.6307705942
 20
226.5561403077
 11
312.1307705942
 21
222.5561403077
  0
POINT
  8
1
  6
CONTINUOUS
 62
6
 10
309.6307705942
 20
224.5561403077
  0
ENDBLK
  8
0
  0
BLOCK
  8
1
  2
S25
 70
     0
 10
57.7210505426
 20
-165.9724546205
  3
S25
  0
CIRCLE
  8
1
  6
HIDDEN
 62
5
 10
57.7210505426
 20
-165.9724546205
 40
4.5000000000
  0
LINE
  8
1
  6
HIDDEN
 62
5
 10
61.0960505428
 20
-165.9724546205
 11
54.3460505428
 21
-165.9724546205
  0
LINE
  8
1
  6
HIDDEN
 62
5
 10
59.9710505428
 20
-167.6599546205
 11
55.4710505428
 21
-167.6599546205
  0
LINE
  8
1
  6
HIDDEN
 62
5
 10
58.8460505428
 20
-169.3474546205
 11
56.5960505428
 21
-169.3474546205
  0
LINE
  8
1
  6
HIDDEN
 62
5
 10
57.7210505426
 20
-165.9724546205
 11
57.7210505428
 21
-162.5974546205
  0
ENDBLK
  8
0
  0
BLOCK
  8
1
  2
LTEX7
 70
     0
 10
225.8808680172
 20
181.5550725884
  3
LTEX7
  0
SOLID
  8
1
  6
CONTINUOUS
 62
5
 10
227.8732718826
 20
181.3809265665
 11
227.5192673683
 21
180.4080557768
 12
225.8808680172
 22
181.5550725884
 13
225.8808680172
 23
181.5550725884
  0
TEXT
  8
1
  6
CONTINUOUS
 62
7
 10
262.034684
 20
169.399560
 40
3.500000
  1
  M4ｱｰｽﾎﾞｽ
 41
0.765697
 50
0.000000
 51
0.000000
 72
   5
 73
   0
 11
279.534684
 21
169.399560
  0
LINE
  8
1
  6
BYBLOCK
 62
5
 10
225.8808680172
 20
181.5550725884
 11
262.0346844341
 21
168.3995596911
  0
LINE
  8
1
  6
BYBLOCK
 62
5
 10
262.0346844341
 20
168.3995596911
 11
279.5346844341
 21
168.3995596911
  0
ENDBLK
  8
0
  0
BLOCK
  8
1
  2
S26
 70
     0
 10
261.9019550155
 20
172.3018045981
  3
S26
  0
LINE
  8
1
  6
CONTINUOUS
 62
6
 10
264.4019550155
 20
170.3018045981
 11
259.4019550155
 21
170.3018045981
  0
TEXT
  8
1
  6
CONTINUOUS
 62
6
 10
260.992805
 20
169.923477
 40
3.300000
  1
F
 41
1.102000
 50
0.000000
 51
0.000000
 72
   5
 73
   0
 11
262.811105
 21
169.923477
  0
LINE
  8
1
  6
CONTINUOUS
 62
6
 10
261.9019550155
 20
174.3018045981
 11
259.4019550155
 21
170.3018045981
  0
LINE
  8
1
  6
CONTINUOUS
 62
6
 10
261.9019550155
 20
174.3018045981
 11
264.4019550155
 21
170.3018045981
  0
POINT
  8
1
  6
CONTINUOUS
 62
6
 10
261.9019550155
 20
172.3018045981
  0
ENDBLK
  8
0
  0
BLOCK
  8
1
  2
S27
 70
     0
 10
108.2421383159
 20
-175.2257226108
  3
S27
  0
LINE
  8
1
  6
CONTINUOUS
 62
6
 10
110.7421383159
 20
-177.2257226108
 11
105.7421383159
 21
-177.2257226109
  0
TEXT
  8
1
  6
CONTINUOUS
 62
6
 10
107.332988
 20
-177.604050
 40
3.300000
  1
F
 41
1.102000
 50
0.000000
 51
0.000000
 72
   5
 73
   0
 11
109.151288
 21
-177.604050
  0
LINE
  8
1
  6
CONTINUOUS
 62
6
 10
108.2421383159
 20
-173.2257226108
 11
105.7421383159
 21
-177.2257226109
  0
LINE
  8
1
  6
CONTINUOUS
 62
6
 10
108.2421383159
 20
-173.2257226108
 11
110.7421383159
 21
-177.2257226108
  0
POINT
  8
1
  6
CONTINUOUS
 62
6
 10
108.2421383159
 20
-175.2257226108
  0
ENDBLK
  8
0
  0
BLOCK
  8
1
  2
LTEX8
 70
     0
 10
72.2210513175
 20
-165.9724546205
  3
LTEX8
  0
SOLID
  8
1
  6
CONTINUOUS
 62
5
 10
74.2134551830
 20
-166.1466006424
 11
73.8594506686
 21
-167.1194714322
 12
72.2210513175
 22
-165.9724546205
 13
72.2210513175
 23
-165.9724546205
  0
TEXT
  8
1
  6
CONTINUOUS
 62
7
 10
108.374868
 20
-178.127968
 40
3.500000
  1
  M4ｱｰｽﾎﾞｽ
 41
0.765697
 50
0.000000
 51
0.000000
 72
   5
 73
   0
 11
125.874868
 21
-178.127968
  0
LINE
  8
1
  6
BYBLOCK
 62
5
 10
72.2210513175
 20
-165.9724546205
 11
108.3748677345
 21
-179.1279675178
  0
LINE
  8
1
  6
BYBLOCK
 62
5
 10
108.3748677345
 20
-179.1279675178
 11
125.8748677345
 21
-179.1279675178
  0
ENDBLK
  8
0
  0
ENDSEC
  0
SECTION
  2
ENTITIES
  0
LINE
  8
1
  6
CONTINUOUS
 62
7
 10
95.7645106558
 20
60.8050725884
 11
95.7645106558
 21
204.6800725884
  0
LINE
  8
1
  6
CONTINUOUS
 62
7
 10
28.7645106558
 20
204.6800725884
 11
28.7645106558
 21
60.8050725884
  0
LINE
  8
1
  6
CONTINUOUS
 62
7
 10
96.7645106558
 20
59.8050725884
 11
96.7645106558
 21
215.3050725884
  0
LINE
  8
1
  6
CONTINUOUS
 62
7
 10
27.7645106558
 20
215.3050725884
 11
27.7645106558
 21
59.8050725884
  0
LINE
  8
1
  6
DASHDOT
 62
1
 10
101.7645106558
 20
208.3050725884
 11
22.7645106558
 21
208.3050725884
  0
LINE
  8
1
  6
CONTINUOUS
 62
7
 10
96.7645106558
 20
59.8050725884
 11
76.7270138153
 21
59.8050725884
  0
LINE
  8
1
  6
CONTINUOUS
 62
7
 10
47.8020074964
 20
59.8050725884
 11
27.7645106558
 21
59.8050725884
  0
LINE
  8
1
  6
CONTINUOUS
 62
7
 10
28.7645106558
 20
60.8050725884
 11
45.5659395189
 21
60.8050725884
  0
LINE
  8
1
  6
CONTINUOUS
 62
7
 10
78.9630817928
 20
60.8050725884
 11
95.7645106558
 21
60.8050725884
  0
LINE
  8
1
  6
CONTINUOUS
 62
7
 10
124.4661466639
 20
202.3050725884
 11
124.4661466639
 21
60.8050725884
  0
CIRCLE
  8
1
  6
CONTINUOUS
 62
7
 10
121.4661466639
 20
208.3050725884
 40
2.0000000000
  0
ARC
  8
1
  6
CONTINUOUS
 62
7
 10
121.4661466639
 20
208.3050725884
 40
6.0000000000
 50
90.0000000000
 51
270.0000000000
  0
LINE
  8
1
  6
CONTINUOUS
 62
7
 10
124.4661466639
 20
202.3050725884
 11
121.4661466639
 21
202.3050725884
  0
LINE
  8
1
  6
CONTINUOUS
 62
7
 10
124.4661466639
 20
214.3050725884
 11
121.4661466639
 21
214.3050725884
  0
LINE
  8
1
  6
CONTINUOUS
 62
7
 10
133.4661466639
 20
215.3050725884
 11
133.4661466639
 21
59.8050725884
  0
LINE
  8
1
  6
CONTINUOUS
 62
7
 10
28.7645106558
 20
202.3050725884
 11
28.7645106558
 21
214.3050725884
  0
LINE
  8
1
  6
CONTINUOUS
 62
7
 10
28.7645106558
 20
214.3050725884
 11
33.7645106558
 21
214.3050725884
  0
LINE
  8
1
  6
CONTINUOUS
 62
7
 10
33.7645106558
 20
214.3050725884
 11
33.7645106558
 21
202.3050725884
  0
LINE
  8
1
  6
CONTINUOUS
 62
7
 10
33.7645106558
 20
202.3050725884
 11
28.7645106558
 21
202.3050725884
  0
LINE
  8
1
  6
CONTINUOUS
 62
7
 10
95.7645106558
 20
214.3050725884
 11
90.7645106558
 21
214.3050725884
  0
LINE
  8
1
  6
CONTINUOUS
 62
7
 10
90.7645106558
 20
214.3050725884
 11
90.7645106558
 21
202.3050725884
  0
LINE
  8
1
  6
CONTINUOUS
 62
7
 10
90.7645106558
 20
202.3050725884
 11
95.7645106558
 21
202.3050725884
  0
LINE
  8
1
  6
CONTINUOUS
 62
7
 10
95.7645106558
 20
202.3050725884
 11
95.7645106558
 21
214.3050725884
  0
LINE
  8
1
  6
CONTINUOUS
 62
7
 10
90.7645106558
 20
202.3050725884
 11
90.7645106558
 21
201.3050725884
  0
LINE
  8
1
  6
CONTINUOUS
 62
7
 10
33.7645106558
 20
201.3050725884
 11
33.7645106558
 21
202.3050725884
  0
LINE
  8
1
  6
CONTINUOUS
 62
7
 10
96.7645106558
 20
215.3050725884
 11
27.7645106558
 21
215.3050725884
  0
LINE
  8
1
  6
CONTINUOUS
 62
7
 10
96.7645106558
 20
22.7509723912
 11
27.7645106558
 21
22.7509723912
  0
LINE
  8
1
  6
CONTINUOUS
 62
7
 10
28.7645106558
 20
31.7509723912
 11
95.7645106558
 21
31.7509723912
  0
LINE
  8
1
  6
CONTINUOUS
 62
7
 10
133.4661466639
 20
59.8050725884
 11
124.4661466639
 21
60.8050725884
  0
LINE
  8
1
  6
CONTINUOUS
 62
7
 10
133.4661466639
 20
215.3050725884
 11
124.4661466639
 21
214.3050725884
  0
LINE
  8
1
  6
CONTINUOUS
 62
7
 10
28.7645106558
 20
31.7509723912
 11
27.7645106558
 21
22.7509723912
  0
LINE
  8
1
  6
CONTINUOUS
 62
7
 10
95.7645106558
 20
31.7509723912
 11
96.7645106558
 21
22.7509723912
  0
LINE
  8
1
  6
HIDDEN
 62
7
 10
124.4661466639
 20
201.3050725884
 11
127.9661466639
 21
201.3050725884
  0
LINE
  8
1
  6
HIDDEN
 62
7
 10
127.9661466639
 20
201.3050725884
 11
127.9661466639
 21
214.6939614773
  0
LINE
  8
1
  6
HIDDEN
 62
7
 10
34.7645106558
 20
28.7509723912
 11
34.7645106558
 21
31.7509723912
  0
LINE
  8
1
  6
HIDDEN
 62
7
 10
89.7645106558
 20
28.7509723912
 11
34.7645106558
 21
28.7509723912
  0
LINE
  8
1
  6
HIDDEN
 62
7
 10
89.7645106558
 20
28.7509723912
 11
89.7645106558
 21
31.7509723912
  0
LINE
  8
1
  6
HIDDEN
 62
7
 10
85.5145106558
 20
28.7509723912
 11
85.5145106558
 21
24.7509723912
  0
LINE
  8
1
  6
HIDDEN
 62
7
 10
85.5145106558
 20
24.7509723912
 11
84.0145106559
 21
24.7509723912
  0
LINE
  8
1
  6
HIDDEN
 62
7
 10
80.5145106559
 20
24.7509723912
 11
79.0145106558
 21
24.7509723912
  0
LINE
  8
1
  6
HIDDEN
 62
7
 10
79.0145106558
 20
24.7509723912
 11
79.0145106558
 21
28.7509723912
  0
LINE
  8
1
  6
HIDDEN
 62
7
 10
80.5145106559
 20
24.7509723912
 11
80.5145106556
 21
22.7509723912
  0
LINE
  8
1
  6
HIDDEN
 62
7
 10
84.0145106559
 20
24.7509723912
 11
84.0145106558
 21
22.7509723912
  0
LINE
  8
1
  6
HIDDEN
 62
7
 10
39.0145106558
 20
28.7509723912
 11
39.0145106558
 21
24.7509723912
  0
LINE
  8
1
  6
HIDDEN
 62
7
 10
39.0145106558
 20
24.7509723912
 11
40.5145106558
 21
24.7509723912
  0
LINE
  8
1
  6
HIDDEN
 62
7
 10
44.0145106558
 20
24.7509723912
 11
45.5145106558
 21
24.7509723912
  0
LINE
  8
1
  6
HIDDEN
 62
7
 10
45.5145106558
 20
24.7509723912
 11
45.5145106558
 21
28.7509723912
  0
LINE
  8
1
  6
HIDDEN
 62
7
 10
44.0145106558
 20
24.7509723912
 11
44.0145106561
 21
22.7509723912
  0
LINE
  8
1
  6
HIDDEN
 62
7
 10
40.5145106558
 20
24.7509723912
 11
40.5145106559
 21
22.7509723912
  0
LINE
  8
1
  6
HIDDEN
 62
7
 10
60.2645106558
 20
28.7509723912
 11
60.2645106558
 21
22.7509723912
  0
LINE
  8
1
  6
HIDDEN
 62
7
 10
64.2645106558
 20
28.7509723912
 11
64.2645106558
 21
22.7509723912
  0
LINE
  8
1
  6
HIDDEN
 62
7
 10
63.9145106558
 20
28.7509723912
 11
63.9145106558
 21
22.7509723912
  0
LINE
  8
1
  6
HIDDEN
 62
7
 10
60.6145106558
 20
28.7509723913
 11
60.6145106558
 21
22.7509723912
  0
LINE
  8
1
  6
HIDDEN
 62
7
 10
124.4661466639
 20
196.3050725884
 11
127.9661466639
 21
196.3050725884
  0
LINE
  8
1
  6
HIDDEN
 62
7
 10
127.9661466639
 20
195.6800725884
 11
127.9661466639
 21
71.8050725884
  0
LINE
  8
1
  6
HIDDEN
 62
7
 10
127.9661466639
 20
71.8050725884
 11
124.4661466639
 21
71.8050725884
  0
LINE
  8
1
  6
HIDDEN
 62
7
 10
127.9661466639
 20
80.5550725884
 11
133.4661466639
 21
80.5550725884
  0
LINE
  8
1
  6
HIDDEN
 62
7
 10
127.9661466639
 20
187.5550725884
 11
133.4661466639
 21
187.5550725884
  0
LINE
  8
1
  6
HIDDEN
 62
7
 10
127.9661466639
 20
78.8050725884
 11
131.9661466639
 21
78.8050725884
  0
LINE
  8
1
  6
HIDDEN
 62
7
 10
131.9661466639
 20
78.8050725884
 11
131.9661466639
 21
77.3050725884
  0
LINE
  8
1
  6
HIDDEN
 62
7
 10
131.9661466639
 20
73.8050725885
 11
131.9661466639
 21
72.3050725884
  0
LINE
  8
1
  6
HIDDEN
 62
7
 10
131.9661466639
 20
72.3050725884
 11
127.9661466639
 21
72.3050725884
  0
LINE
  8
1
  6
HIDDEN
 62
7
 10
131.9661466639
 20
73.8050725885
 11
133.4661466639
 21
73.8050725883
  0
LINE
  8
1
  6
HIDDEN
 62
7
 10
131.9661466639
 20
77.3050725884
 11
133.4661466639
 21
77.3050725996
  0
LINE
  8
1
  6
HIDDEN
 62
7
 10
127.9661466639
 20
189.3050725884
 11
131.9661466639
 21
189.3050725884
  0
LINE
  8
1
  6
HIDDEN
 62
7
 10
131.9661466639
 20
189.3050725884
 11
131.9661466639
 21
190.8050725884
  0
LINE
  8
1
  6
HIDDEN
 62
7
 10
131.9661466639
 20
194.3050725884
 11
131.9661466639
 21
195.8050725884
  0
LINE
  8
1
  6
HIDDEN
 62
7
 10
131.9661466639
 20
195.8050725884
 11
127.9661466639
 21
195.8050725884
  0
LINE
  8
1
  6
HIDDEN
 62
7
 10
131.9661466639
 20
194.3050725884
 11
133.4661466639
 21
194.3050725886
  0
LINE
  8
1
  6
HIDDEN
 62
7
 10
131.9661466639
 20
190.8050725884
 11
133.4661466639
 21
190.8050725773
  0
ARC
  8
2
  6
HIDDEN
 62
5
 10
121.4661466639
 20
208.3050725884
 40
6.0000000000
 50
294.6243183522
 51
164.1092389898
  0
LINE
  8
2
  6
HIDDEN
 62
5
 10
123.9661466639
 20
202.8507165311
 11
123.9661466639
 21
202.3050725884
  0
LINE
  8
2
  6
CONTINUOUS
 62
5
 10
123.9661466639
 20
202.3050725884
 11
123.9661466639
 21
60.8050725884
  0
LINE
  8
2
  6
CONTINUOUS
 62
5
 10
115.8202125868
 20
60.8050725884
 11
123.9661466639
 21
60.8050725884
  0
LINE
  8
2
  6
CONTINUOUS
 62
5
 10
109.4661466639
 20
56.8050725884
 11
109.4661466639
 21
187.6800725884
  0
LINE
  8
2
  6
CONTINUOUS
 62
5
 10
123.9661466639
 20
201.3050725884
 11
113.2892089437
 21
201.3050725884
  0
CIRCLE
  8
2
  6
CONTINUOUS
 62
5
 10
121.4661466639
 20
208.3050725884
 40
2.0000000000
  0
LINE
  8
2
  6
CONTINUOUS
 62
5
 10
29.7645106558
 20
201.3050725884
 11
33.9645106558
 21
201.3050725884
  0
LINE
  8
2
  6
CONTINUOUS
 62
5
 10
33.9645106558
 20
201.3050725884
 11
33.9645106558
 21
214.3050725884
  0
LINE
  8
2
  6
CONTINUOUS
 62
5
 10
33.9645106558
 20
214.3050725884
 11
90.5645106558
 21
214.3050725884
  0
LINE
  8
2
  6
CONTINUOUS
 62
5
 10
90.5645106558
 20
214.3050725884
 11
90.5645106558
 21
201.3050725884
  0
LINE
  8
2
  6
CONTINUOUS
 62
5
 10
90.5645106558
 20
201.3050725884
 11
94.7645106558
 21
201.3050725884
  0
LINE
  8
2
  6
CONTINUOUS
 62
5
 10
94.7645106558
 20
201.3050725885
 11
94.7645106558
 21
60.8050725884
  0
LINE
  8
2
  6
CONTINUOUS
 62
5
 10
78.9630817928
 20
60.8050725884
 11
94.7645106558
 21
60.8050725884
  0
LINE
  8
2
  6
CONTINUOUS
 62
5
 10
45.5659395189
 20
60.8050725884
 11
29.7645106558
 21
60.8050725884
  0
LINE
  8
2
  6
CONTINUOUS
 62
5
 10
29.7645106558
 20
60.8050725884
 11
29.7645106558
 21
201.3050725885
  0
LINE
  8
2
  6
CONTINUOUS
 62
5
 10
49.3906030156
 20
57.2615853221
 11
48.1384182961
 21
59.3485598547
  0
LINE
  8
2
  6
CONTINUOUS
 62
5
 10
72.5659395189
 20
55.8050725884
 11
51.9630817928
 21
55.8050725884
  0
ARC
  8
2
  6
CONTINUOUS
 62
5
 10
45.5659395189
 20
57.8050725884
 40
3.0000000000
 50
30.9637565321
 51
90.0000000000
  0
ARC
  8
2
  6
CONTINUOUS
 62
5
 10
51.9630817928
 20
58.8050725884
 40
3.0000000000
 50
210.9637565321
 51
270.0000000000
  0
LINE
  8
2
  6
CONTINUOUS
 62
5
 10
75.1384182961
 20
57.2615853221
 11
76.3906030156
 21
59.3485598547
  0
ARC
  8
2
  6
CONTINUOUS
 62
5
 10
78.9630817928
 20
57.8050725884
 40
3.0000000000
 50
90.0000000000
 51
149.0362434679
  0
ARC
  8
2
  6
CONTINUOUS
 62
5
 10
72.5659395189
 20
58.8050725884
 40
3.0000000000
 50
270.0000000000
 51
329.0362434679
  0
LINE
  8
2
  6
HIDDEN
 62
5
 10
109.4661466639
 20
65.9550725884
 11
111.4661466639
 21
65.9550725884
  0
LINE
  8
2
  6
HIDDEN
 62
5
 10
111.4661466639
 20
66.3050725884
 11
109.4661466639
 21
66.3050725884
  0
LINE
  8
2
  6
HIDDEN
 62
5
 10
111.4661466639
 20
66.5550725884
 11
123.9661466639
 21
66.5550725884
  0
LINE
  8
2
  6
HIDDEN
 62
5
 10
109.4661466639
 20
62.6550725884
 11
111.4661466639
 21
62.6550725884
  0
LINE
  8
2
  6
HIDDEN
 62
5
 10
111.4661466639
 20
62.3050725884
 11
109.4661466639
 21
62.3050725884
  0
LINE
  8
2
  6
HIDDEN
 62
5
 10
111.4661466639
 20
62.0550725884
 11
123.9661466639
 21
62.0550725884
  0
LINE
  8
2
  6
HIDDEN
 62
5
 10
111.4661466639
 20
66.5550725884
 11
111.4661466639
 21
62.0550725884
  0
LINE
  8
1
  6
HIDDEN
 62
7
 10
124.4661466639
 20
66.3050725884
 11
133.4661466639
 21
66.3050725884
  0
LINE
  8
1
  6
HIDDEN
 62
7
 10
124.4661466639
 20
65.9550725884
 11
133.4661466639
 21
65.9550725884
  0
LINE
  8
1
  6
HIDDEN
 62
7
 10
124.4661466639
 20
62.6550725884
 11
133.4661466639
 21
62.6550725884
  0
LINE
  8
1
  6
HIDDEN
 62
7
 10
124.4661466639
 20
62.3050725884
 11
133.4661466639
 21
62.3050725884
  0
LINE
  8
2
  6
CONTINUOUS
 62
5
 10
113.9632592050
 20
59.5478539411
 11
112.7175903934
 21
56.4336819121
  0
LINE
  8
2
  6
CONTINUOUS
 62
5
 10
111.7891137025
 20
55.8050725884
 11
110.4661466639
 21
55.8050725884
  0
LINE
  8
2
  6
CONTINUOUS
 62
5
 10
36.2645106558
 20
46.7509723912
 11
88.2645106558
 21
46.7509723912
  0
LINE
  8
2
  6
CONTINUOUS
 62
5
 10
94.7645106558
 20
38.7509723912
 11
94.7645106558
 21
32.2509723912
  0
LINE
  8
2
  6
CONTINUOUS
 62
5
 10
94.7645106558
 20
32.2509723912
 11
29.7645106558
 21
32.2509723912
  0
LINE
  8
2
  6
CONTINUOUS
 62
5
 10
29.7645106558
 20
32.2509723912
 11
29.7645106558
 21
38.7509723912
  0
LINE
  8
2
  6
CONTINUOUS
 62
5
 10
94.7645106558
 20
38.7509723912
 11
88.2645106558
 21
46.7509723912
  0
LINE
  8
2
  6
CONTINUOUS
 62
5
 10
36.2645106558
 20
46.7509723912
 11
29.7645106558
 21
38.7509723912
  0
LINE
  8
2
  6
CONTINUOUS
 62
5
 10
33.8539337328
 20
201.3050725885
 11
36.2645106558
 21
187.6800725884
  0
LINE
  8
2
  6
CONTINUOUS
 62
5
 10
36.2645106558
 20
187.6800725884
 11
88.2645106558
 21
187.6800725884
  0
LINE
  8
2
  6
CONTINUOUS
 62
5
 10
88.2645106558
 20
187.6800725884
 11
90.6750875789
 21
201.3050725884
  0
LINE
  8
2
  6
CONTINUOUS
 62
5
 10
88.2645106558
 20
187.6800725884
 11
88.2645106558
 21
60.8050725884
  0
LINE
  8
2
  6
CONTINUOUS
 62
5
 10
36.2645106558
 20
60.8050725884
 11
36.2645106558
 21
187.6800725884
  0
LINE
  8
2
  6
CONTINUOUS
 62
5
 10
45.5659395189
 20
46.7509723912
 11
45.5659395189
 21
41.7509723912
  0
LINE
  8
2
  6
CONTINUOUS
 62
5
 10
45.5659395189
 20
41.7509723912
 11
51.9630817928
 21
43.7509723912
  0
LINE
  8
2
  6
CONTINUOUS
 62
5
 10
51.9630817928
 20
43.7509723912
 11
72.5659395189
 21
43.7509723912
  0
LINE
  8
2
  6
CONTINUOUS
 62
5
 10
72.5659395189
 20
43.7509723912
 11
78.9630817928
 21
41.7509723912
  0
LINE
  8
2
  6
CONTINUOUS
 62
5
 10
78.9630817928
 20
41.7509723912
 11
78.9630817928
 21
46.7509723912
  0
LINE
  8
2
  6
CONTINUOUS
 62
5
 10
51.9630817928
 20
46.7509723912
 11
51.9630817928
 21
43.7509723912
  0
LINE
  8
2
  6
CONTINUOUS
 62
5
 10
72.5659395189
 20
46.7509723912
 11
72.5659395189
 21
43.7509723912
  0
LINE
  8
2
  6
CONTINUOUS
 62
5
 10
45.5659395189
 20
41.7509723912
 11
78.9630817928
 21
41.7509723912
  0
ARC
  8
2
  6
CONTINUOUS
 62
5
 10
110.4661466639
 20
56.8050725884
 40
1.0000000000
 50
180.0000000000
 51
270.0000000000
  0
ARC
  8
2
  6
CONTINUOUS
 62
5
 10
111.7891137025
 20
56.8050725884
 40
1.0000000000
 50
270.0000000000
 51
338.1985905136
  0
ARC
  8
2
  6
CONTINUOUS
 62
5
 10
115.8202125868
 20
58.8050725884
 40
2.0000000000
 50
90.0000000000
 51
158.1985905136
  0
LINE
  8
1
  6
CONTINUOUS
 62
7
 10
96.7645106558
 20
22.7509723912
 11
27.7645106558
 21
22.7509723912
  0
LINE
  8
2
  6
CONTINUOUS
 62
5
 10
124.9661466639
 20
199.5550725884
 11
123.9661466639
 21
199.5550725884
  0
LINE
  8
2
  6
CONTINUOUS
 62
5
 10
124.9661466639
 20
199.5550725884
 11
124.9661466639
 21
199.0550725884
  0
LINE
  8
2
  6
CONTINUOUS
 62
5
 10
124.9661466639
 20
199.0550725884
 11
123.9661466639
 21
199.0550725884
  0
LINE
  8
2
  6
HIDDEN
 62
5
 10
123.9661466639
 20
199.0550725884
 11
114.7351177630
 21
199.0550725884
  0
LINE
  8
2
  6
CONTINUOUS
 62
5
 10
123.9661466639
 20
68.5550725884
 11
124.9661466639
 21
68.5550725884
  0
LINE
  8
2
  6
CONTINUOUS
 62
5
 10
124.9661466639
 20
68.5550725884
 11
124.9661466639
 21
69.0550725884
  0
LINE
  8
2
  6
CONTINUOUS
 62
5
 10
124.9661466639
 20
69.0550725884
 11
123.9661466639
 21
69.0550725884
  0
LINE
  8
2
  6
HIDDEN
 62
5
 10
123.9661466639
 20
69.0550725884
 11
111.4661466639
 21
69.0550725884
  0
LINE
  8
1
  6
CONTINUOUS
 62
7
 10
247.8808680172
 20
196.3050725884
 11
195.8808680172
 21
196.3050725884
  0
LINE
  8
1
  6
CONTINUOUS
 62
7
 10
249.3808680172
 20
73.3050725884
 11
249.3808680172
 21
194.8050725884
  0
LINE
  8
1
  6
CONTINUOUS
 62
7
 10
195.8808680172
 20
71.8050725884
 11
247.8808680172
 21
71.8050725884
  0
LINE
  8
1
  6
CONTINUOUS
 62
7
 10
194.3808680172
 20
73.3050725884
 11
194.3808680172
 21
194.8050725884
  0
LINE
  8
1
  6
CONTINUOUS
 62
7
 10
251.3808680172
 20
70.8050725884
 11
251.3808680172
 21
197.3050725884
  0
LINE
  8
1
  6
CONTINUOUS
 62
7
 10
250.3808680172
 20
198.3050725884
 11
193.3808680172
 21
198.3050725884
  0
LINE
  8
1
  6
CONTINUOUS
 62
7
 10
192.3808680172
 20
70.8050725884
 11
192.3808680172
 21
197.3050725884
  0
LINE
  8
1
  6
CONTINUOUS
 62
7
 10
193.3808680172
 20
69.8050725884
 11
250.3808680172
 21
69.8050725884
  0
ARC
  8
1
  6
CONTINUOUS
 62
7
 10
195.8808680172
 20
194.8050725884
 40
1.5000000000
 50
90.0000000000
 51
180.0000000000
  0
ARC
  8
1
  6
CONTINUOUS
 62
7
 10
247.8808680172
 20
194.8050725884
 40
1.5000000000
 50
0.0000000000
 51
90.0000000000
  0
ARC
  8
1
  6
CONTINUOUS
 62
7
 10
247.8808680172
 20
73.3050725884
 40
1.5000000000
 50
270.0000000000
 51
0.0000000000
  0
ARC
  8
1
  6
CONTINUOUS
 62
7
 10
195.8808680172
 20
73.3050725884
 40
1.5000000000
 50
180.0000000000
 51
270.0000000000
  0
CIRCLE
  8
1
  6
HIDDEN
 62
3
 10
201.8808680172
 20
192.5550725884
 40
1.7500000000
  0
CIRCLE
  8
1
  6
HIDDEN
 62
3
 10
201.8808680172
 20
192.5550725884
 40
3.2500000000
  0
CIRCLE
  8
1
  6
HIDDEN
 62
3
 10
241.8808680172
 20
192.5550725884
 40
1.7500000000
  0
CIRCLE
  8
1
  6
HIDDEN
 62
3
 10
241.8808680172
 20
192.5550725884
 40
3.2500000000
  0
LINE
  8
1
  6
HIDDEN
 62
3
 10
244.8808680172
 20
187.5550725884
 11
247.8808680172
 21
187.5550725884
  0
LINE
  8
1
  6
HIDDEN
 62
3
 10
196.8808680172
 20
187.5550725884
 11
244.8808680172
 21
187.5550725884
  0
CIRCLE
  8
1
  6
HIDDEN
 62
3
 10
201.8808680172
 20
75.5550725884
 40
1.7500000000
  0
CIRCLE
  8
1
  6
HIDDEN
 62
3
 10
201.8808680172
 20
75.5550725884
 40
3.2500000000
  0
CIRCLE
  8
1
  6
HIDDEN
 62
3
 10
241.8808680172
 20
75.5550725884
 40
1.7500000000
  0
CIRCLE
  8
1
  6
HIDDEN
 62
3
 10
241.8808680172
 20
75.5550725884
 40
3.2500000000
  0
CIRCLE
  8
1
  6
HIDDEN
 62
3
 10
221.8808680172
 20
192.5550725884
 40
2.0000000000
  0
LINE
  8
1
  6
CONTINUOUS
 62
7
 10
253.3808680172
 20
70.8050725884
 11
253.3808680172
 21
197.3050725884
  0
LINE
  8
1
  6
CONTINUOUS
 62
7
 10
250.3808680172
 20
200.3050725884
 11
193.3808680172
 21
200.3050725884
  0
LINE
  8
1
  6
CONTINUOUS
 62
7
 10
190.3808680172
 20
70.8050725884
 11
190.3808680172
 21
197.3050725884
  0
LINE
  8
1
  6
CONTINUOUS
 62
7
 10
193.3808680172
 20
67.8050725884
 11
250.3808680172
 21
67.8050725884
  0
LINE
  8
1
  6
CONTINUOUS
 62
7
 10
255.3808680172
 20
60.8050725884
 11
255.3808680172
 21
204.6800725884
  0
LINE
  8
1
  6
CONTINUOUS
 62
7
 10
188.3808680172
 20
204.6800725884
 11
188.3808680172
 21
60.8050725884
  0
LINE
  8
1
  6
CONTINUOUS
 62
7
 10
256.3808680172
 20
59.8050725884
 11
256.3808680172
 21
215.3050725884
  0
LINE
  8
1
  6
CONTINUOUS
 62
7
 10
187.3808680172
 20
215.3050725884
 11
187.3808680172
 21
59.8050725884
  0
ARC
  8
1
  6
CONTINUOUS
 62
7
 10
193.3808680172
 20
197.3050725884
 40
1.0000000000
 50
90.0000000000
 51
180.0000000000
  0
ARC
  8
1
  6
CONTINUOUS
 62
7
 10
250.3808680172
 20
197.3050725884
 40
1.0000000000
 50
0.0000000000
 51
90.0000000000
  0
ARC
  8
1
  6
CONTINUOUS
 62
7
 10
250.3808680172
 20
70.8050725884
 40
1.0000000000
 50
270.0000000000
 51
0.0000000000
  0
ARC
  8
1
  6
CONTINUOUS
 62
7
 10
193.3808680172
 20
70.8050725884
 40
1.0000000000
 50
180.0000000000
 51
270.0000000000
  0
LINE
  8
1
  6
HIDDEN
 62
3
 10
247.8808680172
 20
177.5550725884
 11
247.8808680172
 21
187.5550725884
  0
ARC
  8
1
  6
CONTINUOUS
 62
7
 10
193.3808680172
 20
197.3050725884
 40
3.0000000000
 50
90.0000000000
 51
180.0000000000
  0
ARC
  8
1
  6
CONTINUOUS
 62
7
 10
250.3808680172
 20
197.3050725884
 40
3.0000000000
 50
0.0000000000
 51
90.0000000000
  0
ARC
  8
1
  6
CONTINUOUS
 62
7
 10
250.3808680172
 20
70.8050725884
 40
3.0000000000
 50
270.0000000000
 51
0.0000000000
  0
ARC
  8
1
  6
CONTINUOUS
 62
7
 10
193.3808680172
 20
70.8050725884
 40
3.0000000000
 50
180.0000000000
 51
270.0000000000
  0
LINE
  8
1
  6
DASHDOT
 62
1
 10
258.3808680172
 20
208.3050725884
 11
185.3808680172
 21
208.3050725884
  0
LINE
  8
1
  6
CONTINUOUS
 62
7
 10
256.3808680172
 20
59.8050725884
 11
187.3808680172
 21
59.8050725884
  0
LINE
  8
1
  6
CONTINUOUS
 62
7
 10
188.3808680172
 20
60.8050725884
 11
255.3808680172
 21
60.8050725884
  0
LINE
  8
1
  6
CONTINUOUS
 62
7
 10
188.3808680172
 20
202.3050725884
 11
188.3808680172
 21
214.3050725884
  0
LINE
  8
1
  6
CONTINUOUS
 62
7
 10
188.3808680172
 20
214.3050725884
 11
193.3808680172
 21
214.3050725884
  0
LINE
  8
1
  6
CONTINUOUS
 62
7
 10
193.3808680172
 20
214.3050725884
 11
193.3808680172
 21
202.3050725884
  0
LINE
  8
1
  6
CONTINUOUS
 62
7
 10
193.3808680172
 20
202.3050725884
 11
188.3808680172
 21
202.3050725884
  0
LINE
  8
1
  6
CONTINUOUS
 62
7
 10
255.3808680172
 20
214.3050725884
 11
250.3808680172
 21
214.3050725884
  0
LINE
  8
1
  6
CONTINUOUS
 62
7
 10
250.3808680172
 20
214.3050725884
 11
250.3808680172
 21
202.3050725884
  0
LINE
  8
1
  6
CONTINUOUS
 62
7
 10
250.3808680172
 20
202.3050725884
 11
255.3808680172
 21
202.3050725884
  0
LINE
  8
1
  6
CONTINUOUS
 62
7
 10
255.3808680172
 20
202.3050725884
 11
255.3808680172
 21
214.3050725884
  0
LINE
  8
1
  6
CONTINUOUS
 62
7
 10
250.3808680172
 20
202.3050725884
 11
250.3808680172
 21
201.3050725884
  0
LINE
  8
1
  6
CONTINUOUS
 62
7
 10
250.3808680172
 20
201.3050725884
 11
193.3808680172
 21
201.3050725884
  0
LINE
  8
1
  6
CONTINUOUS
 62
7
 10
193.3808680172
 20
201.3050725884
 11
193.3808680172
 21
202.3050725884
  0
LINE
  8
1
  6
CONTINUOUS
 62
7
 10
256.3808680172
 20
215.3050725884
 11
187.3808680172
 21
215.3050725884
  0
CIRCLE
  8
1
  6
HIDDEN
 62
3
 10
221.8808680172
 20
192.5550725884
 40
1.6500000000
  0
CIRCLE
  8
1
  6
HIDDEN
 62
3
 10
221.8808680172
 20
75.5550725884
 40
2.0000000000
  0
CIRCLE
  8
1
  6
HIDDEN
 62
3
 10
221.8808680172
 20
75.5550725884
 40
1.6500000000
  0
CIRCLE
  8
1
  6
HIDDEN
 62
7
 10
221.8808680172
 20
64.3050725884
 40
2.0000000000
  0
CIRCLE
  8
1
  6
CONTINUOUS
 62
7
 10
221.8808680172
 20
64.3050725884
 40
1.6500000000
  0
INSERT
  8
5
  6
CONTINUOUS
 62
7
  2
S0
 10
0.0000000000
 20
0.0000000000
  0
TEXT
  8
5
  6
CONTINUOUS
 62
7
 10
349.684277
 20
5.000000
 40
6.000000
  1
M0051A054F
 41
0.765697
 50
0.000000
 51
0.000000
 72
   5
 73
   0
 11
379.684277
 21
5.000000
  0
TEXT
  8
5
  6
CONTINUOUS
 62
7
 10
293.500000
 20
10.750000
 40
3.000000
  1
Yamada
 41
0.779221
 50
0.000000
 51
0.000000
 72
   5
 73
   0
 11
302.500000
 21
10.750000
  0
TEXT
  8
5
  6
CONTINUOUS
 62
7
 10
304.500000
 20
10.750000
 40
3.000000
  1
Yamada
 41
0.779221
 50
0.000000
 51
0.000000
 72
   5
 73
   0
 11
313.500000
 21
10.750000
  0
TEXT
  8
1
  6
CONTINUOUS
 62
7
 10
206.379334
 20
51.546558
 40
4.000000
  1
内 部 図
 41
0.854701
 50
0.000000
 51
0.000000
 72
   5
 73
   0
 11
222.379334
 21
51.546558
  0
DIMENSION
  8
1
  6
CONTINUOUS
 62
5
  2
*D0
 10
111.4661466639
 20
93.9218520358
 11
119.7161466639
 21
96.6718520358
  70
0
 13
127.9661466639
 23
89.0270036784
 14
111.4661466639
 24
89.0270036784
 50
0.000000
  0
CIRCLE
  8
1
  6
CONTINUOUS
 62
5
 10
137.4661466639
 20
182.5550725884
 40
2.0000000000
  0
LINE
  8
1
  6
CONTINUOUS
 62
5
 10
135.9661466638
 20
182.5550725884
 11
138.9661466638
 21
182.5550725884
  0
LINE
  8
1
  6
CONTINUOUS
 62
5
 10
136.4661466638
 20
181.8050725884
 11
138.4661466638
 21
181.8050725884
  0
LINE
  8
1
  6
CONTINUOUS
 62
5
 10
136.9661466638
 20
181.0550725884
 11
137.9661466638
 21
181.0550725884
  0
LINE
  8
1
  6
CONTINUOUS
 62
5
 10
137.4661466639
 20
182.5550725884
 11
137.4661466638
 21
184.0550725884
  0
LINE
  8
1
  6
HIDDEN
 62
3
 10
247.8808680172
 20
177.5550725884
 11
244.8808680172
 21
177.5550725884
  0
LINE
  8
1
  6
HIDDEN
 62
3
 10
244.8808680172
 20
177.5550725884
 11
244.8808680172
 21
187.5550725884
  0
LINE
  8
1
  6
CONTINUOUS
 62
7
 10
133.4661466639
 20
187.5550725884
 11
148.4661466639
 21
187.5550725884
  0
LINE
  8
1
  6
CONTINUOUS
 62
7
 10
148.4661466639
 20
187.5550725884
 11
148.4661466639
 21
177.5550725884
  0
LINE
  8
1
  6
CONTINUOUS
 62
7
 10
148.4661466639
 20
177.5550725884
 11
133.4661466639
 21
177.5550725884
  0
CIRCLE
  8
1
  6
CONTINUOUS
 62
7
 10
143.4661466639
 20
182.5550725884
 40
2.0000000000
  0
CIRCLE
  8
1
  6
HIDDEN
 62
7
 10
143.4661466639
 20
182.5550725884
 40
2.5000000000
  0
CIRCLE
  8
1
  6
HIDDEN
 62
5
 10
137.4661466639
 20
85.5550725884
 40
2.0000000000
  0
LINE
  8
1
  6
HIDDEN
 62
5
 10
135.9661466638
 20
85.5550725884
 11
138.9661466638
 21
85.5550725884
  0
LINE
  8
1
  6
HIDDEN
 62
5
 10
136.4661466638
 20
84.8050725884
 11
138.4661466638
 21
84.8050725884
  0
LINE
  8
1
  6
HIDDEN
 62
5
 10
136.9661466638
 20
84.0550725884
 11
137.9661466638
 21
84.0550725884
  0
LINE
  8
1
  6
HIDDEN
 62
5
 10
137.4661466639
 20
85.5550725884
 11
137.4661466638
 21
87.0550725884
  0
LINE
  8
1
  6
CONTINUOUS
 62
7
 10
133.4661466639
 20
90.5550725884
 11
148.4661466639
 21
90.5550725884
  0
LINE
  8
1
  6
CONTINUOUS
 62
7
 10
148.4661466639
 20
90.5550725884
 11
148.4661466639
 21
80.5550725884
  0
LINE
  8
1
  6
CONTINUOUS
 62
7
 10
148.4661466639
 20
80.5550725884
 11
133.4661466639
 21
80.5550725884
  0
CIRCLE
  8
1
  6
CONTINUOUS
 62
7
 10
143.4661466639
 20
85.5550725884
 40
2.0000000000
  0
CIRCLE
  8
1
  6
HIDDEN
 62
7
 10
143.4661466639
 20
85.5550725884
 40
2.5000000000
  0
DIMENSION
  8
1
  6
CONTINUOUS
 62
5
  2
*D1
 10
20.9779016700
 20
31.7509723912
 11
18.2279016700
 21
27.2509723912
  70
0
 13
27.7645106558
 23
22.7509723912
 14
28.7645106558
 24
31.7509723912
 50
90.000000
  0
DIMENSION
  8
1
  6
CONTINUOUS
 62
5
  2
*D2
 10
20.7383253733
 20
46.7509723912
 11
17.9883253733
 21
39.5009723912
  70
0
 13
29.7645106558
 23
32.2509723912
 14
36.2645106558
 24
46.7509723912
 50
90.000000
  0
DIMENSION
  8
1
  6
CONTINUOUS
 62
5
  2
*D3
 10
13.2316014101
 20
46.7509723912
 11
10.4816014101
 21
34.7509723912
  70
0
 13
27.7645106558
 23
22.7509723912
 14
36.2645106558
 24
46.7509723912
 50
90.000000
  0
LINE
  8
1
  6
CONTINUOUS
 62
7
 10
36.2645106558
 20
22.7509723912
 11
36.2645106558
 21
7.7509723912
  0
LINE
  8
1
  6
CONTINUOUS
 62
7
 10
36.2645106558
 20
7.7509723912
 11
39.2645106558
 21
7.7509723912
  0
LINE
  8
1
  6
CONTINUOUS
 62
7
 10
39.2645106558
 20
7.7509723912
 11
39.2645106558
 21
22.7509723912
  0
LINE
  8
1
  6
CONTINUOUS
 62
7
 10
88.2645106558
 20
22.7509723912
 11
88.2645106558
 21
7.7509723912
  0
LINE
  8
1
  6
CONTINUOUS
 62
7
 10
88.2645106558
 20
7.7509723912
 11
85.2645106558
 21
7.7509723912
  0
LINE
  8
1
  6
CONTINUOUS
 62
7
 10
85.2645106558
 20
7.7509723912
 11
85.2645106558
 21
22.7509723912
  0
LINE
  8
1
  6
HIDDEN
 62
3
 10
195.8808680172
 20
80.5550725884
 11
198.8808680172
 21
80.5550725884
  0
LINE
  8
1
  6
HIDDEN
 62
3
 10
246.8808680172
 20
80.5550725884
 11
198.8808680172
 21
80.5550725884
  0
LINE
  8
1
  6
HIDDEN
 62
3
 10
195.8808680172
 20
90.5550725884
 11
198.8808680172
 21
90.5550725884
  0
LINE
  8
3
  6
HIDDEN
 62
3
 10
198.8808680172
 20
90.5550725884
 11
198.8808680172
 21
80.5550725884
  0
LINE
  8
1
  6
HIDDEN
 62
3
 10
195.8808680172
 20
90.5550725884
 11
195.8808680172
 21
80.5550725884
  0
LINE
  8
1
  6
HIDDEN
 62
3
 10
247.8808680172
 20
81.5550725884
 11
247.8808680172
 21
177.5550725884
  0
LINE
  8
1
  6
HIDDEN
 62
3
 10
195.8808680172
 20
186.5550725884
 11
195.8808680172
 21
90.5550725884
  0
LINE
  8
2
  6
CONTINUOUS
 62
5
 10
115.6954338248
 20
209.9478973899
 11
109.4661466639
 21
187.6800725884
  0
LINE
  8
2
  6
HIDDEN
 62
5
 10
114.7351177630
 20
199.0550725884
 11
111.4661466639
 21
187.4047964577
  0
LINE
  8
2
  6
HIDDEN
 62
5
 10
111.4661466639
 20
187.4047964577
 11
111.4661466639
 21
69.0550725884
  0
DIMENSION
  8
1
  6
CONTINUOUS
 62
5
  2
*D4
 10
17.2916228022
 20
59.8050725884
 11
13.7916228022
 21
137.5550725884
  70
0
 13
27.7645106558
 23
215.3050725884
 14
27.7645106558
 24
59.8050725884
 50
90.000000
  0
DIMENSION
  8
1
  6
CONTINUOUS
 62
5
  2
*D5
 10
96.7645106558
 20
219.2674058392
 11
62.2645106558
 21
222.7674058392
  70
0
 13
27.7645106558
 23
215.3050725884
 14
96.7645106558
 24
215.3050725884
 50
0.000000
  0
LINE
  8
2
  6
CONTINUOUS
 62
5
 10
31.5145106558
 20
32.2509723912
 11
31.5145106558
 21
31.2509723912
  0
LINE
  8
2
  6
CONTINUOUS
 62
5
 10
31.5145106558
 20
31.2509723912
 11
32.0145106558
 21
31.2509723912
  0
LINE
  8
2
  6
CONTINUOUS
 62
5
 10
32.0145106558
 20
31.2509723912
 11
32.0145106558
 21
32.2509723912
  0
LINE
  8
2
  6
CONTINUOUS
 62
5
 10
93.0145106558
 20
32.2509723912
 11
93.0145106558
 21
31.2509723912
  0
LINE
  8
2
  6
CONTINUOUS
 62
5
 10
93.0145106558
 20
31.2509723912
 11
92.5145106558
 21
31.2509723912
  0
LINE
  8
2
  6
CONTINUOUS
 62
5
 10
92.5145106558
 20
31.2509723912
 11
92.5145106558
 21
32.2509723912
  0
ARC
  8
1
  6
HIDDEN
 62
3
 10
196.8808680172
 20
186.5550725884
 40
1.0000000000
 50
90.0000000000
 51
180.0000000000
  0
ARC
  8
1
  6
HIDDEN
 62
3
 10
246.8808680172
 20
81.5550725884
 40
1.0000000000
 50
270.0000000000
 51
0.0000000000
  0
CIRCLE
  8
1
  6
CONTINUOUS
 62
7
 10
62.2645106558
 20
64.3050725884
 40
4.0000000000
  0
LINE
  8
1
  6
CONTINUOUS
 62
7
 10
60.4967437029
 20
66.0728395414
 11
64.0322776088
 21
62.5373056355
  0
LINE
  8
1
  6
CONTINUOUS
 62
7
 10
60.4967437029
 20
62.5373056355
 11
64.0322776088
 21
66.0728395414
  0
CIRCLE
  8
1
  6
CONTINUOUS
 62
7
 10
62.2645106558
 20
64.3050725884
 40
3.5000000000
  0
POINT
  8
1
  6
CONTINUOUS
 62
7
 10
62.2645106558
 20
46.7509723912
  0
LINE
  8
1
  6
CONTINUOUS
 62
7
 10
58.7645106558
 20
46.7509723934
 11
65.7645106558
 21
46.7509723891
  0
LINE
  8
1
  6
CONTINUOUS
 62
7
 10
61.4478439892
 20
49.4343057251
 11
63.0811773225
 21
49.4343057241
  0
ARC
  8
1
  6
CONTINUOUS
 62
7
 10
61.4478439892
 20
46.7509723917
 40
2.6833333333
 50
90.0000000000
 51
179.9999999648
  0
ARC
  8
1
  6
CONTINUOUS
 62
7
 10
63.0811773225
 20
46.7509723907
 40
2.6833333333
 50
359.9999999648
 51
90.0000000000
  0
POINT
  8
1
  6
CONTINUOUS
 62
7
 10
62.2645106558
 20
46.7509723912
  0
POINT
  8
1
  6
CONTINUOUS
 62
7
 10
62.2645106558
 20
46.7509723912
  0
POINT
  8
1
  6
CONTINUOUS
 62
7
 10
109.4661466639
 20
64.3050725884
  0
LINE
  8
1
  6
CONTINUOUS
 62
7
 10
109.4690741866
 20
60.8021450636
 11
109.4690741909
 21
67.8021450636
  0
LINE
  8
1
  6
CONTINUOUS
 62
7
 10
106.7857408549
 20
63.4854783970
 11
106.7857408559
 21
65.1188117303
  0
ARC
  8
1
  6
CONTINUOUS
 62
7
 10
109.4690741882
 20
63.4854783970
 40
2.6833333333
 50
180.0000000000
 51
269.9999999648
  0
ARC
  8
1
  6
CONTINUOUS
 62
7
 10
109.4690741892
 20
65.1188117303
 40
2.6833333333
 50
89.9999999648
 51
180.0000000000
  0
POINT
  8
1
  6
CONTINUOUS
 62
7
 10
109.4661466639
 20
64.3050725884
  0
POINT
  8
1
  6
CONTINUOUS
 62
7
 10
109.4661466639
 20
64.3050725884
  0
LINE
  8
7
  6
CONTINUOUS
 62
7
 10
249.1308680172
 20
73.0550725886
 11
249.1308680172
 21
195.0550725882
  0
LINE
  8
7
  6
CONTINUOUS
 62
7
 10
248.1308680172
 20
196.0550725882
 11
195.6308680172
 21
196.0550725886
  0
LINE
  8
7
  6
CONTINUOUS
 62
7
 10
194.6308680172
 20
73.0550725882
 11
194.6308680172
 21
195.0550725886
  0
LINE
  8
7
  6
CONTINUOUS
 62
7
 10
248.1308680172
 20
72.0550725886
 11
195.6308680172
 21
72.0550725882
  0
LINE
  8
7
  6
CONTINUOUS
 62
7
 10
195.6308680172
 20
196.0550725886
 11
194.6308680172
 21
195.0550725886
  0
LINE
  8
7
  6
CONTINUOUS
 62
7
 10
249.1308680172
 20
195.0550725882
 11
248.1308680172
 21
196.0550725882
  0
LINE
  8
7
  6
CONTINUOUS
 62
7
 10
249.1308680172
 20
73.0550725886
 11
248.1308680172
 21
72.0550725886
  0
LINE
  8
7
  6
CONTINUOUS
 62
7
 10
195.6308680172
 20
72.0550725882
 11
194.6308680172
 21
73.0550725882
  0
CIRCLE
  8
3
  6
CONTINUOUS
 62
6
 10
221.8808680172
 20
192.5550725884
 40
3.9000000000
  0
LINE
  8
3
  6
CONTINUOUS
 62
6
 10
220.1572952380
 20
194.2786453675
 11
223.6044407963
 21
190.8314998092
  0
LINE
  8
3
  6
CONTINUOUS
 62
6
 10
220.1572952380
 20
190.8314998092
 11
223.6044407963
 21
194.2786453675
  0
CIRCLE
  8
3
  6
CONTINUOUS
 62
6
 10
221.8808680172
 20
192.5550725884
 40
3.4125000000
  0
CIRCLE
  8
3
  6
CONTINUOUS
 62
6
 10
221.8808680172
 20
75.5550725884
 40
3.9000000000
  0
LINE
  8
3
  6
CONTINUOUS
 62
6
 10
220.1572952380
 20
77.2786453676
 11
223.6044407963
 21
73.8314998093
  0
LINE
  8
3
  6
CONTINUOUS
 62
6
 10
220.1572952380
 20
73.8314998093
 11
223.6044407963
 21
77.2786453676
  0
CIRCLE
  8
3
  6
CONTINUOUS
 62
6
 10
221.8808680172
 20
75.5550725884
 40
3.4125000000
  0
LINE
  8
3
  6
CONTINUOUS
 62
7
 10
237.3808680172
 20
123.5550725884
 11
206.3808680172
 21
123.5550725884
  0
LINE
  8
3
  6
CONTINUOUS
 62
7
 10
243.3808680172
 20
86.5550725884
 11
243.3808680172
 21
117.5550725884
  0
LINE
  8
3
  6
CONTINUOUS
 62
7
 10
206.3808680172
 20
80.5550725884
 11
237.3808680172
 21
80.5550725884
  0
LINE
  8
3
  6
CONTINUOUS
 62
7
 10
200.3808680172
 20
86.5550725884
 11
200.3808680172
 21
117.5550725884
  0
POINT
  8
3
  6
CONTINUOUS
 62
7
 10
221.8808680172
 20
102.0550725884
  0
CIRCLE
  8
3
  6
CONTINUOUS
 62
7
 10
221.8808680172
 20
102.0550725884
 40
17.2500000000
  0
CIRCLE
  8
3
  6
CONTINUOUS
 62
7
 10
238.1443239845
 20
118.3185285557
 40
2.0000000000
  0
CIRCLE
  8
3
  6
CONTINUOUS
 62
7
 10
205.6174120499
 20
85.7916166211
 40
2.0000000000
  0
CIRCLE
  8
3
  6
CONTINUOUS
 62
7
 10
238.1443239845
 20
118.3185285557
 40
3.0000000000
  0
CIRCLE
  8
3
  6
CONTINUOUS
 62
7
 10
205.6174120499
 20
85.7916166211
 40
3.0000000000
  0
TEXT
  8
3
  6
CONTINUOUS
 62
7
 10
219.255868
 20
95.129315
 40
3.500000
  1
125
 41
0.815217
 50
0.000000
 51
0.000000
 72
   5
 73
   0
 11
224.505868
 21
95.129315
  0
TEXT
  8
3
  6
CONTINUOUS
 62
7
 10
221.130868
 20
92.447570
 40
3.000000
  1
V
 41
1.000000
 50
0.000000
 51
0.000000
 72
   5
 73
   0
 11
222.630868
 21
92.447570
  0
INSERT
  8
3
  6
CONTINUOUS
 62
7
  2
S1
 10
227.1941385442
 20
111.2739080518
  0
ARC
  8
3
  6
CONTINUOUS
 62
7
 10
206.3808680172
 20
117.5550725884
 40
6.0000000000
 50
90.0000000000
 51
180.0000000000
  0
ARC
  8
3
  6
CONTINUOUS
 62
7
 10
237.3808680172
 20
117.5550725884
 40
6.0000000000
 50
0.0000000000
 51
90.0000000000
  0
ARC
  8
3
  6
CONTINUOUS
 62
7
 10
237.3808680172
 20
86.5550725884
 40
6.0000000000
 50
270.0000000000
 51
0.0000000000
  0
ARC
  8
3
  6
CONTINUOUS
 62
7
 10
206.3808680172
 20
86.5550725884
 40
6.0000000000
 50
180.0000000000
 51
270.0000000000
  0
ARC
  8
3
  6
CONTINUOUS
 62
5
 10
221.8808680172
 20
111.2050725884
 40
2.6500000000
 50
180.0000000000
 51
0.0000000000
  0
LINE
  8
3
  6
CONTINUOUS
 62
5
 10
219.2308680172
 20
111.2050725884
 11
219.2308680172
 21
113.8550725884
  0
LINE
  8
3
  6
CONTINUOUS
 62
5
 10
219.2308680172
 20
113.8550725884
 11
224.5308680172
 21
113.8550725884
  0
LINE
  8
3
  6
CONTINUOUS
 62
5
 10
224.5308680172
 20
113.8550725884
 11
224.5308680172
 21
111.2050725884
  0
LINE
  8
3
  6
CONTINUOUS
 62
5
 10
227.1808680172
 20
103.6550725884
 11
229.3808680172
 21
103.6550725884
  0
LINE
  8
3
  6
CONTINUOUS
 62
5
 10
229.3808680172
 20
103.6550725884
 11
229.3808680172
 21
94.9550725884
  0
LINE
  8
3
  6
CONTINUOUS
 62
5
 10
229.3808680172
 20
94.9550725884
 11
227.1808680172
 21
94.9550725884
  0
LINE
  8
3
  6
CONTINUOUS
 62
5
 10
227.1808680172
 20
94.9550725884
 11
227.1808680172
 21
103.6550725884
  0
LINE
  8
3
  6
CONTINUOUS
 62
5
 10
214.3808680172
 20
102.8050725884
 11
216.5808680172
 21
102.8050725884
  0
LINE
  8
3
  6
CONTINUOUS
 62
5
 10
216.5808680172
 20
102.8050725884
 11
216.5808680172
 21
95.8050725885
  0
LINE
  8
3
  6
CONTINUOUS
 62
5
 10
216.5808680172
 20
95.8050725885
 11
214.3808680172
 21
95.8050725885
  0
LINE
  8
3
  6
CONTINUOUS
 62
5
 10
214.3808680172
 20
95.8050725885
 11
214.3808680172
 21
102.8050725884
  0
CIRCLE
  8
3
  6
CONTINUOUS
 62
5
 10
231.7687643494
 20
99.3050725884
 40
1.5000000000
  0
TEXT
  8
3
  6
CONTINUOUS
 62
5
 10
231.143764
 20
98.055073
 40
2.500000
  1
N
 41
1.000000
 50
0.000000
 51
0.000000
 72
   5
 73
   0
 11
232.393764
 21
98.055073
  0
TEXT
  8
3
  6
CONTINUOUS
 62
7
 10
219.630868
 20
102.055073
 40
4.500000
  1
15
 41
0.854701
 50
0.000000
 51
0.000000
 72
   5
 73
   0
 11
224.130868
 21
102.055073
  0
TEXT
  8
3
  6
CONTINUOUS
 62
7
 10
221.130868
 20
99.055073
 40
3.000000
  1
A
 41
1.000000
 50
0.000000
 51
0.000000
 72
   5
 73
   0
 11
222.630868
 21
99.055073
  0
LINE
  8
3
  6
CONTINUOUS
 62
7
 10
230.8178253186
 20
-77.8784632072
 11
199.8178253186
 21
-77.8784632072
  0
LINE
  8
3
  6
CONTINUOUS
 62
7
 10
236.8178253186
 20
-114.8784632072
 11
236.8178253186
 21
-83.8784632072
  0
LINE
  8
3
  6
CONTINUOUS
 62
7
 10
199.8178253186
 20
-120.8784632072
 11
230.8178253186
 21
-120.8784632072
  0
LINE
  8
3
  6
CONTINUOUS
 62
7
 10
193.8178253186
 20
-114.8784632072
 11
193.8178253186
 21
-83.8784632072
  0
POINT
  8
3
  6
CONTINUOUS
 62
7
 10
215.3178253186
 20
-99.3784632072
  0
CIRCLE
  8
3
  6
CONTINUOUS
 62
7
 10
215.3178253186
 20
-99.3784632072
 40
17.2500000000
  0
CIRCLE
  8
3
  6
CONTINUOUS
 62
7
 10
231.5812812859
 20
-83.1150072399
 40
3.0000000000
  0
CIRCLE
  8
3
  6
CONTINUOUS
 62
7
 10
199.0543693513
 20
-115.6419191745
 40
3.0000000000
  0
POINT
  8
3
  6
CONTINUOUS
 62
7
 10
215.8178253186
 20
-102.3784632072
  0
ARC
  8
3
  6
CONTINUOUS
 62
7
 10
215.8178253186
 20
-102.3784632072
 40
5.2500000000
 50
145.1500954210
 51
238.9972808661
  0
ARC
  8
3
  6
CONTINUOUS
 62
7
 10
215.8178253186
 20
-102.3784632072
 40
5.2500000000
 50
325.1500954210
 51
58.9972808661
  0
ARC
  8
3
  6
CONTINUOUS
 62
7
 10
215.8178253186
 20
-102.3784632072
 40
8.2500000000
 50
145.1500954210
 51
238.9972808661
  0
ARC
  8
3
  6
CONTINUOUS
 62
7
 10
215.8178253186
 20
-102.3784632072
 40
8.2500000000
 50
325.1500954210
 51
58.9972808661
  0
LINE
  8
3
  6
CONTINUOUS
 62
7
 10
211.5094033337
 20
-99.3784632072
 11
209.0474479137
 21
-97.6641774929
  0
LINE
  8
3
  6
CONTINUOUS
 62
7
 10
213.1136618620
 20
-106.8784632072
 11
211.5684256011
 21
-109.4498917786
  0
LINE
  8
3
  6
CONTINUOUS
 62
7
 10
220.1262473035
 20
-105.3784632072
 11
222.5882027234
 21
-107.0927489215
  0
LINE
  8
3
  6
CONTINUOUS
 62
7
 10
218.5219887752
 20
-97.8784632072
 11
220.0672250361
 21
-95.3070346358
  0
ARC
  8
3
  6
CONTINUOUS
 62
7
 10
215.8178253186
 20
-102.3784632072
 40
9.5000000000
 50
79.1657616991
 51
124.6994185999
  0
ARC
  8
3
  6
CONTINUOUS
 62
7
 10
215.8178253186
 20
-102.3784632072
 40
15.0000000000
 50
75.4243256941
 51
128.4408546048
  0
LINE
  8
3
  6
CONTINUOUS
 62
7
 10
220.2884124819
 20
-89.1491831657
 11
219.3065288932
 21
-92.0547551830
  0
LINE
  8
3
  6
CONTINUOUS
 62
7
 10
206.3770931530
 20
-92.0890231749
 11
208.4505791716
 21
-94.3489125217
  0
ARC
  8
3
  6
CONTINUOUS
 62
7
 10
209.5558423295
 20
-93.3348152129
 40
1.5000000000
 50
222.5368983630
 51
304.6994185999
  0
ARC
  8
3
  6
CONTINUOUS
 62
7
 10
217.8854762616
 20
-91.5745370885
 40
1.5000000000
 50
259.1657616991
 51
341.3282819360
  0
ARC
  8
3
  6
CONTINUOUS
 62
7
 10
219.3410440608
 20
-88.8290377694
 40
1.0000000000
 50
341.3282819360
 51
75.4243256941
  0
ARC
  8
3
  6
CONTINUOUS
 62
7
 10
207.1139352582
 20
-91.4129583024
 40
1.0000000000
 50
128.4408546048
 51
222.5368983630
  0
TEXT
  8
3
  6
CONTINUOUS
 62
7
 10
213.067825
 20
-99.378463
 40
4.500000
  1
15
 41
0.854701
 50
0.000000
 51
0.000000
 72
   5
 73
   0
 11
217.567825
 21
-99.378463
  0
TEXT
  8
3
  6
CONTINUOUS
 62
7
 10
214.567825
 20
-102.378463
 40
3.000000
  1
A
 41
1.000000
 50
0.000000
 51
0.000000
 72
   5
 73
   0
 11
216.067825
 21
-102.378463
  0
TEXT
  8
3
  6
CONTINUOUS
 62
7
 10
212.692825
 20
-106.304221
 40
3.500000
  1
125
 41
0.815217
 50
0.000000
 51
0.000000
 72
   5
 73
   0
 11
217.942825
 21
-106.304221
  0
TEXT
  8
3
  6
CONTINUOUS
 62
7
 10
214.567825
 20
-108.985966
 40
3.000000
  1
V
 41
1.000000
 50
0.000000
 51
0.000000
 72
   5
 73
   0
 11
216.067825
 21
-108.985966
  0
INSERT
  8
3
  6
CONTINUOUS
 62
7
  2
S2
 10
204.5996856920
 20
-94.5517949092
  0
ARC
  8
3
  6
CONTINUOUS
 62
7
 10
199.8178253186
 20
-83.8784632072
 40
6.0000000000
 50
90.0000000000
 51
180.0000000000
  0
ARC
  8
3
  6
CONTINUOUS
 62
7
 10
230.8178253186
 20
-83.8784632072
 40
6.0000000000
 50
0.0000000000
 51
90.0000000000
  0
ARC
  8
3
  6
CONTINUOUS
 62
7
 10
230.8178253186
 20
-114.8784632072
 40
6.0000000000
 50
270.0000000000
 51
0.0000000000
  0
ARC
  8
3
  6
CONTINUOUS
 62
7
 10
199.8178253186
 20
-114.8784632072
 40
6.0000000000
 50
180.0000000000
 51
270.0000000000
  0
LINE
  8
5
  6
CONTINUOUS
 62
6
 10
312.9235759729
 20
271.9463679840
 11
312.9235759729
 21
276.9463679840
  0
LINE
  8
5
  6
CONTINUOUS
 62
6
 10
312.9235759729
 20
276.9463679840
 11
317.9235759729
 21
276.9463679840
  0
LINE
  8
5
  6
CONTINUOUS
 62
6
 10
317.9235759729
 20
276.9463679840
 11
337.9235759729
 21
276.9463679840
  0
LINE
  8
5
  6
CONTINUOUS
 62
6
 10
337.9235759729
 20
276.9463679840
 11
377.9235759729
 21
276.9463679840
  0
LINE
  8
5
  6
CONTINUOUS
 62
6
 10
377.9235759729
 20
276.9463679840
 11
392.9235759729
 21
276.9463679840
  0
LINE
  8
5
  6
CONTINUOUS
 62
6
 10
392.9235759729
 20
276.9463679840
 11
397.9235759729
 21
276.9463679840
  0
LINE
  8
5
  6
CONTINUOUS
 62
6
 10
397.9235759729
 20
276.9463679840
 11
397.9235759729
 21
271.9463679840
  0
LINE
  8
5
  6
CONTINUOUS
 62
6
 10
397.9235759729
 20
271.9463679840
 11
392.9235759729
 21
271.9463679840
  0
LINE
  8
5
  6
CONTINUOUS
 62
6
 10
392.9235759729
 20
271.9463679840
 11
377.9235759729
 21
271.9463679840
  0
LINE
  8
5
  6
CONTINUOUS
 62
6
 10
377.9235759729
 20
271.9463679840
 11
337.9235759729
 21
271.9463679840
  0
LINE
  8
5
  6
CONTINUOUS
 62
6
 10
337.9235759729
 20
271.9463679840
 11
317.9235759729
 21
271.9463679840
  0
LINE
  8
5
  6
CONTINUOUS
 62
6
 10
317.9235759729
 20
271.9463679840
 11
312.9235759729
 21
271.9463679840
  0
LINE
  8
5
  6
CONTINUOUS
 62
6
 10
317.9235759729
 20
276.9463679840
 11
317.9235759729
 21
271.9463679840
  0
LINE
  8
5
  6
CONTINUOUS
 62
6
 10
337.9235759729
 20
276.9463679840
 11
337.9235759729
 21
271.9463679840
  0
LINE
  8
5
  6
CONTINUOUS
 62
6
 10
377.9235759729
 20
276.9463679840
 11
377.9235759729
 21
271.9463679840
  0
LINE
  8
5
  6
CONTINUOUS
 62
6
 10
392.9235759729
 20
276.9463679840
 11
392.9235759729
 21
271.9463679840
  0
TEXT
  8
5
  6
CONTINUOUS
 62
7
 10
313.123576
 20
273.296368
 40
2.300000
  1
項番
 41
0.921659
 50
0.000000
 51
0.000000
 72
   5
 73
   0
 11
317.723576
 21
273.296368
  0
TEXT
  8
5
  6
CONTINUOUS
 62
7
 10
322.931576
 20
272.946368
 40
3.000000
  1
品　　名
 41
0.737916
 50
0.000000
 51
0.000000
 72
   5
 73
   0
 11
332.915576
 21
272.946368
  0
TEXT
  8
5
  6
CONTINUOUS
 62
7
 10
342.770576
 20
272.946368
 40
3.000000
  1
定  格 / 型  番 / 材　質
 41
0.686277
 50
0.000000
 51
0.000000
 72
   5
 73
   0
 11
373.076576
 21
272.946368
  0
TEXT
  8
5
  6
CONTINUOUS
 62
7
 10
380.226076
 20
272.946368
 40
3.000000
  1
メーカー
 41
0.768293
 50
0.000000
 51
0.000000
 72
   5
 73
   0
 11
390.621076
 21
272.946368
  0
TEXT
  8
5
  6
CONTINUOUS
 62
7
 10
393.123576
 20
273.296368
 40
2.300000
  1
数量
 41
0.921659
 50
0.000000
 51
0.000000
 72
   5
 73
   0
 11
397.723576
 21
273.296368
  0
LINE
  8
5
  6
CONTINUOUS
 62
6
 10
312.9235759729
 20
266.9463679840
 11
312.9235759729
 21
271.9463679840
  0
LINE
  8
5
  6
CONTINUOUS
 62
6
 10
312.9235759729
 20
271.9463679840
 11
317.9235759729
 21
271.9463679840
  0
LINE
  8
5
  6
CONTINUOUS
 62
6
 10
317.9235759729
 20
271.9463679840
 11
337.9235759729
 21
271.9463679840
  0
LINE
  8
5
  6
CONTINUOUS
 62
6
 10
337.9235759729
 20
271.9463679840
 11
377.9235759729
 21
271.9463679840
  0
LINE
  8
5
  6
CONTINUOUS
 62
6
 10
377.9235759729
 20
271.9463679840
 11
392.9235759729
 21
271.9463679840
  0
LINE
  8
5
  6
CONTINUOUS
 62
6
 10
392.9235759729
 20
271.9463679840
 11
397.9235759729
 21
271.9463679840
  0
LINE
  8
5
  6
CONTINUOUS
 62
6
 10
397.9235759729
 20
271.9463679840
 11
397.9235759729
 21
266.9463679840
  0
LINE
  8
5
  6
CONTINUOUS
 62
6
 10
397.9235759729
 20
266.9463679840
 11
392.9235759729
 21
266.9463679840
  0
LINE
  8
5
  6
CONTINUOUS
 62
6
 10
392.9235759729
 20
266.9463679840
 11
377.9235759729
 21
266.9463679840
  0
LINE
  8
5
  6
CONTINUOUS
 62
6
 10
337.9235759729
 20
266.9463679840
 11
317.9235759729
 21
266.9463679840
  0
LINE
  8
5
  6
CONTINUOUS
 62
6
 10
317.9235759729
 20
266.9463679840
 11
312.9235759729
 21
266.9463679840
  0
LINE
  8
5
  6
CONTINUOUS
 62
6
 10
317.9235759729
 20
271.9463679840
 11
317.9235759729
 21
266.9463679840
  0
LINE
  8
5
  6
CONTINUOUS
 62
6
 10
337.9235759729
 20
271.9463679840
 11
337.9235759729
 21
266.9463679840
  0
LINE
  8
5
  6
CONTINUOUS
 62
6
 10
377.9235759729
 20
271.9463679840
 11
377.9235759729
 21
266.9463679840
  0
LINE
  8
5
  6
CONTINUOUS
 62
6
 10
392.9235759729
 20
271.9463679840
 11
392.9235759729
 21
266.9463679840
  0
TEXT
  8
5
  6
CONTINUOUS
 62
7
 10
314.548576
 20
267.696368
 40
3.500000
  1
1
 41
1.000000
 50
0.000000
 51
0.000000
 72
   5
 73
   0
 11
316.298576
 21
267.696368
  0
TEXT
  8
5
  6
CONTINUOUS
 62
7
 10
318.923576
 20
267.946368
 40
3.000000
  1
ベース
 41
0.841018
 50
0.000000
 51
0.000000
 72
   5
 73
   0
 11
327.350576
 21
267.946368
  0
TEXT
  8
5
  6
CONTINUOUS
 62
7
 10
394.548576
 20
267.696368
 40
3.500000
  1
1
 41
1.000000
 50
0.000000
 51
0.000000
 72
   5
 73
   0
 11
396.298576
 21
267.696368
  0
LINE
  8
5
  6
CONTINUOUS
 62
6
 10
397.9235759729
 20
261.9463679840
 11
392.9235759729
 21
261.9463679840
  0
LINE
  8
5
  6
CONTINUOUS
 62
6
 10
397.9235759729
 20
256.9463679840
 11
392.9235759729
 21
256.9463679840
  0
LINE
  8
5
  6
CONTINUOUS
 62
6
 10
397.9235759729
 20
251.9463679840
 11
392.9235759729
 21
251.9463679840
  0
LINE
  8
5
  6
CONTINUOUS
 62
6
 10
397.9235759729
 20
246.9463679840
 11
392.9235759729
 21
246.9463679840
  0
LINE
  8
5
  6
CONTINUOUS
 62
6
 10
397.9235759729
 20
241.9463679840
 11
392.9235759729
 21
241.9463679840
  0
LINE
  8
5
  6
CONTINUOUS
 62
6
 10
397.9235759729
 20
236.9463679840
 11
392.9235759729
 21
236.9463679840
  0
LINE
  8
5
  6
CONTINUOUS
 62
6
 10
397.9235759729
 20
231.9463679840
 11
392.9235759729
 21
231.9463679840
  0
LINE
  8
5
  6
CONTINUOUS
 62
6
 10
392.9235759729
 20
261.9463679840
 11
377.9235759729
 21
261.9463679840
  0
LINE
  8
5
  6
CONTINUOUS
 62
6
 10
392.9235759729
 20
256.9463679840
 11
377.9235759729
 21
256.9463679840
  0
LINE
  8
5
  6
CONTINUOUS
 62
6
 10
392.9235759729
 20
251.9463679840
 11
377.9235759729
 21
251.9463679840
  0
LINE
  8
5
  6
CONTINUOUS
 62
6
 10
392.9235759729
 20
246.9463679840
 11
377.9235759729
 21
246.9463679840
  0
LINE
  8
5
  6
CONTINUOUS
 62
6
 10
392.9235759729
 20
241.9463679840
 11
377.9235759729
 21
241.9463679840
  0
LINE
  8
5
  6
CONTINUOUS
 62
6
 10
392.9235759729
 20
236.9463679840
 11
377.9235759729
 21
236.9463679840
  0
LINE
  8
5
  6
CONTINUOUS
 62
6
 10
392.9235759729
 20
231.9463679840
 11
377.9235759729
 21
231.9463679840
  0
LINE
  8
5
  6
CONTINUOUS
 62
6
 10
377.9235759729
 20
261.9463679840
 11
337.9235759729
 21
261.9463679840
  0
LINE
  8
5
  6
CONTINUOUS
 62
6
 10
377.9235759729
 20
256.9463679840
 11
337.9235759729
 21
256.9463679840
  0
LINE
  8
5
  6
CONTINUOUS
 62
6
 10
377.9235759729
 20
251.9463679840
 11
337.9235759729
 21
251.9463679840
  0
LINE
  8
5
  6
CONTINUOUS
 62
6
 10
377.9235759729
 20
246.9463679840
 11
337.9235759729
 21
246.9463679840
  0
LINE
  8
5
  6
CONTINUOUS
 62
6
 10
377.9235759729
 20
241.9463679840
 11
337.9235759729
 21
241.9463679840
  0
LINE
  8
5
  6
CONTINUOUS
 62
6
 10
377.9235759729
 20
236.9463679840
 11
337.9235759729
 21
236.9463679840
  0
LINE
  8
5
  6
CONTINUOUS
 62
6
 10
377.9235759729
 20
231.9463679840
 11
337.9235759729
 21
231.9463679840
  0
LINE
  8
5
  6
CONTINUOUS
 62
6
 10
337.9235759729
 20
261.9463679840
 11
317.9235759729
 21
261.9463679840
  0
LINE
  8
5
  6
CONTINUOUS
 62
6
 10
337.9235759729
 20
256.9463679840
 11
317.9235759729
 21
256.9463679840
  0
LINE
  8
5
  6
CONTINUOUS
 62
6
 10
337.9235759729
 20
251.9463679840
 11
317.9235759729
 21
251.9463679840
  0
LINE
  8
5
  6
CONTINUOUS
 62
6
 10
337.9235759729
 20
246.9463679840
 11
317.9235759729
 21
246.9463679840
  0
LINE
  8
5
  6
CONTINUOUS
 62
6
 10
337.9235759729
 20
241.9463679840
 11
317.9235759729
 21
241.9463679840
  0
LINE
  8
5
  6
CONTINUOUS
 62
6
 10
337.9235759729
 20
236.9463679840
 11
317.9235759729
 21
236.9463679840
  0
LINE
  8
5
  6
CONTINUOUS
 62
6
 10
337.9235759729
 20
231.9463679840
 11
317.9235759729
 21
231.9463679840
  0
LINE
  8
5
  6
CONTINUOUS
 62
6
 10
317.9235759729
 20
261.9463679840
 11
312.9235759729
 21
261.9463679840
  0
LINE
  8
5
  6
CONTINUOUS
 62
6
 10
317.9235759729
 20
256.9463679840
 11
312.9235759729
 21
256.9463679840
  0
LINE
  8
5
  6
CONTINUOUS
 62
6
 10
317.9235759729
 20
251.9463679840
 11
312.9235759729
 21
251.9463679840
  0
LINE
  8
5
  6
CONTINUOUS
 62
6
 10
317.9235759729
 20
246.9463679840
 11
312.9235759729
 21
246.9463679840
  0
LINE
  8
5
  6
CONTINUOUS
 62
6
 10
317.9235759729
 20
241.9463679840
 11
312.9235759729
 21
241.9463679840
  0
LINE
  8
5
  6
CONTINUOUS
 62
6
 10
317.9235759729
 20
236.9463679840
 11
312.9235759729
 21
236.9463679840
  0
LINE
  8
5
  6
CONTINUOUS
 62
6
 10
317.9235759729
 20
231.9463679840
 11
312.9235759729
 21
231.9463679840
  0
TEXT
  8
5
  6
CONTINUOUS
 62
7
 10
314.548576
 20
262.696368
 40
3.500000
  1
2
 41
1.000000
 50
0.000000
 51
0.000000
 72
   5
 73
   0
 11
316.298576
 21
262.696368
  0
TEXT
  8
5
  6
CONTINUOUS
 62
7
 10
314.548576
 20
257.696368
 40
3.500000
  1
3
 41
1.000000
 50
0.000000
 51
0.000000
 72
   5
 73
   0
 11
316.298576
 21
257.696368
  0
TEXT
  8
5
  6
CONTINUOUS
 62
7
 10
314.548576
 20
252.696368
 40
3.500000
  1
4
 41
1.000000
 50
0.000000
 51
0.000000
 72
   5
 73
   0
 11
316.298576
 21
252.696368
  0
TEXT
  8
5
  6
CONTINUOUS
 62
7
 10
314.548576
 20
247.696368
 40
3.500000
  1
5
 41
1.000000
 50
0.000000
 51
0.000000
 72
   5
 73
   0
 11
316.298576
 21
247.696368
  0
TEXT
  8
5
  6
CONTINUOUS
 62
7
 10
314.548576
 20
242.696368
 40
3.500000
  1
6
 41
1.000000
 50
0.000000
 51
0.000000
 72
   5
 73
   0
 11
316.298576
 21
242.696368
  0
TEXT
  8
5
  6
CONTINUOUS
 62
7
 10
314.548576
 20
237.696368
 40
3.500000
  1
7
 41
1.000000
 50
0.000000
 51
0.000000
 72
   5
 73
   0
 11
316.298576
 21
237.696368
  0
TEXT
  8
5
  6
CONTINUOUS
 62
7
 10
314.548576
 20
232.696368
 40
3.500000
  1
8
 41
1.000000
 50
0.000000
 51
0.000000
 72
   5
 73
   0
 11
316.298576
 21
232.696368
  0
TEXT
  8
5
  6
CONTINUOUS
 62
7
 10
318.923576
 20
262.946368
 40
3.000000
  1
カバー
 41
0.833832
 50
0.000000
 51
0.000000
 72
   5
 73
   0
 11
327.278576
 21
262.946368
  0
TEXT
  8
5
  6
CONTINUOUS
 62
7
 10
318.923576
 20
257.946368
 40
3.000000
  1
ロック
 41
0.719162
 50
0.000000
 51
0.000000
 72
   5
 73
   0
 11
326.129576
 21
257.946368
  0
TEXT
  8
5
  6
CONTINUOUS
 62
7
 10
318.923576
 20
252.946368
 40
3.000000
  1
添付品ﾋﾞｽ
 41
0.822804
 50
0.000000
 51
0.000000
 72
   5
 73
   0
 11
332.129576
 21
252.946368
  0
TEXT
  8
5
  6
CONTINUOUS
 62
7
 10
318.923576
 20
242.946368
 40
3.000000
  1
添付品ﾋﾞｽ
 41
0.822804
 50
0.000000
 51
0.000000
 72
   5
 73
   0
 11
332.129576
 21
242.946368
  0
TEXT
  8
5
  6
CONTINUOUS
 62
7
 10
318.923576
 20
237.946368
 40
3.000000
  1
添付品ﾋﾞｽ
 41
0.822804
 50
0.000000
 51
0.000000
 72
   5
 73
   0
 11
332.129576
 21
237.946368
  0
TEXT
  8
5
  6
CONTINUOUS
 62
7
 10
338.923576
 20
257.946368
 40
3.000000
  1
M4×20 脱落防止ビス
 41
0.819085
 50
0.000000
 51
0.000000
 72
   5
 73
   0
 11
366.862576
 21
257.946368
  0
TEXT
  8
5
  6
CONTINUOUS
 62
7
 10
338.923576
 20
252.946368
 40
3.000000
  1
M3×8小ワｾﾑｽ(ﾍﾞｰｽ固定用)
 41
0.831095
 50
0.000000
 51
0.000000
 72
   5
 73
   0
 11
376.048576
 21
252.946368
  0
TEXT
  8
5
  6
CONTINUOUS
 62
7
 10
338.923576
 20
242.946368
 40
3.000000
  1
M5×10ｱﾌﾞｾｯﾄ
 41
0.813247
 50
0.000000
 51
0.000000
 72
   5
 73
   0
 11
357.709576
 21
242.946368
  0
TEXT
  8
5
  6
CONTINUOUS
 62
7
 10
338.923576
 20
237.946368
 40
3.000000
  1
M5 内歯菊座金
 41
0.851365
 50
0.000000
 51
0.000000
 72
   5
 73
   0
 11
358.564576
 21
237.946368
  0
TEXT
  8
5
  6
CONTINUOUS
 62
7
 10
394.548576
 20
262.696368
 40
3.500000
  1
1
 41
1.000000
 50
0.000000
 51
0.000000
 72
   5
 73
   0
 11
396.298576
 21
262.696368
  0
TEXT
  8
5
  6
CONTINUOUS
 62
7
 10
394.548576
 20
257.696368
 40
3.500000
  1
1
 41
1.000000
 50
0.000000
 51
0.000000
 72
   5
 73
   0
 11
396.298576
 21
257.696368
  0
TEXT
  8
5
  6
CONTINUOUS
 62
7
 10
394.548576
 20
252.696368
 40
3.500000
  1
4
 41
1.000000
 50
0.000000
 51
0.000000
 72
   5
 73
   0
 11
396.298576
 21
252.696368
  0
TEXT
  8
5
  6
CONTINUOUS
 62
7
 10
394.548576
 20
242.696368
 40
3.500000
  1
1
 41
1.000000
 50
0.000000
 51
0.000000
 72
   5
 73
   0
 11
396.298576
 21
242.696368
  0
TEXT
  8
5
  6
CONTINUOUS
 62
7
 10
394.548576
 20
237.696368
 40
3.500000
  1
1
 41
1.000000
 50
0.000000
 51
0.000000
 72
   5
 73
   0
 11
396.298576
 21
237.696368
  0
LINE
  8
5
  6
CONTINUOUS
 62
6
 10
312.9235759729
 20
261.9463679840
 11
312.9235759729
 21
266.9463679840
  0
LINE
  8
5
  6
CONTINUOUS
 62
6
 10
312.9235759729
 20
256.9463679840
 11
312.9235759729
 21
261.9463679840
  0
LINE
  8
5
  6
CONTINUOUS
 62
6
 10
312.9235759729
 20
251.9463679840
 11
312.9235759729
 21
256.9463679840
  0
LINE
  8
5
  6
CONTINUOUS
 62
6
 10
312.9235759729
 20
246.9463679840
 11
312.9235759729
 21
251.9463679840
  0
LINE
  8
5
  6
CONTINUOUS
 62
6
 10
312.9235759729
 20
241.9463679840
 11
312.9235759729
 21
246.9463679840
  0
LINE
  8
5
  6
CONTINUOUS
 62
6
 10
312.9235759729
 20
236.9463679840
 11
312.9235759729
 21
241.9463679840
  0
LINE
  8
5
  6
CONTINUOUS
 62
6
 10
312.9235759729
 20
231.9463679840
 11
312.9235759729
 21
236.9463679840
  0
LINE
  8
5
  6
CONTINUOUS
 62
6
 10
317.9235759729
 20
266.9463679840
 11
317.9235759729
 21
261.9463679840
  0
LINE
  8
5
  6
CONTINUOUS
 62
6
 10
317.9235759729
 20
261.9463679840
 11
317.9235759729
 21
256.9463679840
  0
LINE
  8
5
  6
CONTINUOUS
 62
6
 10
317.9235759729
 20
256.9463679840
 11
317.9235759729
 21
251.9463679840
  0
LINE
  8
5
  6
CONTINUOUS
 62
6
 10
317.9235759729
 20
251.9463679840
 11
317.9235759729
 21
246.9463679840
  0
LINE
  8
5
  6
CONTINUOUS
 62
6
 10
317.9235759729
 20
246.9463679840
 11
317.9235759729
 21
241.9463679840
  0
LINE
  8
5
  6
CONTINUOUS
 62
6
 10
317.9235759729
 20
241.9463679840
 11
317.9235759729
 21
236.9463679840
  0
LINE
  8
5
  6
CONTINUOUS
 62
6
 10
317.9235759729
 20
236.9463679840
 11
317.9235759729
 21
231.9463679840
  0
LINE
  8
5
  6
CONTINUOUS
 62
6
 10
337.9235759729
 20
266.9463679840
 11
337.9235759729
 21
261.9463679840
  0
LINE
  8
5
  6
CONTINUOUS
 62
6
 10
337.9235759729
 20
261.9463679840
 11
337.9235759729
 21
256.9463679840
  0
LINE
  8
5
  6
CONTINUOUS
 62
6
 10
337.9235759729
 20
256.9463679840
 11
337.9235759729
 21
251.9463679840
  0
LINE
  8
5
  6
CONTINUOUS
 62
6
 10
337.9235759729
 20
251.9463679840
 11
337.9235759729
 21
246.9463679840
  0
LINE
  8
5
  6
CONTINUOUS
 62
6
 10
337.9235759729
 20
246.9463679840
 11
337.9235759729
 21
241.9463679840
  0
LINE
  8
5
  6
CONTINUOUS
 62
6
 10
337.9235759729
 20
241.9463679840
 11
337.9235759729
 21
236.9463679840
  0
LINE
  8
5
  6
CONTINUOUS
 62
6
 10
337.9235759729
 20
236.9463679840
 11
337.9235759729
 21
231.9463679840
  0
LINE
  8
5
  6
CONTINUOUS
 62
6
 10
377.9235759729
 20
266.9463679840
 11
377.9235759729
 21
261.9463679840
  0
LINE
  8
5
  6
CONTINUOUS
 62
6
 10
377.9235759729
 20
261.9463679840
 11
377.9235759729
 21
256.9463679840
  0
LINE
  8
5
  6
CONTINUOUS
 62
6
 10
377.9235759729
 20
251.9463679840
 11
377.9235759729
 21
246.9463679840
  0
LINE
  8
5
  6
CONTINUOUS
 62
6
 10
377.9235759729
 20
246.9463679840
 11
377.9235759729
 21
241.9463679840
  0
LINE
  8
5
  6
CONTINUOUS
 62
6
 10
377.9235759729
 20
241.9463679840
 11
377.9235759729
 21
236.9463679840
  0
LINE
  8
5
  6
CONTINUOUS
 62
6
 10
377.9235759729
 20
236.9463679840
 11
377.9235759729
 21
231.9463679840
  0
LINE
  8
5
  6
CONTINUOUS
 62
6
 10
392.9235759729
 20
266.9463679840
 11
392.9235759729
 21
261.9463679840
  0
LINE
  8
5
  6
CONTINUOUS
 62
6
 10
392.9235759729
 20
261.9463679840
 11
392.9235759729
 21
256.9463679840
  0
LINE
  8
5
  6
CONTINUOUS
 62
6
 10
392.9235759729
 20
256.9463679840
 11
392.9235759729
 21
251.9463679840
  0
LINE
  8
5
  6
CONTINUOUS
 62
6
 10
392.9235759729
 20
251.9463679840
 11
392.9235759729
 21
246.9463679840
  0
LINE
  8
5
  6
CONTINUOUS
 62
6
 10
392.9235759729
 20
246.9463679840
 11
392.9235759729
 21
241.9463679840
  0
LINE
  8
5
  6
CONTINUOUS
 62
6
 10
392.9235759729
 20
241.9463679840
 11
392.9235759729
 21
236.9463679840
  0
LINE
  8
5
  6
CONTINUOUS
 62
6
 10
392.9235759729
 20
236.9463679840
 11
392.9235759729
 21
231.9463679840
  0
LINE
  8
5
  6
CONTINUOUS
 62
6
 10
397.9235759729
 20
266.9463679840
 11
397.9235759729
 21
261.9463679840
  0
LINE
  8
5
  6
CONTINUOUS
 62
6
 10
397.9235759729
 20
261.9463679840
 11
397.9235759729
 21
256.9463679840
  0
LINE
  8
5
  6
CONTINUOUS
 62
6
 10
397.9235759729
 20
256.9463679840
 11
397.9235759729
 21
251.9463679840
  0
LINE
  8
5
  6
CONTINUOUS
 62
6
 10
397.9235759729
 20
251.9463679840
 11
397.9235759729
 21
246.9463679840
  0
LINE
  8
5
  6
CONTINUOUS
 62
6
 10
397.9235759729
 20
246.9463679840
 11
397.9235759729
 21
241.9463679840
  0
LINE
  8
5
  6
CONTINUOUS
 62
6
 10
397.9235759729
 20
241.9463679840
 11
397.9235759729
 21
236.9463679840
  0
LINE
  8
5
  6
CONTINUOUS
 62
6
 10
397.9235759729
 20
236.9463679840
 11
397.9235759729
 21
231.9463679840
  0
LINE
  8
5
  6
CONTINUOUS
 62
6
 10
13.5000000000
 20
254.5000000000
 11
13.5000000000
 21
279.5000000000
  0
LINE
  8
5
  6
CONTINUOUS
 62
6
 10
25.5000000000
 20
254.5000000000
 11
25.5000000000
 21
279.5000000000
  0
LINE
  8
5
  6
CONTINUOUS
 62
6
 10
90.0000000000
 20
254.5000000000
 11
90.0000000000
 21
279.5000000000
  0
LINE
  8
5
  6
CONTINUOUS
 62
6
 10
99.0000000000
 20
279.5000000000
 11
99.0000000000
 21
254.5000000000
  0
TEXT
  8
5
  6
CONTINUOUS
 62
6
 10
16.534500
 20
255.500000
 40
3.000000
  1
Date
 41
0.787649
 50
0.000000
 51
0.000000
 72
   5
 73
   0
 11
22.465500
 21
255.500000
  0
TEXT
  8
5
  6
CONTINUOUS
 62
6
 10
6.292500
 20
255.500000
 40
3.000000
  1
Rev.
 41
0.719124
 50
0.000000
 51
0.000000
 72
   5
 73
   0
 11
11.707500
 21
255.500000
  0
TEXT
  8
5
  6
CONTINUOUS
 62
6
 10
27.000000
 20
255.500000
 40
3.000000
  1
Content
 41
0.746681
 50
0.000000
 51
0.000000
 72
   5
 73
   0
 11
37.125000
 21
255.500000
  0
TEXT
  8
5
  6
CONTINUOUS
 62
6
 10
90.972000
 20
255.500000
 40
3.000000
  1
Name
 41
0.937052
 50
0.000000
 51
0.000000
 72
   5
 73
   0
 11
98.028000
 21
255.500000
  0
LINE
  8
5
  6
CONTINUOUS
 62
6
 10
4.5000000000
 20
259.5000000000
 11
99.0000000000
 21
259.5000000000
  0
LINE
  8
5
  6
CONTINUOUS
 62
6
 10
4.5000000000
 20
264.5000000000
 11
99.0000000000
 21
264.5000000000
  0
LINE
  8
5
  6
CONTINUOUS
 62
6
 10
4.5000000000
 20
269.5000000000
 11
99.0000000000
 21
269.5000000000
  0
LINE
  8
5
  6
CONTINUOUS
 62
6
 10
4.5000000000
 20
274.5000000000
 11
99.0000000000
 21
274.5000000000
  0
LINE
  8
5
  6
CONTINUOUS
 62
6
 10
4.5000000000
 20
254.5000000000
 11
99.0000000000
 21
254.5000000000
  0
POINT
  8
5
  6
CONTINUOUS
 62
6
 10
9.0000000000
 20
262.0000000000
  0
POINT
  8
5
  6
CONTINUOUS
 62
6
 10
9.0000000000
 20
267.0000000000
  0
POINT
  8
5
  6
CONTINUOUS
 62
6
 10
9.0000000000
 20
272.0000000000
  0
POINT
  8
5
  6
CONTINUOUS
 62
6
 10
9.0000000000
 20
277.0000000000
  0
POINT
  8
5
  6
CONTINUOUS
 62
6
 10
19.5000000000
 20
277.0000000000
  0
POINT
  8
5
  6
CONTINUOUS
 62
6
 10
19.5000000000
 20
272.0000000000
  0
POINT
  8
5
  6
CONTINUOUS
 62
6
 10
19.5000000000
 20
267.0000000000
  0
POINT
  8
5
  6
CONTINUOUS
 62
6
 10
19.5000000000
 20
262.0000000000
  0
POINT
  8
5
  6
CONTINUOUS
 62
6
 10
94.5000000000
 20
262.0000000000
  0
POINT
  8
5
  6
CONTINUOUS
 62
6
 10
94.5000000000
 20
267.0000000000
  0
POINT
  8
5
  6
CONTINUOUS
 62
6
 10
94.5000000000
 20
272.0000000000
  0
POINT
  8
5
  6
CONTINUOUS
 62
6
 10
94.5000000000
 20
277.0000000000
  0
POINT
  8
5
  6
CONTINUOUS
 62
6
 10
25.5000000000
 20
277.0000000000
  0
POINT
  8
5
  6
CONTINUOUS
 62
6
 10
25.5000000000
 20
272.0000000000
  0
POINT
  8
5
  6
CONTINUOUS
 62
6
 10
25.5000000000
 20
267.0000000000
  0
POINT
  8
5
  6
CONTINUOUS
 62
6
 10
25.5000000000
 20
262.0000000000
  0
INSERT
  8
1
  6
CONTINUOUS
 62
5
  2
BALN0
 10
65.1092980532
 20
62.2661550659
  0
TEXT
  8
5
  6
CONTINUOUS
 62
7
 10
338.923576
 20
247.946368
 40
3.000000
  1
M4×8小ワｾﾑｽ(ﾊﾟﾈﾙ固定用)
 41
0.833177
 50
0.000000
 51
0.000000
 72
   5
 73
   0
 11
376.141576
 21
247.946368
  0
TEXT
  8
5
  6
CONTINUOUS
 62
7
 10
318.923576
 20
247.946368
 40
3.000000
  1
添付品ﾋﾞｽ
 41
0.822804
 50
0.000000
 51
0.000000
 72
   5
 73
   0
 11
332.129576
 21
247.946368
  0
TEXT
  8
5
  6
CONTINUOUS
 62
7
 10
394.548576
 20
247.696368
 40
3.500000
  1
2
 41
1.000000
 50
0.000000
 51
0.000000
 72
   5
 73
   0
 11
396.298576
 21
247.696368
  0
LINE
  8
5
  6
CONTINUOUS
 62
6
 10
377.9235759729
 20
256.9463679840
 11
377.9235759729
 21
251.9463679840
  0
CIRCLE
  8
3
  6
CONTINUOUS
 62
5
 10
225.5302650331
 20
-106.3150097473
 40
1.5000000000
  0
TEXT
  8
3
  6
CONTINUOUS
 62
5
 10
224.905265
 20
-107.565010
 40
2.500000
  1
N
 41
1.000000
 50
0.000000
 51
0.000000
 72
   5
 73
   0
 11
226.155265
 21
-107.565010
  0
LINE
  8
3
  6
CONTINUOUS
 62
7
 10
249.1308680172
 20
73.0550725886
 11
249.1308680172
 21
195.0550725882
  0
LINE
  8
3
  6
CONTINUOUS
 62
7
 10
249.1308680172
 20
195.0550725882
 11
248.1308680172
 21
196.0550725882
  0
LINE
  8
3
  6
CONTINUOUS
 62
7
 10
248.1308680172
 20
196.0550725882
 11
195.6308680172
 21
196.0550725886
  0
LINE
  8
3
  6
CONTINUOUS
 62
7
 10
195.6308680172
 20
196.0550725886
 11
194.6308680172
 21
195.0550725886
  0
LINE
  8
3
  6
CONTINUOUS
 62
7
 10
194.6308680172
 20
73.0550725882
 11
194.6308680172
 21
195.0550725886
  0
LINE
  8
3
  6
CONTINUOUS
 62
7
 10
195.6308680172
 20
72.0550725882
 11
194.6308680172
 21
73.0550725882
  0
LINE
  8
3
  6
CONTINUOUS
 62
7
 10
248.1308680172
 20
72.0550725886
 11
195.6308680172
 21
72.0550725882
  0
LINE
  8
3
  6
CONTINUOUS
 62
7
 10
249.1308680172
 20
73.0550725886
 11
248.1308680172
 21
72.0550725886
  0
TEXT
  8
5
  6
CONTINUOUS
 62
7
 10
318.923576
 20
232.946368
 40
3.000000
  1
パネル
 41
0.877246
 50
0.000000
 51
0.000000
 72
   5
 73
   0
 11
327.713576
 21
232.946368
  0
TEXT
  8
5
  6
CONTINUOUS
 62
7
 10
338.923576
 20
232.696368
 40
3.500000
  1
M0051B054D (SPCCt=1.6)
 41
0.757927
 50
0.000000
 51
0.000000
 72
   5
 73
   0
 11
377.574076
 21
232.696368
  0
TEXT
  8
5
  6
CONTINUOUS
 62
7
 10
394.548576
 20
232.696368
 40
3.500000
  1
1
 41
1.000000
 50
0.000000
 51
0.000000
 72
   5
 73
   0
 11
396.298576
 21
232.696368
  0
TEXT
  8
5
  6
CONTINUOUS
 62
7
 10
378.923576
 20
267.946368
 40
3.000000
  1
MADOKA
 41
1.028831
 50
0.000000
 51
0.000000
 72
   5
 73
   0
 11
390.806576
 21
267.946368
  0
TEXT
  8
5
  6
CONTINUOUS
 62
7
 10
378.923576
 20
262.946368
 40
3.000000
  1
MADOKA
 41
1.028831
 50
0.000000
 51
0.000000
 72
   5
 73
   0
 11
390.806576
 21
262.946368
  0
TEXT
  8
5
  6
CONTINUOUS
 62
7
 10
378.923576
 20
232.946368
 40
3.000000
  1
MADOKA
 41
1.028831
 50
0.000000
 51
0.000000
 72
   5
 73
   0
 11
390.806576
 21
232.946368
  0
TEXT
  8
5
  6
CONTINUOUS
 62
7
 10
378.923576
 20
237.946368
 40
3.000000
  1
--
 41
0.854701
 50
0.000000
 51
0.000000
 72
   5
 73
   0
 11
381.923576
 21
237.946368
  0
TEXT
  8
5
  6
CONTINUOUS
 62
7
 10
378.923576
 20
242.946368
 40
3.000000
  1
--
 41
0.854701
 50
0.000000
 51
0.000000
 72
   5
 73
   0
 11
381.923576
 21
242.946368
  0
TEXT
  8
5
  6
CONTINUOUS
 62
7
 10
378.923576
 20
247.946368
 40
3.000000
  1
--
 41
0.854701
 50
0.000000
 51
0.000000
 72
   5
 73
   0
 11
381.923576
 21
247.946368
  0
TEXT
  8
5
  6
CONTINUOUS
 62
7
 10
378.923576
 20
252.946368
 40
3.000000
  1
--
 41
0.854701
 50
0.000000
 51
0.000000
 72
   5
 73
   0
 11
381.923576
 21
252.946368
  0
TEXT
  8
5
  6
CONTINUOUS
 62
7
 10
378.923576
 20
257.946368
 40
3.000000
  1
--
 41
0.854701
 50
0.000000
 51
0.000000
 72
   5
 73
   0
 11
381.923576
 21
257.946368
  0
INSERT
  8
5
  6
CONTINUOUS
 62
7
  2
S3
 10
-1.2509564999
 20
-313.9655230621
  0
TEXT
  8
5
  6
CONTINUOUS
 62
7
 10
347.402112
 20
-291.222966
 40
4.200000
  1
Panel Interface
 41
0.641296
 50
0.000000
 51
0.000000
 72
   5
 73
   0
 11
374.013312
 21
-291.222966
  0
TEXT
  8
5
  6
CONTINUOUS
 62
7
 10
347.402112
 20
-295.422966
 40
4.200000
  1
Type:MCON-001-054******
 41
0.788714
 50
0.000000
 51
0.000000
 72
   5
 73
   0
 11
397.886112
 21
-295.422966
  0
TEXT
  8
5
  6
CONTINUOUS
 62
7
 10
347.402112
 20
-299.622966
 40
4.200000
  1
                      仕様図　2/2
 41
0.558184
 50
0.000000
 51
0.000000
 72
   5
 73
   0
 11
397.243512
 21
-299.622966
  0
TEXT
  8
5
  6
CONTINUOUS
 62
7
 10
291.874044
 20
-303.215523
 40
3.000000
  1
Yamada
 41
0.844156
 50
0.000000
 51
0.000000
 72
   5
 73
   0
 11
301.624044
 21
-303.215523
  0
TEXT
  8
5
  6
CONTINUOUS
 62
7
 10
302.874044
 20
-303.215523
 40
3.000000
  1
Yamada
 41
0.844156
 50
0.000000
 51
0.000000
 72
   5
 73
   0
 11
312.624044
 21
-303.215523
  0
LINE
  8
5
  6
CONTINUOUS
 62
6
 10
309.6567742348
 20
-72.9259553294
 11
309.6567742348
 21
-67.9259553294
  0
LINE
  8
5
  6
CONTINUOUS
 62
6
 10
309.6567742348
 20
-67.9259553294
 11
314.6567742348
 21
-67.9259553294
  0
LINE
  8
5
  6
CONTINUOUS
 62
6
 10
314.6567742348
 20
-67.9259553294
 11
334.6567742348
 21
-67.9259553294
  0
LINE
  8
5
  6
CONTINUOUS
 62
6
 10
334.6567742348
 20
-67.9259553294
 11
374.6567742348
 21
-67.9259553294
  0
LINE
  8
5
  6
CONTINUOUS
 62
6
 10
374.6567742348
 20
-67.9259553294
 11
389.6567742348
 21
-67.9259553294
  0
LINE
  8
5
  6
CONTINUOUS
 62
6
 10
389.6567742348
 20
-67.9259553294
 11
394.6567742348
 21
-67.9259553294
  0
LINE
  8
5
  6
CONTINUOUS
 62
6
 10
394.6567742348
 20
-67.9259553294
 11
394.6567742348
 21
-72.9259553294
  0
LINE
  8
5
  6
CONTINUOUS
 62
6
 10
394.6567742348
 20
-72.9259553294
 11
389.6567742348
 21
-72.9259553294
  0
LINE
  8
5
  6
CONTINUOUS
 62
6
 10
389.6567742348
 20
-72.9259553294
 11
374.6567742348
 21
-72.9259553294
  0
LINE
  8
5
  6
CONTINUOUS
 62
6
 10
374.6567742348
 20
-72.9259553294
 11
334.6567742348
 21
-72.9259553294
  0
LINE
  8
5
  6
CONTINUOUS
 62
6
 10
334.6567742348
 20
-72.9259553294
 11
314.6567742348
 21
-72.9259553294
  0
LINE
  8
5
  6
CONTINUOUS
 62
6
 10
314.6567742348
 20
-72.9259553294
 11
309.6567742348
 21
-72.9259553294
  0
LINE
  8
5
  6
CONTINUOUS
 62
6
 10
314.6567742348
 20
-67.9259553294
 11
314.6567742348
 21
-72.9259553294
  0
LINE
  8
5
  6
CONTINUOUS
 62
6
 10
334.6567742348
 20
-67.9259553294
 11
334.6567742348
 21
-72.9259553294
  0
LINE
  8
5
  6
CONTINUOUS
 62
6
 10
374.6567742348
 20
-67.9259553294
 11
374.6567742348
 21
-72.9259553294
  0
LINE
  8
5
  6
CONTINUOUS
 62
6
 10
389.6567742348
 20
-67.9259553294
 11
389.6567742348
 21
-72.9259553294
  0
TEXT
  8
5
  6
CONTINUOUS
 62
7
 10
309.856774
 20
-71.575955
 40
2.300000
  1
項番
 41
0.921659
 50
0.000000
 51
0.000000
 72
   5
 73
   0
 11
314.456774
 21
-71.575955
  0
TEXT
  8
5
  6
CONTINUOUS
 62
7
 10
319.664774
 20
-71.925955
 40
3.000000
  1
品　　名
 41
0.737916
 50
0.000000
 51
0.000000
 72
   5
 73
   0
 11
329.648774
 21
-71.925955
  0
TEXT
  8
5
  6
CONTINUOUS
 62
7
 10
339.503774
 20
-71.925955
 40
3.000000
  1
定  格 / 型  番 / 材　質
 41
0.686277
 50
0.000000
 51
0.000000
 72
   5
 73
   0
 11
369.809774
 21
-71.925955
  0
TEXT
  8
5
  6
CONTINUOUS
 62
7
 10
376.959274
 20
-71.925955
 40
3.000000
  1
メーカー
 41
0.768293
 50
0.000000
 51
0.000000
 72
   5
 73
   0
 11
387.354274
 21
-71.925955
  0
TEXT
  8
5
  6
CONTINUOUS
 62
7
 10
389.856774
 20
-71.575955
 40
2.300000
  1
数量
 41
0.921659
 50
0.000000
 51
0.000000
 72
   5
 73
   0
 11
394.456774
 21
-71.575955
  0
LINE
  8
5
  6
CONTINUOUS
 62
6
 10
309.6567742348
 20
-77.9259553294
 11
309.6567742348
 21
-72.9259553294
  0
LINE
  8
5
  6
CONTINUOUS
 62
6
 10
309.6567742348
 20
-72.9259553294
 11
314.6567742348
 21
-72.9259553294
  0
LINE
  8
5
  6
CONTINUOUS
 62
6
 10
314.6567742348
 20
-72.9259553294
 11
334.6567742348
 21
-72.9259553294
  0
LINE
  8
5
  6
CONTINUOUS
 62
6
 10
334.6567742348
 20
-72.9259553294
 11
374.6567742348
 21
-72.9259553294
  0
LINE
  8
5
  6
CONTINUOUS
 62
6
 10
374.6567742348
 20
-72.9259553294
 11
389.6567742348
 21
-72.9259553294
  0
LINE
  8
5
  6
CONTINUOUS
 62
6
 10
389.6567742348
 20
-72.9259553294
 11
394.6567742348
 21
-72.9259553294
  0
LINE
  8
5
  6
CONTINUOUS
 62
6
 10
394.6567742348
 20
-72.9259553294
 11
394.6567742348
 21
-77.9259553294
  0
LINE
  8
5
  6
CONTINUOUS
 62
6
 10
394.6567742348
 20
-77.9259553294
 11
389.6567742348
 21
-77.9259553294
  0
LINE
  8
5
  6
CONTINUOUS
 62
6
 10
389.6567742348
 20
-77.9259553294
 11
374.6567742348
 21
-77.9259553294
  0
LINE
  8
5
  6
CONTINUOUS
 62
6
 10
374.6567742348
 20
-77.9259553294
 11
334.6567742348
 21
-77.9259553294
  0
LINE
  8
5
  6
CONTINUOUS
 62
6
 10
334.6567742348
 20
-77.9259553294
 11
314.6567742348
 21
-77.9259553294
  0
LINE
  8
5
  6
CONTINUOUS
 62
6
 10
314.6567742348
 20
-77.9259553294
 11
309.6567742348
 21
-77.9259553294
  0
LINE
  8
5
  6
CONTINUOUS
 62
6
 10
314.6567742348
 20
-72.9259553294
 11
314.6567742348
 21
-77.9259553294
  0
LINE
  8
5
  6
CONTINUOUS
 62
6
 10
334.6567742348
 20
-72.9259553294
 11
334.6567742348
 21
-77.9259553294
  0
LINE
  8
5
  6
CONTINUOUS
 62
6
 10
374.6567742348
 20
-72.9259553294
 11
374.6567742348
 21
-77.9259553294
  0
LINE
  8
5
  6
CONTINUOUS
 62
6
 10
389.6567742348
 20
-72.9259553294
 11
389.6567742348
 21
-77.9259553294
  0
TEXT
  8
5
  6
CONTINUOUS
 62
7
 10
310.656774
 20
-76.925955
 40
3.000000
  1
91
 41
0.854701
 50
0.000000
 51
0.000000
 72
   5
 73
   0
 11
313.656774
 21
-76.925955
  0
TEXT
  8
5
  6
CONTINUOUS
 62
7
 10
315.656774
 20
-76.925955
 40
3.000000
  1
ACｱｳﾄﾚｯﾄ
 41
0.872254
 50
0.000000
 51
0.000000
 72
   5
 73
   0
 11
329.237774
 21
-76.925955
  0
TEXT
  8
5
  6
CONTINUOUS
 62
7
 10
335.656774
 20
-77.425955
 40
4.000000
  1
7117G-IV
 41
0.770713
 50
0.000000
 51
0.000000
 72
   5
 73
   0
 11
351.656774
 21
-77.425955
  0
TEXT
  8
5
  6
CONTINUOUS
 62
7
 10
391.281774
 20
-77.175955
 40
3.500000
  1
1
 41
1.000000
 50
0.000000
 51
0.000000
 72
   5
 73
   0
 11
393.031774
 21
-77.175955
  0
LINE
  8
5
  6
CONTINUOUS
 62
6
 10
394.6567742348
 20
-82.9259553294
 11
389.6567742348
 21
-82.9259553294
  0
LINE
  8
5
  6
CONTINUOUS
 62
6
 10
389.6567742348
 20
-82.9259553294
 11
374.6567742348
 21
-82.9259553294
  0
LINE
  8
5
  6
CONTINUOUS
 62
6
 10
374.6567742348
 20
-82.9259553294
 11
334.6567742348
 21
-82.9259553294
  0
LINE
  8
5
  6
CONTINUOUS
 62
6
 10
334.6567742348
 20
-82.9259553294
 11
314.6567742348
 21
-82.9259553294
  0
LINE
  8
5
  6
CONTINUOUS
 62
6
 10
314.6567742348
 20
-82.9259553294
 11
309.6567742348
 21
-82.9259553294
  0
TEXT
  8
5
  6
CONTINUOUS
 62
7
 10
310.656774
 20
-86.925955
 40
3.000000
  1
--
 41
0.854701
 50
0.000000
 51
0.000000
 72
   5
 73
   0
 11
313.656774
 21
-86.925955
  0
LINE
  8
5
  6
CONTINUOUS
 62
6
 10
309.6567742348
 20
-82.9259553294
 11
309.6567742348
 21
-77.9259553294
  0
LINE
  8
5
  6
CONTINUOUS
 62
6
 10
309.6567742348
 20
-87.9259553294
 11
309.6567742348
 21
-82.9259553294
  0
LINE
  8
5
  6
CONTINUOUS
 62
6
 10
314.6567742348
 20
-77.9259553294
 11
314.6567742348
 21
-82.9259553294
  0
LINE
  8
5
  6
CONTINUOUS
 62
6
 10
314.6567742348
 20
-82.9259553294
 11
314.6567742348
 21
-87.9259553294
  0
LINE
  8
5
  6
CONTINUOUS
 62
6
 10
334.6567742348
 20
-77.9259553294
 11
334.6567742348
 21
-82.9259553294
  0
LINE
  8
5
  6
CONTINUOUS
 62
6
 10
334.6567742348
 20
-82.9259553294
 11
334.6567742348
 21
-87.9259553294
  0
LINE
  8
5
  6
CONTINUOUS
 62
6
 10
374.6567742348
 20
-77.9259553294
 11
374.6567742348
 21
-82.9259553294
  0
LINE
  8
5
  6
CONTINUOUS
 62
6
 10
374.6567742348
 20
-82.9259553294
 11
374.6567742348
 21
-87.9259553294
  0
LINE
  8
5
  6
CONTINUOUS
 62
6
 10
389.6567742348
 20
-77.9259553294
 11
389.6567742348
 21
-82.9259553294
  0
LINE
  8
5
  6
CONTINUOUS
 62
6
 10
389.6567742348
 20
-82.9259553294
 11
389.6567742348
 21
-87.9259553294
  0
LINE
  8
5
  6
CONTINUOUS
 62
6
 10
394.6567742348
 20
-77.9259553294
 11
394.6567742348
 21
-82.9259553294
  0
LINE
  8
5
  6
CONTINUOUS
 62
6
 10
394.6567742348
 20
-82.9259553294
 11
394.6567742348
 21
-87.9259553294
  0
LINE
  8
5
  6
CONTINUOUS
 62
6
 10
12.2490435001
 20
-64.4655230621
 11
12.2490435001
 21
-34.4655230621
  0
LINE
  8
5
  6
CONTINUOUS
 62
6
 10
24.2490435001
 20
-64.4655230621
 11
24.2490435001
 21
-34.4655230621
  0
LINE
  8
5
  6
CONTINUOUS
 62
6
 10
88.7490435001
 20
-64.4655230621
 11
88.7490435001
 21
-34.4655230621
  0
LINE
  8
5
  6
CONTINUOUS
 62
6
 10
97.7490435001
 20
-34.4655230621
 11
97.7490435001
 21
-64.4655230621
  0
TEXT
  8
5
  6
CONTINUOUS
 62
6
 10
15.283544
 20
-63.465523
 40
3.000000
  1
Date
 41
0.787649
 50
0.000000
 51
0.000000
 72
   5
 73
   0
 11
21.214544
 21
-63.465523
  0
TEXT
  8
5
  6
CONTINUOUS
 62
6
 10
5.041544
 20
-63.465523
 40
3.000000
  1
Rev.
 41
0.719124
 50
0.000000
 51
0.000000
 72
   5
 73
   0
 11
10.456544
 21
-63.465523
  0
TEXT
  8
5
  6
CONTINUOUS
 62
6
 10
25.749044
 20
-63.465523
 40
3.000000
  1
Content
 41
0.746681
 50
0.000000
 51
0.000000
 72
   5
 73
   0
 11
35.874044
 21
-63.465523
  0
TEXT
  8
5
  6
CONTINUOUS
 62
6
 10
89.721044
 20
-63.465523
 40
3.000000
  1
Name
 41
0.937052
 50
0.000000
 51
0.000000
 72
   5
 73
   0
 11
96.777044
 21
-63.465523
  0
LINE
  8
5
  6
CONTINUOUS
 62
6
 10
3.2490435001
 20
-59.4655230621
 11
97.7490435001
 21
-59.4655230621
  0
LINE
  8
5
  6
CONTINUOUS
 62
6
 10
3.2490435001
 20
-54.4655230621
 11
97.7490435001
 21
-54.4655230621
  0
LINE
  8
5
  6
CONTINUOUS
 62
6
 10
3.2490435001
 20
-49.4655230621
 11
97.7490435001
 21
-49.4655230621
  0
LINE
  8
5
  6
CONTINUOUS
 62
6
 10
3.2490435001
 20
-64.4655230621
 11
97.7490435001
 21
-64.4655230621
  0
POINT
  8
5
  6
CONTINUOUS
 62
6
 10
7.7490435001
 20
-56.9655230621
  0
POINT
  8
5
  6
CONTINUOUS
 62
6
 10
7.7490435001
 20
-51.9655230621
  0
POINT
  8
5
  6
CONTINUOUS
 62
6
 10
7.7490435001
 20
-46.9655230621
  0
POINT
  8
5
  6
CONTINUOUS
 62
6
 10
7.7490435001
 20
-41.9655230621
  0
POINT
  8
5
  6
CONTINUOUS
 62
6
 10
18.2490435001
 20
-41.9655230621
  0
POINT
  8
5
  6
CONTINUOUS
 62
6
 10
18.2490435001
 20
-46.9655230621
  0
POINT
  8
5
  6
CONTINUOUS
 62
6
 10
18.2490435001
 20
-51.9655230621
  0
POINT
  8
5
  6
CONTINUOUS
 62
6
 10
18.2490435001
 20
-56.9655230621
  0
POINT
  8
5
  6
CONTINUOUS
 62
6
 10
93.2490435001
 20
-56.9655230621
  0
POINT
  8
5
  6
CONTINUOUS
 62
6
 10
93.2490435001
 20
-51.9655230621
  0
POINT
  8
5
  6
CONTINUOUS
 62
6
 10
93.2490435001
 20
-46.9655230621
  0
POINT
  8
5
  6
CONTINUOUS
 62
6
 10
93.2490435001
 20
-41.9655230621
  0
POINT
  8
5
  6
CONTINUOUS
 62
6
 10
24.2490435001
 20
-41.9655230621
  0
POINT
  8
5
  6
CONTINUOUS
 62
6
 10
24.2490435001
 20
-46.9655230621
  0
POINT
  8
5
  6
CONTINUOUS
 62
6
 10
24.2490435001
 20
-51.9655230621
  0
POINT
  8
5
  6
CONTINUOUS
 62
6
 10
24.2490435001
 20
-56.9655230621
  0
LINE
  8
5
  6
CONTINUOUS
 62
6
 10
299.6567742348
 20
-72.9259553294
 11
299.6567742348
 21
-67.9259553294
  0
LINE
  8
5
  6
CONTINUOUS
 62
6
 10
299.6567742348
 20
-67.9259553294
 11
309.6567742348
 21
-67.9259553294
  0
LINE
  8
5
  6
CONTINUOUS
 62
6
 10
309.6567742348
 20
-72.9259553294
 11
304.6567742348
 21
-72.9259553294
  0
LINE
  8
5
  6
CONTINUOUS
 62
6
 10
309.6567742348
 20
-67.9259553294
 11
309.6567742348
 21
-72.9259553294
  0
TEXT
  8
5
  6
CONTINUOUS
 62
7
 10
302.194993
 20
-71.925955
 40
3.000000
  1
型番
 41
0.921659
 50
0.000000
 51
0.000000
 72
   5
 73
   0
 11
308.194993
 21
-71.925955
  0
LINE
  8
5
  6
CONTINUOUS
 62
6
 10
299.6567742348
 20
-77.9259553294
 11
299.6567742348
 21
-72.9259553294
  0
LINE
  8
5
  6
CONTINUOUS
 62
6
 10
299.6567742348
 20
-72.9259553294
 11
309.6567742348
 21
-72.9259553294
  0
LINE
  8
5
  6
CONTINUOUS
 62
6
 10
309.6567742348
 20
-72.9259553294
 11
309.6567742348
 21
-77.9259553294
  0
TEXT
  8
5
  6
CONTINUOUS
 62
7
 10
303.194993
 20
-77.425955
 40
4.000000
  1
A0
 41
0.854701
 50
0.000000
 51
0.000000
 72
   5
 73
   0
 11
307.194993
 21
-77.425955
  0
LINE
  8
5
  6
CONTINUOUS
 62
6
 10
299.6567742348
 20
-82.9259553294
 11
299.6567742348
 21
-77.9259553294
  0
LINE
  8
5
  6
CONTINUOUS
 62
6
 10
299.6567742348
 20
-87.9259553294
 11
299.6567742348
 21
-82.9259553294
  0
LINE
  8
5
  6
CONTINUOUS
 62
6
 10
309.6567742348
 20
-77.9259553294
 11
309.6567742348
 21
-82.9259553294
  0
LINE
  8
5
  6
CONTINUOUS
 62
6
 10
309.6567742348
 20
-82.9259553294
 11
309.6567742348
 21
-87.9259553294
  0
LINE
  8
5
  6
CONTINUOUS
 62
6
 10
394.6567742348
 20
-87.9259553294
 11
389.6567742348
 21
-87.9259553294
  0
LINE
  8
5
  6
CONTINUOUS
 62
6
 10
389.6567742348
 20
-87.9259553294
 11
374.6567742348
 21
-87.9259553294
  0
LINE
  8
5
  6
CONTINUOUS
 62
6
 10
374.6567742348
 20
-87.9259553294
 11
334.6567742348
 21
-87.9259553294
  0
LINE
  8
5
  6
CONTINUOUS
 62
6
 10
334.6567742348
 20
-87.9259553294
 11
314.6567742348
 21
-87.9259553294
  0
LINE
  8
5
  6
CONTINUOUS
 62
6
 10
314.6567742348
 20
-87.9259553294
 11
309.6567742348
 21
-87.9259553294
  0
LINE
  8
5
  6
CONTINUOUS
 62
6
 10
309.6567742348
 20
-87.9259553294
 11
299.6567742348
 21
-87.9259553294
  0
LINE
  8
5
  6
CONTINUOUS
 62
6
 10
309.6567742348
 20
-95.4259553294
 11
309.6567742348
 21
-90.4259553294
  0
LINE
  8
5
  6
CONTINUOUS
 62
6
 10
309.6567742348
 20
-90.4259553294
 11
314.6567742348
 21
-90.4259553294
  0
LINE
  8
5
  6
CONTINUOUS
 62
6
 10
314.6567742348
 20
-90.4259553294
 11
334.6567742348
 21
-90.4259553294
  0
LINE
  8
5
  6
CONTINUOUS
 62
6
 10
334.6567742348
 20
-90.4259553294
 11
374.6567742348
 21
-90.4259553294
  0
LINE
  8
5
  6
CONTINUOUS
 62
6
 10
374.6567742348
 20
-90.4259553294
 11
389.6567742348
 21
-90.4259553294
  0
LINE
  8
5
  6
CONTINUOUS
 62
6
 10
389.6567742348
 20
-90.4259553294
 11
394.6567742348
 21
-90.4259553294
  0
LINE
  8
5
  6
CONTINUOUS
 62
6
 10
394.6567742348
 20
-90.4259553294
 11
394.6567742348
 21
-95.4259553294
  0
LINE
  8
5
  6
CONTINUOUS
 62
6
 10
394.6567742348
 20
-95.4259553294
 11
389.6567742348
 21
-95.4259553294
  0
LINE
  8
5
  6
CONTINUOUS
 62
6
 10
389.6567742348
 20
-95.4259553294
 11
374.6567742348
 21
-95.4259553294
  0
LINE
  8
5
  6
CONTINUOUS
 62
6
 10
374.6567742348
 20
-95.4259553294
 11
334.6567742348
 21
-95.4259553294
  0
LINE
  8
5
  6
CONTINUOUS
 62
6
 10
334.6567742348
 20
-95.4259553294
 11
314.6567742348
 21
-95.4259553294
  0
LINE
  8
5
  6
CONTINUOUS
 62
6
 10
314.6567742348
 20
-95.4259553294
 11
309.6567742348
 21
-95.4259553294
  0
LINE
  8
5
  6
CONTINUOUS
 62
6
 10
314.6567742348
 20
-90.4259553294
 11
314.6567742348
 21
-95.4259553294
  0
LINE
  8
5
  6
CONTINUOUS
 62
6
 10
334.6567742348
 20
-90.4259553294
 11
334.6567742348
 21
-95.4259553294
  0
LINE
  8
5
  6
CONTINUOUS
 62
6
 10
374.6567742348
 20
-90.4259553294
 11
374.6567742348
 21
-95.4259553294
  0
LINE
  8
5
  6
CONTINUOUS
 62
6
 10
389.6567742348
 20
-90.4259553294
 11
389.6567742348
 21
-95.4259553294
  0
TEXT
  8
5
  6
CONTINUOUS
 62
7
 10
309.856774
 20
-94.075955
 40
2.300000
  1
項番
 41
0.921659
 50
0.000000
 51
0.000000
 72
   5
 73
   0
 11
314.456774
 21
-94.075955
  0
TEXT
  8
5
  6
CONTINUOUS
 62
7
 10
319.664774
 20
-94.425955
 40
3.000000
  1
品　　名
 41
0.737916
 50
0.000000
 51
0.000000
 72
   5
 73
   0
 11
329.648774
 21
-94.425955
  0
TEXT
  8
5
  6
CONTINUOUS
 62
7
 10
339.503774
 20
-94.425955
 40
3.000000
  1
定  格 / 型  番 / 材　質
 41
0.686277
 50
0.000000
 51
0.000000
 72
   5
 73
   0
 11
369.809774
 21
-94.425955
  0
TEXT
  8
5
  6
CONTINUOUS
 62
7
 10
376.959274
 20
-94.425955
 40
3.000000
  1
メーカー
 41
0.768293
 50
0.000000
 51
0.000000
 72
   5
 73
   0
 11
387.354274
 21
-94.425955
  0
TEXT
  8
5
  6
CONTINUOUS
 62
7
 10
389.856774
 20
-94.075955
 40
2.300000
  1
数量
 41
0.921659
 50
0.000000
 51
0.000000
 72
   5
 73
   0
 11
394.456774
 21
-94.075955
  0
LINE
  8
5
  6
CONTINUOUS
 62
6
 10
309.6567742348
 20
-100.4259553294
 11
309.6567742348
 21
-95.4259553294
  0
LINE
  8
5
  6
CONTINUOUS
 62
6
 10
309.6567742348
 20
-95.4259553294
 11
314.6567742348
 21
-95.4259553294
  0
LINE
  8
5
  6
CONTINUOUS
 62
6
 10
314.6567742348
 20
-95.4259553294
 11
334.6567742348
 21
-95.4259553294
  0
LINE
  8
5
  6
CONTINUOUS
 62
6
 10
334.6567742348
 20
-95.4259553294
 11
374.6567742348
 21
-95.4259553294
  0
LINE
  8
5
  6
CONTINUOUS
 62
6
 10
374.6567742348
 20
-95.4259553294
 11
389.6567742348
 21
-95.4259553294
  0
LINE
  8
5
  6
CONTINUOUS
 62
6
 10
389.6567742348
 20
-95.4259553294
 11
394.6567742348
 21
-95.4259553294
  0
LINE
  8
5
  6
CONTINUOUS
 62
6
 10
394.6567742348
 20
-95.4259553294
 11
394.6567742348
 21
-100.4259553294
  0
LINE
  8
5
  6
CONTINUOUS
 62
6
 10
394.6567742348
 20
-100.4259553294
 11
389.6567742348
 21
-100.4259553294
  0
LINE
  8
5
  6
CONTINUOUS
 62
6
 10
389.6567742348
 20
-100.4259553294
 11
374.6567742348
 21
-100.4259553294
  0
LINE
  8
5
  6
CONTINUOUS
 62
6
 10
374.6567742348
 20
-100.4259553294
 11
334.6567742348
 21
-100.4259553294
  0
LINE
  8
5
  6
CONTINUOUS
 62
6
 10
334.6567742348
 20
-100.4259553294
 11
314.6567742348
 21
-100.4259553294
  0
LINE
  8
5
  6
CONTINUOUS
 62
6
 10
314.6567742348
 20
-100.4259553294
 11
309.6567742348
 21
-100.4259553294
  0
LINE
  8
5
  6
CONTINUOUS
 62
6
 10
314.6567742348
 20
-95.4259553294
 11
314.6567742348
 21
-100.4259553294
  0
LINE
  8
5
  6
CONTINUOUS
 62
6
 10
334.6567742348
 20
-95.4259553294
 11
334.6567742348
 21
-100.4259553294
  0
LINE
  8
5
  6
CONTINUOUS
 62
6
 10
374.6567742348
 20
-95.4259553294
 11
374.6567742348
 21
-100.4259553294
  0
LINE
  8
5
  6
CONTINUOUS
 62
6
 10
389.6567742348
 20
-95.4259553294
 11
389.6567742348
 21
-100.4259553294
  0
TEXT
  8
5
  6
CONTINUOUS
 62
7
 10
310.656774
 20
-99.425955
 40
3.000000
  1
93
 41
0.854701
 50
0.000000
 51
0.000000
 72
   5
 73
   0
 11
313.656774
 21
-99.425955
  0
TEXT
  8
5
  6
CONTINUOUS
 62
7
 10
315.656774
 20
-99.425955
 40
3.000000
  1
ACｱｳﾄﾚｯﾄ
 41
0.872254
 50
0.000000
 51
0.000000
 72
   5
 73
   0
 11
329.237774
 21
-99.425955
  0
TEXT
  8
5
  6
CONTINUOUS
 62
7
 10
335.656774
 20
-99.925955
 40
4.000000
  1
7117GZ-IV
 41
0.767918
 50
0.000000
 51
0.000000
 72
   5
 73
   0
 11
353.656774
 21
-99.925955
  0
TEXT
  8
5
  6
CONTINUOUS
 62
7
 10
391.281774
 20
-99.675955
 40
3.500000
  1
1
 41
1.000000
 50
0.000000
 51
0.000000
 72
   5
 73
   0
 11
393.031774
 21
-99.675955
  0
LINE
  8
5
  6
CONTINUOUS
 62
6
 10
394.6567742348
 20
-105.4259553294
 11
389.6567742348
 21
-105.4259553294
  0
LINE
  8
5
  6
CONTINUOUS
 62
6
 10
389.6567742348
 20
-105.4259553294
 11
374.6567742348
 21
-105.4259553294
  0
LINE
  8
5
  6
CONTINUOUS
 62
6
 10
374.6567742348
 20
-105.4259553294
 11
334.6567742348
 21
-105.4259553294
  0
LINE
  8
5
  6
CONTINUOUS
 62
6
 10
334.6567742348
 20
-105.4259553294
 11
314.6567742348
 21
-105.4259553294
  0
LINE
  8
5
  6
CONTINUOUS
 62
6
 10
314.6567742348
 20
-105.4259553294
 11
309.6567742348
 21
-105.4259553294
  0
TEXT
  8
5
  6
CONTINUOUS
 62
7
 10
310.656774
 20
-109.425955
 40
3.000000
  1
--
 41
0.854701
 50
0.000000
 51
0.000000
 72
   5
 73
   0
 11
313.656774
 21
-109.425955
  0
LINE
  8
5
  6
CONTINUOUS
 62
6
 10
309.6567742348
 20
-105.4259553294
 11
309.6567742348
 21
-100.4259553294
  0
LINE
  8
5
  6
CONTINUOUS
 62
6
 10
309.6567742348
 20
-110.4259553294
 11
309.6567742348
 21
-105.4259553294
  0
LINE
  8
5
  6
CONTINUOUS
 62
6
 10
314.6567742348
 20
-100.4259553294
 11
314.6567742348
 21
-105.4259553294
  0
LINE
  8
5
  6
CONTINUOUS
 62
6
 10
314.6567742348
 20
-105.4259553294
 11
314.6567742348
 21
-110.4259553294
  0
LINE
  8
5
  6
CONTINUOUS
 62
6
 10
334.6567742348
 20
-100.4259553294
 11
334.6567742348
 21
-105.4259553294
  0
LINE
  8
5
  6
CONTINUOUS
 62
6
 10
334.6567742348
 20
-105.4259553294
 11
334.6567742348
 21
-110.4259553294
  0
LINE
  8
5
  6
CONTINUOUS
 62
6
 10
374.6567742348
 20
-100.4259553294
 11
374.6567742348
 21
-105.4259553294
  0
LINE
  8
5
  6
CONTINUOUS
 62
6
 10
374.6567742348
 20
-105.4259553294
 11
374.6567742348
 21
-110.4259553294
  0
LINE
  8
5
  6
CONTINUOUS
 62
6
 10
389.6567742348
 20
-100.4259553294
 11
389.6567742348
 21
-105.4259553294
  0
LINE
  8
5
  6
CONTINUOUS
 62
6
 10
389.6567742348
 20
-105.4259553294
 11
389.6567742348
 21
-110.4259553294
  0
LINE
  8
5
  6
CONTINUOUS
 62
6
 10
394.6567742348
 20
-100.4259553294
 11
394.6567742348
 21
-105.4259553294
  0
LINE
  8
5
  6
CONTINUOUS
 62
6
 10
394.6567742348
 20
-105.4259553294
 11
394.6567742348
 21
-110.4259553294
  0
LINE
  8
5
  6
CONTINUOUS
 62
6
 10
299.6567742348
 20
-95.4259553294
 11
299.6567742348
 21
-90.4259553294
  0
LINE
  8
5
  6
CONTINUOUS
 62
6
 10
299.6567742348
 20
-90.4259553294
 11
309.6567742348
 21
-90.4259553294
  0
LINE
  8
5
  6
CONTINUOUS
 62
6
 10
309.6567742348
 20
-95.4259553294
 11
304.6567742348
 21
-95.4259553294
  0
LINE
  8
5
  6
CONTINUOUS
 62
6
 10
309.6567742348
 20
-90.4259553294
 11
309.6567742348
 21
-95.4259553294
  0
TEXT
  8
5
  6
CONTINUOUS
 62
7
 10
302.194993
 20
-94.425955
 40
3.000000
  1
型番
 41
0.921659
 50
0.000000
 51
0.000000
 72
   5
 73
   0
 11
308.194993
 21
-94.425955
  0
LINE
  8
5
  6
CONTINUOUS
 62
6
 10
299.6567742348
 20
-100.4259553294
 11
299.6567742348
 21
-95.4259553294
  0
LINE
  8
5
  6
CONTINUOUS
 62
6
 10
299.6567742348
 20
-95.4259553294
 11
309.6567742348
 21
-95.4259553294
  0
LINE
  8
5
  6
CONTINUOUS
 62
6
 10
309.6567742348
 20
-95.4259553294
 11
309.6567742348
 21
-100.4259553294
  0
TEXT
  8
5
  6
CONTINUOUS
 62
7
 10
302.928993
 20
-99.925955
 40
4.000000
  1
A1
 41
0.968376
 50
0.000000
 51
0.000000
 72
   5
 73
   0
 11
307.460993
 21
-99.925955
  0
LINE
  8
5
  6
CONTINUOUS
 62
6
 10
299.6567742348
 20
-105.4259553294
 11
299.6567742348
 21
-100.4259553294
  0
LINE
  8
5
  6
CONTINUOUS
 62
6
 10
299.6567742348
 20
-110.4259553294
 11
299.6567742348
 21
-105.4259553294
  0
LINE
  8
5
  6
CONTINUOUS
 62
6
 10
309.6567742348
 20
-100.4259553294
 11
309.6567742348
 21
-105.4259553294
  0
LINE
  8
5
  6
CONTINUOUS
 62
6
 10
309.6567742348
 20
-105.4259553294
 11
309.6567742348
 21
-110.4259553294
  0
LINE
  8
5
  6
CONTINUOUS
 62
6
 10
394.6567742348
 20
-110.4259553294
 11
389.6567742348
 21
-110.4259553294
  0
LINE
  8
5
  6
CONTINUOUS
 62
6
 10
389.6567742348
 20
-110.4259553294
 11
374.6567742348
 21
-110.4259553294
  0
LINE
  8
5
  6
CONTINUOUS
 62
6
 10
374.6567742348
 20
-110.4259553294
 11
334.6567742348
 21
-110.4259553294
  0
LINE
  8
5
  6
CONTINUOUS
 62
6
 10
334.6567742348
 20
-110.4259553294
 11
314.6567742348
 21
-110.4259553294
  0
LINE
  8
5
  6
CONTINUOUS
 62
6
 10
314.6567742348
 20
-110.4259553294
 11
309.6567742348
 21
-110.4259553294
  0
LINE
  8
5
  6
CONTINUOUS
 62
6
 10
309.6567742348
 20
-110.4259553294
 11
299.6567742348
 21
-110.4259553294
  0
TEXT
  8
5
  6
CONTINUOUS
 62
7
 10
375.656774
 20
-76.925955
 40
3.000000
  1
ｱﾒﾘｶﾝ電機
 41
0.862681
 50
0.000000
 51
0.000000
 72
   5
 73
   0
 11
389.942774
 21
-76.925955
  0
TEXT
  8
5
  6
CONTINUOUS
 62
7
 10
375.656774
 20
-99.425955
 40
3.000000
  1
ｱﾒﾘｶﾝ電機
 41
0.862681
 50
0.000000
 51
0.000000
 72
   5
 73
   0
 11
389.942774
 21
-99.425955
  0
LINE
  8
5
  6
CONTINUOUS
 62
6
 10
309.6567742348
 20
-154.3107273405
 11
309.6567742348
 21
-149.3107273405
  0
LINE
  8
5
  6
CONTINUOUS
 62
6
 10
309.6567742348
 20
-149.3107273405
 11
314.6567742348
 21
-149.3107273405
  0
LINE
  8
5
  6
CONTINUOUS
 62
6
 10
314.6567742348
 20
-149.3107273405
 11
334.6567742348
 21
-149.3107273405
  0
LINE
  8
5
  6
CONTINUOUS
 62
6
 10
334.6567742348
 20
-149.3107273405
 11
374.6567742348
 21
-149.3107273405
  0
LINE
  8
5
  6
CONTINUOUS
 62
6
 10
374.6567742348
 20
-149.3107273405
 11
389.6567742348
 21
-149.3107273405
  0
LINE
  8
5
  6
CONTINUOUS
 62
6
 10
389.6567742348
 20
-149.3107273405
 11
394.6567742348
 21
-149.3107273405
  0
LINE
  8
5
  6
CONTINUOUS
 62
6
 10
394.6567742348
 20
-149.3107273405
 11
394.6567742348
 21
-154.3107273405
  0
LINE
  8
5
  6
CONTINUOUS
 62
6
 10
394.6567742348
 20
-154.3107273405
 11
389.6567742348
 21
-154.3107273405
  0
LINE
  8
5
  6
CONTINUOUS
 62
6
 10
389.6567742348
 20
-154.3107273405
 11
374.6567742348
 21
-154.3107273405
  0
LINE
  8
5
  6
CONTINUOUS
 62
6
 10
374.6567742348
 20
-154.3107273405
 11
334.6567742348
 21
-154.3107273405
  0
LINE
  8
5
  6
CONTINUOUS
 62
6
 10
334.6567742348
 20
-154.3107273405
 11
314.6567742348
 21
-154.3107273405
  0
LINE
  8
5
  6
CONTINUOUS
 62
6
 10
314.6567742348
 20
-154.3107273405
 11
309.6567742348
 21
-154.3107273405
  0
LINE
  8
5
  6
CONTINUOUS
 62
6
 10
314.6567742348
 20
-149.3107273405
 11
314.6567742348
 21
-154.3107273405
  0
LINE
  8
5
  6
CONTINUOUS
 62
6
 10
334.6567742348
 20
-149.3107273405
 11
334.6567742348
 21
-154.3107273405
  0
LINE
  8
5
  6
CONTINUOUS
 62
6
 10
374.6567742348
 20
-149.3107273405
 11
374.6567742348
 21
-154.3107273405
  0
LINE
  8
5
  6
CONTINUOUS
 62
6
 10
389.6567742348
 20
-149.3107273405
 11
389.6567742348
 21
-154.3107273405
  0
TEXT
  8
5
  6
CONTINUOUS
 62
7
 10
309.856774
 20
-152.960727
 40
2.300000
  1
項番
 41
0.921659
 50
0.000000
 51
0.000000
 72
   5
 73
   0
 11
314.456774
 21
-152.960727
  0
TEXT
  8
5
  6
CONTINUOUS
 62
7
 10
319.664774
 20
-153.310727
 40
3.000000
  1
品　　名
 41
0.737916
 50
0.000000
 51
0.000000
 72
   5
 73
   0
 11
329.648774
 21
-153.310727
  0
TEXT
  8
5
  6
CONTINUOUS
 62
7
 10
339.503774
 20
-153.310727
 40
3.000000
  1
定  格 / 型  番 / 材　質
 41
0.686277
 50
0.000000
 51
0.000000
 72
   5
 73
   0
 11
369.809774
 21
-153.310727
  0
TEXT
  8
5
  6
CONTINUOUS
 62
7
 10
376.959274
 20
-153.310727
 40
3.000000
  1
メーカー
 41
0.768293
 50
0.000000
 51
0.000000
 72
   5
 73
   0
 11
387.354274
 21
-153.310727
  0
TEXT
  8
5
  6
CONTINUOUS
 62
7
 10
389.856774
 20
-152.960727
 40
2.300000
  1
数量
 41
0.921659
 50
0.000000
 51
0.000000
 72
   5
 73
   0
 11
394.456774
 21
-152.960727
  0
LINE
  8
5
  6
CONTINUOUS
 62
6
 10
309.6567742348
 20
-159.3107273405
 11
309.6567742348
 21
-154.3107273405
  0
LINE
  8
5
  6
CONTINUOUS
 62
6
 10
309.6567742348
 20
-154.3107273405
 11
314.6567742348
 21
-154.3107273405
  0
LINE
  8
5
  6
CONTINUOUS
 62
6
 10
314.6567742348
 20
-154.3107273405
 11
334.6567742348
 21
-154.3107273405
  0
LINE
  8
5
  6
CONTINUOUS
 62
6
 10
334.6567742348
 20
-154.3107273405
 11
374.6567742348
 21
-154.3107273405
  0
LINE
  8
5
  6
CONTINUOUS
 62
6
 10
374.6567742348
 20
-154.3107273405
 11
389.6567742348
 21
-154.3107273405
  0
LINE
  8
5
  6
CONTINUOUS
 62
6
 10
389.6567742348
 20
-154.3107273405
 11
394.6567742348
 21
-154.3107273405
  0
LINE
  8
5
  6
CONTINUOUS
 62
6
 10
394.6567742348
 20
-154.3107273405
 11
394.6567742348
 21
-159.3107273405
  0
LINE
  8
5
  6
CONTINUOUS
 62
6
 10
394.6567742348
 20
-159.3107273405
 11
389.6567742348
 21
-159.3107273405
  0
LINE
  8
5
  6
CONTINUOUS
 62
6
 10
389.6567742348
 20
-159.3107273405
 11
374.6567742348
 21
-159.3107273405
  0
LINE
  8
5
  6
CONTINUOUS
 62
6
 10
374.6567742348
 20
-159.3107273405
 11
334.6567742348
 21
-159.3107273405
  0
LINE
  8
5
  6
CONTINUOUS
 62
6
 10
334.6567742348
 20
-159.3107273405
 11
314.6567742348
 21
-159.3107273405
  0
LINE
  8
5
  6
CONTINUOUS
 62
6
 10
314.6567742348
 20
-159.3107273405
 11
309.6567742348
 21
-159.3107273405
  0
LINE
  8
5
  6
CONTINUOUS
 62
6
 10
314.6567742348
 20
-154.3107273405
 11
314.6567742348
 21
-159.3107273405
  0
LINE
  8
5
  6
CONTINUOUS
 62
6
 10
334.6567742348
 20
-154.3107273405
 11
334.6567742348
 21
-159.3107273405
  0
LINE
  8
5
  6
CONTINUOUS
 62
6
 10
374.6567742348
 20
-154.3107273405
 11
374.6567742348
 21
-159.3107273405
  0
LINE
  8
5
  6
CONTINUOUS
 62
6
 10
389.6567742348
 20
-154.3107273405
 11
389.6567742348
 21
-159.3107273405
  0
TEXT
  8
5
  6
CONTINUOUS
 62
7
 10
309.906774
 20
-158.310727
 40
3.000000
  1
101
 41
0.815217
 50
0.000000
 51
0.000000
 72
   5
 73
   0
 11
314.406774
 21
-158.310727
  0
TEXT
  8
5
  6
CONTINUOUS
 62
7
 10
315.656774
 20
-158.310727
 40
3.000000
  1
ﾌﾞﾗﾝｸﾍﾞｾﾞﾙ
 41
0.745942
 50
0.000000
 51
0.000000
 72
   5
 73
   0
 11
330.269774
 21
-158.310727
  0
TEXT
  8
5
  6
CONTINUOUS
 62
7
 10
335.656774
 20
-158.810727
 40
4.000000
  1
NW073-FBK-IV
 41
0.762389
 50
0.000000
 51
0.000000
 72
   5
 73
   0
 11
359.656774
 21
-158.810727
  0
TEXT
  8
5
  6
CONTINUOUS
 62
7
 10
391.281774
 20
-158.560727
 40
3.500000
  1
1
 41
1.000000
 50
0.000000
 51
0.000000
 72
   5
 73
   0
 11
393.031774
 21
-158.560727
  0
LINE
  8
5
  6
CONTINUOUS
 62
6
 10
394.6567742348
 20
-164.3107273405
 11
389.6567742348
 21
-164.3107273405
  0
LINE
  8
5
  6
CONTINUOUS
 62
6
 10
389.6567742348
 20
-164.3107273405
 11
374.6567742348
 21
-164.3107273405
  0
LINE
  8
5
  6
CONTINUOUS
 62
6
 10
374.6567742348
 20
-164.3107273405
 11
334.6567742348
 21
-164.3107273405
  0
LINE
  8
5
  6
CONTINUOUS
 62
6
 10
334.6567742348
 20
-164.3107273405
 11
314.6567742348
 21
-164.3107273405
  0
LINE
  8
5
  6
CONTINUOUS
 62
6
 10
314.6567742348
 20
-164.3107273405
 11
309.6567742348
 21
-164.3107273405
  0
TEXT
  8
5
  6
CONTINUOUS
 62
7
 10
310.656774
 20
-163.310727
 40
3.000000
  1
--
 41
0.854701
 50
0.000000
 51
0.000000
 72
   5
 73
   0
 11
313.656774
 21
-163.310727
  0
TEXT
  8
5
  6
CONTINUOUS
 62
7
 10
310.656774
 20
-168.310727
 40
3.000000
  1
--
 41
0.854701
 50
0.000000
 51
0.000000
 72
   5
 73
   0
 11
313.656774
 21
-168.310727
  0
TEXT
  8
5
  6
CONTINUOUS
 62
7
 10
315.656774
 20
-163.060727
 40
2.500000
  1
--
 41
0.854701
 50
0.000000
 51
0.000000
 72
   5
 73
   0
 11
318.156774
 21
-163.060727
  0
TEXT
  8
5
  6
CONTINUOUS
 62
7
 10
315.656774
 20
-168.310727
 40
3.000000
  1
--
 41
0.854701
 50
0.000000
 51
0.000000
 72
   5
 73
   0
 11
318.656774
 21
-168.310727
  0
TEXT
  8
5
  6
CONTINUOUS
 62
7
 10
335.656774
 20
-168.310727
 40
3.000000
  1
--
 41
0.854701
 50
0.000000
 51
0.000000
 72
   5
 73
   0
 11
338.656774
 21
-168.310727
  0
TEXT
  8
5
  6
CONTINUOUS
 62
7
 10
390.406774
 20
-163.560727
 40
3.500000
  1
--
 41
0.854701
 50
0.000000
 51
0.000000
 72
   5
 73
   0
 11
393.906774
 21
-163.560727
  0
TEXT
  8
5
  6
CONTINUOUS
 62
7
 10
390.406774
 20
-168.560727
 40
3.500000
  1
--
 41
0.854701
 50
0.000000
 51
0.000000
 72
   5
 73
   0
 11
393.906774
 21
-168.560727
  0
LINE
  8
5
  6
CONTINUOUS
 62
6
 10
309.6567742348
 20
-164.3107273405
 11
309.6567742348
 21
-159.3107273405
  0
LINE
  8
5
  6
CONTINUOUS
 62
6
 10
309.6567742348
 20
-169.3107273405
 11
309.6567742348
 21
-164.3107273405
  0
LINE
  8
5
  6
CONTINUOUS
 62
6
 10
314.6567742348
 20
-159.3107273405
 11
314.6567742348
 21
-164.3107273405
  0
LINE
  8
5
  6
CONTINUOUS
 62
6
 10
314.6567742348
 20
-164.3107273405
 11
314.6567742348
 21
-169.3107273405
  0
LINE
  8
5
  6
CONTINUOUS
 62
6
 10
334.6567742348
 20
-159.3107273405
 11
334.6567742348
 21
-164.3107273405
  0
LINE
  8
5
  6
CONTINUOUS
 62
6
 10
334.6567742348
 20
-164.3107273405
 11
334.6567742348
 21
-169.3107273405
  0
LINE
  8
5
  6
CONTINUOUS
 62
6
 10
374.6567742348
 20
-159.3107273405
 11
374.6567742348
 21
-164.3107273405
  0
LINE
  8
5
  6
CONTINUOUS
 62
6
 10
374.6567742348
 20
-164.3107273405
 11
374.6567742348
 21
-169.3107273405
  0
LINE
  8
5
  6
CONTINUOUS
 62
6
 10
389.6567742348
 20
-159.3107273405
 11
389.6567742348
 21
-164.3107273405
  0
LINE
  8
5
  6
CONTINUOUS
 62
6
 10
389.6567742348
 20
-164.3107273405
 11
389.6567742348
 21
-169.3107273405
  0
LINE
  8
5
  6
CONTINUOUS
 62
6
 10
394.6567742348
 20
-159.3107273405
 11
394.6567742348
 21
-164.3107273405
  0
LINE
  8
5
  6
CONTINUOUS
 62
6
 10
394.6567742348
 20
-164.3107273405
 11
394.6567742348
 21
-169.3107273405
  0
TEXT
  8
5
  6
CONTINUOUS
 62
7
 10
335.656774
 20
-163.810727
 40
4.000000
  1
--
 41
0.854701
 50
0.000000
 51
0.000000
 72
   5
 73
   0
 11
339.656774
 21
-163.810727
  0
LINE
  8
5
  6
CONTINUOUS
 62
6
 10
299.6567742348
 20
-154.3107273405
 11
299.6567742348
 21
-149.3107273406
  0
LINE
  8
5
  6
CONTINUOUS
 62
6
 10
299.6567742348
 20
-149.3107273406
 11
309.6567742348
 21
-149.3107273405
  0
LINE
  8
5
  6
CONTINUOUS
 62
6
 10
309.6567742348
 20
-154.3107273405
 11
304.6567742348
 21
-154.3107273405
  0
LINE
  8
5
  6
CONTINUOUS
 62
6
 10
309.6567742348
 20
-149.3107273405
 11
309.6567742348
 21
-154.3107273405
  0
TEXT
  8
5
  6
CONTINUOUS
 62
7
 10
302.194993
 20
-153.310727
 40
3.000000
  1
型番
 41
0.921659
 50
0.000000
 51
0.000000
 72
   5
 73
   0
 11
308.194993
 21
-153.310727
  0
LINE
  8
5
  6
CONTINUOUS
 62
6
 10
299.6567742348
 20
-159.3107273405
 11
299.6567742348
 21
-154.3107273405
  0
LINE
  8
5
  6
CONTINUOUS
 62
6
 10
299.6567742348
 20
-154.3107273405
 11
309.6567742348
 21
-154.3107273405
  0
LINE
  8
5
  6
CONTINUOUS
 62
6
 10
309.6567742348
 20
-154.3107273405
 11
309.6567742348
 21
-159.3107273405
  0
TEXT
  8
5
  6
CONTINUOUS
 62
7
 10
302.944993
 20
-158.810727
 40
4.000000
  1
R0
 41
0.961538
 50
0.000000
 51
0.000000
 72
   5
 73
   0
 11
307.444993
 21
-158.810727
  0
LINE
  8
5
  6
CONTINUOUS
 62
6
 10
299.6567742348
 20
-164.3107273405
 11
299.6567742348
 21
-159.3107273405
  0
LINE
  8
5
  6
CONTINUOUS
 62
6
 10
299.6567742348
 20
-169.3107273405
 11
299.6567742348
 21
-164.3107273405
  0
LINE
  8
5
  6
CONTINUOUS
 62
6
 10
309.6567742348
 20
-159.3107273405
 11
309.6567742348
 21
-164.3107273405
  0
LINE
  8
5
  6
CONTINUOUS
 62
6
 10
309.6567742348
 20
-164.3107273405
 11
309.6567742348
 21
-169.3107273405
  0
LINE
  8
5
  6
CONTINUOUS
 62
6
 10
394.6567742348
 20
-169.3107273405
 11
389.6567742348
 21
-169.3107273405
  0
LINE
  8
5
  6
CONTINUOUS
 62
6
 10
389.6567742348
 20
-169.3107273405
 11
374.6567742348
 21
-169.3107273405
  0
LINE
  8
5
  6
CONTINUOUS
 62
6
 10
374.6567742348
 20
-169.3107273405
 11
334.6567742348
 21
-169.3107273405
  0
LINE
  8
5
  6
CONTINUOUS
 62
6
 10
334.6567742348
 20
-169.3107273405
 11
314.6567742348
 21
-169.3107273405
  0
LINE
  8
5
  6
CONTINUOUS
 62
6
 10
314.6567742348
 20
-169.3107273405
 11
309.6567742348
 21
-169.3107273405
  0
LINE
  8
5
  6
CONTINUOUS
 62
6
 10
309.6567742348
 20
-169.3107273405
 11
299.6567742348
 21
-169.3107273405
  0
LINE
  8
5
  6
CONTINUOUS
 62
6
 10
309.6567742348
 20
-176.8107273405
 11
309.6567742348
 21
-171.8107273405
  0
LINE
  8
5
  6
CONTINUOUS
 62
6
 10
309.6567742348
 20
-171.8107273405
 11
314.6567742348
 21
-171.8107273405
  0
LINE
  8
5
  6
CONTINUOUS
 62
6
 10
314.6567742348
 20
-171.8107273405
 11
334.6567742348
 21
-171.8107273405
  0
LINE
  8
5
  6
CONTINUOUS
 62
6
 10
334.6567742348
 20
-171.8107273405
 11
374.6567742348
 21
-171.8107273405
  0
LINE
  8
5
  6
CONTINUOUS
 62
6
 10
374.6567742348
 20
-171.8107273405
 11
389.6567742348
 21
-171.8107273405
  0
LINE
  8
5
  6
CONTINUOUS
 62
6
 10
389.6567742348
 20
-171.8107273405
 11
394.6567742348
 21
-171.8107273405
  0
LINE
  8
5
  6
CONTINUOUS
 62
6
 10
394.6567742348
 20
-171.8107273405
 11
394.6567742348
 21
-176.8107273405
  0
LINE
  8
5
  6
CONTINUOUS
 62
6
 10
394.6567742348
 20
-176.8107273405
 11
389.6567742348
 21
-176.8107273405
  0
LINE
  8
5
  6
CONTINUOUS
 62
6
 10
389.6567742348
 20
-176.8107273405
 11
374.6567742348
 21
-176.8107273405
  0
LINE
  8
5
  6
CONTINUOUS
 62
6
 10
374.6567742348
 20
-176.8107273405
 11
334.6567742348
 21
-176.8107273405
  0
LINE
  8
5
  6
CONTINUOUS
 62
6
 10
334.6567742348
 20
-176.8107273405
 11
314.6567742348
 21
-176.8107273405
  0
LINE
  8
5
  6
CONTINUOUS
 62
6
 10
314.6567742348
 20
-176.8107273405
 11
309.6567742348
 21
-176.8107273405
  0
LINE
  8
5
  6
CONTINUOUS
 62
6
 10
314.6567742348
 20
-171.8107273405
 11
314.6567742348
 21
-176.8107273405
  0
LINE
  8
5
  6
CONTINUOUS
 62
6
 10
334.6567742348
 20
-171.8107273405
 11
334.6567742348
 21
-176.8107273405
  0
LINE
  8
5
  6
CONTINUOUS
 62
6
 10
374.6567742348
 20
-171.8107273405
 11
374.6567742348
 21
-176.8107273405
  0
LINE
  8
5
  6
CONTINUOUS
 62
6
 10
389.6567742348
 20
-171.8107273405
 11
389.6567742348
 21
-176.8107273405
  0
TEXT
  8
5
  6
CONTINUOUS
 62
7
 10
309.856774
 20
-175.460727
 40
2.300000
  1
項番
 41
0.921659
 50
0.000000
 51
0.000000
 72
   5
 73
   0
 11
314.456774
 21
-175.460727
  0
TEXT
  8
5
  6
CONTINUOUS
 62
7
 10
319.664774
 20
-175.810727
 40
3.000000
  1
品　　名
 41
0.737916
 50
0.000000
 51
0.000000
 72
   5
 73
   0
 11
329.648774
 21
-175.810727
  0
TEXT
  8
5
  6
CONTINUOUS
 62
7
 10
339.503774
 20
-175.810727
 40
3.000000
  1
定  格 / 型  番 / 材　質
 41
0.686277
 50
0.000000
 51
0.000000
 72
   5
 73
   0
 11
369.809774
 21
-175.810727
  0
TEXT
  8
5
  6
CONTINUOUS
 62
7
 10
376.959274
 20
-175.810727
 40
3.000000
  1
メーカー
 41
0.768293
 50
0.000000
 51
0.000000
 72
   5
 73
   0
 11
387.354274
 21
-175.810727
  0
TEXT
  8
5
  6
CONTINUOUS
 62
7
 10
389.856774
 20
-175.460727
 40
2.300000
  1
数量
 41
0.921659
 50
0.000000
 51
0.000000
 72
   5
 73
   0
 11
394.456774
 21
-175.460727
  0
LINE
  8
5
  6
CONTINUOUS
 62
6
 10
309.6567742348
 20
-181.8107273405
 11
309.6567742348
 21
-176.8107273405
  0
LINE
  8
5
  6
CONTINUOUS
 62
6
 10
309.6567742348
 20
-176.8107273405
 11
314.6567742348
 21
-176.8107273405
  0
LINE
  8
5
  6
CONTINUOUS
 62
6
 10
314.6567742348
 20
-176.8107273405
 11
334.6567742348
 21
-176.8107273405
  0
LINE
  8
5
  6
CONTINUOUS
 62
6
 10
334.6567742348
 20
-176.8107273405
 11
374.6567742348
 21
-176.8107273405
  0
LINE
  8
5
  6
CONTINUOUS
 62
6
 10
374.6567742348
 20
-176.8107273405
 11
389.6567742348
 21
-176.8107273405
  0
LINE
  8
5
  6
CONTINUOUS
 62
6
 10
389.6567742348
 20
-176.8107273405
 11
394.6567742348
 21
-176.8107273405
  0
LINE
  8
5
  6
CONTINUOUS
 62
6
 10
394.6567742348
 20
-176.8107273405
 11
394.6567742348
 21
-181.8107273405
  0
LINE
  8
5
  6
CONTINUOUS
 62
6
 10
394.6567742348
 20
-181.8107273405
 11
389.6567742348
 21
-181.8107273405
  0
LINE
  8
5
  6
CONTINUOUS
 62
6
 10
389.6567742348
 20
-181.8107273405
 11
374.6567742348
 21
-181.8107273405
  0
LINE
  8
5
  6
CONTINUOUS
 62
6
 10
374.6567742348
 20
-181.8107273405
 11
334.6567742348
 21
-181.8107273405
  0
LINE
  8
5
  6
CONTINUOUS
 62
6
 10
334.6567742348
 20
-181.8107273405
 11
314.6567742348
 21
-181.8107273405
  0
LINE
  8
5
  6
CONTINUOUS
 62
6
 10
314.6567742348
 20
-181.8107273405
 11
309.6567742348
 21
-181.8107273405
  0
LINE
  8
5
  6
CONTINUOUS
 62
6
 10
314.6567742348
 20
-176.8107273405
 11
314.6567742348
 21
-181.8107273405
  0
LINE
  8
5
  6
CONTINUOUS
 62
6
 10
334.6567742348
 20
-176.8107273405
 11
334.6567742348
 21
-181.8107273405
  0
LINE
  8
5
  6
CONTINUOUS
 62
6
 10
374.6567742348
 20
-176.8107273405
 11
374.6567742348
 21
-181.8107273405
  0
LINE
  8
5
  6
CONTINUOUS
 62
6
 10
389.6567742348
 20
-176.8107273405
 11
389.6567742348
 21
-181.8107273405
  0
TEXT
  8
5
  6
CONTINUOUS
 62
7
 10
309.906774
 20
-180.810727
 40
3.000000
  1
102
 41
0.815217
 50
0.000000
 51
0.000000
 72
   5
 73
   0
 11
314.406774
 21
-180.810727
  0
TEXT
  8
5
  6
CONTINUOUS
 62
7
 10
315.656774
 20
-180.810727
 40
3.000000
  1
ﾍﾞｾﾞﾙ
 41
0.759119
 50
0.000000
 51
0.000000
 72
   5
 73
   0
 11
322.898774
 21
-180.810727
  0
TEXT
  8
5
  6
CONTINUOUS
 62
7
 10
335.656774
 20
-181.310727
 40
4.000000
  1
NW073-FSM-IV
 41
0.762389
 50
0.000000
 51
0.000000
 72
   5
 73
   0
 11
359.656774
 21
-181.310727
  0
TEXT
  8
5
  6
CONTINUOUS
 62
7
 10
391.281774
 20
-181.060727
 40
3.500000
  1
1
 41
1.000000
 50
0.000000
 51
0.000000
 72
   5
 73
   0
 11
393.031774
 21
-181.060727
  0
LINE
  8
5
  6
CONTINUOUS
 62
6
 10
394.6567742348
 20
-186.8107273405
 11
389.6567742348
 21
-186.8107273405
  0
LINE
  8
5
  6
CONTINUOUS
 62
6
 10
389.6567742348
 20
-186.8107273405
 11
374.6567742348
 21
-186.8107273405
  0
LINE
  8
5
  6
CONTINUOUS
 62
6
 10
374.6567742348
 20
-186.8107273405
 11
334.6567742348
 21
-186.8107273405
  0
LINE
  8
5
  6
CONTINUOUS
 62
6
 10
334.6567742348
 20
-186.8107273405
 11
314.6567742348
 21
-186.8107273405
  0
LINE
  8
5
  6
CONTINUOUS
 62
6
 10
314.6567742348
 20
-186.8107273405
 11
309.6567742348
 21
-186.8107273405
  0
TEXT
  8
5
  6
CONTINUOUS
 62
7
 10
309.906774
 20
-185.810727
 40
3.000000
  1
103
 41
0.815217
 50
0.000000
 51
0.000000
 72
   5
 73
   0
 11
314.406774
 21
-185.810727
  0
TEXT
  8
5
  6
CONTINUOUS
 62
7
 10
310.656774
 20
-190.810727
 40
3.000000
  1
--
 41
0.854701
 50
0.000000
 51
0.000000
 72
   5
 73
   0
 11
313.656774
 21
-190.810727
  0
TEXT
  8
5
  6
CONTINUOUS
 62
7
 10
315.656774
 20
-185.560727
 40
2.500000
  1
RJ45(CAT6)
 41
0.790812
 50
0.000000
 51
0.000000
 72
   5
 73
   0
 11
328.566774
 21
-185.560727
  0
TEXT
  8
5
  6
CONTINUOUS
 62
7
 10
315.656774
 20
-190.810727
 40
3.000000
  1
--
 41
0.854701
 50
0.000000
 51
0.000000
 72
   5
 73
   0
 11
318.656774
 21
-190.810727
  0
TEXT
  8
5
  6
CONTINUOUS
 62
7
 10
335.656774
 20
-190.810727
 40
3.000000
  1
--
 41
0.854701
 50
0.000000
 51
0.000000
 72
   5
 73
   0
 11
338.656774
 21
-190.810727
  0
TEXT
  8
5
  6
CONTINUOUS
 62
7
 10
391.281774
 20
-186.060727
 40
3.500000
  1
1
 41
1.000000
 50
0.000000
 51
0.000000
 72
   5
 73
   0
 11
393.031774
 21
-186.060727
  0
TEXT
  8
5
  6
CONTINUOUS
 62
7
 10
390.406774
 20
-191.060727
 40
3.500000
  1
--
 41
0.854701
 50
0.000000
 51
0.000000
 72
   5
 73
   0
 11
393.906774
 21
-191.060727
  0
LINE
  8
5
  6
CONTINUOUS
 62
6
 10
309.6567742348
 20
-186.8107273405
 11
309.6567742348
 21
-181.8107273405
  0
LINE
  8
5
  6
CONTINUOUS
 62
6
 10
309.6567742348
 20
-191.8107273405
 11
309.6567742348
 21
-186.8107273405
  0
LINE
  8
5
  6
CONTINUOUS
 62
6
 10
314.6567742348
 20
-181.8107273405
 11
314.6567742348
 21
-186.8107273405
  0
LINE
  8
5
  6
CONTINUOUS
 62
6
 10
314.6567742348
 20
-186.8107273405
 11
314.6567742348
 21
-191.8107273405
  0
LINE
  8
5
  6
CONTINUOUS
 62
6
 10
334.6567742348
 20
-181.8107273405
 11
334.6567742348
 21
-186.8107273405
  0
LINE
  8
5
  6
CONTINUOUS
 62
6
 10
334.6567742348
 20
-186.8107273405
 11
334.6567742348
 21
-191.8107273405
  0
LINE
  8
5
  6
CONTINUOUS
 62
6
 10
374.6567742348
 20
-181.8107273405
 11
374.6567742348
 21
-186.8107273405
  0
LINE
  8
5
  6
CONTINUOUS
 62
6
 10
374.6567742348
 20
-186.8107273405
 11
374.6567742348
 21
-191.8107273405
  0
LINE
  8
5
  6
CONTINUOUS
 62
6
 10
389.6567742348
 20
-181.8107273405
 11
389.6567742348
 21
-186.8107273405
  0
LINE
  8
5
  6
CONTINUOUS
 62
6
 10
389.6567742348
 20
-186.8107273405
 11
389.6567742348
 21
-191.8107273405
  0
LINE
  8
5
  6
CONTINUOUS
 62
6
 10
394.6567742348
 20
-181.8107273405
 11
394.6567742348
 21
-186.8107273405
  0
LINE
  8
5
  6
CONTINUOUS
 62
6
 10
394.6567742348
 20
-186.8107273405
 11
394.6567742348
 21
-191.8107273405
  0
TEXT
  8
5
  6
CONTINUOUS
 62
7
 10
335.656774
 20
-186.310727
 40
4.000000
  1
NW080-88S-SI-C6-SH
 41
0.756939
 50
0.000000
 51
0.000000
 72
   5
 73
   0
 11
371.656774
 21
-186.310727
  0
LINE
  8
5
  6
CONTINUOUS
 62
6
 10
299.6567742348
 20
-176.8107273405
 11
299.6567742348
 21
-171.8107273405
  0
LINE
  8
5
  6
CONTINUOUS
 62
6
 10
299.6567742348
 20
-171.8107273405
 11
309.6567742348
 21
-171.8107273405
  0
LINE
  8
5
  6
CONTINUOUS
 62
6
 10
309.6567742348
 20
-176.8107273405
 11
304.6567742348
 21
-176.8107273405
  0
LINE
  8
5
  6
CONTINUOUS
 62
6
 10
309.6567742348
 20
-171.8107273405
 11
309.6567742348
 21
-176.8107273405
  0
TEXT
  8
5
  6
CONTINUOUS
 62
7
 10
302.194993
 20
-175.810727
 40
3.000000
  1
型番
 41
0.921659
 50
0.000000
 51
0.000000
 72
   5
 73
   0
 11
308.194993
 21
-175.810727
  0
LINE
  8
5
  6
CONTINUOUS
 62
6
 10
299.6567742348
 20
-181.8107273405
 11
299.6567742348
 21
-176.8107273405
  0
LINE
  8
5
  6
CONTINUOUS
 62
6
 10
299.6567742348
 20
-176.8107273405
 11
309.6567742348
 21
-176.8107273405
  0
LINE
  8
5
  6
CONTINUOUS
 62
6
 10
309.6567742348
 20
-176.8107273405
 11
309.6567742348
 21
-181.8107273405
  0
TEXT
  8
5
  6
CONTINUOUS
 62
7
 10
302.944993
 20
-181.310727
 40
4.000000
  1
R1
 41
0.961538
 50
0.000000
 51
0.000000
 72
   5
 73
   0
 11
307.444993
 21
-181.310727
  0
LINE
  8
5
  6
CONTINUOUS
 62
6
 10
299.6567742348
 20
-186.8107273405
 11
299.6567742348
 21
-181.8107273405
  0
LINE
  8
5
  6
CONTINUOUS
 62
6
 10
299.6567742348
 20
-191.8107273405
 11
299.6567742348
 21
-186.8107273405
  0
LINE
  8
5
  6
CONTINUOUS
 62
6
 10
309.6567742348
 20
-181.8107273405
 11
309.6567742348
 21
-186.8107273405
  0
LINE
  8
5
  6
CONTINUOUS
 62
6
 10
309.6567742348
 20
-186.8107273405
 11
309.6567742348
 21
-191.8107273405
  0
LINE
  8
5
  6
CONTINUOUS
 62
6
 10
394.6567742348
 20
-191.8107273405
 11
389.6567742348
 21
-191.8107273405
  0
LINE
  8
5
  6
CONTINUOUS
 62
6
 10
389.6567742348
 20
-191.8107273405
 11
374.6567742348
 21
-191.8107273405
  0
LINE
  8
5
  6
CONTINUOUS
 62
6
 10
374.6567742348
 20
-191.8107273405
 11
334.6567742348
 21
-191.8107273405
  0
LINE
  8
5
  6
CONTINUOUS
 62
6
 10
334.6567742348
 20
-191.8107273405
 11
314.6567742348
 21
-191.8107273405
  0
LINE
  8
5
  6
CONTINUOUS
 62
6
 10
314.6567742348
 20
-191.8107273405
 11
309.6567742348
 21
-191.8107273405
  0
LINE
  8
5
  6
CONTINUOUS
 62
6
 10
309.6567742348
 20
-191.8107273405
 11
299.6567742348
 21
-191.8107273405
  0
TEXT
  8
5
  6
CONTINUOUS
 62
7
 10
375.656774
 20
-158.310727
 40
3.000000
  1
MISUMI
 41
0.836104
 50
0.000000
 51
0.000000
 72
   5
 73
   0
 11
385.313774
 21
-158.310727
  0
TEXT
  8
5
  6
CONTINUOUS
 62
7
 10
375.656774
 20
-168.310727
 40
3.000000
  1
--
 41
0.854701
 50
0.000000
 51
0.000000
 72
   5
 73
   0
 11
378.656774
 21
-168.310727
  0
TEXT
  8
5
  6
CONTINUOUS
 62
7
 10
375.656774
 20
-180.810727
 40
3.000000
  1
MISUMI
 41
0.836104
 50
0.000000
 51
0.000000
 72
   5
 73
   0
 11
385.313774
 21
-180.810727
  0
TEXT
  8
5
  6
CONTINUOUS
 62
7
 10
375.656774
 20
-190.810727
 40
3.000000
  1
--
 41
0.854701
 50
0.000000
 51
0.000000
 72
   5
 73
   0
 11
378.656774
 21
-190.810727
  0
TEXT
  8
5
  6
CONTINUOUS
 62
7
 10
375.656774
 20
-163.310727
 40
3.000000
  1
--
 41
0.854701
 50
0.000000
 51
0.000000
 72
   5
 73
   0
 11
378.656774
 21
-163.310727
  0
TEXT
  8
5
  6
CONTINUOUS
 62
7
 10
375.656774
 20
-185.810727
 40
3.000000
  1
MISUMI
 41
0.836104
 50
0.000000
 51
0.000000
 72
   5
 73
   0
 11
385.313774
 21
-185.810727
  0
LINE
  8
5
  6
CONTINUOUS
 62
6
 10
309.6567742347
 20
-216.8107273403
 11
309.6567742347
 21
-211.8107273403
  0
LINE
  8
5
  6
CONTINUOUS
 62
6
 10
309.6567742347
 20
-211.8107273403
 11
314.6567742347
 21
-211.8107273403
  0
LINE
  8
5
  6
CONTINUOUS
 62
6
 10
314.6567742347
 20
-211.8107273403
 11
334.6567742347
 21
-211.8107273403
  0
LINE
  8
5
  6
CONTINUOUS
 62
6
 10
334.6567742347
 20
-211.8107273403
 11
374.6567742347
 21
-211.8107273403
  0
LINE
  8
5
  6
CONTINUOUS
 62
6
 10
374.6567742347
 20
-211.8107273403
 11
389.6567742347
 21
-211.8107273403
  0
LINE
  8
5
  6
CONTINUOUS
 62
6
 10
389.6567742347
 20
-211.8107273403
 11
394.6567742347
 21
-211.8107273403
  0
LINE
  8
5
  6
CONTINUOUS
 62
6
 10
394.6567742347
 20
-211.8107273403
 11
394.6567742347
 21
-216.8107273403
  0
LINE
  8
5
  6
CONTINUOUS
 62
6
 10
394.6567742347
 20
-216.8107273403
 11
389.6567742347
 21
-216.8107273403
  0
LINE
  8
5
  6
CONTINUOUS
 62
6
 10
389.6567742347
 20
-216.8107273403
 11
374.6567742347
 21
-216.8107273403
  0
LINE
  8
5
  6
CONTINUOUS
 62
6
 10
374.6567742347
 20
-216.8107273403
 11
334.6567742347
 21
-216.8107273403
  0
LINE
  8
5
  6
CONTINUOUS
 62
6
 10
334.6567742347
 20
-216.8107273403
 11
314.6567742347
 21
-216.8107273403
  0
LINE
  8
5
  6
CONTINUOUS
 62
6
 10
314.6567742347
 20
-216.8107273403
 11
309.6567742347
 21
-216.8107273403
  0
LINE
  8
5
  6
CONTINUOUS
 62
6
 10
314.6567742347
 20
-211.8107273403
 11
314.6567742347
 21
-216.8107273403
  0
LINE
  8
5
  6
CONTINUOUS
 62
6
 10
334.6567742347
 20
-211.8107273403
 11
334.6567742347
 21
-216.8107273403
  0
LINE
  8
5
  6
CONTINUOUS
 62
6
 10
374.6567742347
 20
-211.8107273403
 11
374.6567742347
 21
-216.8107273403
  0
LINE
  8
5
  6
CONTINUOUS
 62
6
 10
389.6567742347
 20
-211.8107273403
 11
389.6567742347
 21
-216.8107273403
  0
TEXT
  8
5
  6
CONTINUOUS
 62
7
 10
309.856774
 20
-215.460727
 40
2.300000
  1
項番
 41
0.921659
 50
0.000000
 51
0.000000
 72
   5
 73
   0
 11
314.456774
 21
-215.460727
  0
TEXT
  8
5
  6
CONTINUOUS
 62
7
 10
319.664774
 20
-215.810727
 40
3.000000
  1
品　　名
 41
0.737916
 50
0.000000
 51
0.000000
 72
   5
 73
   0
 11
329.648774
 21
-215.810727
  0
TEXT
  8
5
  6
CONTINUOUS
 62
7
 10
339.503774
 20
-215.810727
 40
3.000000
  1
定  格 / 型  番 / 材　質
 41
0.686277
 50
0.000000
 51
0.000000
 72
   5
 73
   0
 11
369.809774
 21
-215.810727
  0
TEXT
  8
5
  6
CONTINUOUS
 62
7
 10
376.959274
 20
-215.810727
 40
3.000000
  1
メーカー
 41
0.768293
 50
0.000000
 51
0.000000
 72
   5
 73
   0
 11
387.354274
 21
-215.810727
  0
TEXT
  8
5
  6
CONTINUOUS
 62
7
 10
389.856774
 20
-215.460727
 40
2.300000
  1
数量
 41
0.921659
 50
0.000000
 51
0.000000
 72
   5
 73
   0
 11
394.456774
 21
-215.460727
  0
LINE
  8
5
  6
CONTINUOUS
 62
6
 10
309.6567742347
 20
-221.8107273403
 11
309.6567742347
 21
-216.8107273403
  0
LINE
  8
5
  6
CONTINUOUS
 62
6
 10
309.6567742347
 20
-216.8107273403
 11
314.6567742347
 21
-216.8107273403
  0
LINE
  8
5
  6
CONTINUOUS
 62
6
 10
314.6567742347
 20
-216.8107273403
 11
334.6567742347
 21
-216.8107273403
  0
LINE
  8
5
  6
CONTINUOUS
 62
6
 10
334.6567742347
 20
-216.8107273403
 11
374.6567742347
 21
-216.8107273403
  0
LINE
  8
5
  6
CONTINUOUS
 62
6
 10
374.6567742347
 20
-216.8107273403
 11
389.6567742347
 21
-216.8107273403
  0
LINE
  8
5
  6
CONTINUOUS
 62
6
 10
389.6567742347
 20
-216.8107273403
 11
394.6567742347
 21
-216.8107273403
  0
LINE
  8
5
  6
CONTINUOUS
 62
6
 10
394.6567742347
 20
-216.8107273403
 11
394.6567742347
 21
-221.8107273403
  0
LINE
  8
5
  6
CONTINUOUS
 62
6
 10
394.6567742347
 20
-221.8107273403
 11
389.6567742347
 21
-221.8107273403
  0
LINE
  8
5
  6
CONTINUOUS
 62
6
 10
389.6567742347
 20
-221.8107273403
 11
374.6567742347
 21
-221.8107273403
  0
LINE
  8
5
  6
CONTINUOUS
 62
6
 10
374.6567742347
 20
-221.8107273403
 11
334.6567742347
 21
-221.8107273403
  0
LINE
  8
5
  6
CONTINUOUS
 62
6
 10
334.6567742347
 20
-221.8107273403
 11
314.6567742347
 21
-221.8107273403
  0
LINE
  8
5
  6
CONTINUOUS
 62
6
 10
314.6567742347
 20
-221.8107273403
 11
309.6567742347
 21
-221.8107273403
  0
LINE
  8
5
  6
CONTINUOUS
 62
6
 10
314.6567742347
 20
-216.8107273403
 11
314.6567742347
 21
-221.8107273403
  0
LINE
  8
5
  6
CONTINUOUS
 62
6
 10
334.6567742347
 20
-216.8107273403
 11
334.6567742347
 21
-221.8107273403
  0
LINE
  8
5
  6
CONTINUOUS
 62
6
 10
374.6567742347
 20
-216.8107273403
 11
374.6567742347
 21
-221.8107273403
  0
LINE
  8
5
  6
CONTINUOUS
 62
6
 10
389.6567742347
 20
-216.8107273403
 11
389.6567742347
 21
-221.8107273403
  0
TEXT
  8
5
  6
CONTINUOUS
 62
7
 10
309.906774
 20
-220.810727
 40
3.000000
  1
111
 41
0.815217
 50
0.000000
 51
0.000000
 72
   5
 73
   0
 11
314.406774
 21
-220.810727
  0
TEXT
  8
5
  6
CONTINUOUS
 62
7
 10
315.656774
 20
-220.810727
 40
3.000000
  1
USBﾌﾞﾗﾝｸﾊﾟﾈﾙ
 41
0.826938
 50
0.000000
 51
0.000000
 72
   5
 73
   0
 11
335.180774
 21
-220.810727
  0
TEXT
  8
5
  6
CONTINUOUS
 62
7
 10
335.656774
 20
-221.310727
 40
4.000000
  1
MIUSB1-BL
 41
0.767918
 50
0.000000
 51
0.000000
 72
   5
 73
   0
 11
353.656774
 21
-221.310727
  0
TEXT
  8
5
  6
CONTINUOUS
 62
7
 10
391.281774
 20
-221.060727
 40
3.500000
  1
1
 41
1.000000
 50
0.000000
 51
0.000000
 72
   5
 73
   0
 11
393.031774
 21
-221.060727
  0
LINE
  8
5
  6
CONTINUOUS
 62
6
 10
394.6567742347
 20
-226.8107273403
 11
389.6567742347
 21
-226.8107273403
  0
LINE
  8
5
  6
CONTINUOUS
 62
6
 10
389.6567742347
 20
-226.8107273403
 11
374.6567742347
 21
-226.8107273403
  0
LINE
  8
5
  6
CONTINUOUS
 62
6
 10
374.6567742347
 20
-226.8107273403
 11
334.6567742347
 21
-226.8107273403
  0
LINE
  8
5
  6
CONTINUOUS
 62
6
 10
334.6567742347
 20
-226.8107273403
 11
314.6567742347
 21
-226.8107273403
  0
LINE
  8
5
  6
CONTINUOUS
 62
6
 10
314.6567742347
 20
-226.8107273403
 11
309.6567742347
 21
-226.8107273403
  0
TEXT
  8
5
  6
CONTINUOUS
 62
7
 10
309.906774
 20
-225.810727
 40
3.000000
  1
112
 41
0.815217
 50
0.000000
 51
0.000000
 72
   5
 73
   0
 11
314.406774
 21
-225.810727
  0
TEXT
  8
5
  6
CONTINUOUS
 62
7
 10
310.656774
 20
-230.810727
 40
3.000000
  1
--
 41
0.854701
 50
0.000000
 51
0.000000
 72
   5
 73
   0
 11
313.656774
 21
-230.810727
  0
TEXT
  8
5
  6
CONTINUOUS
 62
7
 10
315.656774
 20
-225.810727
 40
3.000000
  1
ﾋﾞｽ
 41
0.761957
 50
0.000000
 51
0.000000
 72
   5
 73
   0
 11
319.862774
 21
-225.810727
  0
TEXT
  8
5
  6
CONTINUOUS
 62
7
 10
315.656774
 20
-230.810727
 40
3.000000
  1
--
 41
0.854701
 50
0.000000
 51
0.000000
 72
   5
 73
   0
 11
318.656774
 21
-230.810727
  0
TEXT
  8
5
  6
CONTINUOUS
 62
7
 10
335.656774
 20
-230.810727
 40
3.000000
  1
--
 41
0.854701
 50
0.000000
 51
0.000000
 72
   5
 73
   0
 11
338.656774
 21
-230.810727
  0
TEXT
  8
5
  6
CONTINUOUS
 62
7
 10
391.281774
 20
-226.060727
 40
3.500000
  1
2
 41
1.000000
 50
0.000000
 51
0.000000
 72
   5
 73
   0
 11
393.031774
 21
-226.060727
  0
TEXT
  8
5
  6
CONTINUOUS
 62
7
 10
390.406774
 20
-231.060727
 40
3.500000
  1
--
 41
0.854701
 50
0.000000
 51
0.000000
 72
   5
 73
   0
 11
393.906774
 21
-231.060727
  0
LINE
  8
5
  6
CONTINUOUS
 62
6
 10
309.6567742347
 20
-226.8107273403
 11
309.6567742347
 21
-221.8107273403
  0
LINE
  8
5
  6
CONTINUOUS
 62
6
 10
309.6567742347
 20
-231.8107273403
 11
309.6567742347
 21
-226.8107273403
  0
LINE
  8
5
  6
CONTINUOUS
 62
6
 10
314.6567742347
 20
-221.8107273403
 11
314.6567742347
 21
-226.8107273403
  0
LINE
  8
5
  6
CONTINUOUS
 62
6
 10
314.6567742347
 20
-226.8107273403
 11
314.6567742347
 21
-231.8107273403
  0
LINE
  8
5
  6
CONTINUOUS
 62
6
 10
334.6567742347
 20
-221.8107273403
 11
334.6567742347
 21
-226.8107273403
  0
LINE
  8
5
  6
CONTINUOUS
 62
6
 10
334.6567742347
 20
-226.8107273403
 11
334.6567742347
 21
-231.8107273403
  0
LINE
  8
5
  6
CONTINUOUS
 62
6
 10
374.6567742347
 20
-221.8107273403
 11
374.6567742347
 21
-226.8107273403
  0
LINE
  8
5
  6
CONTINUOUS
 62
6
 10
374.6567742347
 20
-226.8107273403
 11
374.6567742347
 21
-231.8107273403
  0
LINE
  8
5
  6
CONTINUOUS
 62
6
 10
389.6567742347
 20
-221.8107273403
 11
389.6567742347
 21
-226.8107273403
  0
LINE
  8
5
  6
CONTINUOUS
 62
6
 10
389.6567742347
 20
-226.8107273403
 11
389.6567742347
 21
-231.8107273403
  0
LINE
  8
5
  6
CONTINUOUS
 62
6
 10
394.6567742347
 20
-221.8107273403
 11
394.6567742347
 21
-226.8107273403
  0
LINE
  8
5
  6
CONTINUOUS
 62
6
 10
394.6567742347
 20
-226.8107273403
 11
394.6567742347
 21
-231.8107273403
  0
TEXT
  8
5
  6
CONTINUOUS
 62
7
 10
335.656774
 20
-226.310727
 40
4.000000
  1
(+)B1ﾅﾍﾞ 3.5×6
 41
0.772400
 50
0.000000
 51
0.000000
 72
   5
 73
   0
 11
365.656774
 21
-226.310727
  0
LINE
  8
5
  6
CONTINUOUS
 62
6
 10
299.6567742347
 20
-216.8107273403
 11
299.6567742348
 21
-211.8107273405
  0
LINE
  8
5
  6
CONTINUOUS
 62
6
 10
299.6567742348
 20
-211.8107273405
 11
309.6567742347
 21
-211.8107273403
  0
LINE
  8
5
  6
CONTINUOUS
 62
6
 10
309.6567742347
 20
-216.8107273403
 11
304.6567742347
 21
-216.8107273403
  0
LINE
  8
5
  6
CONTINUOUS
 62
6
 10
309.6567742347
 20
-211.8107273403
 11
309.6567742347
 21
-216.8107273403
  0
TEXT
  8
5
  6
CONTINUOUS
 62
7
 10
302.194993
 20
-215.810727
 40
3.000000
  1
型番
 41
0.921659
 50
0.000000
 51
0.000000
 72
   5
 73
   0
 11
308.194993
 21
-215.810727
  0
LINE
  8
5
  6
CONTINUOUS
 62
6
 10
299.6567742347
 20
-221.8107273403
 11
299.6567742347
 21
-216.8107273403
  0
LINE
  8
5
  6
CONTINUOUS
 62
6
 10
299.6567742347
 20
-216.8107273403
 11
309.6567742347
 21
-216.8107273403
  0
LINE
  8
5
  6
CONTINUOUS
 62
6
 10
309.6567742347
 20
-216.8107273403
 11
309.6567742347
 21
-221.8107273403
  0
TEXT
  8
5
  6
CONTINUOUS
 62
7
 10
302.912993
 20
-221.310727
 40
4.000000
  1
U0
 41
0.975214
 50
0.000000
 51
0.000000
 72
   5
 73
   0
 11
307.476993
 21
-221.310727
  0
LINE
  8
5
  6
CONTINUOUS
 62
6
 10
299.6567742347
 20
-226.8107273403
 11
299.6567742347
 21
-221.8107273403
  0
LINE
  8
5
  6
CONTINUOUS
 62
6
 10
299.6567742347
 20
-231.8107273403
 11
299.6567742347
 21
-226.8107273403
  0
LINE
  8
5
  6
CONTINUOUS
 62
6
 10
309.6567742347
 20
-221.8107273403
 11
309.6567742347
 21
-226.8107273403
  0
LINE
  8
5
  6
CONTINUOUS
 62
6
 10
309.6567742347
 20
-226.8107273403
 11
309.6567742347
 21
-231.8107273403
  0
LINE
  8
5
  6
CONTINUOUS
 62
6
 10
394.6567742347
 20
-231.8107273403
 11
389.6567742347
 21
-231.8107273403
  0
LINE
  8
5
  6
CONTINUOUS
 62
6
 10
389.6567742347
 20
-231.8107273403
 11
374.6567742347
 21
-231.8107273403
  0
LINE
  8
5
  6
CONTINUOUS
 62
6
 10
374.6567742347
 20
-231.8107273403
 11
334.6567742347
 21
-231.8107273403
  0
LINE
  8
5
  6
CONTINUOUS
 62
6
 10
334.6567742347
 20
-231.8107273403
 11
314.6567742347
 21
-231.8107273403
  0
LINE
  8
5
  6
CONTINUOUS
 62
6
 10
314.6567742347
 20
-231.8107273403
 11
309.6567742347
 21
-231.8107273403
  0
LINE
  8
5
  6
CONTINUOUS
 62
6
 10
309.6567742347
 20
-231.8107273403
 11
299.6567742347
 21
-231.8107273403
  0
LINE
  8
5
  6
CONTINUOUS
 62
6
 10
309.6567742347
 20
-239.3107273403
 11
309.6567742347
 21
-234.3107273403
  0
LINE
  8
5
  6
CONTINUOUS
 62
6
 10
309.6567742347
 20
-234.3107273403
 11
314.6567742347
 21
-234.3107273403
  0
LINE
  8
5
  6
CONTINUOUS
 62
6
 10
314.6567742347
 20
-234.3107273403
 11
334.6567742347
 21
-234.3107273403
  0
LINE
  8
5
  6
CONTINUOUS
 62
6
 10
334.6567742347
 20
-234.3107273403
 11
374.6567742347
 21
-234.3107273403
  0
LINE
  8
5
  6
CONTINUOUS
 62
6
 10
374.6567742347
 20
-234.3107273403
 11
389.6567742347
 21
-234.3107273403
  0
LINE
  8
5
  6
CONTINUOUS
 62
6
 10
389.6567742347
 20
-234.3107273403
 11
394.6567742347
 21
-234.3107273403
  0
LINE
  8
5
  6
CONTINUOUS
 62
6
 10
394.6567742347
 20
-234.3107273403
 11
394.6567742347
 21
-239.3107273403
  0
LINE
  8
5
  6
CONTINUOUS
 62
6
 10
394.6567742347
 20
-239.3107273403
 11
389.6567742347
 21
-239.3107273403
  0
LINE
  8
5
  6
CONTINUOUS
 62
6
 10
389.6567742347
 20
-239.3107273403
 11
374.6567742347
 21
-239.3107273403
  0
LINE
  8
5
  6
CONTINUOUS
 62
6
 10
374.6567742347
 20
-239.3107273403
 11
334.6567742347
 21
-239.3107273403
  0
LINE
  8
5
  6
CONTINUOUS
 62
6
 10
334.6567742347
 20
-239.3107273403
 11
314.6567742347
 21
-239.3107273403
  0
LINE
  8
5
  6
CONTINUOUS
 62
6
 10
314.6567742347
 20
-239.3107273403
 11
309.6567742347
 21
-239.3107273403
  0
LINE
  8
5
  6
CONTINUOUS
 62
6
 10
314.6567742347
 20
-234.3107273403
 11
314.6567742347
 21
-239.3107273403
  0
LINE
  8
5
  6
CONTINUOUS
 62
6
 10
334.6567742347
 20
-234.3107273403
 11
334.6567742347
 21
-239.3107273403
  0
LINE
  8
5
  6
CONTINUOUS
 62
6
 10
374.6567742347
 20
-234.3107273403
 11
374.6567742347
 21
-239.3107273403
  0
LINE
  8
5
  6
CONTINUOUS
 62
6
 10
389.6567742347
 20
-234.3107273403
 11
389.6567742347
 21
-239.3107273403
  0
TEXT
  8
5
  6
CONTINUOUS
 62
7
 10
309.856774
 20
-237.960727
 40
2.300000
  1
項番
 41
0.921659
 50
0.000000
 51
0.000000
 72
   5
 73
   0
 11
314.456774
 21
-237.960727
  0
TEXT
  8
5
  6
CONTINUOUS
 62
7
 10
319.664774
 20
-238.310727
 40
3.000000
  1
品　　名
 41
0.737916
 50
0.000000
 51
0.000000
 72
   5
 73
   0
 11
329.648774
 21
-238.310727
  0
TEXT
  8
5
  6
CONTINUOUS
 62
7
 10
339.503774
 20
-238.310727
 40
3.000000
  1
定  格 / 型  番 / 材　質
 41
0.686277
 50
0.000000
 51
0.000000
 72
   5
 73
   0
 11
369.809774
 21
-238.310727
  0
TEXT
  8
5
  6
CONTINUOUS
 62
7
 10
376.959274
 20
-238.310727
 40
3.000000
  1
メーカー
 41
0.768293
 50
0.000000
 51
0.000000
 72
   5
 73
   0
 11
387.354274
 21
-238.310727
  0
TEXT
  8
5
  6
CONTINUOUS
 62
7
 10
389.856774
 20
-237.960727
 40
2.300000
  1
数量
 41
0.921659
 50
0.000000
 51
0.000000
 72
   5
 73
   0
 11
394.456774
 21
-237.960727
  0
LINE
  8
5
  6
CONTINUOUS
 62
6
 10
309.6567742347
 20
-244.3107273403
 11
309.6567742347
 21
-239.3107273403
  0
LINE
  8
5
  6
CONTINUOUS
 62
6
 10
309.6567742347
 20
-239.3107273403
 11
314.6567742347
 21
-239.3107273403
  0
LINE
  8
5
  6
CONTINUOUS
 62
6
 10
314.6567742347
 20
-239.3107273403
 11
334.6567742347
 21
-239.3107273403
  0
LINE
  8
5
  6
CONTINUOUS
 62
6
 10
334.6567742347
 20
-239.3107273403
 11
374.6567742347
 21
-239.3107273403
  0
LINE
  8
5
  6
CONTINUOUS
 62
6
 10
374.6567742347
 20
-239.3107273403
 11
389.6567742347
 21
-239.3107273403
  0
LINE
  8
5
  6
CONTINUOUS
 62
6
 10
389.6567742347
 20
-239.3107273403
 11
394.6567742347
 21
-239.3107273403
  0
LINE
  8
5
  6
CONTINUOUS
 62
6
 10
394.6567742347
 20
-239.3107273403
 11
394.6567742347
 21
-244.3107273403
  0
LINE
  8
5
  6
CONTINUOUS
 62
6
 10
394.6567742347
 20
-244.3107273403
 11
389.6567742347
 21
-244.3107273403
  0
LINE
  8
5
  6
CONTINUOUS
 62
6
 10
389.6567742347
 20
-244.3107273403
 11
374.6567742347
 21
-244.3107273403
  0
LINE
  8
5
  6
CONTINUOUS
 62
6
 10
374.6567742347
 20
-244.3107273403
 11
334.6567742347
 21
-244.3107273403
  0
LINE
  8
5
  6
CONTINUOUS
 62
6
 10
334.6567742347
 20
-244.3107273403
 11
314.6567742347
 21
-244.3107273403
  0
LINE
  8
5
  6
CONTINUOUS
 62
6
 10
314.6567742347
 20
-244.3107273403
 11
309.6567742347
 21
-244.3107273403
  0
LINE
  8
5
  6
CONTINUOUS
 62
6
 10
314.6567742347
 20
-239.3107273403
 11
314.6567742347
 21
-244.3107273403
  0
LINE
  8
5
  6
CONTINUOUS
 62
6
 10
334.6567742347
 20
-239.3107273403
 11
334.6567742347
 21
-244.3107273403
  0
LINE
  8
5
  6
CONTINUOUS
 62
6
 10
374.6567742347
 20
-239.3107273403
 11
374.6567742347
 21
-244.3107273403
  0
LINE
  8
5
  6
CONTINUOUS
 62
6
 10
389.6567742347
 20
-239.3107273403
 11
389.6567742347
 21
-244.3107273403
  0
TEXT
  8
5
  6
CONTINUOUS
 62
7
 10
309.906774
 20
-243.310727
 40
3.000000
  1
113
 41
0.815217
 50
0.000000
 51
0.000000
 72
   5
 73
   0
 11
314.406774
 21
-243.310727
  0
TEXT
  8
5
  6
CONTINUOUS
 62
7
 10
315.656774
 20
-243.310727
 40
3.000000
  1
USBｺﾈｸﾀ
 41
0.910841
 50
0.000000
 51
0.000000
 72
   5
 73
   0
 11
328.007774
 21
-243.310727
  0
TEXT
  8
5
  6
CONTINUOUS
 62
7
 10
335.656774
 20
-243.810727
 40
4.000000
  1
MIUSB1-A-B
 41
0.765697
 50
0.000000
 51
0.000000
 72
   5
 73
   0
 11
355.656774
 21
-243.810727
  0
TEXT
  8
5
  6
CONTINUOUS
 62
7
 10
391.281774
 20
-243.560727
 40
3.500000
  1
1
 41
1.000000
 50
0.000000
 51
0.000000
 72
   5
 73
   0
 11
393.031774
 21
-243.560727
  0
LINE
  8
5
  6
CONTINUOUS
 62
6
 10
394.6567742347
 20
-249.3107273403
 11
389.6567742347
 21
-249.3107273403
  0
LINE
  8
5
  6
CONTINUOUS
 62
6
 10
389.6567742347
 20
-249.3107273403
 11
374.6567742347
 21
-249.3107273403
  0
LINE
  8
5
  6
CONTINUOUS
 62
6
 10
374.6567742347
 20
-249.3107273403
 11
334.6567742347
 21
-249.3107273403
  0
LINE
  8
5
  6
CONTINUOUS
 62
6
 10
334.6567742347
 20
-249.3107273403
 11
314.6567742347
 21
-249.3107273403
  0
LINE
  8
5
  6
CONTINUOUS
 62
6
 10
314.6567742347
 20
-249.3107273403
 11
309.6567742347
 21
-249.3107273403
  0
TEXT
  8
5
  6
CONTINUOUS
 62
7
 10
309.906774
 20
-248.310727
 40
3.000000
  1
114
 41
0.815217
 50
0.000000
 51
0.000000
 72
   5
 73
   0
 11
314.406774
 21
-248.310727
  0
TEXT
  8
5
  6
CONTINUOUS
 62
7
 10
310.656774
 20
-253.310727
 40
3.000000
  1
--
 41
0.854701
 50
0.000000
 51
0.000000
 72
   5
 73
   0
 11
313.656774
 21
-253.310727
  0
TEXT
  8
5
  6
CONTINUOUS
 62
7
 10
315.656774
 20
-248.310727
 40
3.000000
  1
ﾋﾞｽ
 41
0.761957
 50
0.000000
 51
0.000000
 72
   5
 73
   0
 11
319.862774
 21
-248.310727
  0
TEXT
  8
5
  6
CONTINUOUS
 62
7
 10
315.656774
 20
-253.310727
 40
3.000000
  1
--
 41
0.854701
 50
0.000000
 51
0.000000
 72
   5
 73
   0
 11
318.656774
 21
-253.310727
  0
TEXT
  8
5
  6
CONTINUOUS
 62
7
 10
335.656774
 20
-253.310727
 40
3.000000
  1
--
 41
0.854701
 50
0.000000
 51
0.000000
 72
   5
 73
   0
 11
338.656774
 21
-253.310727
  0
TEXT
  8
5
  6
CONTINUOUS
 62
7
 10
391.281774
 20
-248.560727
 40
3.500000
  1
2
 41
1.000000
 50
0.000000
 51
0.000000
 72
   5
 73
   0
 11
393.031774
 21
-248.560727
  0
TEXT
  8
5
  6
CONTINUOUS
 62
7
 10
390.406774
 20
-253.560727
 40
3.500000
  1
--
 41
0.854701
 50
0.000000
 51
0.000000
 72
   5
 73
   0
 11
393.906774
 21
-253.560727
  0
LINE
  8
5
  6
CONTINUOUS
 62
6
 10
309.6567742347
 20
-249.3107273403
 11
309.6567742347
 21
-244.3107273403
  0
LINE
  8
5
  6
CONTINUOUS
 62
6
 10
309.6567742347
 20
-254.3107273403
 11
309.6567742347
 21
-249.3107273403
  0
LINE
  8
5
  6
CONTINUOUS
 62
6
 10
314.6567742347
 20
-244.3107273403
 11
314.6567742347
 21
-249.3107273403
  0
LINE
  8
5
  6
CONTINUOUS
 62
6
 10
314.6567742347
 20
-249.3107273403
 11
314.6567742347
 21
-254.3107273403
  0
LINE
  8
5
  6
CONTINUOUS
 62
6
 10
334.6567742347
 20
-244.3107273403
 11
334.6567742347
 21
-249.3107273403
  0
LINE
  8
5
  6
CONTINUOUS
 62
6
 10
334.6567742347
 20
-249.3107273403
 11
334.6567742347
 21
-254.3107273403
  0
LINE
  8
5
  6
CONTINUOUS
 62
6
 10
374.6567742347
 20
-244.3107273403
 11
374.6567742347
 21
-249.3107273403
  0
LINE
  8
5
  6
CONTINUOUS
 62
6
 10
374.6567742347
 20
-249.3107273403
 11
374.6567742347
 21
-254.3107273403
  0
LINE
  8
5
  6
CONTINUOUS
 62
6
 10
389.6567742347
 20
-244.3107273403
 11
389.6567742347
 21
-249.3107273403
  0
LINE
  8
5
  6
CONTINUOUS
 62
6
 10
389.6567742347
 20
-249.3107273403
 11
389.6567742347
 21
-254.3107273403
  0
LINE
  8
5
  6
CONTINUOUS
 62
6
 10
394.6567742347
 20
-244.3107273403
 11
394.6567742347
 21
-249.3107273403
  0
LINE
  8
5
  6
CONTINUOUS
 62
6
 10
394.6567742347
 20
-249.3107273403
 11
394.6567742347
 21
-254.3107273403
  0
TEXT
  8
5
  6
CONTINUOUS
 62
7
 10
335.656774
 20
-248.810727
 40
4.000000
  1
M3×8 小ワｾﾑｽ
 41
0.809465
 50
0.000000
 51
0.000000
 72
   5
 73
   0
 11
361.656774
 21
-248.810727
  0
LINE
  8
5
  6
CONTINUOUS
 62
6
 10
299.6567742347
 20
-239.3107273403
 11
299.6567742347
 21
-234.3107273403
  0
LINE
  8
5
  6
CONTINUOUS
 62
6
 10
299.6567742347
 20
-234.3107273403
 11
309.6567742347
 21
-234.3107273403
  0
LINE
  8
5
  6
CONTINUOUS
 62
6
 10
309.6567742347
 20
-239.3107273403
 11
304.6567742347
 21
-239.3107273403
  0
LINE
  8
5
  6
CONTINUOUS
 62
6
 10
309.6567742347
 20
-234.3107273403
 11
309.6567742347
 21
-239.3107273403
  0
TEXT
  8
5
  6
CONTINUOUS
 62
7
 10
302.194993
 20
-238.310727
 40
3.000000
  1
型番
 41
0.921659
 50
0.000000
 51
0.000000
 72
   5
 73
   0
 11
308.194993
 21
-238.310727
  0
LINE
  8
5
  6
CONTINUOUS
 62
6
 10
299.6567742347
 20
-244.3107273403
 11
299.6567742347
 21
-239.3107273403
  0
LINE
  8
5
  6
CONTINUOUS
 62
6
 10
299.6567742347
 20
-239.3107273403
 11
309.6567742347
 21
-239.3107273403
  0
LINE
  8
5
  6
CONTINUOUS
 62
6
 10
309.6567742347
 20
-239.3107273403
 11
309.6567742347
 21
-244.3107273403
  0
TEXT
  8
5
  6
CONTINUOUS
 62
7
 10
302.912993
 20
-243.810727
 40
4.000000
  1
U1
 41
0.975214
 50
0.000000
 51
0.000000
 72
   5
 73
   0
 11
307.476993
 21
-243.810727
  0
LINE
  8
5
  6
CONTINUOUS
 62
6
 10
299.6567742347
 20
-249.3107273403
 11
299.6567742347
 21
-244.3107273403
  0
LINE
  8
5
  6
CONTINUOUS
 62
6
 10
299.6567742347
 20
-254.3107273403
 11
299.6567742347
 21
-249.3107273403
  0
LINE
  8
5
  6
CONTINUOUS
 62
6
 10
309.6567742347
 20
-244.3107273403
 11
309.6567742347
 21
-249.3107273403
  0
LINE
  8
5
  6
CONTINUOUS
 62
6
 10
309.6567742347
 20
-249.3107273403
 11
309.6567742347
 21
-254.3107273403
  0
LINE
  8
5
  6
CONTINUOUS
 62
6
 10
394.6567742347
 20
-254.3107273403
 11
389.6567742347
 21
-254.3107273403
  0
LINE
  8
5
  6
CONTINUOUS
 62
6
 10
389.6567742347
 20
-254.3107273403
 11
374.6567742347
 21
-254.3107273403
  0
LINE
  8
5
  6
CONTINUOUS
 62
6
 10
374.6567742347
 20
-254.3107273403
 11
334.6567742347
 21
-254.3107273403
  0
LINE
  8
5
  6
CONTINUOUS
 62
6
 10
334.6567742347
 20
-254.3107273403
 11
314.6567742347
 21
-254.3107273403
  0
LINE
  8
5
  6
CONTINUOUS
 62
6
 10
314.6567742347
 20
-254.3107273403
 11
309.6567742347
 21
-254.3107273403
  0
LINE
  8
5
  6
CONTINUOUS
 62
6
 10
309.6567742347
 20
-254.3107273403
 11
299.6567742347
 21
-254.3107273403
  0
TEXT
  8
5
  6
CONTINUOUS
 62
7
 10
375.656774
 20
-220.810727
 40
3.000000
  1
MADOKA
 41
1.028831
 50
0.000000
 51
0.000000
 72
   5
 73
   0
 11
387.539774
 21
-220.810727
  0
TEXT
  8
5
  6
CONTINUOUS
 62
7
 10
375.656774
 20
-230.810727
 40
3.000000
  1
--
 41
0.854701
 50
0.000000
 51
0.000000
 72
   5
 73
   0
 11
378.656774
 21
-230.810727
  0
TEXT
  8
5
  6
CONTINUOUS
 62
7
 10
375.656774
 20
-243.310727
 40
3.000000
  1
MADOKA
 41
1.028831
 50
0.000000
 51
0.000000
 72
   5
 73
   0
 11
387.539774
 21
-243.310727
  0
TEXT
  8
5
  6
CONTINUOUS
 62
7
 10
375.656774
 20
-253.310727
 40
3.000000
  1
--
 41
0.854701
 50
0.000000
 51
0.000000
 72
   5
 73
   0
 11
378.656774
 21
-253.310727
  0
TEXT
  8
5
  6
CONTINUOUS
 62
7
 10
375.656774
 20
-225.810727
 40
3.000000
  1
--
 41
0.854701
 50
0.000000
 51
0.000000
 72
   5
 73
   0
 11
378.656774
 21
-225.810727
  0
TEXT
  8
5
  6
CONTINUOUS
 62
7
 10
375.656774
 20
-248.310727
 40
3.000000
  1
--
 41
0.854701
 50
0.000000
 51
0.000000
 72
   5
 73
   0
 11
378.656774
 21
-248.310727
  0
INSERT
  8
3
  6
CONTINUOUS
 62
5
  2
BALN1
 10
220.6171374659
 20
-157.0777679959
  0
INSERT
  8
3
  6
CONTINUOUS
 62
5
  2
BALN2
 10
262.5671374659
 20
-157.0777679959
  0
INSERT
  8
3
  6
CONTINUOUS
 62
5
  2
BALN3
 10
251.5921374659
 20
-164.2803415009
  0
TEXT
  8
3
  6
CONTINUOUS
 62
5
 10
118.860130
 20
-99.378463
 40
4.500000
  1
⑨
 41
1.000000
 50
0.000000
 51
0.000000
 72
   5
 73
   0
 11
123.360130
 21
-99.378463
  0
TEXT
  8
3
  6
CONTINUOUS
 62
5
 10
118.860130
 20
-103.878463
 40
4.500000
  1
ACｱｳﾄﾚｯﾄ詳細
 41
0.796813
 50
0.000000
 51
0.000000
 72
   5
 73
   0
 11
145.860130
 21
-103.878463
  0
TEXT
  8
3
  6
CONTINUOUS
 62
5
 10
162.142137
 20
-166.780342
 40
5.000000
  1
⑩ RJ45詳細
 41
0.822123
 50
0.000000
 51
0.000000
 72
   5
 73
   0
 11
189.642137
 21
-166.780342
  0
TEXT
  8
3
  6
CONTINUOUS
 62
5
 10
164.642137
 20
-235.101184
 40
5.000000
  1
⑪ USB詳細
 41
0.830565
 50
0.000000
 51
0.000000
 72
   5
 73
   0
 11
189.642137
 21
-235.101184
  0
INSERT
  8
3
  6
CONTINUOUS
 62
5
  2
BALN4
 10
219.1421374659
 20
-216.6011842222
  0
INSERT
  8
3
  6
CONTINUOUS
 62
5
  2
BALN5
 10
212.0334406374
 20
-219.2431864733
  0
INSERT
  8
3
  6
CONTINUOUS
 62
5
  2
BALN6
 10
261.0921374659
 20
-216.6011842222
  0
INSERT
  8
3
  6
CONTINUOUS
 62
5
  2
BALN7
 10
253.9834406374
 20
-219.2431864733
  0
TEXT
  8
3
  6
CONTINUOUS
 62
7
 10
207.142137
 20
-185.255342
 40
5.000000
  1
R0
 41
0.854701
 50
0.000000
 51
0.000000
 72
   5
 73
   0
 11
212.142137
 21
-185.255342
  0
TEXT
  8
3
  6
CONTINUOUS
 62
7
 10
249.092137
 20
-185.255342
 40
5.000000
  1
R1
 41
0.854701
 50
0.000000
 51
0.000000
 72
   5
 73
   0
 11
254.092137
 21
-185.255342
  0
TEXT
  8
3
  6
CONTINUOUS
 62
7
 10
207.142137
 20
-258.601184
 40
5.000000
  1
U0
 41
0.854701
 50
0.000000
 51
0.000000
 72
   5
 73
   0
 11
212.142137
 21
-258.601184
  0
TEXT
  8
3
  6
CONTINUOUS
 62
7
 10
249.092137
 20
-258.401184
 40
5.000000
  1
U1
 41
0.854701
 50
0.000000
 51
0.000000
 72
   5
 73
   0
 11
254.092137
 21
-258.401184
  0
TEXT
  8
5
  6
CONTINUOUS
 62
7
 10
348.653069
 20
22.742557
 40
4.200000
  1
Panel Interface
 41
0.641296
 50
0.000000
 51
0.000000
 72
   5
 73
   0
 11
375.264269
 21
22.742557
  0
TEXT
  8
5
  6
CONTINUOUS
 62
7
 10
348.653069
 20
18.542557
 40
4.200000
  1
Type:MCON-001-054******
 41
0.788714
 50
0.000000
 51
0.000000
 72
   5
 73
   0
 11
399.137069
 21
18.542557
  0
TEXT
  8
5
  6
CONTINUOUS
 62
7
 10
348.653069
 20
14.342557
 40
4.200000
  1
                      仕様図　1/2
 41
0.558184
 50
0.000000
 51
0.000000
 72
   5
 73
   0
 11
398.494469
 21
14.342557
  0
TEXT
  8
5
  6
CONTINUOUS
 62
7
 10
348.433321
 20
-308.965523
 40
6.000000
  1
M0051A054F
 41
0.765697
 50
0.000000
 51
0.000000
 72
   5
 73
   0
 11
378.433321
 21
-308.965523
  0
TEXT
  8
3
  6
CONTINUOUS
 62
7
 10
157.407606
 20
34.634580
 40
4.500000
  1
ACｱｳﾄﾚｯﾄ,RJ45,USBの詳細は仕様2/2を参照してください。
 41
0.813772
 50
0.000000
 51
0.000000
 72
   5
 73
   0
 11
274.407606
 21
34.634580
  0
POINT
  8
3
  6
CONTINUOUS
 62
7
 10
234.1308680172
 20
157.0550725884
  0
LINE
  8
3
  6
CONTINUOUS
 62
7
 10
225.6308680172
 20
168.5550725884
 11
242.6308680172
 21
168.5550725884
  0
LINE
  8
3
  6
CONTINUOUS
 62
7
 10
225.6308680172
 20
145.5550725884
 11
225.6308680172
 21
168.5550725884
  0
LINE
  8
3
  6
CONTINUOUS
 62
7
 10
242.6308680172
 20
145.5550725884
 11
225.6308680172
 21
145.5550725884
  0
LINE
  8
3
  6
CONTINUOUS
 62
7
 10
242.6308680172
 20
168.5550725884
 11
242.6308680172
 21
145.5550725884
  0
CIRCLE
  8
3
  6
CONTINUOUS
 62
7
 10
234.1308680172
 20
171.5550725884
 40
1.5000000000
  0
CIRCLE
  8
3
  6
CONTINUOUS
 62
7
 10
234.1308680172
 20
142.5550725884
 40
1.5000000000
  0
TEXT
  8
3
  6
CONTINUOUS
 62
7
 10
230.380868
 20
157.055073
 40
5.000000
  1
⑪
 41
1.000000
 50
0.000000
 51
0.000000
 72
   5
 73
   0
 11
235.380868
 21
157.055073
  0
TEXT
  8
3
  6
CONTINUOUS
 62
7
 10
230.380868
 20
152.055073
 40
5.000000
  1
USB
 41
0.815217
 50
0.000000
 51
0.000000
 72
   5
 73
   0
 11
237.880868
 21
152.055073
  0
INSERT
  8
1
  6
CONTINUOUS
 62
5
  2
LTEX0
 10
212.0621269876
 20
120.3428937795
  0
INSERT
  8
1
  6
CONTINUOUS
 62
5
  2
LTEX1
 10
143.4661466639
 20
83.0550725884
  0
TEXT
  8
3
  6
CONTINUOUS
 62
7
 10
178.163665
 20
273.663632
 40
5.000000
  1
型番仕様
 41
0.886918
 50
0.000000
 51
0.000000
 72
   5
 73
   0
 11
198.163665
 21
273.663632
  0
TEXT
  8
3
  6
CONTINUOUS
 62
7
 10
178.163665
 20
266.663632
 40
5.000000
  1
　MCON-001-054 %%uPB%%u %%uA*%%u %%uR*%%u %%uU*%%u
 41
0.761124
 50
0.000000
 51
0.000000
 72
   5
 73
   0
 11
243.163665
 21
266.663632
  0
LINE
  8
3
  6
CONTINUOUS
 62
7
 10
240.8955927555
 20
266.4385361052
 11
240.8955927555
 21
261.4385361052
  0
LINE
  8
3
  6
CONTINUOUS
 62
7
 10
240.8955927555
 20
261.4385361052
 11
245.8955927555
 21
261.4385361052
  0
TEXT
  8
3
  6
CONTINUOUS
 62
7
 10
247.895593
 20
259.657304
 40
4.000000
  1
⑪ U0:USB無し(ﾌﾞﾗﾝｸﾊﾟﾈﾙ)
 41
0.779221
 50
0.000000
 51
0.000000
 72
   5
 73
   0
 11
295.895593
 21
259.657304
  0
TEXT
  8
3
  6
CONTINUOUS
 62
7
 10
247.895593
 20
254.657304
 40
4.000000
  1
　 U1:USB有り
 41
0.809465
 50
0.000000
 51
0.000000
 72
   5
 73
   0
 11
273.895593
 21
254.657304
  0
TEXT
  8
3
  6
CONTINUOUS
 62
7
 10
247.895593
 20
246.938536
 40
4.000000
  1
⑩ R0:RJ45無し(ﾌﾞﾗﾝｸﾊﾟﾈﾙ)
 41
0.777847
 50
0.000000
 51
0.000000
 72
   5
 73
   0
 11
297.895593
 21
246.938536
  0
TEXT
  8
3
  6
CONTINUOUS
 62
7
 10
247.895593
 20
241.938536
 40
4.000000
  1
　 R1:RJ45有り
 41
0.804598
 50
0.000000
 51
0.000000
 72
   5
 73
   0
 11
275.895593
 21
241.938536
  0
TEXT
  8
3
  6
CONTINUOUS
 62
7
 10
247.697735
 20
233.790879
 40
4.000000
  1
⑨ A0:ACｱｳﾄﾚｯﾄ通常ﾀｲﾌﾟ
 41
0.782361
 50
0.000000
 51
0.000000
 72
   5
 73
   0
 11
291.697735
 21
233.790879
  0
TEXT
  8
3
  6
CONTINUOUS
 62
7
 10
247.697735
 20
228.790879
 40
4.000000
  1
　 A1:ACｱｳﾄﾚｯﾄ抜け防止ﾀｲﾌﾟ
 41
0.792683
 50
0.000000
 51
0.000000
 72
   5
 73
   0
 11
299.697735
 21
228.790879
  0
TEXT
  8
3
  6
CONTINUOUS
 62
7
 10
247.697735
 20
223.790879
 40
4.000000
  1
　 A2:ACｱｳﾄﾚｯﾄ無し(ﾌﾞﾗﾝｸﾊﾟﾈﾙ)
 41
0.773333
 50
0.000000
 51
0.000000
 72
   5
 73
   0
 11
305.697735
 21
223.790879
  0
LINE
  8
3
  6
CONTINUOUS
 62
7
 10
245.8955927555
 20
248.9385361052
 11
233.3686278020
 21
248.9385361052
  0
LINE
  8
3
  6
CONTINUOUS
 62
7
 10
233.3686278020
 20
248.9385361053
 11
233.3686278020
 21
266.4385361052
  0
LINE
  8
3
  6
CONTINUOUS
 62
7
 10
245.8955927555
 20
236.4385361052
 11
225.4056493519
 21
236.4385361052
  0
LINE
  8
3
  6
CONTINUOUS
 62
7
 10
225.4056493519
 20
236.4385361052
 11
225.4056493519
 21
266.4385361052
  0
LINE
  8
3
  6
CONTINUOUS
 62
7
 10
67.4424574064
 20
-77.6369349682
 11
67.4424574064
 21
-82.6369349682
  0
LINE
  8
3
  6
CONTINUOUS
 62
7
 10
67.4424574064
 20
-82.6369349682
 11
72.4424574064
 21
-82.6369349682
  0
TEXT
  8
3
  6
CONTINUOUS
 62
7
 10
74.442457
 20
-83.850078
 40
3.000000
  1
⑪ U0:USB無し(ﾌﾞﾗﾝｸﾊﾟﾈﾙ)
 41
0.779221
 50
0.000000
 51
0.000000
 72
   5
 73
   0
 11
110.442457
 21
-83.850078
  0
TEXT
  8
3
  6
CONTINUOUS
 62
7
 10
74.442457
 20
-87.850078
 40
3.000000
  1
　 U1:USB有り
 41
0.809465
 50
0.000000
 51
0.000000
 72
   5
 73
   0
 11
93.942457
 21
-87.850078
  0
TEXT
  8
3
  6
CONTINUOUS
 62
7
 10
74.442457
 20
-92.136935
 40
3.000000
  1
⑩ R0:RJ45無し(ﾌﾞﾗﾝｸﾊﾟﾈﾙ)
 41
0.777847
 50
0.000000
 51
0.000000
 72
   5
 73
   0
 11
111.942457
 21
-92.136935
  0
TEXT
  8
3
  6
CONTINUOUS
 62
7
 10
74.442457
 20
-96.136935
 40
3.000000
  1
　 R1:RJ45有り
 41
0.804598
 50
0.000000
 51
0.000000
 72
   5
 73
   0
 11
95.442457
 21
-96.136935
  0
LINE
  8
3
  6
CONTINUOUS
 62
7
 10
72.4424574064
 20
-90.1369349682
 11
59.9154924529
 21
-90.1369349682
  0
LINE
  8
3
  6
CONTINUOUS
 62
7
 10
59.9154924529
 20
-90.1369349679
 11
59.9154924529
 21
-77.6369349682
  0
LINE
  8
3
  6
CONTINUOUS
 62
7
 10
72.4424574064
 20
-100.1369349682
 11
51.9525140028
 21
-100.1369349682
  0
LINE
  8
3
  6
CONTINUOUS
 62
7
 10
51.9525140028
 20
-100.1369349682
 11
51.9525140028
 21
-77.6369349682
  0
TEXT
  8
3
  6
CONTINUOUS
 62
7
 10
4.516080
 20
-70.750349
 40
5.000000
  1
型番仕様
 41
0.886918
 50
0.000000
 51
0.000000
 72
   5
 73
   0
 11
24.516080
 21
-70.750349
  0
TEXT
  8
3
  6
CONTINUOUS
 62
7
 10
4.516080
 20
-77.750349
 40
5.000000
  1
　MCON-001-054 %%uPB%%u %%uA*%%u %%uR*%%u %%uU*%%u
 41
0.761124
 50
0.000000
 51
0.000000
 72
   5
 73
   0
 11
69.516080
 21
-77.750349
  0
LINE
  8
1
  6
CONTINUOUS
 62
7
 10
94.2210513175
 20
-151.2224546205
 11
42.2210513175
 21
-151.2224546205
  0
LINE
  8
1
  6
CONTINUOUS
 62
7
 10
95.7210513175
 20
-274.2224546205
 11
95.7210513175
 21
-152.7224546205
  0
LINE
  8
1
  6
CONTINUOUS
 62
7
 10
42.2210513175
 20
-275.7224546205
 11
94.2210513175
 21
-275.7224546205
  0
LINE
  8
1
  6
CONTINUOUS
 62
7
 10
40.7210513175
 20
-274.2224546205
 11
40.7210513175
 21
-152.7224546205
  0
LINE
  8
1
  6
CONTINUOUS
 62
7
 10
97.7210513175
 20
-276.7224546205
 11
97.7210513175
 21
-150.2224546205
  0
LINE
  8
1
  6
CONTINUOUS
 62
7
 10
96.7210513175
 20
-149.2224546205
 11
39.7210513175
 21
-149.2224546205
  0
LINE
  8
1
  6
CONTINUOUS
 62
7
 10
38.7210513175
 20
-276.7224546205
 11
38.7210513175
 21
-150.2224546205
  0
LINE
  8
1
  6
CONTINUOUS
 62
7
 10
39.7210513175
 20
-277.7224546205
 11
96.7210513175
 21
-277.7224546205
  0
ARC
  8
1
  6
CONTINUOUS
 62
7
 10
42.2210513175
 20
-152.7224546205
 40
1.5000000000
 50
90.0000000000
 51
180.0000000000
  0
ARC
  8
1
  6
CONTINUOUS
 62
7
 10
94.2210513175
 20
-152.7224546205
 40
1.5000000000
 50
0.0000000000
 51
90.0000000000
  0
ARC
  8
1
  6
CONTINUOUS
 62
7
 10
94.2210513175
 20
-274.2224546205
 40
1.5000000000
 50
270.0000000000
 51
0.0000000000
  0
ARC
  8
1
  6
CONTINUOUS
 62
7
 10
42.2210513175
 20
-274.2224546205
 40
1.5000000000
 50
180.0000000000
 51
270.0000000000
  0
CIRCLE
  8
1
  6
HIDDEN
 62
3
 10
48.2210513175
 20
-154.9724546205
 40
1.7500000000
  0
CIRCLE
  8
1
  6
HIDDEN
 62
3
 10
48.2210513175
 20
-154.9724546205
 40
3.2500000000
  0
CIRCLE
  8
1
  6
HIDDEN
 62
3
 10
88.2210513175
 20
-154.9724546205
 40
1.7500000000
  0
CIRCLE
  8
1
  6
HIDDEN
 62
3
 10
88.2210513175
 20
-154.9724546205
 40
3.2500000000
  0
LINE
  8
1
  6
HIDDEN
 62
3
 10
91.2210513175
 20
-159.9724546205
 11
94.2210513175
 21
-159.9724546205
  0
LINE
  8
1
  6
HIDDEN
 62
3
 10
43.2210513175
 20
-159.9724546205
 11
91.2210513175
 21
-159.9724546205
  0
CIRCLE
  8
1
  6
HIDDEN
 62
3
 10
48.2210513175
 20
-271.9724546205
 40
1.7500000000
  0
CIRCLE
  8
1
  6
HIDDEN
 62
3
 10
48.2210513175
 20
-271.9724546205
 40
3.2500000000
  0
CIRCLE
  8
1
  6
HIDDEN
 62
3
 10
88.2210513175
 20
-271.9724546205
 40
1.7500000000
  0
CIRCLE
  8
1
  6
HIDDEN
 62
3
 10
88.2210513175
 20
-271.9724546205
 40
3.2500000000
  0
CIRCLE
  8
1
  6
HIDDEN
 62
3
 10
68.2210513175
 20
-154.9724546205
 40
2.0000000000
  0
LINE
  8
1
  6
CONTINUOUS
 62
7
 10
99.7210513175
 20
-276.7224546205
 11
99.7210513175
 21
-150.2224546205
  0
LINE
  8
1
  6
CONTINUOUS
 62
7
 10
96.7210513175
 20
-147.2224546205
 11
39.7210513175
 21
-147.2224546205
  0
LINE
  8
1
  6
CONTINUOUS
 62
7
 10
36.7210513175
 20
-276.7224546205
 11
36.7210513175
 21
-150.2224546205
  0
LINE
  8
1
  6
CONTINUOUS
 62
7
 10
39.7210513175
 20
-279.7224546205
 11
96.7210513175
 21
-279.7224546205
  0
LINE
  8
1
  6
CONTINUOUS
 62
7
 10
101.7210513175
 20
-286.7224546205
 11
101.7210513175
 21
-142.8474546205
  0
LINE
  8
1
  6
CONTINUOUS
 62
7
 10
34.7210513175
 20
-142.8474546205
 11
34.7210513175
 21
-286.7224546205
  0
LINE
  8
1
  6
CONTINUOUS
 62
7
 10
102.7210513175
 20
-287.7224546205
 11
102.7210513175
 21
-132.2224546205
  0
LINE
  8
1
  6
CONTINUOUS
 62
7
 10
33.7210513175
 20
-132.2224546205
 11
33.7210513175
 21
-287.7224546205
  0
ARC
  8
1
  6
CONTINUOUS
 62
7
 10
39.7210513175
 20
-150.2224546205
 40
1.0000000000
 50
90.0000000000
 51
180.0000000000
  0
ARC
  8
1
  6
CONTINUOUS
 62
7
 10
96.7210513175
 20
-150.2224546205
 40
1.0000000000
 50
0.0000000000
 51
90.0000000000
  0
ARC
  8
1
  6
CONTINUOUS
 62
7
 10
96.7210513175
 20
-276.7224546205
 40
1.0000000000
 50
270.0000000000
 51
0.0000000000
  0
ARC
  8
1
  6
CONTINUOUS
 62
7
 10
39.7210513175
 20
-276.7224546205
 40
1.0000000000
 50
180.0000000000
 51
270.0000000000
  0
LINE
  8
1
  6
HIDDEN
 62
3
 10
94.2210513175
 20
-169.9724546205
 11
94.2210513175
 21
-159.9724546205
  0
ARC
  8
1
  6
CONTINUOUS
 62
7
 10
39.7210513175
 20
-150.2224546205
 40
3.0000000000
 50
90.0000000000
 51
180.0000000000
  0
ARC
  8
1
  6
CONTINUOUS
 62
7
 10
96.7210513175
 20
-150.2224546205
 40
3.0000000000
 50
0.0000000000
 51
90.0000000000
  0
ARC
  8
1
  6
CONTINUOUS
 62
7
 10
96.7210513175
 20
-276.7224546205
 40
3.0000000000
 50
270.0000000000
 51
0.0000000000
  0
ARC
  8
1
  6
CONTINUOUS
 62
7
 10
39.7210513175
 20
-276.7224546205
 40
3.0000000000
 50
180.0000000000
 51
270.0000000000
  0
LINE
  8
1
  6
DASHDOT
 62
1
 10
104.7210513175
 20
-139.2224546205
 11
31.7210513175
 21
-139.2224546205
  0
LINE
  8
1
  6
CONTINUOUS
 62
7
 10
102.7210513175
 20
-287.7224546205
 11
33.7210513175
 21
-287.7224546205
  0
LINE
  8
1
  6
CONTINUOUS
 62
7
 10
34.7210513175
 20
-286.7224546205
 11
101.7210513175
 21
-286.7224546205
  0
LINE
  8
1
  6
CONTINUOUS
 62
7
 10
34.7210513175
 20
-145.2224546205
 11
34.7210513175
 21
-133.2224546205
  0
LINE
  8
1
  6
CONTINUOUS
 62
7
 10
34.7210513175
 20
-133.2224546205
 11
39.7210513175
 21
-133.2224546205
  0
LINE
  8
1
  6
CONTINUOUS
 62
7
 10
39.7210513175
 20
-133.2224546205
 11
39.7210513175
 21
-145.2224546205
  0
LINE
  8
1
  6
CONTINUOUS
 62
7
 10
39.7210513175
 20
-145.2224546205
 11
34.7210513175
 21
-145.2224546205
  0
LINE
  8
1
  6
CONTINUOUS
 62
7
 10
101.7210513175
 20
-133.2224546205
 11
96.7210513175
 21
-133.2224546205
  0
LINE
  8
1
  6
CONTINUOUS
 62
7
 10
96.7210513175
 20
-133.2224546205
 11
96.7210513175
 21
-145.2224546205
  0
LINE
  8
1
  6
CONTINUOUS
 62
7
 10
96.7210513175
 20
-145.2224546205
 11
101.7210513175
 21
-145.2224546205
  0
LINE
  8
1
  6
CONTINUOUS
 62
7
 10
101.7210513175
 20
-145.2224546205
 11
101.7210513175
 21
-133.2224546205
  0
LINE
  8
1
  6
CONTINUOUS
 62
7
 10
96.7210513175
 20
-145.2224546205
 11
96.7210513175
 21
-146.2224546205
  0
LINE
  8
1
  6
CONTINUOUS
 62
7
 10
96.7210513175
 20
-146.2224546205
 11
39.7210513175
 21
-146.2224546205
  0
LINE
  8
1
  6
CONTINUOUS
 62
7
 10
39.7210513175
 20
-146.2224546205
 11
39.7210513175
 21
-145.2224546205
  0
LINE
  8
1
  6
CONTINUOUS
 62
7
 10
102.7210513175
 20
-132.2224546205
 11
33.7210513175
 21
-132.2224546205
  0
CIRCLE
  8
1
  6
HIDDEN
 62
3
 10
68.2210513175
 20
-154.9724546205
 40
1.6500000000
  0
CIRCLE
  8
1
  6
HIDDEN
 62
3
 10
68.2210513175
 20
-271.9724546205
 40
2.0000000000
  0
CIRCLE
  8
1
  6
HIDDEN
 62
3
 10
68.2210513175
 20
-271.9724546205
 40
1.6500000000
  0
CIRCLE
  8
1
  6
HIDDEN
 62
7
 10
68.2210513175
 20
-283.2224546205
 40
2.0000000000
  0
CIRCLE
  8
1
  6
CONTINUOUS
 62
7
 10
68.2210513175
 20
-283.2224546205
 40
1.6500000000
  0
TEXT
  8
1
  6
CONTINUOUS
 62
7
 10
52.719518
 20
-295.980969
 40
4.000000
  1
内 部 図
 41
0.854701
 50
0.000000
 51
0.000000
 72
   5
 73
   0
 11
68.719518
 21
-295.980969
  0
LINE
  8
1
  6
HIDDEN
 62
3
 10
94.2210513175
 20
-169.9724546205
 11
91.2210513175
 21
-169.9724546205
  0
LINE
  8
1
  6
HIDDEN
 62
3
 10
91.2210513175
 20
-169.9724546205
 11
91.2210513175
 21
-159.9724546205
  0
LINE
  8
1
  6
HIDDEN
 62
3
 10
42.2210513175
 20
-266.9724546205
 11
45.2210513175
 21
-266.9724546205
  0
LINE
  8
1
  6
HIDDEN
 62
3
 10
93.2210513175
 20
-266.9724546205
 11
45.2210513175
 21
-266.9724546205
  0
LINE
  8
1
  6
HIDDEN
 62
3
 10
42.2210513175
 20
-256.9724546205
 11
45.2210513175
 21
-256.9724546205
  0
LINE
  8
3
  6
HIDDEN
 62
3
 10
45.2210513175
 20
-256.9724546205
 11
45.2210513175
 21
-266.9724546205
  0
LINE
  8
1
  6
HIDDEN
 62
3
 10
42.2210513175
 20
-256.9724546205
 11
42.2210513175
 21
-266.9724546205
  0
LINE
  8
1
  6
HIDDEN
 62
3
 10
94.2210513175
 20
-265.9724546205
 11
94.2210513175
 21
-169.9724546205
  0
LINE
  8
1
  6
HIDDEN
 62
3
 10
42.2210513175
 20
-160.9724546205
 11
42.2210513175
 21
-256.9724546205
  0
ARC
  8
1
  6
HIDDEN
 62
3
 10
43.2210513175
 20
-160.9724546205
 40
1.0000000000
 50
90.0000000000
 51
180.0000000000
  0
ARC
  8
1
  6
HIDDEN
 62
3
 10
93.2210513175
 20
-265.9724546205
 40
1.0000000000
 50
270.0000000000
 51
0.0000000000
  0
LINE
  8
7
  6
CONTINUOUS
 62
7
 10
95.4710513175
 20
-274.4724546203
 11
95.4710513175
 21
-152.4724546207
  0
LINE
  8
7
  6
CONTINUOUS
 62
7
 10
94.4710513175
 20
-151.4724546207
 11
41.9710513175
 21
-151.4724546203
  0
LINE
  8
7
  6
CONTINUOUS
 62
7
 10
40.9710513175
 20
-274.4724546207
 11
40.9710513175
 21
-152.4724546203
  0
LINE
  8
7
  6
CONTINUOUS
 62
7
 10
94.4710513175
 20
-275.4724546203
 11
41.9710513175
 21
-275.4724546207
  0
LINE
  8
7
  6
CONTINUOUS
 62
7
 10
41.9710513175
 20
-151.4724546203
 11
40.9710513175
 21
-152.4724546203
  0
LINE
  8
7
  6
CONTINUOUS
 62
7
 10
95.4710513175
 20
-152.4724546207
 11
94.4710513175
 21
-151.4724546207
  0
LINE
  8
7
  6
CONTINUOUS
 62
7
 10
95.4710513175
 20
-274.4724546203
 11
94.4710513175
 21
-275.4724546203
  0
LINE
  8
7
  6
CONTINUOUS
 62
7
 10
41.9710513175
 20
-275.4724546207
 11
40.9710513175
 21
-274.4724546207
  0
CIRCLE
  8
3
  6
CONTINUOUS
 62
6
 10
68.2210513175
 20
-154.9724546206
 40
3.9000000000
  0
LINE
  8
3
  6
CONTINUOUS
 62
6
 10
66.4974785384
 20
-153.2488818414
 11
69.9446240967
 21
-156.6960273997
  0
LINE
  8
3
  6
CONTINUOUS
 62
6
 10
66.4974785384
 20
-156.6960273997
 11
69.9446240967
 21
-153.2488818414
  0
CIRCLE
  8
3
  6
CONTINUOUS
 62
6
 10
68.2210513175
 20
-154.9724546206
 40
3.4125000000
  0
CIRCLE
  8
3
  6
CONTINUOUS
 62
6
 10
68.2210513175
 20
-271.9724546205
 40
3.9000000000
  0
LINE
  8
3
  6
CONTINUOUS
 62
6
 10
66.4974785384
 20
-270.2488818414
 11
69.9446240967
 21
-273.6960273996
  0
LINE
  8
3
  6
CONTINUOUS
 62
6
 10
66.4974785384
 20
-273.6960273996
 11
69.9446240967
 21
-270.2488818414
  0
CIRCLE
  8
3
  6
CONTINUOUS
 62
6
 10
68.2210513175
 20
-271.9724546205
 40
3.4125000000
  0
LINE
  8
3
  6
CONTINUOUS
 62
7
 10
83.7210513175
 20
-223.9724546205
 11
52.7210513175
 21
-223.9724546205
  0
LINE
  8
3
  6
CONTINUOUS
 62
7
 10
89.7210513175
 20
-260.9724546205
 11
89.7210513175
 21
-229.9724546205
  0
LINE
  8
3
  6
CONTINUOUS
 62
7
 10
52.7210513175
 20
-266.9724546205
 11
83.7210513175
 21
-266.9724546205
  0
LINE
  8
3
  6
CONTINUOUS
 62
7
 10
46.7210513175
 20
-260.9724546205
 11
46.7210513175
 21
-229.9724546205
  0
POINT
  8
3
  6
CONTINUOUS
 62
7
 10
68.2210513175
 20
-245.4724546205
  0
CIRCLE
  8
3
  6
CONTINUOUS
 62
7
 10
68.2210513175
 20
-245.4724546205
 40
17.2500000000
  0
CIRCLE
  8
3
  6
CONTINUOUS
 62
7
 10
84.4845072848
 20
-229.2089986532
 40
2.0000000000
  0
CIRCLE
  8
3
  6
CONTINUOUS
 62
7
 10
51.9575953502
 20
-261.7359105878
 40
2.0000000000
  0
CIRCLE
  8
3
  6
CONTINUOUS
 62
7
 10
84.4845072848
 20
-229.2089986532
 40
3.0000000000
  0
CIRCLE
  8
3
  6
CONTINUOUS
 62
7
 10
51.9575953502
 20
-261.7359105878
 40
3.0000000000
  0
TEXT
  8
3
  6
CONTINUOUS
 62
7
 10
65.596051
 20
-252.398212
 40
3.500000
  1
125
 41
0.815217
 50
0.000000
 51
0.000000
 72
   5
 73
   0
 11
70.846051
 21
-252.398212
  0
TEXT
  8
3
  6
CONTINUOUS
 62
7
 10
67.471051
 20
-255.079958
 40
3.000000
  1
V
 41
1.000000
 50
0.000000
 51
0.000000
 72
   5
 73
   0
 11
68.971051
 21
-255.079958
  0
INSERT
  8
3
  6
CONTINUOUS
 62
7
  2
S4
 10
73.5343218446
 20
-236.2536191571
  0
ARC
  8
3
  6
CONTINUOUS
 62
7
 10
52.7210513175
 20
-229.9724546205
 40
6.0000000000
 50
90.0000000000
 51
180.0000000000
  0
ARC
  8
3
  6
CONTINUOUS
 62
7
 10
83.7210513175
 20
-229.9724546205
 40
6.0000000000
 50
0.0000000000
 51
90.0000000000
  0
ARC
  8
3
  6
CONTINUOUS
 62
7
 10
83.7210513175
 20
-260.9724546205
 40
6.0000000000
 50
270.0000000000
 51
0.0000000000
  0
ARC
  8
3
  6
CONTINUOUS
 62
7
 10
52.7210513175
 20
-260.9724546205
 40
6.0000000000
 50
180.0000000000
 51
270.0000000000
  0
ARC
  8
3
  6
CONTINUOUS
 62
5
 10
68.2210513175
 20
-236.3224546205
 40
2.6500000000
 50
180.0000000000
 51
0.0000000000
  0
LINE
  8
3
  6
CONTINUOUS
 62
5
 10
65.5710513175
 20
-236.3224546205
 11
65.5710513175
 21
-233.6724546205
  0
LINE
  8
3
  6
CONTINUOUS
 62
5
 10
65.5710513175
 20
-233.6724546205
 11
70.8710513175
 21
-233.6724546205
  0
LINE
  8
3
  6
CONTINUOUS
 62
5
 10
70.8710513175
 20
-233.6724546205
 11
70.8710513175
 21
-236.3224546205
  0
LINE
  8
3
  6
CONTINUOUS
 62
5
 10
73.5210513175
 20
-243.8724546205
 11
75.7210513175
 21
-243.8724546205
  0
LINE
  8
3
  6
CONTINUOUS
 62
5
 10
75.7210513175
 20
-243.8724546205
 11
75.7210513175
 21
-252.5724546205
  0
LINE
  8
3
  6
CONTINUOUS
 62
5
 10
75.7210513175
 20
-252.5724546205
 11
73.5210513175
 21
-252.5724546205
  0
LINE
  8
3
  6
CONTINUOUS
 62
5
 10
73.5210513175
 20
-252.5724546205
 11
73.5210513175
 21
-243.8724546205
  0
LINE
  8
3
  6
CONTINUOUS
 62
5
 10
60.7210513175
 20
-244.7224546205
 11
62.9210513175
 21
-244.7224546205
  0
LINE
  8
3
  6
CONTINUOUS
 62
5
 10
62.9210513175
 20
-244.7224546205
 11
62.9210513175
 21
-251.7224546205
  0
LINE
  8
3
  6
CONTINUOUS
 62
5
 10
62.9210513175
 20
-251.7224546205
 11
60.7210513175
 21
-251.7224546205
  0
LINE
  8
3
  6
CONTINUOUS
 62
5
 10
60.7210513175
 20
-251.7224546205
 11
60.7210513175
 21
-244.7224546205
  0
CIRCLE
  8
3
  6
CONTINUOUS
 62
5
 10
78.1089476497
 20
-248.2224546205
 40
1.5000000000
  0
TEXT
  8
3
  6
CONTINUOUS
 62
5
 10
77.483948
 20
-249.472455
 40
2.500000
  1
N
 41
1.000000
 50
0.000000
 51
0.000000
 72
   5
 73
   0
 11
78.733948
 21
-249.472455
  0
TEXT
  8
3
  6
CONTINUOUS
 62
7
 10
65.971051
 20
-245.472455
 40
4.500000
  1
15
 41
0.854701
 50
0.000000
 51
0.000000
 72
   5
 73
   0
 11
70.471051
 21
-245.472455
  0
TEXT
  8
3
  6
CONTINUOUS
 62
7
 10
67.471051
 20
-248.472455
 40
3.000000
  1
A
 41
1.000000
 50
0.000000
 51
0.000000
 72
   5
 73
   0
 11
68.971051
 21
-248.472455
  0
LINE
  8
3
  6
CONTINUOUS
 62
7
 10
95.4710513175
 20
-274.4724546203
 11
95.4710513175
 21
-152.4724546207
  0
LINE
  8
3
  6
CONTINUOUS
 62
7
 10
95.4710513175
 20
-152.4724546207
 11
94.4710513175
 21
-151.4724546207
  0
LINE
  8
3
  6
CONTINUOUS
 62
7
 10
94.4710513175
 20
-151.4724546207
 11
41.9710513175
 21
-151.4724546203
  0
LINE
  8
3
  6
CONTINUOUS
 62
7
 10
41.9710513175
 20
-151.4724546203
 11
40.9710513175
 21
-152.4724546203
  0
LINE
  8
3
  6
CONTINUOUS
 62
7
 10
40.9710513175
 20
-274.4724546207
 11
40.9710513175
 21
-152.4724546203
  0
LINE
  8
3
  6
CONTINUOUS
 62
7
 10
41.9710513175
 20
-275.4724546207
 11
40.9710513175
 21
-274.4724546207
  0
LINE
  8
3
  6
CONTINUOUS
 62
7
 10
94.4710513175
 20
-275.4724546203
 11
41.9710513175
 21
-275.4724546207
  0
LINE
  8
3
  6
CONTINUOUS
 62
7
 10
95.4710513175
 20
-274.4724546203
 11
94.4710513175
 21
-275.4724546203
  0
POINT
  8
3
  6
CONTINUOUS
 62
7
 10
80.4710513175
 20
-190.4724546205
  0
LINE
  8
3
  6
CONTINUOUS
 62
7
 10
71.9710513175
 20
-178.9724546205
 11
88.9710513175
 21
-178.9724546205
  0
LINE
  8
3
  6
CONTINUOUS
 62
7
 10
71.9710513175
 20
-201.9724546205
 11
71.9710513175
 21
-178.9724546205
  0
LINE
  8
3
  6
CONTINUOUS
 62
7
 10
88.9710513175
 20
-201.9724546205
 11
71.9710513175
 21
-201.9724546205
  0
LINE
  8
3
  6
CONTINUOUS
 62
7
 10
88.9710513175
 20
-178.9724546205
 11
88.9710513175
 21
-201.9724546205
  0
CIRCLE
  8
3
  6
CONTINUOUS
 62
7
 10
80.4710513175
 20
-175.9724546205
 40
1.5000000000
  0
CIRCLE
  8
3
  6
CONTINUOUS
 62
7
 10
80.4710513175
 20
-204.9724546205
 40
1.5000000000
  0
TEXT
  8
3
  6
CONTINUOUS
 62
7
 10
76.721051
 20
-190.472455
 40
5.000000
  1
⑪
 41
1.000000
 50
0.000000
 51
0.000000
 72
   5
 73
   0
 11
81.721051
 21
-190.472455
  0
TEXT
  8
3
  6
CONTINUOUS
 62
7
 10
76.721051
 20
-195.472455
 40
5.000000
  1
USB
 41
0.815217
 50
0.000000
 51
0.000000
 72
   5
 73
   0
 11
84.221051
 21
-195.472455
  0
INSERT
  8
1
  6
CONTINUOUS
 62
5
  2
LTEX2
 10
58.4023102879
 20
-227.1846334294
  0
LINE
  8
3
  6
CONTINUOUS
 62
7
 10
184.8178253186
 20
-77.8784632072
 11
153.8178253186
 21
-77.8784632072
  0
LINE
  8
3
  6
CONTINUOUS
 62
7
 10
190.8178253186
 20
-114.8784632072
 11
190.8178253186
 21
-83.8784632072
  0
LINE
  8
3
  6
CONTINUOUS
 62
7
 10
153.8178253186
 20
-120.8784632072
 11
184.8178253186
 21
-120.8784632072
  0
LINE
  8
3
  6
CONTINUOUS
 62
7
 10
147.8178253186
 20
-114.8784632072
 11
147.8178253186
 21
-83.8784632072
  0
POINT
  8
3
  6
CONTINUOUS
 62
7
 10
169.3178253186
 20
-99.3784632072
  0
CIRCLE
  8
3
  6
CONTINUOUS
 62
7
 10
169.3178253186
 20
-99.3784632072
 40
17.2500000000
  0
CIRCLE
  8
3
  6
CONTINUOUS
 62
7
 10
185.5812812859
 20
-83.1150072399
 40
3.0000000000
  0
CIRCLE
  8
3
  6
CONTINUOUS
 62
7
 10
153.0543693513
 20
-115.6419191745
 40
3.0000000000
  0
TEXT
  8
3
  6
CONTINUOUS
 62
7
 10
166.692825
 20
-106.304221
 40
3.500000
  1
125
 41
0.815217
 50
0.000000
 51
0.000000
 72
   5
 73
   0
 11
171.942825
 21
-106.304221
  0
TEXT
  8
3
  6
CONTINUOUS
 62
7
 10
168.567825
 20
-108.985966
 40
3.000000
  1
V
 41
1.000000
 50
0.000000
 51
0.000000
 72
   5
 73
   0
 11
170.067825
 21
-108.985966
  0
INSERT
  8
3
  6
CONTINUOUS
 62
7
  2
S5
 10
174.6310958456
 20
-90.1596277438
  0
ARC
  8
3
  6
CONTINUOUS
 62
7
 10
153.8178253186
 20
-83.8784632072
 40
6.0000000000
 50
90.0000000000
 51
180.0000000000
  0
ARC
  8
3
  6
CONTINUOUS
 62
7
 10
184.8178253186
 20
-83.8784632072
 40
6.0000000000
 50
0.0000000000
 51
90.0000000000
  0
ARC
  8
3
  6
CONTINUOUS
 62
7
 10
184.8178253186
 20
-114.8784632072
 40
6.0000000000
 50
270.0000000000
 51
0.0000000000
  0
ARC
  8
3
  6
CONTINUOUS
 62
7
 10
153.8178253186
 20
-114.8784632072
 40
6.0000000000
 50
180.0000000000
 51
270.0000000000
  0
ARC
  8
3
  6
CONTINUOUS
 62
5
 10
169.3178253186
 20
-90.2284632072
 40
2.6500000000
 50
180.0000000000
 51
0.0000000000
  0
LINE
  8
3
  6
CONTINUOUS
 62
5
 10
166.6678253186
 20
-90.2284632072
 11
166.6678253186
 21
-87.5784632072
  0
LINE
  8
3
  6
CONTINUOUS
 62
5
 10
166.6678253186
 20
-87.5784632072
 11
171.9678253186
 21
-87.5784632072
  0
LINE
  8
3
  6
CONTINUOUS
 62
5
 10
171.9678253186
 20
-87.5784632072
 11
171.9678253186
 21
-90.2284632072
  0
LINE
  8
3
  6
CONTINUOUS
 62
5
 10
174.6178253186
 20
-97.7784632072
 11
176.8178253186
 21
-97.7784632072
  0
LINE
  8
3
  6
CONTINUOUS
 62
5
 10
176.8178253186
 20
-97.7784632072
 11
176.8178253186
 21
-106.4784632072
  0
LINE
  8
3
  6
CONTINUOUS
 62
5
 10
176.8178253186
 20
-106.4784632072
 11
174.6178253186
 21
-106.4784632072
  0
LINE
  8
3
  6
CONTINUOUS
 62
5
 10
174.6178253186
 20
-106.4784632072
 11
174.6178253186
 21
-97.7784632072
  0
LINE
  8
3
  6
CONTINUOUS
 62
5
 10
161.8178253186
 20
-98.6284632072
 11
164.0178253186
 21
-98.6284632072
  0
LINE
  8
3
  6
CONTINUOUS
 62
5
 10
164.0178253186
 20
-98.6284632072
 11
164.0178253186
 21
-105.6284632072
  0
LINE
  8
3
  6
CONTINUOUS
 62
5
 10
164.0178253186
 20
-105.6284632072
 11
161.8178253186
 21
-105.6284632072
  0
LINE
  8
3
  6
CONTINUOUS
 62
5
 10
161.8178253186
 20
-105.6284632072
 11
161.8178253186
 21
-98.6284632072
  0
CIRCLE
  8
3
  6
CONTINUOUS
 62
5
 10
179.2057216508
 20
-102.1284632072
 40
1.5000000000
  0
TEXT
  8
3
  6
CONTINUOUS
 62
5
 10
178.580722
 20
-103.378463
 40
2.500000
  1
N
 41
1.000000
 50
0.000000
 51
0.000000
 72
   5
 73
   0
 11
179.830722
 21
-103.378463
  0
TEXT
  8
3
  6
CONTINUOUS
 62
7
 10
167.067825
 20
-99.378463
 40
4.500000
  1
15
 41
0.854701
 50
0.000000
 51
0.000000
 72
   5
 73
   0
 11
171.567825
 21
-99.378463
  0
TEXT
  8
3
  6
CONTINUOUS
 62
7
 10
168.567825
 20
-102.378463
 40
3.000000
  1
A
 41
1.000000
 50
0.000000
 51
0.000000
 72
   5
 73
   0
 11
170.067825
 21
-102.378463
  0
TEXT
  8
3
  6
CONTINUOUS
 62
7
 10
200.317825
 20
-128.878463
 40
5.000000
  1
A1
 41
0.854701
 50
0.000000
 51
0.000000
 72
   5
 73
   0
 11
205.317825
 21
-128.878463
  0
TEXT
  8
3
  6
CONTINUOUS
 62
7
 10
200.317825
 20
-133.878463
 40
5.000000
  1
抜け防止ﾀｲﾌﾟ
 41
0.834492
 50
0.000000
 51
0.000000
 72
   5
 73
   0
 11
230.317825
 21
-133.878463
  0
TEXT
  8
3
  6
CONTINUOUS
 62
7
 10
159.317825
 20
-128.878463
 40
5.000000
  1
A0
 41
0.854701
 50
0.000000
 51
0.000000
 72
   5
 73
   0
 11
164.317825
 21
-128.878463
  0
TEXT
  8
3
  6
CONTINUOUS
 62
7
 10
159.317825
 20
-133.878463
 40
5.000000
  1
通常ﾀｲﾌﾟ
 41
0.824742
 50
0.000000
 51
0.000000
 72
   5
 73
   0
 11
179.317825
 21
-133.878463
  0
INSERT
  8
1
  6
CONTINUOUS
 62
5
  2
BALN8
 10
162.3511050565
 20
-80.8142186975
  0
LINE
  8
3
  6
CONTINUOUS
 62
6
 10
184.2428291643
 20
-81.7765551184
 11
186.9197334074
 21
-84.4534593614
  0
LINE
  8
3
  6
CONTINUOUS
 62
6
 10
184.2428291643
 20
-84.4534593614
 11
186.9197334074
 21
-81.7765551184
  0
LINE
  8
3
  6
CONTINUOUS
 62
6
 10
151.7159172298
 20
-114.3034670530
 11
154.3928214728
 21
-116.9803712960
  0
LINE
  8
3
  6
CONTINUOUS
 62
6
 10
151.7159172298
 20
-116.9803712960
 11
154.3928214728
 21
-114.3034670530
  0
LINE
  8
3
  6
CONTINUOUS
 62
6
 10
197.7159172298
 20
-114.3034670530
 11
200.3928214728
 21
-116.9803712960
  0
LINE
  8
3
  6
CONTINUOUS
 62
6
 10
197.7159172298
 20
-116.9803712960
 11
200.3928214728
 21
-114.3034670530
  0
LINE
  8
3
  6
CONTINUOUS
 62
6
 10
230.2428291643
 20
-81.7765551184
 11
232.9197334074
 21
-84.4534593614
  0
LINE
  8
3
  6
CONTINUOUS
 62
6
 10
230.2428291643
 20
-84.4534593614
 11
232.9197334074
 21
-81.7765551184
  0
CIRCLE
  8
3
  6
CONTINUOUS
 62
6
 10
185.5812812859
 20
-83.1150072399
 40
2.6500000000
  0
CIRCLE
  8
3
  6
CONTINUOUS
 62
6
 10
153.0543693513
 20
-115.6419191745
 40
2.6500000000
  0
CIRCLE
  8
3
  6
CONTINUOUS
 62
6
 10
199.0543693513
 20
-115.6419191745
 40
2.6500000000
  0
CIRCLE
  8
3
  6
CONTINUOUS
 62
6
 10
231.5812812859
 20
-83.1150072399
 40
2.6500000000
  0
INSERT
  8
1
  6
CONTINUOUS
 62
5
  2
BALN9
 10
184.3874683405
 20
-80.7491436235
  0
INSERT
  8
1
  6
CONTINUOUS
 62
5
  2
BALN10
 10
230.3874683405
 20
-80.7491436235
  0
INSERT
  8
1
  6
CONTINUOUS
 62
5
  2
BALN11
 10
208.3511050565
 20
-80.8142186975
  0
TEXT
  8
5
  6
CONTINUOUS
 62
7
 10
315.656774
 20
-81.925955
 40
3.000000
  1
ﾋﾞｽ
 41
0.761957
 50
0.000000
 51
0.000000
 72
   5
 73
   0
 11
319.862774
 21
-81.925955
  0
TEXT
  8
5
  6
CONTINUOUS
 62
7
 10
310.656774
 20
-81.925955
 40
3.000000
  1
92
 41
0.854701
 50
0.000000
 51
0.000000
 72
   5
 73
   0
 11
313.656774
 21
-81.925955
  0
TEXT
  8
5
  6
CONTINUOUS
 62
7
 10
335.656774
 20
-81.925955
 40
3.000000
  1
M3×8 ｻﾗ
 41
0.850598
 50
0.000000
 51
0.000000
 72
   5
 73
   0
 11
348.466774
 21
-81.925955
  0
TEXT
  8
5
  6
CONTINUOUS
 62
7
 10
375.656774
 20
-81.925955
 40
3.000000
  1
--
 41
0.854701
 50
0.000000
 51
0.000000
 72
   5
 73
   0
 11
378.656774
 21
-81.925955
  0
TEXT
  8
5
  6
CONTINUOUS
 62
7
 10
391.281774
 20
-82.175955
 40
3.500000
  1
2
 41
1.000000
 50
0.000000
 51
0.000000
 72
   5
 73
   0
 11
393.031774
 21
-82.175955
  0
TEXT
  8
5
  6
CONTINUOUS
 62
7
 10
310.656774
 20
-104.425955
 40
3.000000
  1
94
 41
0.854701
 50
0.000000
 51
0.000000
 72
   5
 73
   0
 11
313.656774
 21
-104.425955
  0
TEXT
  8
5
  6
CONTINUOUS
 62
7
 10
315.656774
 20
-104.425955
 40
3.000000
  1
ﾋﾞｽ
 41
0.761957
 50
0.000000
 51
0.000000
 72
   5
 73
   0
 11
319.862774
 21
-104.425955
  0
TEXT
  8
5
  6
CONTINUOUS
 62
7
 10
335.656774
 20
-104.425955
 40
3.000000
  1
M3×8 ｻﾗ
 41
0.850598
 50
0.000000
 51
0.000000
 72
   5
 73
   0
 11
348.466774
 21
-104.425955
  0
TEXT
  8
5
  6
CONTINUOUS
 62
7
 10
375.656774
 20
-104.425955
 40
3.000000
  1
--
 41
0.854701
 50
0.000000
 51
0.000000
 72
   5
 73
   0
 11
378.656774
 21
-104.425955
  0
TEXT
  8
5
  6
CONTINUOUS
 62
7
 10
391.281774
 20
-104.675955
 40
3.500000
  1
2
 41
1.000000
 50
0.000000
 51
0.000000
 72
   5
 73
   0
 11
393.031774
 21
-104.675955
  0
LINE
  8
3
  6
CONTINUOUS
 62
7
 10
201.1308680172
 20
144.9050725884
 11
201.1308680172
 21
169.2050725884
  0
LINE
  8
3
  6
CONTINUOUS
 62
7
 10
201.1308680172
 20
169.2050725884
 11
218.1308680172
 21
169.2050725884
  0
LINE
  8
3
  6
CONTINUOUS
 62
7
 10
218.1308680172
 20
169.2050725884
 11
218.1308680172
 21
144.9050725884
  0
LINE
  8
3
  6
CONTINUOUS
 62
7
 10
218.1308680172
 20
144.9050725884
 11
201.1308680172
 21
144.9050725884
  0
POINT
  8
3
  6
CONTINUOUS
 62
9
 10
209.6308680172
 20
157.0550725884
  0
TEXT
  8
3
  6
CONTINUOUS
 62
7
 10
204.630868
 20
157.055073
 40
5.000000
  1
⑩
 41
1.000000
 50
0.000000
 51
0.000000
 72
   5
 73
   0
 11
209.630868
 21
157.055073
  0
TEXT
  8
3
  6
CONTINUOUS
 62
7
 10
204.630868
 20
152.055073
 40
5.000000
  1
RJ45
 41
0.796813
 50
0.000000
 51
0.000000
 72
   5
 73
   0
 11
214.630868
 21
152.055073
  0
LINE
  8
3
  6
CONTINUOUS
 62
7
 10
47.4710513175
 20
-202.6224546205
 11
47.4710513175
 21
-178.3224546205
  0
LINE
  8
3
  6
CONTINUOUS
 62
7
 10
47.4710513175
 20
-178.3224546205
 11
64.4710513175
 21
-178.3224546205
  0
LINE
  8
3
  6
CONTINUOUS
 62
7
 10
64.4710513175
 20
-178.3224546205
 11
64.4710513175
 21
-202.6224546205
  0
LINE
  8
3
  6
CONTINUOUS
 62
7
 10
64.4710513175
 20
-202.6224546205
 11
47.4710513175
 21
-202.6224546205
  0
POINT
  8
3
  6
CONTINUOUS
 62
9
 10
55.9710513175
 20
-190.4724546205
  0
TEXT
  8
3
  6
CONTINUOUS
 62
7
 10
50.971051
 20
-190.472455
 40
5.000000
  1
⑩
 41
1.000000
 50
0.000000
 51
0.000000
 72
   5
 73
   0
 11
55.971051
 21
-190.472455
  0
TEXT
  8
3
  6
CONTINUOUS
 62
7
 10
50.971051
 20
-195.472455
 40
5.000000
  1
RJ45
 41
0.796813
 50
0.000000
 51
0.000000
 72
   5
 73
   0
 11
60.971051
 21
-195.472455
  0
LINE
  8
3
  6
CONTINUOUS
 62
9
 10
218.6171374659
 20
-151.3053415009
 11
200.6671374659
 21
-151.3053415009
  0
LINE
  8
3
  6
CONTINUOUS
 62
9
 10
220.6171374659
 20
-175.2553415009
 11
220.6171374659
 21
-153.3053415009
  0
LINE
  8
3
  6
CONTINUOUS
 62
9
 10
200.6671374659
 20
-177.2553415009
 11
218.6171374659
 21
-177.2553415009
  0
LINE
  8
3
  6
CONTINUOUS
 62
9
 10
198.6671374659
 20
-175.2553415009
 11
198.6671374659
 21
-153.3053415009
  0
ARC
  8
3
  6
CONTINUOUS
 62
9
 10
200.6671374659
 20
-153.3053415009
 40
2.0000000000
 50
90.0000000000
 51
180.0000000000
  0
ARC
  8
3
  6
CONTINUOUS
 62
9
 10
218.6171374659
 20
-153.3053415009
 40
2.0000000000
 50
0.0000000000
 51
90.0000000000
  0
ARC
  8
3
  6
CONTINUOUS
 62
9
 10
218.6171374659
 20
-175.2553415009
 40
2.0000000000
 50
270.0000000000
 51
0.0000000000
  0
ARC
  8
3
  6
CONTINUOUS
 62
9
 10
200.6671374659
 20
-175.2553415009
 40
2.0000000000
 50
180.0000000000
 51
270.0000000000
  0
POINT
  8
3
  6
CONTINUOUS
 62
9
 10
209.6421374659
 20
-164.2803415009
  0
LINE
  8
3
  6
HIDDEN
 62
9
 10
218.1421374659
 20
-152.1303415009
 11
218.1421374659
 21
-176.4303415009
  0
LINE
  8
3
  6
HIDDEN
 62
9
 10
218.1421374659
 20
-176.4303415009
 11
201.1421374659
 21
-176.4303415009
  0
LINE
  8
3
  6
HIDDEN
 62
9
 10
201.1421374659
 20
-176.4303415009
 11
201.1421374659
 21
-152.1303415009
  0
LINE
  8
3
  6
HIDDEN
 62
9
 10
201.1421374659
 20
-152.1303415009
 11
218.1421374659
 21
-152.1303415009
  0
LINE
  8
3
  6
CONTINUOUS
 62
7
 10
260.5671374659
 20
-151.3053415009
 11
242.6171374659
 21
-151.3053415009
  0
LINE
  8
3
  6
CONTINUOUS
 62
7
 10
262.5671374659
 20
-175.2553415009
 11
262.5671374659
 21
-153.3053415009
  0
LINE
  8
3
  6
CONTINUOUS
 62
7
 10
242.6171374659
 20
-177.2553415009
 11
260.5671374659
 21
-177.2553415009
  0
LINE
  8
3
  6
CONTINUOUS
 62
7
 10
240.6171374659
 20
-175.2553415009
 11
240.6171374659
 21
-153.3053415009
  0
POINT
  8
3
  6
CONTINUOUS
 62
5
 10
251.5921374659
 20
-164.2803415009
  0
LINE
  8
3
  6
CONTINUOUS
 62
5
 10
244.2721374659
 20
-155.9053415009
 11
258.9121374659
 21
-155.9053415009
  0
LINE
  8
3
  6
CONTINUOUS
 62
5
 10
258.9121374659
 20
-155.9053415009
 11
258.9121374659
 21
-167.1053415009
  0
LINE
  8
3
  6
CONTINUOUS
 62
5
 10
258.9121374659
 20
-167.1053415009
 11
244.2721374659
 21
-167.1053415009
  0
LINE
  8
3
  6
CONTINUOUS
 62
5
 10
244.2721374659
 20
-167.1053415009
 11
244.2721374659
 21
-155.9053415009
  0
LINE
  8
3
  6
CONTINUOUS
 62
7
 10
246.0171374659
 20
-169.1053415009
 11
257.1671374659
 21
-169.1053415009
  0
LINE
  8
3
  6
CONTINUOUS
 62
7
 10
257.1671374659
 20
-169.1053415009
 11
257.1671374659
 21
-176.2553415009
  0
LINE
  8
3
  6
CONTINUOUS
 62
7
 10
257.1671374659
 20
-176.2553415009
 11
246.0171374659
 21
-176.2553415009
  0
LINE
  8
3
  6
CONTINUOUS
 62
7
 10
246.0171374659
 20
-176.2553415009
 11
246.0171374659
 21
-169.1053415009
  0
LINE
  8
3
  6
HIDDEN
 62
7
 10
248.5171374659
 20
-171.8803415009
 11
254.6671374659
 21
-171.8803415009
  0
LINE
  8
3
  6
HIDDEN
 62
7
 10
254.6671374659
 20
-171.8803415009
 11
254.6671374659
 21
-173.4803415009
  0
LINE
  8
3
  6
HIDDEN
 62
7
 10
254.6671374659
 20
-173.4803415009
 11
248.5171374659
 21
-173.4803415009
  0
LINE
  8
3
  6
HIDDEN
 62
7
 10
248.5171374659
 20
-173.4803415009
 11
248.5171374659
 21
-171.8803415009
  0
ARC
  8
3
  6
CONTINUOUS
 62
7
 10
242.6171374659
 20
-153.3053415009
 40
2.0000000000
 50
90.0000000000
 51
180.0000000000
  0
ARC
  8
3
  6
CONTINUOUS
 62
7
 10
260.5671374659
 20
-153.3053415009
 40
2.0000000000
 50
0.0000000000
 51
90.0000000000
  0
ARC
  8
3
  6
CONTINUOUS
 62
7
 10
260.5671374659
 20
-175.2553415009
 40
2.0000000000
 50
270.0000000000
 51
0.0000000000
  0
ARC
  8
3
  6
CONTINUOUS
 62
7
 10
242.6171374659
 20
-175.2553415009
 40
2.0000000000
 50
180.0000000000
 51
270.0000000000
  0
LINE
  8
3
  6
CONTINUOUS
 62
5
 10
257.5921374659
 20
-166.1053415009
 11
257.5921374659
 21
-159.1053415009
  0
LINE
  8
3
  6
CONTINUOUS
 62
5
 10
257.5921374659
 20
-159.1053415009
 11
254.7921374659
 21
-159.1053415009
  0
LINE
  8
3
  6
CONTINUOUS
 62
5
 10
254.7921374659
 20
-159.1053415009
 11
254.7921374659
 21
-157.6053415009
  0
LINE
  8
3
  6
CONTINUOUS
 62
5
 10
254.7921374659
 20
-157.6053415009
 11
253.7421374659
 21
-157.6053415009
  0
LINE
  8
3
  6
CONTINUOUS
 62
5
 10
253.7421374659
 20
-157.6053415009
 11
253.7421374659
 21
-155.9053415009
  0
LINE
  8
3
  6
CONTINUOUS
 62
5
 10
249.4421374659
 20
-155.9053415009
 11
249.4421374659
 21
-157.6053415009
  0
LINE
  8
3
  6
CONTINUOUS
 62
5
 10
249.4421374659
 20
-157.6053415009
 11
248.3921374659
 21
-157.6053415009
  0
LINE
  8
3
  6
CONTINUOUS
 62
5
 10
248.3921374659
 20
-157.6053415009
 11
248.3921374659
 21
-159.1053415009
  0
LINE
  8
3
  6
CONTINUOUS
 62
5
 10
248.3921374659
 20
-159.1053415009
 11
245.5921374659
 21
-159.1053415009
  0
LINE
  8
3
  6
CONTINUOUS
 62
5
 10
245.5921374659
 20
-159.1053415009
 11
245.5921374659
 21
-166.1053415009
  0
LINE
  8
3
  6
CONTINUOUS
 62
5
 10
245.5921374659
 20
-166.1053415009
 11
257.5921374659
 21
-166.1053415009
  0
LINE
  8
3
  6
HIDDEN
 62
3
 10
260.0921374659
 20
-152.1303415009
 11
260.0921374659
 21
-176.4303415009
  0
LINE
  8
3
  6
HIDDEN
 62
3
 10
243.0921374659
 20
-152.1303415009
 11
260.0921374659
 21
-152.1303415009
  0
LINE
  8
3
  6
HIDDEN
 62
3
 10
243.0921374659
 20
-176.4303415009
 11
243.0921374659
 21
-152.1303415009
  0
LINE
  8
3
  6
HIDDEN
 62
3
 10
260.0921374659
 20
-176.4303415009
 11
243.0921374659
 21
-176.4303415009
  0
INSERT
  8
1
  6
CONTINUOUS
 62
7
  2
S6
 10
309.6307705942
 20
234.5561403077
  0
LINE
  8
1
  6
CONTINUOUS
 62
7
 10
11.5000000000
 20
260.0000000000
 11
6.5000000000
 21
260.0000000000
  0
TEXT
  8
1
  6
CONTINUOUS
 62
7
 10
7.948950
 20
259.621673
 40
3.300000
  1
B
 41
1.274000
 50
0.000000
 51
0.000000
 72
   5
 73
   0
 11
10.051050
 21
259.621673
  0
LINE
  8
1
  6
CONTINUOUS
 62
7
 10
9.0000000000
 20
264.0000000000
 11
6.5000000000
 21
260.0000000000
  0
LINE
  8
1
  6
CONTINUOUS
 62
7
 10
9.0000000000
 20
264.0000000000
 11
11.5000000000
 21
260.0000000000
  0
POINT
  8
1
  6
CONTINUOUS
 62
7
 10
9.0000000000
 20
262.0000000000
  0
TEXT
  8
1
  6
CONTINUOUS
 62
7
 10
14.836500
 20
260.500000
 40
3.000000
  1
'08.5.13
 41
0.599037
 50
0.000000
 51
0.000000
 72
   5
 73
   0
 11
24.163500
 21
260.500000
  0
TEXT
  8
1
  6
CONTINUOUS
 62
7
 10
28.160983
 20
260.056979
 40
4.000000
  1
M0051B054 改訂A→B
 41
0.790861
 50
0.000000
 51
0.000000
 72
   5
 73
   0
 11
64.160983
 21
260.056979
  0
TEXT
  8
1
  6
CONTINUOUS
 62
7
 10
91.000000
 20
260.250000
 40
3.500000
  1
山田
 41
0.921659
 50
0.000000
 51
0.000000
 72
   5
 73
   0
 11
98.000000
 21
260.250000
  0
TEXT
  8
5
  6
CONTINUOUS
 62
7
 10
335.656774
 20
-87.425955
 40
4.000000
  1
Z0252
 41
0.806918
 50
0.000000
 51
0.000000
 72
   5
 73
   0
 11
345.920774
 21
-87.425955
  0
TEXT
  8
5
  6
CONTINUOUS
 62
7
 10
315.656774
 20
-86.925955
 40
3.000000
  1
裏面ｶﾊﾞｰ
 41
0.843299
 50
0.000000
 51
0.000000
 72
   5
 73
   0
 11
327.926774
 21
-86.925955
  0
TEXT
  8
5
  6
CONTINUOUS
 62
7
 10
375.656774
 20
-86.825955
 40
2.800000
  1
ｱﾒﾘｶﾝ電機
 41
0.862681
 50
0.000000
 51
0.000000
 72
   5
 73
   0
 11
388.990374
 21
-86.825955
  0
TEXT
  8
5
  6
CONTINUOUS
 62
7
 10
391.281774
 20
-87.175955
 40
3.500000
  1
1
 41
1.000000
 50
0.000000
 51
0.000000
 72
   5
 73
   0
 11
393.031774
 21
-87.175955
  0
TEXT
  8
5
  6
CONTINUOUS
 62
7
 10
335.656774
 20
-109.925955
 40
4.000000
  1
Z0252
 41
0.806918
 50
0.000000
 51
0.000000
 72
   5
 73
   0
 11
345.920774
 21
-109.925955
  0
TEXT
  8
5
  6
CONTINUOUS
 62
7
 10
315.656774
 20
-109.425955
 40
3.000000
  1
裏面ｶﾊﾞｰ
 41
0.843299
 50
0.000000
 51
0.000000
 72
   5
 73
   0
 11
327.926774
 21
-109.425955
  0
TEXT
  8
5
  6
CONTINUOUS
 62
7
 10
375.656774
 20
-109.325955
 40
2.800000
  1
ｱﾒﾘｶﾝ電機
 41
0.862681
 50
0.000000
 51
0.000000
 72
   5
 73
   0
 11
388.990374
 21
-109.325955
  0
TEXT
  8
5
  6
CONTINUOUS
 62
7
 10
391.281774
 20
-109.675955
 40
3.500000
  1
1
 41
1.000000
 50
0.000000
 51
0.000000
 72
   5
 73
   0
 11
393.031774
 21
-109.675955
  0
INSERT
  8
1
  6
CONTINUOUS
 62
7
  2
S7
 10
292.4597931678
 20
-85.1634739345
  0
INSERT
  8
1
  6
CONTINUOUS
 62
7
  2
S8
 10
292.4597931678
 20
-107.6634739345
  0
INSERT
  8
1
  6
CONTINUOUS
 62
7
  2
S9
 10
7.7490435001
 20
-56.9655230621
  0
TEXT
  8
1
  6
CONTINUOUS
 62
7
 10
14.335544
 20
-58.465523
 40
3.000000
  1
'08.6.9
 41
0.577212
 50
0.000000
 51
0.000000
 72
   5
 73
   0
 11
22.162544
 21
-58.465523
  0
TEXT
  8
1
  6
CONTINUOUS
 62
7
 10
26.910027
 20
-58.908544
 40
4.000000
  1
絶縁ｶﾊﾞｰ(Z0252)追加
 41
0.799663
 50
0.000000
 51
0.000000
 72
   5
 73
   0
 11
64.910027
 21
-58.908544
  0
TEXT
  8
1
  6
CONTINUOUS
 62
7
 10
89.749044
 20
-58.715523
 40
3.500000
  1
山田
 41
0.921659
 50
0.000000
 51
0.000000
 72
   5
 73
   0
 11
96.749044
 21
-58.715523
  0
TEXT
  8
3
  6
CONTINUOUS
 62
7
 10
74.244599
 20
-101.657912
 40
3.000000
  1
⑨ A0:ACｱｳﾄﾚｯﾄ通常ﾀｲﾌﾟ
 41
0.782361
 50
0.000000
 51
0.000000
 72
   5
 73
   0
 11
107.244599
 21
-101.657912
  0
TEXT
  8
3
  6
CONTINUOUS
 62
7
 10
74.244599
 20
-105.657912
 40
3.000000
  1
　 A1:ACｱｳﾄﾚｯﾄ抜け防止ﾀｲﾌﾟ
 41
0.792683
 50
0.000000
 51
0.000000
 72
   5
 73
   0
 11
113.244599
 21
-105.657912
  0
TEXT
  8
3
  6
CONTINUOUS
 62
7
 10
74.244599
 20
-109.657912
 40
3.000000
  1
　 A2:ACｱｳﾄﾚｯﾄ無し(ﾌﾞﾗﾝｸﾊﾟﾈﾙ)
 41
0.773333
 50
0.000000
 51
0.000000
 72
   5
 73
   0
 11
117.744599
 21
-109.657912
  0
LINE
  8
3
  6
CONTINUOUS
 62
7
 10
277.8178253186
 20
-77.8784632072
 11
244.8178253186
 21
-77.8784632072
  0
LINE
  8
3
  6
CONTINUOUS
 62
7
 10
282.8178253186
 20
-82.8784632072
 11
282.8178253186
 21
-115.8784632072
  0
LINE
  8
3
  6
CONTINUOUS
 62
7
 10
277.8178253186
 20
-120.8784632072
 11
244.8178253186
 21
-120.8784632072
  0
LINE
  8
3
  6
CONTINUOUS
 62
7
 10
239.8178253186
 20
-115.8784632072
 11
239.8178253186
 21
-82.8784632072
  0
TEXT
  8
3
  6
CONTINUOUS
 62
7
 10
255.067825
 20
-128.878463
 40
5.000000
  1
A2
 41
0.854701
 50
0.000000
 51
0.000000
 72
   5
 73
   0
 11
260.067825
 21
-128.878463
  0
TEXT
  8
3
  6
CONTINUOUS
 62
7
 10
255.067825
 20
-133.878463
 40
5.000000
  1
ﾌﾞﾗﾝｸ
 41
0.786164
 50
0.000000
 51
0.000000
 72
   5
 73
   0
 11
267.567825
 21
-133.878463
  0
LINE
  8
3
  6
CONTINUOUS
 62
6
 10
243.7159172298
 20
-114.3034670530
 11
246.3928214728
 21
-116.9803712960
  0
LINE
  8
3
  6
CONTINUOUS
 62
6
 10
243.7159172298
 20
-116.9803712960
 11
246.3928214728
 21
-114.3034670530
  0
LINE
  8
3
  6
CONTINUOUS
 62
6
 10
276.2428291643
 20
-81.7765551184
 11
278.9197334074
 21
-84.4534593614
  0
LINE
  8
3
  6
CONTINUOUS
 62
6
 10
276.2428291643
 20
-84.4534593614
 11
278.9197334074
 21
-81.7765551184
  0
CIRCLE
  8
3
  6
CONTINUOUS
 62
6
 10
245.0543693513
 20
-115.6419191745
 40
2.6500000000
  0
CIRCLE
  8
3
  6
CONTINUOUS
 62
6
 10
277.5812812859
 20
-83.1150072399
 40
2.6500000000
  0
INSERT
  8
1
  6
CONTINUOUS
 62
5
  2
BALN12
 10
276.3874683405
 20
-80.7491436235
  0
INSERT
  8
1
  6
CONTINUOUS
 62
5
  2
BALN13
 10
254.3511050565
 20
-80.8142186975
  0
ARC
  8
1
  6
CONTINUOUS
 62
7
 10
244.8178253186
 20
-82.8784632072
 40
5.0000000000
 50
90.0000000000
 51
180.0000000000
  0
ARC
  8
1
  6
CONTINUOUS
 62
7
 10
244.8178253186
 20
-115.8784632072
 40
5.0000000000
 50
180.0000000000
 51
270.0000000000
  0
ARC
  8
1
  6
CONTINUOUS
 62
7
 10
277.8178253186
 20
-115.8784632072
 40
5.0000000000
 50
270.0000000000
 51
0.0000000000
  0
ARC
  8
1
  6
CONTINUOUS
 62
7
 10
277.8178253186
 20
-82.8784632072
 40
5.0000000000
 50
0.0000000000
 51
90.0000000000
  0
LINE
  8
5
  6
CONTINUOUS
 62
6
 10
309.6567742348
 20
-117.9259553293
 11
309.6567742348
 21
-112.9259553293
  0
LINE
  8
5
  6
CONTINUOUS
 62
6
 10
309.6567742348
 20
-112.9259553293
 11
314.6567742348
 21
-112.9259553293
  0
LINE
  8
5
  6
CONTINUOUS
 62
6
 10
314.6567742348
 20
-112.9259553293
 11
334.6567742348
 21
-112.9259553293
  0
LINE
  8
5
  6
CONTINUOUS
 62
6
 10
334.6567742348
 20
-112.9259553293
 11
374.6567742348
 21
-112.9259553293
  0
LINE
  8
5
  6
CONTINUOUS
 62
6
 10
374.6567742348
 20
-112.9259553293
 11
389.6567742348
 21
-112.9259553293
  0
LINE
  8
5
  6
CONTINUOUS
 62
6
 10
389.6567742348
 20
-112.9259553293
 11
394.6567742348
 21
-112.9259553293
  0
LINE
  8
5
  6
CONTINUOUS
 62
6
 10
394.6567742348
 20
-112.9259553293
 11
394.6567742348
 21
-117.9259553293
  0
LINE
  8
5
  6
CONTINUOUS
 62
6
 10
394.6567742348
 20
-117.9259553293
 11
389.6567742348
 21
-117.9259553293
  0
LINE
  8
5
  6
CONTINUOUS
 62
6
 10
389.6567742348
 20
-117.9259553293
 11
374.6567742348
 21
-117.9259553293
  0
LINE
  8
5
  6
CONTINUOUS
 62
6
 10
374.6567742348
 20
-117.9259553293
 11
334.6567742348
 21
-117.9259553293
  0
LINE
  8
5
  6
CONTINUOUS
 62
6
 10
334.6567742348
 20
-117.9259553293
 11
314.6567742348
 21
-117.9259553293
  0
LINE
  8
5
  6
CONTINUOUS
 62
6
 10
314.6567742348
 20
-117.9259553293
 11
309.6567742348
 21
-117.9259553293
  0
LINE
  8
5
  6
CONTINUOUS
 62
6
 10
314.6567742348
 20
-112.9259553293
 11
314.6567742348
 21
-117.9259553293
  0
LINE
  8
5
  6
CONTINUOUS
 62
6
 10
334.6567742348
 20
-112.9259553293
 11
334.6567742348
 21
-117.9259553293
  0
LINE
  8
5
  6
CONTINUOUS
 62
6
 10
374.6567742348
 20
-112.9259553293
 11
374.6567742348
 21
-117.9259553293
  0
LINE
  8
5
  6
CONTINUOUS
 62
6
 10
389.6567742348
 20
-112.9259553293
 11
389.6567742348
 21
-117.9259553293
  0
TEXT
  8
5
  6
CONTINUOUS
 62
7
 10
309.856774
 20
-116.575955
 40
2.300000
  1
項番
 41
0.921659
 50
0.000000
 51
0.000000
 72
   5
 73
   0
 11
314.456774
 21
-116.575955
  0
TEXT
  8
5
  6
CONTINUOUS
 62
7
 10
319.664774
 20
-116.925955
 40
3.000000
  1
品　　名
 41
0.737916
 50
0.000000
 51
0.000000
 72
   5
 73
   0
 11
329.648774
 21
-116.925955
  0
TEXT
  8
5
  6
CONTINUOUS
 62
7
 10
339.503774
 20
-116.925955
 40
3.000000
  1
定  格 / 型  番 / 材　質
 41
0.686277
 50
0.000000
 51
0.000000
 72
   5
 73
   0
 11
369.809774
 21
-116.925955
  0
TEXT
  8
5
  6
CONTINUOUS
 62
7
 10
376.959274
 20
-116.925955
 40
3.000000
  1
メーカー
 41
0.768293
 50
0.000000
 51
0.000000
 72
   5
 73
   0
 11
387.354274
 21
-116.925955
  0
TEXT
  8
5
  6
CONTINUOUS
 62
7
 10
389.856774
 20
-116.575955
 40
2.300000
  1
数量
 41
0.921659
 50
0.000000
 51
0.000000
 72
   5
 73
   0
 11
394.456774
 21
-116.575955
  0
LINE
  8
5
  6
CONTINUOUS
 62
6
 10
309.6567742348
 20
-122.9259553293
 11
309.6567742348
 21
-117.9259553293
  0
LINE
  8
5
  6
CONTINUOUS
 62
6
 10
309.6567742348
 20
-117.9259553293
 11
314.6567742348
 21
-117.9259553293
  0
LINE
  8
5
  6
CONTINUOUS
 62
6
 10
314.6567742348
 20
-117.9259553293
 11
334.6567742348
 21
-117.9259553293
  0
LINE
  8
5
  6
CONTINUOUS
 62
6
 10
334.6567742348
 20
-117.9259553293
 11
374.6567742348
 21
-117.9259553293
  0
LINE
  8
5
  6
CONTINUOUS
 62
6
 10
374.6567742348
 20
-117.9259553293
 11
389.6567742348
 21
-117.9259553293
  0
LINE
  8
5
  6
CONTINUOUS
 62
6
 10
389.6567742348
 20
-117.9259553293
 11
394.6567742348
 21
-117.9259553293
  0
LINE
  8
5
  6
CONTINUOUS
 62
6
 10
394.6567742348
 20
-117.9259553293
 11
394.6567742348
 21
-122.9259553293
  0
LINE
  8
5
  6
CONTINUOUS
 62
6
 10
394.6567742348
 20
-122.9259553293
 11
389.6567742348
 21
-122.9259553293
  0
LINE
  8
5
  6
CONTINUOUS
 62
6
 10
389.6567742348
 20
-122.9259553293
 11
374.6567742348
 21
-122.9259553293
  0
LINE
  8
5
  6
CONTINUOUS
 62
6
 10
374.6567742348
 20
-122.9259553293
 11
334.6567742348
 21
-122.9259553293
  0
LINE
  8
5
  6
CONTINUOUS
 62
6
 10
334.6567742348
 20
-122.9259553293
 11
314.6567742348
 21
-122.9259553293
  0
LINE
  8
5
  6
CONTINUOUS
 62
6
 10
314.6567742348
 20
-122.9259553293
 11
309.6567742348
 21
-122.9259553293
  0
LINE
  8
5
  6
CONTINUOUS
 62
6
 10
314.6567742348
 20
-117.9259553293
 11
314.6567742348
 21
-122.9259553293
  0
LINE
  8
5
  6
CONTINUOUS
 62
6
 10
334.6567742348
 20
-117.9259553293
 11
334.6567742348
 21
-122.9259553293
  0
LINE
  8
5
  6
CONTINUOUS
 62
6
 10
374.6567742348
 20
-117.9259553293
 11
374.6567742348
 21
-122.9259553293
  0
LINE
  8
5
  6
CONTINUOUS
 62
6
 10
389.6567742348
 20
-117.9259553293
 11
389.6567742348
 21
-122.9259553293
  0
TEXT
  8
5
  6
CONTINUOUS
 62
7
 10
310.656774
 20
-121.925955
 40
3.000000
  1
95
 41
0.854701
 50
0.000000
 51
0.000000
 72
   5
 73
   0
 11
313.656774
 21
-121.925955
  0
TEXT
  8
5
  6
CONTINUOUS
 62
7
 10
315.656774
 20
-121.925955
 40
3.000000
  1
ﾌﾞﾗﾝｸﾊﾟﾈﾙ
 41
0.789932
 50
0.000000
 51
0.000000
 72
   5
 73
   0
 11
329.543774
 21
-121.925955
  0
TEXT
  8
5
  6
CONTINUOUS
 62
7
 10
335.656774
 20
-122.425955
 40
4.000000
  1
M0051B303A
 41
0.765697
 50
0.000000
 51
0.000000
 72
   5
 73
   0
 11
355.656774
 21
-122.425955
  0
TEXT
  8
5
  6
CONTINUOUS
 62
7
 10
391.281774
 20
-122.175955
 40
3.500000
  1
1
 41
1.000000
 50
0.000000
 51
0.000000
 72
   5
 73
   0
 11
393.031774
 21
-122.175955
  0
LINE
  8
5
  6
CONTINUOUS
 62
6
 10
394.6567742348
 20
-127.9259553293
 11
389.6567742348
 21
-127.9259553293
  0
LINE
  8
5
  6
CONTINUOUS
 62
6
 10
389.6567742348
 20
-127.9259553293
 11
374.6567742348
 21
-127.9259553293
  0
LINE
  8
5
  6
CONTINUOUS
 62
6
 10
374.6567742348
 20
-127.9259553293
 11
334.6567742348
 21
-127.9259553293
  0
LINE
  8
5
  6
CONTINUOUS
 62
6
 10
334.6567742348
 20
-127.9259553293
 11
314.6567742348
 21
-127.9259553293
  0
LINE
  8
5
  6
CONTINUOUS
 62
6
 10
314.6567742348
 20
-127.9259553293
 11
309.6567742348
 21
-127.9259553293
  0
TEXT
  8
5
  6
CONTINUOUS
 62
7
 10
310.656774
 20
-131.925955
 40
3.000000
  1
--
 41
0.854701
 50
0.000000
 51
0.000000
 72
   5
 73
   0
 11
313.656774
 21
-131.925955
  0
LINE
  8
5
  6
CONTINUOUS
 62
6
 10
309.6567742348
 20
-127.9259553293
 11
309.6567742348
 21
-122.9259553293
  0
LINE
  8
5
  6
CONTINUOUS
 62
6
 10
309.6567742348
 20
-132.9259553293
 11
309.6567742348
 21
-127.9259553293
  0
LINE
  8
5
  6
CONTINUOUS
 62
6
 10
314.6567742348
 20
-122.9259553293
 11
314.6567742348
 21
-127.9259553293
  0
LINE
  8
5
  6
CONTINUOUS
 62
6
 10
314.6567742348
 20
-127.9259553293
 11
314.6567742348
 21
-132.9259553293
  0
LINE
  8
5
  6
CONTINUOUS
 62
6
 10
334.6567742348
 20
-122.9259553293
 11
334.6567742348
 21
-127.9259553293
  0
LINE
  8
5
  6
CONTINUOUS
 62
6
 10
334.6567742348
 20
-127.9259553293
 11
334.6567742348
 21
-132.9259553293
  0
LINE
  8
5
  6
CONTINUOUS
 62
6
 10
374.6567742348
 20
-122.9259553293
 11
374.6567742348
 21
-127.9259553293
  0
LINE
  8
5
  6
CONTINUOUS
 62
6
 10
374.6567742348
 20
-127.9259553293
 11
374.6567742348
 21
-132.9259553293
  0
LINE
  8
5
  6
CONTINUOUS
 62
6
 10
389.6567742348
 20
-122.9259553293
 11
389.6567742348
 21
-127.9259553293
  0
LINE
  8
5
  6
CONTINUOUS
 62
6
 10
389.6567742348
 20
-127.9259553293
 11
389.6567742348
 21
-132.9259553293
  0
LINE
  8
5
  6
CONTINUOUS
 62
6
 10
394.6567742348
 20
-122.9259553293
 11
394.6567742348
 21
-127.9259553293
  0
LINE
  8
5
  6
CONTINUOUS
 62
6
 10
394.6567742348
 20
-127.9259553293
 11
394.6567742348
 21
-132.9259553293
  0
LINE
  8
5
  6
CONTINUOUS
 62
6
 10
299.6567742348
 20
-117.9259553293
 11
299.6567742348
 21
-112.9259553293
  0
LINE
  8
5
  6
CONTINUOUS
 62
6
 10
299.6567742348
 20
-112.9259553293
 11
309.6567742348
 21
-112.9259553293
  0
LINE
  8
5
  6
CONTINUOUS
 62
6
 10
309.6567742348
 20
-117.9259553293
 11
304.6567742348
 21
-117.9259553293
  0
LINE
  8
5
  6
CONTINUOUS
 62
6
 10
309.6567742348
 20
-112.9259553293
 11
309.6567742348
 21
-117.9259553293
  0
TEXT
  8
5
  6
CONTINUOUS
 62
7
 10
302.194993
 20
-116.925955
 40
3.000000
  1
型番
 41
0.921659
 50
0.000000
 51
0.000000
 72
   5
 73
   0
 11
308.194993
 21
-116.925955
  0
LINE
  8
5
  6
CONTINUOUS
 62
6
 10
299.6567742348
 20
-122.9259553293
 11
299.6567742348
 21
-117.9259553293
  0
LINE
  8
5
  6
CONTINUOUS
 62
6
 10
299.6567742348
 20
-117.9259553293
 11
309.6567742348
 21
-117.9259553293
  0
LINE
  8
5
  6
CONTINUOUS
 62
6
 10
309.6567742348
 20
-117.9259553293
 11
309.6567742348
 21
-122.9259553293
  0
TEXT
  8
5
  6
CONTINUOUS
 62
7
 10
302.928993
 20
-122.425955
 40
4.000000
  1
A2
 41
0.968376
 50
0.000000
 51
0.000000
 72
   5
 73
   0
 11
307.460993
 21
-122.425955
  0
LINE
  8
5
  6
CONTINUOUS
 62
6
 10
299.6567742348
 20
-127.9259553293
 11
299.6567742348
 21
-122.9259553293
  0
LINE
  8
5
  6
CONTINUOUS
 62
6
 10
299.6567742348
 20
-132.9259553293
 11
299.6567742348
 21
-127.9259553293
  0
LINE
  8
5
  6
CONTINUOUS
 62
6
 10
309.6567742348
 20
-122.9259553293
 11
309.6567742348
 21
-127.9259553293
  0
LINE
  8
5
  6
CONTINUOUS
 62
6
 10
309.6567742348
 20
-127.9259553293
 11
309.6567742348
 21
-132.9259553293
  0
LINE
  8
5
  6
CONTINUOUS
 62
6
 10
394.6567742348
 20
-132.9259553293
 11
389.6567742348
 21
-132.9259553293
  0
LINE
  8
5
  6
CONTINUOUS
 62
6
 10
389.6567742348
 20
-132.9259553293
 11
374.6567742348
 21
-132.9259553293
  0
LINE
  8
5
  6
CONTINUOUS
 62
6
 10
374.6567742348
 20
-132.9259553293
 11
334.6567742348
 21
-132.9259553293
  0
LINE
  8
5
  6
CONTINUOUS
 62
6
 10
334.6567742348
 20
-132.9259553293
 11
314.6567742348
 21
-132.9259553293
  0
LINE
  8
5
  6
CONTINUOUS
 62
6
 10
314.6567742348
 20
-132.9259553293
 11
309.6567742348
 21
-132.9259553293
  0
LINE
  8
5
  6
CONTINUOUS
 62
6
 10
309.6567742348
 20
-132.9259553293
 11
299.6567742348
 21
-132.9259553293
  0
TEXT
  8
5
  6
CONTINUOUS
 62
7
 10
375.656774
 20
-121.925955
 40
3.000000
  1
MADOKA
 41
1.028831
 50
0.000000
 51
0.000000
 72
   5
 73
   0
 11
387.539774
 21
-121.925955
  0
TEXT
  8
5
  6
CONTINUOUS
 62
7
 10
310.656774
 20
-126.925955
 40
3.000000
  1
96
 41
0.854701
 50
0.000000
 51
0.000000
 72
   5
 73
   0
 11
313.656774
 21
-126.925955
  0
TEXT
  8
5
  6
CONTINUOUS
 62
7
 10
315.656774
 20
-126.925955
 40
3.000000
  1
ﾋﾞｽ
 41
0.761957
 50
0.000000
 51
0.000000
 72
   5
 73
   0
 11
319.862774
 21
-126.925955
  0
TEXT
  8
5
  6
CONTINUOUS
 62
7
 10
335.656774
 20
-126.925955
 40
3.000000
  1
M3×8 小ワｾﾑｽ
 41
0.863014
 50
0.000000
 51
0.000000
 72
   5
 73
   0
 11
356.446774
 21
-126.925955
  0
TEXT
  8
5
  6
CONTINUOUS
 62
7
 10
375.656774
 20
-126.925955
 40
3.000000
  1
--
 41
0.854701
 50
0.000000
 51
0.000000
 72
   5
 73
   0
 11
378.656774
 21
-126.925955
  0
TEXT
  8
5
  6
CONTINUOUS
 62
7
 10
391.281774
 20
-127.175955
 40
3.500000
  1
2
 41
1.000000
 50
0.000000
 51
0.000000
 72
   5
 73
   0
 11
393.031774
 21
-127.175955
  0
TEXT
  8
5
  6
CONTINUOUS
 62
7
 10
335.656774
 20
-132.425955
 40
4.000000
  1
--
 41
0.854701
 50
0.000000
 51
0.000000
 72
   5
 73
   0
 11
339.656774
 21
-132.425955
  0
TEXT
  8
5
  6
CONTINUOUS
 62
7
 10
315.656774
 20
-131.925955
 40
3.000000
  1
--
 41
0.854701
 50
0.000000
 51
0.000000
 72
   5
 73
   0
 11
318.656774
 21
-131.925955
  0
TEXT
  8
5
  6
CONTINUOUS
 62
7
 10
375.656774
 20
-131.825955
 40
2.800000
  1
--
 41
0.854701
 50
0.000000
 51
0.000000
 72
   5
 73
   0
 11
378.456774
 21
-131.825955
  0
TEXT
  8
5
  6
CONTINUOUS
 62
7
 10
390.406774
 20
-132.175955
 40
3.500000
  1
--
 41
0.854701
 50
0.000000
 51
0.000000
 72
   5
 73
   0
 11
393.906774
 21
-132.175955
  0
INSERT
  8
1
  6
CONTINUOUS
 62
7
  2
S10
 10
292.4597931678
 20
-120.1634739345
  0
INSERT
  8
1
  6
CONTINUOUS
 62
7
  2
S11
 10
7.7490435001
 20
-51.9655230621
  0
TEXT
  8
1
  6
CONTINUOUS
 62
7
 10
13.585544
 20
-53.465523
 40
3.000000
  1
'08.6.17
 41
0.599037
 50
0.000000
 51
0.000000
 72
   5
 73
   0
 11
22.912544
 21
-53.465523
  0
TEXT
  8
1
  6
CONTINUOUS
 62
7
 10
26.910027
 20
-53.908544
 40
4.000000
  1
型番：A2追加
 41
0.854701
 50
0.000000
 51
0.000000
 72
   5
 73
   0
 11
50.910027
 21
-53.908544
  0
TEXT
  8
1
  6
CONTINUOUS
 62
7
 10
89.749044
 20
-53.715523
 40
3.500000
  1
山田
 41
0.921659
 50
0.000000
 51
0.000000
 72
   5
 73
   0
 11
96.749044
 21
-53.715523
  0
LINE
  8
4
  6
CONTINUOUS
 62
3
 10
323.7097392007
 20
172.6540475624
 11
376.7097392007
 21
172.6540475624
  0
LINE
  8
4
  6
CONTINUOUS
 62
3
 10
376.7097392007
 20
172.6540475624
 11
376.7097392007
 21
64.6540475624
  0
LINE
  8
4
  6
CONTINUOUS
 62
3
 10
323.7097392007
 20
64.6540475624
 11
323.7097392007
 21
172.6540475624
  0
LINE
  8
4
  6
CONTINUOUS
 62
3
 10
376.7097392007
 20
64.6540475624
 11
323.7097392007
 21
64.6540475624
  0
CIRCLE
  8
4
  6
CONTINUOUS
 62
3
 10
330.2097392007
 20
177.1540475624
 40
1.5000000000
  0
CIRCLE
  8
4
  6
CONTINUOUS
 62
3
 10
370.2097392007
 20
177.1540475624
 40
1.5000000000
  0
CIRCLE
  8
4
  6
CONTINUOUS
 62
3
 10
330.2097392007
 20
60.1540475624
 40
1.5000000000
  0
CIRCLE
  8
4
  6
CONTINUOUS
 62
3
 10
370.2097392007
 20
60.1540475624
 40
1.5000000000
  0
CIRCLE
  8
4
  6
CONTINUOUS
 62
3
 10
350.2097392007
 20
177.1540475624
 40
2.2500000000
  0
CIRCLE
  8
4
  6
CONTINUOUS
 62
3
 10
350.2097392007
 20
60.1540475624
 40
2.2500000000
  0
DIMENSION
  8
4
  6
CONTINUOUS
 62
5
  2
*D6
 10
330.2097392007
 20
183.8474963863
 11
326.9597392007
 21
186.5974963863
  70
0
 13
323.7097392007
 23
172.6540475624
 14
330.2097392007
 24
175.6540475624
 50
0.000000
  0
DIMENSION
  8
4
  6
CONTINUOUS
 62
5
  2
*D7
 10
350.2097392007
 20
183.8474963863
 11
340.2097392007
 21
186.5974963863
  70
0
 13
330.2097392007
 23
175.6540475624
 14
350.2097392007
 24
174.9040475624
 50
0.000000
  0
DIMENSION
  8
4
  6
CONTINUOUS
 62
5
  2
*D8
 10
370.2097392007
 20
183.8474963863
 11
360.2097392007
 21
186.5974963863
  70
0
 13
350.2097392007
 23
174.9040475624
 14
370.2097392007
 24
175.6540475624
 50
0.000000
  0
DIMENSION
  8
4
  6
CONTINUOUS
 62
5
  2
*D9
 10
376.7097392007
 20
183.8474963863
 11
373.4597392007
 21
186.5974963863
  70
0
 13
370.2097392007
 23
175.6540475624
 14
376.7097392007
 24
172.6540475624
 50
0.000000
  0
DIMENSION
  8
4
  6
CONTINUOUS
 62
5
  2
*D10
 10
376.7097392007
 20
190.8474963863
 11
350.2097392007
 21
193.5974963863
  70
0
 13
323.7097392007
 23
172.6540475624
 14
376.7097392007
 24
172.6540475624
 50
0.000000
  0
DIMENSION
  8
4
  6
CONTINUOUS
 62
5
  2
*D11
 10
329.3588695761
 20
178.3893697398
 11
332.4744965259
 21
178.7139752075
  70
3
 15
331.0606088253
 25
175.9187253850
  0
DIMENSION
  8
4
  6
CONTINUOUS
 62
5
  2
*D12
 10
348.8085413633
 20
178.9144863203
 11
352.3613865715
 21
178.8666226970
  70
3
 15
351.6109370382
 25
175.3936088045
  0
TEXT
  8
4
  6
CONTINUOUS
 62
7
 10
327.537763
 20
36.448135
 40
5.000000
  1
パネルカット図
 41
0.872818
 50
0.000000
 51
0.000000
 72
   5
 73
   0
 11
362.537763
 21
36.448135
  0
TEXT
  8
4
  6
CONTINUOUS
 62
7
 10
327.537763
 20
31.448135
 40
5.000000
  1
推奨板厚 t=1.6以上
 41
0.827967
 50
0.000000
 51
0.000000
 72
   5
 73
   0
 11
372.537763
 21
31.448135
  0
LINE
  8
1
  6
HIDDEN
 62
1
 10
384.7097392007
 20
44.4040475624
 11
384.7097392007
 21
199.9040475624
  0
LINE
  8
1
  6
HIDDEN
 62
1
 10
384.7097392007
 20
199.9040475624
 11
315.7097392007
 21
199.9040475624
  0
LINE
  8
1
  6
HIDDEN
 62
1
 10
315.7097392007
 20
199.9040475624
 11
315.7097392007
 21
44.4040475624
  0
LINE
  8
1
  6
HIDDEN
 62
1
 10
384.7097392007
 20
44.4040475624
 11
315.7097392007
 21
44.4040475624
  0
DIMENSION
  8
1
  6
CONTINUOUS
 62
5
  2
*D13
 10
311.5138729176
 20
64.6540475624
 11
309.0138729176
 21
62.4040475624
  70
0
 13
371.7097392007
 23
60.1540475624
 14
323.7097392007
 24
64.6540475624
 50
90.000000
  0
DIMENSION
  8
1
  6
CONTINUOUS
 62
5
  2
*D14
 10
311.5138729176
 20
172.6540475624
 11
308.7638729176
 21
118.6540475624
  70
0
 13
323.7097392007
 23
64.6540475624
 14
323.7097392007
 24
172.6540475624
 50
90.000000
  0
DIMENSION
  8
1
  6
CONTINUOUS
 62
5
  2
*D15
 10
311.5138729176
 20
177.1540475624
 11
309.0138729176
 21
174.9040475624
  70
0
 13
323.7097392007
 23
172.6540475624
 14
371.7097392007
 24
177.1540475624
 50
90.000000
  0
DIMENSION
  8
1
  6
CONTINUOUS
 62
5
  2
*D16
 10
304.5138729176
 20
177.1540475624
 11
301.7638729176
 21
118.6540475624
  70
0
 13
371.7097392007
 23
60.1540475624
 14
371.7097392007
 24
177.1540475624
 50
90.000000
  0
DIMENSION
  8
1
  6
CONTINUOUS
 62
5
  2
*D17
 10
392.3529732637
 20
64.6540475624
 11
389.6029732637
 21
54.5290475624
  70
0
 13
384.7097392007
 23
44.4040475624
 14
376.7097392007
 24
64.6540475624
 50
90.000000
  0
DIMENSION
  8
1
  6
CONTINUOUS
 62
5
  2
*D18
 10
392.3529732637
 20
172.6540475624
 11
389.6029732637
 21
118.6540475624
  70
0
 13
376.7097392007
 23
64.6540475624
 14
376.7097392007
 24
172.6540475624
 50
90.000000
  0
DIMENSION
  8
1
  6
CONTINUOUS
 62
5
  2
*D19
 10
392.3529732637
 20
199.9040475624
 11
389.6029732637
 21
186.2790475624
  70
0
 13
376.7097392007
 23
172.6540475624
 14
384.7097392007
 24
199.9040475624
 50
90.000000
  0
INSERT
  8
1
  6
CONTINUOUS
 62
5
  2
LTEX3
 10
328.5640805301
 20
44.4040475624
  0
INSERT
  8
1
  6
CONTINUOUS
 62
5
  2
BALN14
 10
112.1348058892
 20
197.2197252882
  0
INSERT
  8
1
  6
CONTINUOUS
 62
5
  2
BALN15
 10
131.0889601190
 20
210.1369732142
  0
INSERT
  8
1
  6
CONTINUOUS
 62
5
  2
BALN16
 10
201.8808680172
 20
192.5550725884
  0
INSERT
  8
1
  6
CONTINUOUS
 62
5
  2
BALN17
 10
221.8808680172
 20
196.4550725884
  0
INSERT
  8
1
  6
CONTINUOUS
 62
5
  2
BALN18
 10
236.7162399915
 20
182.5872780066
  0
LINE
  8
3
  6
CONTINUOUS
 62
5
 10
133.4661466639
 20
117.8050725884
 11
156.8661466639
 21
117.8050725884
  0
LINE
  8
3
  6
CONTINUOUS
 62
5
 10
156.8661466639
 20
117.8050725884
 11
156.8661466639
 21
86.3050725884
  0
LINE
  8
3
  6
CONTINUOUS
 62
5
 10
156.8661466639
 20
86.3050725884
 11
148.4661466639
 21
86.3050725884
  0
DIMENSION
  8
1
  6
CONTINUOUS
 62
5
  2
*D20
 10
156.8661466639
 20
123.5560241183
 11
145.1661466639
 21
126.3060241183
  70
0
 13
133.4661466639
 23
117.8050725884
 14
156.8661466639
 24
117.8050725884
 50
0.000000
  0
LINE
  8
3
  6
CONTINUOUS
 62
5
 10
133.4661466639
 20
165.1550725884
 11
158.1661466639
 21
165.1550725884
  0
LINE
  8
3
  6
CONTINUOUS
 62
5
 10
158.1661466639
 20
165.1550725884
 11
158.1661466639
 21
148.9550725884
  0
LINE
  8
3
  6
CONTINUOUS
 62
5
 10
158.1661466639
 20
148.9550725884
 11
133.4661466639
 21
148.9550725884
  0
DIMENSION
  8
1
  6
CONTINUOUS
 62
5
  2
*D21
 10
133.4661466639
 20
140.6307177679
 11
145.8161466639
 21
143.3807177679
  70
0
 13
158.1661466639
 23
148.9550725884
 14
133.4661466639
 24
148.9550725884
 50
0.000000
  0
TEXT
  8
1
  6
CONTINUOUS
 62
7
 10
141.916147
 20
157.055073
 40
4.000000
  1
USB
 41
0.815217
 50
0.000000
 51
0.000000
 72
   5
 73
   0
 11
147.916147
 21
157.055073
  0
TEXT
  8
1
  6
CONTINUOUS
 62
7
 10
141.916147
 20
153.055073
 40
4.000000
  1
中継
 41
0.921659
 50
0.000000
 51
0.000000
 72
   5
 73
   0
 11
149.916147
 21
153.055073
  0
DIMENSION
  8
1
  6
CONTINUOUS
 62
5
  2
*D22
 10
141.9478150314
 20
87.5411916820
 11
145.6508776668
 21
87.2252373842
  70
3
 15
144.9844782965
 25
83.5689534949
  0
TEXT
  8
1
  6
CONTINUOUS
 62
7
 10
139.916147
 20
102.055073
 40
4.000000
  1
AC
 41
0.854701
 50
0.000000
 51
0.000000
 72
   5
 73
   0
 11
143.916147
 21
102.055073
  0
TEXT
  8
1
  6
CONTINUOUS
 62
7
 10
139.916147
 20
98.055073
 40
4.000000
  1
ｱｳﾄﾚｯﾄ
 41
0.779221
 50
0.000000
 51
0.000000
 72
   5
 73
   0
 11
151.916147
 21
98.055073
  0
INSERT
  8
1
  6
CONTINUOUS
 62
7
  2
S12
 10
309.6307705942
 20
229.5561403077
  0
LINE
  8
1
  6
CONTINUOUS
 62
7
 10
11.5000000000
 20
265.0000000000
 11
6.5000000000
 21
265.0000000000
  0
TEXT
  8
1
  6
CONTINUOUS
 62
7
 10
8.066100
 20
264.621673
 40
3.300000
  1
E
 41
1.132000
 50
0.000000
 51
0.000000
 72
   5
 73
   0
 11
9.933900
 21
264.621673
  0
LINE
  8
1
  6
CONTINUOUS
 62
7
 10
9.0000000000
 20
269.0000000000
 11
6.5000000000
 21
265.0000000000
  0
LINE
  8
1
  6
CONTINUOUS
 62
7
 10
9.0000000000
 20
269.0000000000
 11
11.5000000000
 21
265.0000000000
  0
POINT
  8
1
  6
CONTINUOUS
 62
7
 10
9.0000000000
 20
267.0000000000
  0
TEXT
  8
1
  6
CONTINUOUS
 62
7
 10
14.836500
 20
265.500000
 40
3.000000
  1
'09.12.3
 41
0.599037
 50
0.000000
 51
0.000000
 72
   5
 73
   0
 11
24.163500
 21
265.500000
  0
TEXT
  8
1
  6
CONTINUOUS
 62
7
 10
28.160983
 20
265.556979
 40
3.000000
  1
M0051B054 改訂B→C (USBｺﾈｸﾀ変更による)
 41
0.793982
 50
0.000000
 51
0.000000
 72
   5
 73
   0
 11
85.160983
 21
265.556979
  0
TEXT
  8
1
  6
CONTINUOUS
 62
7
 10
91.000000
 20
265.250000
 40
3.500000
  1
山田
 41
0.921659
 50
0.000000
 51
0.000000
 72
   5
 73
   0
 11
98.000000
 21
265.250000
  0
POINT
  8
5
  6
CONTINUOUS
 62
6
 10
7.7490435001
 20
-46.9655230621
  0
POINT
  8
5
  6
CONTINUOUS
 62
6
 10
18.2490435001
 20
-46.9655230621
  0
POINT
  8
5
  6
CONTINUOUS
 62
6
 10
93.2490435001
 20
-46.9655230621
  0
POINT
  8
5
  6
CONTINUOUS
 62
6
 10
24.2490435001
 20
-46.9655230621
  0
INSERT
  8
1
  6
CONTINUOUS
 62
7
  2
S13
 10
7.7490435001
 20
-46.9655230621
  0
TEXT
  8
1
  6
CONTINUOUS
 62
7
 10
13.585544
 20
-48.465523
 40
3.000000
  1
'09.12.3
 41
0.599037
 50
0.000000
 51
0.000000
 72
   5
 73
   0
 11
22.912544
 21
-48.465523
  0
TEXT
  8
1
  6
CONTINUOUS
 62
7
 10
25.953243
 20
-42.930975
 40
3.000000
  1
USBｺﾈｸﾀ変更
 41
0.801749
 50
0.000000
 51
0.000000
 72
   5
 73
   0
 11
42.453243
 21
-42.930975
  0
TEXT
  8
1
  6
CONTINUOUS
 62
7
 10
25.953243
 20
-45.930975
 40
3.000000
  1
FMT1050→MIUSB1-A-B
 41
0.766747
 50
0.000000
 51
0.000000
 72
   5
 73
   0
 11
54.453243
 21
-45.930975
  0
TEXT
  8
1
  6
CONTINUOUS
 62
7
 10
25.953243
 20
-48.930975
 40
3.000000
  1
M0051B504A→MIUSB1-BL
 41
0.764749
 50
0.000000
 51
0.000000
 72
   5
 73
   0
 11
57.453243
 21
-48.930975
  0
TEXT
  8
1
  6
CONTINUOUS
 62
7
 10
89.749044
 20
-48.715523
 40
3.500000
  1
山田
 41
0.921659
 50
0.000000
 51
0.000000
 72
   5
 73
   0
 11
96.749044
 21
-48.715523
  0
INSERT
  8
1
  6
CONTINUOUS
 62
7
  2
S14
 10
292.4597931678
 20
-241.5482459455
  0
INSERT
  8
1
  6
CONTINUOUS
 62
7
  2
S15
 10
292.4597931678
 20
-219.0482459455
  0
TEXT
  8
1
  6
CONTINUOUS
 62
7
 10
235.003353
 20
-267.242345
 40
3.000000
  1
⑩USB中継は表裏を
 41
0.847458
 50
0.000000
 51
0.000000
 72
   5
 73
   0
 11
260.503353
 21
-267.242345
  0
TEXT
  8
1
  6
CONTINUOUS
 62
7
 10
235.003353
 20
-270.242345
 40
3.000000
  1
　変えることが可能です。
 41
0.865177
 50
0.000000
 51
0.000000
 72
   5
 73
   0
 11
271.003353
 21
-270.242345
  0
LINE
  8
1
  6
CONTINUOUS
 62
1
 10
243.0921374659
 20
-271.6758939425
 11
260.0921374659
 21
-271.6758939425
  0
LINE
  8
1
  6
CONTINUOUS
 62
1
 10
261.0921374659
 20
-306.2758939425
 11
261.0921374659
 21
-305.4758939425
  0
LINE
  8
1
  6
CONTINUOUS
 62
1
 10
261.0921374659
 20
-302.4758939425
 11
261.0921374659
 21
-276.4758939425
  0
LINE
  8
1
  6
CONTINUOUS
 62
1
 10
261.0921374659
 20
-273.4758939425
 11
261.0921374659
 21
-272.6758939425
  0
LINE
  8
1
  6
CONTINUOUS
 62
1
 10
260.0921374659
 20
-307.2758939425
 11
243.0921374659
 21
-307.2758939425
  0
LINE
  8
1
  6
CONTINUOUS
 62
1
 10
242.0921374659
 20
-306.2758939425
 11
242.0921374659
 21
-305.4758939425
  0
LINE
  8
1
  6
CONTINUOUS
 62
1
 10
242.0921374659
 20
-302.4758939425
 11
242.0921374659
 21
-276.4758939425
  0
LINE
  8
1
  6
CONTINUOUS
 62
1
 10
242.0921374659
 20
-273.4758939425
 11
242.0921374659
 21
-272.6758939425
  0
LINE
  8
1
  6
CONTINUOUS
 62
1
 10
259.4921374659
 20
-278.0758939425
 11
243.6921374659
 21
-278.0758939425
  0
LINE
  8
1
  6
CONTINUOUS
 62
1
 10
259.9921374659
 20
-300.3758939425
 11
259.9921374659
 21
-278.5758939425
  0
LINE
  8
1
  6
CONTINUOUS
 62
1
 10
243.6921374659
 20
-300.8758939425
 11
259.4921374659
 21
-300.8758939425
  0
LINE
  8
1
  6
CONTINUOUS
 62
1
 10
243.1921374659
 20
-300.3758939425
 11
243.1921374659
 21
-278.5758939425
  0
CIRCLE
  8
1
  6
CONTINUOUS
 62
1
 10
251.5921374659
 20
-274.9758939425
 40
1.5000000000
  0
CIRCLE
  8
1
  6
CONTINUOUS
 62
1
 10
251.5921374659
 20
-303.9758939425
 40
1.5000000000
  0
ARC
  8
1
  6
CONTINUOUS
 62
1
 10
260.0921374659
 20
-272.6758939425
 40
1.0000000000
 50
0.0000000000
 51
90.0000000000
  0
ARC
  8
1
  6
CONTINUOUS
 62
1
 10
243.0921374659
 20
-272.6758939425
 40
1.0000000000
 50
90.0000000000
 51
180.0000000000
  0
ARC
  8
1
  6
CONTINUOUS
 62
1
 10
243.0921374659
 20
-306.2758939425
 40
1.0000000000
 50
180.0000000000
 51
270.0000000000
  0
ARC
  8
1
  6
CONTINUOUS
 62
1
 10
260.0921374659
 20
-306.2758939425
 40
1.0000000000
 50
270.0000000000
 51
0.0000000000
  0
LINE
  8
1
  6
CONTINUOUS
 62
1
 10
261.0921374659
 20
-305.4758939425
 11
259.0921374659
 21
-305.4758939425
  0
LINE
  8
1
  6
CONTINUOUS
 62
1
 10
259.0921374659
 20
-305.4758939425
 11
259.0921374659
 21
-302.4758939425
  0
LINE
  8
1
  6
CONTINUOUS
 62
1
 10
259.0921374659
 20
-302.4758939425
 11
261.0921374659
 21
-302.4758939425
  0
LINE
  8
1
  6
CONTINUOUS
 62
1
 10
242.0921374659
 20
-305.4758939425
 11
244.0921374659
 21
-305.4758939425
  0
LINE
  8
1
  6
CONTINUOUS
 62
1
 10
244.0921374659
 20
-305.4758939425
 11
244.0921374659
 21
-302.4758939425
  0
LINE
  8
1
  6
CONTINUOUS
 62
1
 10
244.0921374659
 20
-302.4758939425
 11
242.0921374659
 21
-302.4758939425
  0
LINE
  8
1
  6
CONTINUOUS
 62
1
 10
242.0921374659
 20
-273.4758939425
 11
244.0921374659
 21
-273.4758939425
  0
LINE
  8
1
  6
CONTINUOUS
 62
1
 10
244.0921374659
 20
-273.4758939425
 11
244.0921374659
 21
-276.4758939425
  0
LINE
  8
1
  6
CONTINUOUS
 62
1
 10
244.0921374659
 20
-276.4758939425
 11
242.0921374659
 21
-276.4758939425
  0
LINE
  8
1
  6
CONTINUOUS
 62
1
 10
261.0921374659
 20
-273.4758939425
 11
259.0921374659
 21
-273.4758939425
  0
LINE
  8
1
  6
CONTINUOUS
 62
1
 10
259.0921374659
 20
-273.4758939425
 11
259.0921374659
 21
-276.4758939425
  0
LINE
  8
1
  6
CONTINUOUS
 62
1
 10
259.0921374659
 20
-276.4758939425
 11
261.0921374659
 21
-276.4758939425
  0
ARC
  8
1
  6
CONTINUOUS
 62
1
 10
243.6921374659
 20
-278.5758939425
 40
0.5000000000
 50
90.0000000000
 51
180.0000000000
  0
ARC
  8
1
  6
CONTINUOUS
 62
1
 10
259.4921374659
 20
-278.5758939425
 40
0.5000000000
 50
0.0000000000
 51
90.0000000000
  0
ARC
  8
1
  6
CONTINUOUS
 62
1
 10
259.4921374659
 20
-300.3758939425
 40
0.5000000000
 50
270.0000000000
 51
0.0000000000
  0
ARC
  8
1
  6
CONTINUOUS
 62
1
 10
243.6921374659
 20
-300.3758939425
 40
0.5000000000
 50
180.0000000000
 51
270.0000000000
  0
LINE
  8
2
  6
CONTINUOUS
 62
1
 10
246.6821359659
 20
-287.7358939425
 11
251.5921379659
 21
-287.7358939425
  0
LINE
  8
2
  6
CONTINUOUS
 62
1
 10
246.0421409659
 20
-288.3758939425
 11
246.0421409659
 21
-289.5758939425
  0
LINE
  8
2
  6
CONTINUOUS
 62
1
 10
246.5421409659
 20
-289.1958949425
 11
256.6421349659
 21
-289.1958949425
  0
LINE
  8
2
  6
CONTINUOUS
 62
1
 10
246.0421409659
 20
-289.5758939425
 11
251.5921379659
 21
-289.5758939425
  0
LINE
  8
2
  6
CONTINUOUS
 62
1
 10
245.3921349659
 20
-287.6558939425
 11
245.3921349659
 21
-288.6158929425
  0
LINE
  8
2
  6
CONTINUOUS
 62
1
 10
246.5421409659
 20
-289.1958949425
 11
246.5421409659
 21
-288.2358939425
  0
LINE
  8
2
  6
CONTINUOUS
 62
1
 10
248.6821359659
 20
-289.5758939425
 11
248.6821359659
 21
-290.9558939425
  0
LINE
  8
2
  6
CONTINUOUS
 62
1
 10
247.5021379659
 20
-289.5758939425
 11
247.5021379659
 21
-290.9558939425
  0
LINE
  8
2
  6
CONTINUOUS
 62
1
 10
251.1821359659
 20
-289.5758939425
 11
251.1821359659
 21
-290.9558939425
  0
LINE
  8
2
  6
CONTINUOUS
 62
1
 10
250.0021379659
 20
-289.5758939425
 11
250.0021379659
 21
-290.9558939425
  0
LINE
  8
2
  6
CONTINUOUS
 62
1
 10
250.0021379659
 20
-290.9558939425
 11
251.1821359659
 21
-290.9558939425
  0
LINE
  8
2
  6
CONTINUOUS
 62
1
 10
247.5021379659
 20
-290.9558939425
 11
248.6821359659
 21
-290.9558939425
  0
LINE
  8
2
  6
CONTINUOUS
 62
1
 10
245.8921349659
 20
-287.5558929425
 11
247.8826099659
 21
-287.5558929425
  0
LINE
  8
2
  6
CONTINUOUS
 62
1
 10
245.8921349659
 20
-287.5558929425
 11
245.8921349659
 21
-288.6658969425
  0
LINE
  8
2
  6
CONTINUOUS
 62
1
 10
247.9641149659
 20
-287.7058929425
 11
247.8750879659
 21
-287.6168659425
  0
LINE
  8
2
  6
CONTINUOUS
 62
1
 10
245.9921319659
 20
-288.7658929425
 11
245.8421319659
 21
-288.6158929425
  0
LINE
  8
2
  6
CONTINUOUS
 62
1
 10
245.8421359659
 20
-288.6158929425
 11
245.3421359659
 21
-288.6158929425
  0
LINE
  8
2
  6
CONTINUOUS
 62
1
 10
245.8421359659
 20
-290.6158939425
 11
245.3421359659
 21
-290.6158939425
  0
LINE
  8
2
  6
CONTINUOUS
 62
1
 10
245.9921369659
 20
-290.4658929425
 11
245.9921369659
 21
-288.7658929425
  0
LINE
  8
2
  6
CONTINUOUS
 62
1
 10
245.9921349659
 20
-290.4658939425
 11
245.8421349659
 21
-290.6158939425
  0
LINE
  8
2
  6
CONTINUOUS
 62
1
 10
248.5921299659
 20
-287.7058949425
 11
249.2201509659
 21
-287.7058949425
  0
LINE
  8
2
  6
CONTINUOUS
 62
1
 10
249.2201489659
 20
-287.7058959425
 11
249.3091789659
 21
-287.6168659425
  0
LINE
  8
2
  6
CONTINUOUS
 62
1
 10
248.5921379659
 20
-287.7058949425
 11
247.9641149659
 21
-287.7058949425
  0
LINE
  8
2
  6
CONTINUOUS
 62
1
 10
247.9641209659
 20
-287.7058929425
 11
247.8750899659
 21
-287.6168629425
  0
LINE
  8
2
  6
CONTINUOUS
 62
1
 10
247.4026059659
 20
-287.0781869425
 11
247.6201969659
 21
-287.1454329425
  0
LINE
  8
2
  6
CONTINUOUS
 62
1
 10
247.8256549659
 20
-287.3725609425
 11
247.8750869659
 21
-287.6168639425
  0
LINE
  8
2
  6
CONTINUOUS
 62
1
 10
247.8902589659
 20
-287.1876139425
 11
247.9137069659
 21
-287.3034959425
  0
LINE
  8
2
  6
CONTINUOUS
 62
1
 10
249.7816649659
 20
-287.0781849425
 11
249.5640759659
 21
-287.1454309425
  0
LINE
  8
2
  6
CONTINUOUS
 62
1
 10
249.3586119659
 20
-287.3725609425
 11
249.3091789659
 21
-287.6168639425
  0
LINE
  8
2
  6
CONTINUOUS
 62
1
 10
249.2940069659
 20
-287.1876129425
 11
249.2705599659
 21
-287.3034949425
  0
LINE
  8
2
  6
CONTINUOUS
 62
1
 10
249.3091809659
 20
-287.6168659425
 11
249.2425127235
 21
-287.0758939425
  0
LINE
  8
2
  6
CONTINUOUS
 62
1
 10
247.8750919659
 20
-287.6168659425
 11
247.9417593628
 21
-287.0758939425
  0
LINE
  8
2
  6
CONTINUOUS
 62
1
 10
248.5921379659
 20
-291.5258939425
 11
247.9641149659
 21
-291.5258939425
  0
LINE
  8
2
  6
CONTINUOUS
 62
1
 10
247.9641189659
 20
-291.5258949425
 11
247.8750899659
 21
-291.6149239425
  0
LINE
  8
2
  6
CONTINUOUS
 62
1
 10
248.5921299659
 20
-291.5258939425
 11
249.2201509659
 21
-291.5258939425
  0
LINE
  8
2
  6
CONTINUOUS
 62
1
 10
249.2201529659
 20
-291.5258919425
 11
249.3091819659
 21
-291.6149209425
  0
LINE
  8
2
  6
CONTINUOUS
 62
1
 10
249.7816639659
 20
-292.1535999425
 11
249.5640749659
 21
-292.0863539425
  0
LINE
  8
2
  6
CONTINUOUS
 62
1
 10
249.2940089659
 20
-292.0441759425
 11
249.2705619659
 21
-291.9282939425
  0
LINE
  8
2
  6
CONTINUOUS
 62
1
 10
247.4026099659
 20
-292.1535989425
 11
247.6202009659
 21
-292.0863529425
  0
LINE
  8
2
  6
CONTINUOUS
 62
1
 10
247.8256579659
 20
-291.8592299425
 11
247.8750909659
 21
-291.6149249425
  0
LINE
  8
2
  6
CONTINUOUS
 62
1
 10
247.8902619659
 20
-292.0441769425
 11
247.9137099659
 21
-291.9282949425
  0
LINE
  8
2
  6
CONTINUOUS
 62
1
 10
247.8750889659
 20
-291.6149209425
 11
247.9442209659
 21
-292.1758929425
  0
LINE
  8
2
  6
CONTINUOUS
 62
1
 10
249.3091869659
 20
-291.6149219425
 11
249.2400549659
 21
-292.1758919425
  0
LINE
  8
2
  6
CONTINUOUS
 62
1
 10
249.3586119659
 20
-291.8592289425
 11
249.3091789659
 21
-291.6149239425
  0
LINE
  8
2
  6
CONTINUOUS
 62
1
 10
249.3016639659
 20
-287.5558929425
 11
251.5921379659
 21
-287.5558929425
  0
LINE
  8
2
  6
CONTINUOUS
 62
1
 10
245.3921349659
 20
-290.6158939425
 11
245.3921349659
 21
-292.0276519425
  0
LINE
  8
2
  6
CONTINUOUS
 62
1
 10
245.8921349659
 20
-290.5658939425
 11
245.8921349659
 21
-292.1758939425
  0
LINE
  8
2
  6
CONTINUOUS
 62
1
 10
250.3421399659
 20
-290.0758939425
 11
250.0921379659
 21
-290.0758939425
  0
LINE
  8
2
  6
CONTINUOUS
 62
1
 10
250.0921379659
 20
-289.7081209425
 11
250.0921379659
 21
-290.0758939425
  0
LINE
  8
2
  6
CONTINUOUS
 62
1
 10
250.3421399659
 20
-290.0290459425
 11
250.3421399659
 21
-290.0758939425
  0
LINE
  8
2
  6
CONTINUOUS
 62
1
 10
250.8421399659
 20
-290.0758939425
 11
251.0921399659
 21
-290.0758939425
  0
LINE
  8
2
  6
CONTINUOUS
 62
1
 10
250.8421399659
 20
-290.0290459425
 11
250.8421399659
 21
-290.0758939425
  0
LINE
  8
2
  6
CONTINUOUS
 62
1
 10
251.0921399659
 20
-289.7081209425
 11
251.0921399659
 21
-290.0758939425
  0
LINE
  8
2
  6
CONTINUOUS
 62
1
 10
250.9983879659
 20
-289.5758939425
 11
251.0461279659
 21
-289.6793439425
  0
LINE
  8
2
  6
CONTINUOUS
 62
1
 10
250.1858899659
 20
-289.5758929425
 11
250.1381489659
 21
-289.6793439425
  0
LINE
  8
2
  6
CONTINUOUS
 62
1
 10
247.8421399659
 20
-290.0758939425
 11
247.5921359659
 21
-290.0758939425
  0
LINE
  8
2
  6
CONTINUOUS
 62
1
 10
247.5921359659
 20
-289.7081209425
 11
247.5921359659
 21
-290.0758939425
  0
LINE
  8
2
  6
CONTINUOUS
 62
1
 10
247.8421359659
 20
-290.0290459425
 11
247.8421359659
 21
-290.0758939425
  0
LINE
  8
2
  6
CONTINUOUS
 62
1
 10
248.3421399659
 20
-290.0758939425
 11
248.5921399659
 21
-290.0758939425
  0
LINE
  8
2
  6
CONTINUOUS
 62
1
 10
248.3421399659
 20
-290.0290459425
 11
248.3421399659
 21
-290.0758939425
  0
LINE
  8
2
  6
CONTINUOUS
 62
1
 10
248.5921399659
 20
-289.7081209425
 11
248.5921399659
 21
-290.0758939425
  0
LINE
  8
2
  6
CONTINUOUS
 62
1
 10
248.4983869659
 20
-289.5758939425
 11
248.5461269659
 21
-289.6793449425
  0
LINE
  8
2
  6
CONTINUOUS
 62
1
 10
247.6858879659
 20
-289.5758949425
 11
247.6381489659
 21
-289.6793439425
  0
LINE
  8
2
  6
CONTINUOUS
 62
1
 10
256.5021399659
 20
-287.7358939425
 11
251.5921379659
 21
-287.7358939425
  0
LINE
  8
2
  6
CONTINUOUS
 62
1
 10
257.1421349659
 20
-288.3758939425
 11
257.1421349659
 21
-289.5758939425
  0
LINE
  8
2
  6
CONTINUOUS
 62
1
 10
256.6421349659
 20
-288.2358939425
 11
246.5421409659
 21
-288.2358939425
  0
LINE
  8
2
  6
CONTINUOUS
 62
1
 10
257.1421349659
 20
-289.5758939425
 11
251.5921379659
 21
-289.5758939425
  0
LINE
  8
2
  6
CONTINUOUS
 62
1
 10
257.7921389659
 20
-287.6558939425
 11
257.7921389659
 21
-288.6158929425
  0
LINE
  8
2
  6
CONTINUOUS
 62
1
 10
256.6421349659
 20
-289.1958949425
 11
256.6421349659
 21
-288.2358939425
  0
LINE
  8
2
  6
CONTINUOUS
 62
1
 10
254.5021399659
 20
-289.5758939425
 11
254.5021399659
 21
-290.9558939425
  0
LINE
  8
2
  6
CONTINUOUS
 62
1
 10
255.6821379659
 20
-289.5758939425
 11
255.6821379659
 21
-290.9558939425
  0
LINE
  8
2
  6
CONTINUOUS
 62
1
 10
252.0021379659
 20
-289.5758939425
 11
252.0021379659
 21
-290.9558939425
  0
LINE
  8
2
  6
CONTINUOUS
 62
1
 10
253.1821379659
 20
-289.5758939425
 11
253.1821379659
 21
-290.9558939425
  0
LINE
  8
2
  6
CONTINUOUS
 62
1
 10
253.1821379659
 20
-290.9558939425
 11
252.0021379659
 21
-290.9558939425
  0
LINE
  8
2
  6
CONTINUOUS
 62
1
 10
255.6821379659
 20
-290.9558939425
 11
254.5021399659
 21
-290.9558939425
  0
LINE
  8
2
  6
CONTINUOUS
 62
1
 10
257.2921389659
 20
-287.5558929425
 11
255.3016659659
 21
-287.5558929425
  0
LINE
  8
2
  6
CONTINUOUS
 62
1
 10
257.2921389659
 20
-287.5558929425
 11
257.2921389659
 21
-288.6658969425
  0
LINE
  8
2
  6
CONTINUOUS
 62
1
 10
255.2201589659
 20
-287.7058939425
 11
255.3091879659
 21
-287.6168649425
  0
LINE
  8
2
  6
CONTINUOUS
 62
1
 10
257.1921419659
 20
-288.7658939425
 11
257.3421419659
 21
-288.6158939425
  0
LINE
  8
2
  6
CONTINUOUS
 62
1
 10
257.3421379659
 20
-288.6158929425
 11
257.8421379659
 21
-288.6158929425
  0
LINE
  8
2
  6
CONTINUOUS
 62
1
 10
257.3421379659
 20
-290.6158939425
 11
257.8421379659
 21
-290.6158939425
  0
LINE
  8
2
  6
CONTINUOUS
 62
1
 10
257.1921379659
 20
-290.4658929425
 11
257.1921379659
 21
-288.7658929425
  0
LINE
  8
2
  6
CONTINUOUS
 62
1
 10
257.1921409659
 20
-290.4658939425
 11
257.3421409659
 21
-290.6158939425
  0
LINE
  8
2
  6
CONTINUOUS
 62
1
 10
254.5921439659
 20
-287.7058949425
 11
253.9641219659
 21
-287.7058949425
  0
LINE
  8
2
  6
CONTINUOUS
 62
1
 10
253.9641249659
 20
-287.7058939425
 11
253.8750949659
 21
-287.6168649425
  0
LINE
  8
2
  6
CONTINUOUS
 62
1
 10
254.5921379659
 20
-287.7058949425
 11
255.2201589659
 21
-287.7058949425
  0
LINE
  8
2
  6
CONTINUOUS
 62
1
 10
255.2201539659
 20
-287.7058919425
 11
255.3091829659
 21
-287.6168629425
  0
LINE
  8
2
  6
CONTINUOUS
 62
1
 10
255.7816679659
 20
-287.0781869425
 11
255.5640789659
 21
-287.1454319425
  0
LINE
  8
2
  6
CONTINUOUS
 62
1
 10
255.3586219659
 20
-287.3725609425
 11
255.3091899659
 21
-287.6168629425
  0
LINE
  8
2
  6
CONTINUOUS
 62
1
 10
255.2940179659
 20
-287.1876129425
 11
255.2705699659
 21
-287.3034959425
  0
LINE
  8
2
  6
CONTINUOUS
 62
1
 10
253.4026119659
 20
-287.0781849425
 11
253.6202009659
 21
-287.1454299425
  0
LINE
  8
2
  6
CONTINUOUS
 62
1
 10
253.8256649659
 20
-287.3725599425
 11
253.8750979659
 21
-287.6168629425
  0
LINE
  8
2
  6
CONTINUOUS
 62
1
 10
253.8902679659
 20
-287.1876129425
 11
253.9137159659
 21
-287.3034949425
  0
LINE
  8
2
  6
CONTINUOUS
 62
1
 10
253.8750959659
 20
-287.6168659425
 11
253.9417632439
 21
-287.0758939425
  0
LINE
  8
2
  6
CONTINUOUS
 62
1
 10
255.3091849659
 20
-287.6168659425
 11
255.2425167235
 21
-287.0758939425
  0
LINE
  8
2
  6
CONTINUOUS
 62
1
 10
254.5921379659
 20
-291.5258939425
 11
255.2201589659
 21
-291.5258939425
  0
LINE
  8
2
  6
CONTINUOUS
 62
1
 10
255.2201569659
 20
-291.5258959425
 11
255.3091859659
 21
-291.6149249425
  0
LINE
  8
2
  6
CONTINUOUS
 62
1
 10
254.5921439659
 20
-291.5258939425
 11
253.9641219659
 21
-291.5258939425
  0
LINE
  8
2
  6
CONTINUOUS
 62
1
 10
253.9641229659
 20
-291.5258949425
 11
253.8750939659
 21
-291.6149239425
  0
LINE
  8
2
  6
CONTINUOUS
 62
1
 10
253.4026109659
 20
-292.1536009425
 11
253.6202019659
 21
-292.0863549425
  0
LINE
  8
2
  6
CONTINUOUS
 62
1
 10
253.8902669659
 20
-292.0441769425
 11
253.9137149659
 21
-291.9282949425
  0
LINE
  8
2
  6
CONTINUOUS
 62
1
 10
255.7816639659
 20
-292.1535999425
 11
255.5640729659
 21
-292.0863539425
  0
LINE
  8
2
  6
CONTINUOUS
 62
1
 10
255.3586189659
 20
-291.8592279425
 11
255.3091859659
 21
-291.6149239425
  0
LINE
  8
2
  6
CONTINUOUS
 62
1
 10
255.2940159659
 20
-292.0441739425
 11
255.2705679659
 21
-291.9282929425
  0
LINE
  8
2
  6
CONTINUOUS
 62
1
 10
255.3091839659
 20
-291.6149199425
 11
255.2400509659
 21
-292.1758919425
  0
LINE
  8
2
  6
CONTINUOUS
 62
1
 10
253.8750869659
 20
-291.6149219425
 11
253.9442199659
 21
-292.1758939425
  0
LINE
  8
2
  6
CONTINUOUS
 62
1
 10
253.8256629659
 20
-291.8592289425
 11
253.8750959659
 21
-291.6149249425
  0
LINE
  8
2
  6
CONTINUOUS
 62
1
 10
253.8826119659
 20
-287.5558929425
 11
251.5921379659
 21
-287.5558929425
  0
LINE
  8
2
  6
CONTINUOUS
 62
1
 10
257.7921389659
 20
-290.6158939425
 11
257.7921389659
 21
-292.0276519425
  0
LINE
  8
2
  6
CONTINUOUS
 62
1
 10
257.2921389659
 20
-290.5658939425
 11
257.2921389659
 21
-292.1758939425
  0
LINE
  8
2
  6
CONTINUOUS
 62
1
 10
252.8421359659
 20
-290.0758939425
 11
253.0921359659
 21
-290.0758939425
  0
LINE
  8
2
  6
CONTINUOUS
 62
1
 10
253.0921359659
 20
-289.7081209425
 11
253.0921359659
 21
-290.0758939425
  0
LINE
  8
2
  6
CONTINUOUS
 62
1
 10
252.8421359659
 20
-290.0290459425
 11
252.8421359659
 21
-290.0758939425
  0
LINE
  8
2
  6
CONTINUOUS
 62
1
 10
252.3421359659
 20
-290.0758939425
 11
252.0921359659
 21
-290.0758939425
  0
LINE
  8
2
  6
CONTINUOUS
 62
1
 10
252.3421359659
 20
-290.0290459425
 11
252.3421359659
 21
-290.0758939425
  0
LINE
  8
2
  6
CONTINUOUS
 62
1
 10
252.0921359659
 20
-289.7081209425
 11
252.0921359659
 21
-290.0758939425
  0
LINE
  8
2
  6
CONTINUOUS
 62
1
 10
252.1858879659
 20
-289.5758949425
 11
252.1381479659
 21
-289.6793439425
  0
LINE
  8
2
  6
CONTINUOUS
 62
1
 10
252.9983869659
 20
-289.5758949425
 11
253.0461269659
 21
-289.6793449425
  0
LINE
  8
2
  6
CONTINUOUS
 62
1
 10
255.3421359659
 20
-290.0758939425
 11
255.5921359659
 21
-290.0758939425
  0
LINE
  8
2
  6
CONTINUOUS
 62
1
 10
255.5921359659
 20
-289.7081209425
 11
255.5921359659
 21
-290.0758939425
  0
LINE
  8
2
  6
CONTINUOUS
 62
1
 10
255.3421359659
 20
-290.0290459425
 11
255.3421359659
 21
-290.0758939425
  0
LINE
  8
2
  6
CONTINUOUS
 62
1
 10
254.8421359659
 20
-290.0758939425
 11
254.5921359659
 21
-290.0758939425
  0
LINE
  8
2
  6
CONTINUOUS
 62
1
 10
254.8421359659
 20
-290.0290459425
 11
254.8421359659
 21
-290.0758939425
  0
LINE
  8
2
  6
CONTINUOUS
 62
1
 10
254.5921359659
 20
-289.7081209425
 11
254.5921359659
 21
-290.0758939425
  0
LINE
  8
2
  6
CONTINUOUS
 62
1
 10
254.6858869659
 20
-289.5758939425
 11
254.6381469659
 21
-289.6793439425
  0
LINE
  8
2
  6
CONTINUOUS
 62
1
 10
255.4983859659
 20
-289.5758959425
 11
255.5461259659
 21
-289.6793449425
  0
ARC
  8
2
  6
CONTINUOUS
 62
1
 10
246.6821359659
 20
-288.3758939425
 40
0.6400000000
 50
89.9999960000
 51
180.0000050000
  0
ARC
  8
2
  6
CONTINUOUS
 62
1
 10
245.9921369659
 20
-287.6558939425
 40
0.6000000000
 50
104.8351115820
 51
180.0000050000
  0
ARC
  8
2
  6
CONTINUOUS
 62
1
 10
245.6621359659
 20
-291.8558929425
 40
0.3200000000
 50
180.0000090000
 51
269.9999970000
  0
ARC
  8
2
  6
CONTINUOUS
 62
1
 10
247.4001939659
 20
-287.2867739425
 40
0.5000000000
 50
11.4389220000
 51
24.9457536051
  0
ARC
  8
2
  6
CONTINUOUS
 62
1
 10
247.5316139659
 20
-287.4320559425
 40
0.3000000000
 50
11.4389220000
 51
72.8263110000
  0
ARC
  8
2
  6
CONTINUOUS
 62
1
 10
249.7840779659
 20
-287.2867739425
 40
0.5000000000
 50
155.0542463949
 51
168.5610770000
  0
ARC
  8
2
  6
CONTINUOUS
 62
1
 10
249.6526539659
 20
-287.4320559425
 40
0.3000000000
 50
107.1736870000
 51
168.5610770000
  0
ARC
  8
2
  6
CONTINUOUS
 62
1
 10
249.7840799659
 20
-291.9450139425
 40
0.5000000000
 50
191.4389230000
 51
207.5006860000
  0
ARC
  8
2
  6
CONTINUOUS
 62
1
 10
249.9292959659
 20
-291.6758929425
 40
0.5000000000
 50
252.8263130000
 51
270.0000040000
  0
ARC
  8
2
  6
CONTINUOUS
 62
1
 10
249.6526539659
 20
-291.7997319425
 40
0.3000000000
 50
191.4389230000
 51
252.8263130000
  0
ARC
  8
2
  6
CONTINUOUS
 62
1
 10
247.4001939659
 20
-291.9450139425
 40
0.5000000000
 50
332.4993140000
 51
348.5610780000
  0
ARC
  8
2
  6
CONTINUOUS
 62
1
 10
247.2549719659
 20
-291.6758929425
 40
0.5000000000
 50
270.0000040000
 51
287.1736890000
  0
ARC
  8
2
  6
CONTINUOUS
 62
1
 10
247.5316139659
 20
-291.7997319425
 40
0.3000000000
 50
287.1736890000
 51
348.5610780000
  0
ARC
  8
2
  6
CONTINUOUS
 62
1
 10
250.5921399659
 20
-290.0290459425
 40
0.2500000000
 50
0.0000090000
 51
90.0000030000
  0
ARC
  8
2
  6
CONTINUOUS
 62
1
 10
250.5921399659
 20
-289.7081209425
 40
0.5000000000
 50
164.6655340000
 51
179.9999910000
  0
ARC
  8
2
  6
CONTINUOUS
 62
1
 10
250.5921399659
 20
-289.4758929425
 40
0.6500000000
 50
247.3801390000
 51
270.0000040000
  0
ARC
  8
2
  6
CONTINUOUS
 62
1
 10
250.5921399659
 20
-290.0290459425
 40
0.2500000000
 50
89.9999960000
 51
179.9999910000
  0
ARC
  8
2
  6
CONTINUOUS
 62
1
 10
250.5921399659
 20
-289.8888519425
 40
0.5000000000
 50
0.0000090000
 51
24.7724080000
  0
ARC
  8
2
  6
CONTINUOUS
 62
1
 10
250.5921399659
 20
-289.7081209425
 40
0.5000000000
 50
0.0000090000
 51
15.3344680000
  0
ARC
  8
2
  6
CONTINUOUS
 62
1
 10
250.5921399659
 20
-289.4758929425
 40
0.6500000000
 50
270.0000040000
 51
292.6198700000
  0
ARC
  8
2
  6
CONTINUOUS
 62
1
 10
250.5921399659
 20
-289.8888519425
 40
0.5000000000
 50
155.2275920000
 51
179.9999910000
  0
ARC
  8
2
  6
CONTINUOUS
 62
1
 10
248.0921399659
 20
-289.8888519425
 40
0.5000000000
 50
155.2275920000
 51
179.9999910000
  0
ARC
  8
2
  6
CONTINUOUS
 62
1
 10
248.0921399659
 20
-290.0290459425
 40
0.2500000000
 50
0.0000090000
 51
90.0000030000
  0
ARC
  8
2
  6
CONTINUOUS
 62
1
 10
248.0921399659
 20
-289.7081209425
 40
0.5000000000
 50
164.6655340000
 51
179.9999910000
  0
ARC
  8
2
  6
CONTINUOUS
 62
1
 10
248.0921399659
 20
-289.4758929425
 40
0.6500000000
 50
247.3801390000
 51
270.0000040000
  0
ARC
  8
2
  6
CONTINUOUS
 62
1
 10
248.0921399659
 20
-290.0290459425
 40
0.2500000000
 50
89.9999960000
 51
179.9999910000
  0
ARC
  8
2
  6
CONTINUOUS
 62
1
 10
248.0921399659
 20
-289.8888519425
 40
0.5000000000
 50
0.0000090000
 51
24.7724080000
  0
ARC
  8
2
  6
CONTINUOUS
 62
1
 10
248.0921399659
 20
-289.7081209425
 40
0.5000000000
 50
0.0000090000
 51
15.3344680000
  0
ARC
  8
2
  6
CONTINUOUS
 62
1
 10
248.0921399659
 20
-289.4758929425
 40
0.6500000000
 50
270.0000040000
 51
292.6198700000
  0
ARC
  8
2
  6
CONTINUOUS
 62
1
 10
255.0921359659
 20
-289.4758929425
 40
0.6500000000
 50
247.3801320000
 51
269.9999970000
  0
ARC
  8
2
  6
CONTINUOUS
 62
1
 10
255.0921359659
 20
-289.7081209425
 40
0.5000000000
 50
164.6655340000
 51
179.9999910000
  0
ARC
  8
2
  6
CONTINUOUS
 62
1
 10
256.5021399659
 20
-288.3758939425
 40
0.6400000000
 50
0.0000000000
 51
90.0000030000
  0
ARC
  8
2
  6
CONTINUOUS
 62
1
 10
257.1921379659
 20
-287.6558939425
 40
0.6000000000
 50
0.0000000000
 51
75.1648884180
  0
ARC
  8
2
  6
CONTINUOUS
 62
1
 10
257.5221399659
 20
-291.8558929425
 40
0.3200000000
 50
269.9999970000
 51
0.0000000000
  0
ARC
  8
2
  6
CONTINUOUS
 62
1
 10
255.7840819659
 20
-287.2867739425
 40
0.5000000000
 50
155.0542463949
 51
168.5610770000
  0
ARC
  8
2
  6
CONTINUOUS
 62
1
 10
255.6526599659
 20
-287.4320559425
 40
0.3000000000
 50
107.1736870000
 51
168.5610770000
  0
ARC
  8
2
  6
CONTINUOUS
 62
1
 10
253.4001979659
 20
-287.2867739425
 40
0.5000000000
 50
11.4389220000
 51
24.9457536051
  0
ARC
  8
2
  6
CONTINUOUS
 62
1
 10
253.5316219659
 20
-287.4320559425
 40
0.3000000000
 50
11.4389220000
 51
72.8263110000
  0
ARC
  8
2
  6
CONTINUOUS
 62
1
 10
253.4001939659
 20
-291.9450139425
 40
0.5000000000
 50
332.4993140000
 51
348.5610780000
  0
ARC
  8
2
  6
CONTINUOUS
 62
1
 10
253.2549799659
 20
-291.6758929425
 40
0.5000000000
 50
269.9999970000
 51
287.1736890000
  0
ARC
  8
2
  6
CONTINUOUS
 62
1
 10
253.5316219659
 20
-291.7997319425
 40
0.3000000000
 50
287.1736890000
 51
348.5610780000
  0
ARC
  8
2
  6
CONTINUOUS
 62
1
 10
255.7840819659
 20
-291.9450139425
 40
0.5000000000
 50
191.4389230000
 51
207.5006860000
  0
ARC
  8
2
  6
CONTINUOUS
 62
1
 10
255.9293019659
 20
-291.6758929425
 40
0.5000000000
 50
252.8263130000
 51
269.9999970000
  0
ARC
  8
2
  6
CONTINUOUS
 62
1
 10
255.6526599659
 20
-291.7997319425
 40
0.3000000000
 50
191.4389230000
 51
252.8263130000
  0
ARC
  8
2
  6
CONTINUOUS
 62
1
 10
252.5921359659
 20
-290.0290459425
 40
0.2500000000
 50
89.9999960000
 51
179.9999910000
  0
ARC
  8
2
  6
CONTINUOUS
 62
1
 10
252.5921359659
 20
-289.7081209425
 40
0.5000000000
 50
0.0000030000
 51
15.3344680000
  0
ARC
  8
2
  6
CONTINUOUS
 62
1
 10
252.5921359659
 20
-289.4758929425
 40
0.6500000000
 50
269.9999970000
 51
292.6198630000
  0
ARC
  8
2
  6
CONTINUOUS
 62
1
 10
252.5921359659
 20
-290.0290459425
 40
0.2500000000
 50
0.0000030000
 51
90.0000030000
  0
ARC
  8
2
  6
CONTINUOUS
 62
1
 10
252.5921359659
 20
-289.8888519425
 40
0.5000000000
 50
155.2275920000
 51
179.9999910000
  0
ARC
  8
2
  6
CONTINUOUS
 62
1
 10
252.5921359659
 20
-289.7081209425
 40
0.5000000000
 50
164.6655340000
 51
179.9999910000
  0
ARC
  8
2
  6
CONTINUOUS
 62
1
 10
252.5921359659
 20
-289.4758929425
 40
0.6500000000
 50
247.3801320000
 51
269.9999970000
  0
ARC
  8
2
  6
CONTINUOUS
 62
1
 10
252.5921359659
 20
-289.8888519425
 40
0.5000000000
 50
0.0000090000
 51
24.7724080000
  0
ARC
  8
2
  6
CONTINUOUS
 62
1
 10
255.0921359659
 20
-289.8888519425
 40
0.5000000000
 50
0.0000090000
 51
24.7724080000
  0
ARC
  8
2
  6
CONTINUOUS
 62
1
 10
255.0921359659
 20
-290.0290459425
 40
0.2500000000
 50
89.9999960000
 51
179.9999910000
  0
ARC
  8
2
  6
CONTINUOUS
 62
1
 10
255.0921359659
 20
-289.7081209425
 40
0.5000000000
 50
0.0000030000
 51
15.3344680000
  0
ARC
  8
2
  6
CONTINUOUS
 62
1
 10
255.0921359659
 20
-289.4758929425
 40
0.6500000000
 50
269.9999970000
 51
292.6198630000
  0
ARC
  8
2
  6
CONTINUOUS
 62
1
 10
255.0921359659
 20
-290.0290459425
 40
0.2500000000
 50
0.0000030000
 51
90.0000030000
  0
ARC
  8
2
  6
CONTINUOUS
 62
1
 10
255.0921359659
 20
-289.8888519425
 40
0.5000000000
 50
155.2275920000
 51
179.9999910000
  0
LINE
  8
2
  6
CONTINUOUS
 62
1
 10
257.5221399491
 20
-292.1758929425
 11
245.6621359659
 21
-292.1758929425
  0
LINE
  8
1
  6
CONTINUOUS
 62
1
 10
245.3421374659
 20
-287.0758939425
 11
257.8421374659
 21
-287.0758939425
  0
LINE
  8
1
  6
CONTINUOUS
 62
1
 10
257.8421374659
 20
-287.0758939425
 11
257.8421374659
 21
-292.4758939425
  0
LINE
  8
1
  6
CONTINUOUS
 62
1
 10
257.8421374659
 20
-292.4758939425
 11
245.3421374659
 21
-292.4758939425
  0
LINE
  8
1
  6
CONTINUOUS
 62
1
 10
245.3421374659
 20
-292.4758939425
 11
245.3421374659
 21
-287.0758939425
  0
POINT
  8
3
  6
CONTINUOUS
 62
7
 10
251.5921374659
 20
-289.4758939425
  0
CIRCLE
  8
3
  6
CONTINUOUS
 62
6
 10
251.5921374659
 20
-247.1011842222
 40
3.0285714286
  0
LINE
  8
3
  6
CONTINUOUS
 62
6
 10
250.2536853443
 20
-245.7627321006
 11
252.9305895874
 21
-248.4396363437
  0
LINE
  8
3
  6
CONTINUOUS
 62
6
 10
250.2536853443
 20
-248.4396363437
 11
252.9305895874
 21
-245.7627321006
  0
CIRCLE
  8
3
  6
CONTINUOUS
 62
6
 10
251.5921374659
 20
-247.1011842222
 40
2.6500000000
  0
CIRCLE
  8
3
  6
CONTINUOUS
 62
6
 10
251.5921374659
 20
-218.1011842222
 40
3.0285714286
  0
LINE
  8
3
  6
CONTINUOUS
 62
6
 10
250.2536853443
 20
-216.7627321006
 11
252.9305895874
 21
-219.4396363437
  0
LINE
  8
3
  6
CONTINUOUS
 62
6
 10
250.2536853443
 20
-219.4396363437
 11
252.9305895874
 21
-216.7627321006
  0
CIRCLE
  8
3
  6
CONTINUOUS
 62
6
 10
251.5921374659
 20
-218.1011842222
 40
2.6500000000
  0
LINE
  8
1
  6
HIDDEN
 62
1
 10
260.0921374659
 20
-214.8011842222
 11
243.0921374659
 21
-214.8011842222
  0
LINE
  8
1
  6
HIDDEN
 62
1
 10
242.0921374659
 20
-249.4011842222
 11
242.0921374659
 21
-248.6011842222
  0
LINE
  8
1
  6
HIDDEN
 62
1
 10
242.0921374659
 20
-245.6011842222
 11
242.0921374659
 21
-219.6011842222
  0
LINE
  8
1
  6
HIDDEN
 62
1
 10
242.0921374659
 20
-216.6011842222
 11
242.0921374659
 21
-215.8011842222
  0
LINE
  8
1
  6
HIDDEN
 62
1
 10
243.0921374659
 20
-250.4011842222
 11
260.0921374659
 21
-250.4011842222
  0
LINE
  8
1
  6
HIDDEN
 62
1
 10
261.0921374659
 20
-249.4011842222
 11
261.0921374659
 21
-248.6011842222
  0
LINE
  8
1
  6
HIDDEN
 62
1
 10
261.0921374659
 20
-245.6011842222
 11
261.0921374659
 21
-219.6011842222
  0
LINE
  8
1
  6
HIDDEN
 62
1
 10
261.0921374659
 20
-216.6011842222
 11
261.0921374659
 21
-215.8011842222
  0
LINE
  8
1
  6
CONTINUOUS
 62
1
 10
243.6921374659
 20
-221.2011842222
 11
259.4921374659
 21
-221.2011842222
  0
LINE
  8
1
  6
CONTINUOUS
 62
1
 10
243.1921374659
 20
-243.5011842222
 11
243.1921374659
 21
-221.7011842222
  0
LINE
  8
1
  6
CONTINUOUS
 62
1
 10
259.4921374659
 20
-244.0011842222
 11
243.6921374659
 21
-244.0011842222
  0
LINE
  8
1
  6
CONTINUOUS
 62
1
 10
259.9921374659
 20
-243.5011842222
 11
259.9921374659
 21
-221.7011842222
  0
ARC
  8
1
  6
HIDDEN
 62
1
 10
243.0921374659
 20
-215.8011842222
 40
1.0000000000
 50
90.0000000000
 51
180.0000000000
  0
ARC
  8
1
  6
HIDDEN
 62
1
 10
260.0921374659
 20
-215.8011842222
 40
1.0000000000
 50
0.0000000000
 51
90.0000000000
  0
ARC
  8
1
  6
HIDDEN
 62
1
 10
260.0921374659
 20
-249.4011842222
 40
1.0000000000
 50
270.0000000000
 51
0.0000000000
  0
ARC
  8
1
  6
HIDDEN
 62
1
 10
243.0921374659
 20
-249.4011842222
 40
1.0000000000
 50
180.0000000000
 51
270.0000000000
  0
LINE
  8
1
  6
HIDDEN
 62
1
 10
242.0921374659
 20
-248.6011842222
 11
244.0921374659
 21
-248.6011842222
  0
LINE
  8
1
  6
HIDDEN
 62
1
 10
244.0921374659
 20
-248.6011842222
 11
244.0921374659
 21
-245.6011842222
  0
LINE
  8
1
  6
HIDDEN
 62
1
 10
244.0921374659
 20
-245.6011842222
 11
242.0921374659
 21
-245.6011842222
  0
LINE
  8
1
  6
HIDDEN
 62
1
 10
261.0921374659
 20
-248.6011842222
 11
259.0921374659
 21
-248.6011842222
  0
LINE
  8
1
  6
HIDDEN
 62
1
 10
259.0921374659
 20
-248.6011842222
 11
259.0921374659
 21
-245.6011842222
  0
LINE
  8
1
  6
HIDDEN
 62
1
 10
259.0921374659
 20
-245.6011842222
 11
261.0921374659
 21
-245.6011842222
  0
LINE
  8
1
  6
HIDDEN
 62
1
 10
261.0921374659
 20
-216.6011842222
 11
259.0921374659
 21
-216.6011842222
  0
LINE
  8
1
  6
HIDDEN
 62
1
 10
259.0921374659
 20
-216.6011842222
 11
259.0921374659
 21
-219.6011842222
  0
LINE
  8
1
  6
HIDDEN
 62
1
 10
259.0921374659
 20
-219.6011842222
 11
261.0921374659
 21
-219.6011842222
  0
LINE
  8
1
  6
HIDDEN
 62
1
 10
242.0921374659
 20
-216.6011842222
 11
244.0921374659
 21
-216.6011842222
  0
LINE
  8
1
  6
HIDDEN
 62
1
 10
244.0921374659
 20
-216.6011842222
 11
244.0921374659
 21
-219.6011842222
  0
LINE
  8
1
  6
HIDDEN
 62
1
 10
244.0921374659
 20
-219.6011842222
 11
242.0921374659
 21
-219.6011842222
  0
ARC
  8
1
  6
CONTINUOUS
 62
1
 10
259.4921374659
 20
-221.7011842222
 40
0.5000000000
 50
0.0000000000
 51
90.0000000000
  0
ARC
  8
1
  6
CONTINUOUS
 62
1
 10
243.6921374659
 20
-221.7011842222
 40
0.5000000000
 50
90.0000000000
 51
180.0000000000
  0
ARC
  8
1
  6
CONTINUOUS
 62
1
 10
243.6921374659
 20
-243.5011842222
 40
0.5000000000
 50
180.0000000000
 51
270.0000000000
  0
ARC
  8
1
  6
CONTINUOUS
 62
1
 10
259.4921374659
 20
-243.5011842222
 40
0.5000000000
 50
270.0000000000
 51
0.0000000000
  0
LINE
  8
3
  6
CONTINUOUS
 62
1
 10
247.0803607706
 20
-228.5629609175
 11
248.7639141612
 21
-226.8794075269
  0
LINE
  8
3
  6
CONTINUOUS
 62
1
 10
247.4784368890
 20
-228.6898847990
 11
248.8558380427
 21
-227.3124836453
  0
LINE
  8
3
  6
CONTINUOUS
 62
1
 10
247.0071374659
 20
-235.0461842222
 11
247.0071374659
 21
-234.1511842222
  0
LINE
  8
3
  6
CONTINUOUS
 62
1
 10
247.0071374659
 20
-229.6511842222
 11
247.0071374659
 21
-228.7397376128
  0
LINE
  8
3
  6
CONTINUOUS
 62
1
 10
247.2121374659
 20
-230.1511842222
 11
247.2121374659
 21
-233.6511842222
  0
LINE
  8
3
  6
CONTINUOUS
 62
1
 10
247.2729541220
 20
-230.1511842222
 11
247.2729541220
 21
-233.6511842222
  0
LINE
  8
3
  6
CONTINUOUS
 62
1
 10
247.3671374659
 20
-234.6211842222
 11
247.3671374659
 21
-234.1511842222
  0
LINE
  8
3
  6
CONTINUOUS
 62
1
 10
247.3671374659
 20
-229.6511842222
 11
247.3671374659
 21
-228.9585853759
  0
LINE
  8
3
  6
CONTINUOUS
 62
1
 10
248.7921374659
 20
-232.3911842222
 11
248.7921374659
 21
-229.8111842222
  0
LINE
  8
3
  6
CONTINUOUS
 62
1
 10
255.9271374659
 20
-235.2961842222
 11
247.2571374659
 21
-235.2961842222
  0
LINE
  8
3
  6
CONTINUOUS
 62
1
 10
249.2921374659
 20
-232.1911842222
 11
249.2921374659
 21
-230.0111842222
  0
LINE
  8
3
  6
CONTINUOUS
 62
1
 10
255.4371374659
 20
-235.0011842222
 11
247.7471374659
 21
-235.0011842222
  0
LINE
  8
3
  6
CONTINUOUS
 62
1
 10
249.8421374659
 20
-233.7010743592
 11
249.8421374659
 21
-232.6911842222
  0
LINE
  8
3
  6
CONTINUOUS
 62
1
 10
249.8421374659
 20
-229.5111842222
 11
249.8421374659
 21
-228.5012940851
  0
LINE
  8
3
  6
CONTINUOUS
 62
1
 10
250.8421374659
 20
-233.7010743592
 11
250.8421374659
 21
-232.6911842222
  0
LINE
  8
3
  6
CONTINUOUS
 62
1
 10
250.8421374659
 20
-229.5111842222
 11
250.8421374659
 21
-228.5012940851
  0
LINE
  8
3
  6
CONTINUOUS
 62
1
 10
253.3421374659
 20
-233.7011842222
 11
252.3421374659
 21
-233.7011842222
  0
LINE
  8
3
  6
CONTINUOUS
 62
1
 10
250.8421374659
 20
-233.7011842222
 11
249.8421374659
 21
-233.7011842222
  0
LINE
  8
3
  6
CONTINUOUS
 62
1
 10
254.0921374659
 20
-232.6911842222
 11
249.0921374659
 21
-232.6911842222
  0
LINE
  8
3
  6
CONTINUOUS
 62
1
 10
253.8921374659
 20
-232.1911842222
 11
249.2921374659
 21
-232.1911842222
  0
LINE
  8
3
  6
CONTINUOUS
 62
1
 10
252.3421374659
 20
-233.7010743592
 11
252.3421374659
 21
-232.6911842222
  0
LINE
  8
3
  6
CONTINUOUS
 62
1
 10
252.3421374659
 20
-229.5111842222
 11
252.3421374659
 21
-228.5012940851
  0
LINE
  8
3
  6
CONTINUOUS
 62
1
 10
253.3421374659
 20
-233.7010743592
 11
253.3421374659
 21
-232.6911842222
  0
LINE
  8
3
  6
CONTINUOUS
 62
1
 10
253.3421374659
 20
-229.5111842222
 11
253.3421374659
 21
-228.5012940851
  0
LINE
  8
3
  6
CONTINUOUS
 62
1
 10
253.8921374659
 20
-230.0111842222
 11
253.8921374659
 21
-232.1911842222
  0
LINE
  8
3
  6
CONTINUOUS
 62
1
 10
254.3921374659
 20
-232.3911842222
 11
254.3921374659
 21
-229.8111842222
  0
LINE
  8
3
  6
CONTINUOUS
 62
1
 10
249.2921374659
 20
-230.0111842222
 11
253.8921374659
 21
-230.0111842222
  0
LINE
  8
3
  6
CONTINUOUS
 62
1
 10
249.0921374659
 20
-229.5111842222
 11
254.0921374659
 21
-229.5111842222
  0
LINE
  8
3
  6
CONTINUOUS
 62
1
 10
255.5171055104
 20
-230.1511842222
 11
255.5171055104
 21
-233.6511842222
  0
LINE
  8
3
  6
CONTINUOUS
 62
1
 10
255.5725559910
 20
-230.1511842222
 11
255.5725559910
 21
-233.6511842222
  0
LINE
  8
3
  6
CONTINUOUS
 62
1
 10
255.8171374659
 20
-228.9585853759
 11
255.8171374659
 21
-229.6511842222
  0
LINE
  8
3
  6
CONTINUOUS
 62
1
 10
255.8171374659
 20
-234.1511842222
 11
255.8171374659
 21
-234.6211842222
  0
LINE
  8
3
  6
CONTINUOUS
 62
1
 10
255.9113208097
 20
-230.1511842222
 11
255.9113208097
 21
-233.6511842222
  0
LINE
  8
3
  6
CONTINUOUS
 62
1
 10
255.9721374659
 20
-230.1511842222
 11
255.9721374659
 21
-233.6511842222
  0
LINE
  8
3
  6
CONTINUOUS
 62
1
 10
256.1771374659
 20
-228.7397376128
 11
256.1771374659
 21
-229.6511842222
  0
LINE
  8
3
  6
CONTINUOUS
 62
1
 10
256.1771374659
 20
-234.1511842222
 11
256.1771374659
 21
-235.0461842222
  0
LINE
  8
3
  6
CONTINUOUS
 62
1
 10
253.3421374659
 20
-228.5011842222
 11
252.3421374659
 21
-228.5011842222
  0
LINE
  8
3
  6
CONTINUOUS
 62
1
 10
250.8421374659
 20
-228.5011842222
 11
249.8421374659
 21
-228.5011842222
  0
LINE
  8
3
  6
CONTINUOUS
 62
1
 10
249.1245386196
 20
-227.2011842222
 11
254.0597363122
 21
-227.2011842222
  0
LINE
  8
3
  6
CONTINUOUS
 62
1
 10
254.3284368890
 20
-227.3124836453
 11
255.7058380427
 21
-228.6898847990
  0
LINE
  8
3
  6
CONTINUOUS
 62
1
 10
248.9406908565
 20
-226.8061842222
 11
254.2435840753
 21
-226.8061842222
  0
LINE
  8
3
  6
CONTINUOUS
 62
1
 10
254.4203607706
 20
-226.8794075269
 11
256.1039141612
 21
-228.5629609175
  0
ARC
  8
3
  6
CONTINUOUS
 62
1
 10
255.9271374659
 20
-235.0461842222
 40
0.2500000000
 50
270.0000000000
 51
0.0000000000
  0
ARC
  8
3
  6
CONTINUOUS
 62
1
 10
247.2571374659
 20
-235.0461842222
 40
0.2500000000
 50
180.0000000000
 51
270.0000000000
  0
ARC
  8
3
  6
CONTINUOUS
 62
1
 10
255.9271374659
 20
-228.7397376128
 40
0.2500000000
 50
0.0000000000
 51
45.0000000000
  0
ARC
  8
3
  6
CONTINUOUS
 62
1
 10
254.2435840753
 20
-227.0561842222
 40
0.2500000000
 50
45.0000000000
 51
90.0000000000
  0
ARC
  8
3
  6
CONTINUOUS
 62
1
 10
247.2571374659
 20
-228.7397376128
 40
0.2500000000
 50
135.0000000000
 51
180.0000000000
  0
ARC
  8
3
  6
CONTINUOUS
 62
1
 10
248.9406908565
 20
-227.0561842222
 40
0.2500000000
 50
90.0000000000
 51
135.0000000000
  0
ARC
  8
3
  6
CONTINUOUS
 62
1
 10
254.0921374659
 20
-232.3911842222
 40
0.3000000000
 50
270.0000000000
 51
0.0000000000
  0
ARC
  8
3
  6
CONTINUOUS
 62
1
 10
249.0921374659
 20
-232.3911842222
 40
0.3000000000
 50
180.0000000000
 51
270.0000000000
  0
ARC
  8
3
  6
CONTINUOUS
 62
1
 10
249.0921374659
 20
-229.8111842222
 40
0.3000000000
 50
90.0000000000
 51
180.0000000000
  0
ARC
  8
3
  6
CONTINUOUS
 62
1
 10
254.0921374659
 20
-229.8111842222
 40
0.3000000000
 50
0.0000000000
 51
90.0000000000
  0
ARC
  8
3
  6
CONTINUOUS
 62
1
 10
255.4371374659
 20
-228.9585853759
 40
0.3800000000
 50
0.0000000000
 51
45.0000000000
  0
ARC
  8
3
  6
CONTINUOUS
 62
1
 10
254.0597363122
 20
-227.5811842222
 40
0.3800000000
 50
45.0000000000
 51
90.0000000000
  0
ARC
  8
3
  6
CONTINUOUS
 62
1
 10
249.1245386196
 20
-227.5811842222
 40
0.3800000000
 50
90.0000000000
 51
135.0000000000
  0
ARC
  8
3
  6
CONTINUOUS
 62
1
 10
247.7471374659
 20
-228.9585853759
 40
0.3800000000
 50
135.0000000000
 51
180.0000000000
  0
ARC
  8
3
  6
CONTINUOUS
 62
1
 10
255.4371374659
 20
-234.6211842222
 40
0.3800000000
 50
270.0000000000
 51
0.0000000000
  0
ARC
  8
3
  6
CONTINUOUS
 62
1
 10
247.7471374659
 20
-234.6211842222
 40
0.3800000000
 50
180.0000000000
 51
270.0000000000
  0
LINE
  8
3
  6
CONTINUOUS
 62
1
 10
247.6671694214
 20
-230.1511842222
 11
247.6671694214
 21
-233.6511842222
  0
LINE
  8
3
  6
CONTINUOUS
 62
1
 10
247.6117189408
 20
-230.1511842222
 11
247.6117189408
 21
-233.6511842222
  0
LINE
  8
3
  6
CONTINUOUS
 62
1
 10
255.8171374659
 20
-229.6511842222
 11
256.1771374659
 21
-229.6511842222
  0
LINE
  8
3
  6
CONTINUOUS
 62
1
 10
255.5171374659
 20
-230.1511842222
 11
256.1771374659
 21
-230.1511842220
  0
LINE
  8
3
  6
CONTINUOUS
 62
1
 10
256.1771374659
 20
-233.6511842221
 11
255.5171374659
 21
-233.6511842222
  0
LINE
  8
3
  6
CONTINUOUS
 62
1
 10
247.6671694214
 20
-233.6511842222
 11
247.0071374659
 21
-233.6511842222
  0
LINE
  8
3
  6
CONTINUOUS
 62
1
 10
247.0071374659
 20
-234.1511842222
 11
247.3671374659
 21
-234.1511842222
  0
LINE
  8
3
  6
CONTINUOUS
 62
1
 10
247.0071374659
 20
-230.1511842222
 11
247.6671694214
 21
-230.1511842222
  0
LINE
  8
3
  6
CONTINUOUS
 62
1
 10
247.0071374659
 20
-229.6511842222
 11
247.3671374659
 21
-229.6511842222
  0
LINE
  8
1
  6
CONTINUOUS
 62
1
 10
247.0071374659
 20
-228.6361842222
 11
248.8371374659
 21
-226.8061842222
  0
LINE
  8
1
  6
CONTINUOUS
 62
1
 10
248.8371374659
 20
-226.8061842222
 11
254.3471374659
 21
-226.8061842222
  0
LINE
  8
1
  6
CONTINUOUS
 62
1
 10
254.3471374659
 20
-226.8061842222
 11
256.1771374659
 21
-228.6361842222
  0
LINE
  8
1
  6
CONTINUOUS
 62
1
 10
256.1771374659
 20
-228.6361842222
 11
256.1771374659
 21
-235.2961842222
  0
LINE
  8
1
  6
CONTINUOUS
 62
1
 10
256.1771374659
 20
-235.2961842222
 11
247.0071374659
 21
-235.2961842222
  0
LINE
  8
1
  6
CONTINUOUS
 62
1
 10
247.0071374659
 20
-235.2961842222
 11
247.0071374659
 21
-228.6361842222
  0
POINT
  8
3
  6
CONTINUOUS
 62
7
 10
251.5921374659
 20
-232.6011842222
  0
LINE
  8
1
  6
CONTINUOUS
 62
7
 10
243.0921374659
 20
-221.1011842222
 11
260.0921374659
 21
-221.1011842222
  0
LINE
  8
1
  6
CONTINUOUS
 62
7
 10
260.0921374659
 20
-221.1011842222
 11
260.0921374659
 21
-244.1011842222
  0
LINE
  8
1
  6
CONTINUOUS
 62
7
 10
260.0921374659
 20
-244.1011842222
 11
243.0921374659
 21
-244.1011842222
  0
LINE
  8
1
  6
CONTINUOUS
 62
7
 10
243.0921374659
 20
-244.1011842222
 11
243.0921374659
 21
-221.1011842222
  0
CIRCLE
  8
3
  6
CONTINUOUS
 62
6
 10
209.6421374659
 20
-247.1011842222
 40
3.0285714286
  0
LINE
  8
3
  6
CONTINUOUS
 62
6
 10
208.3036853443
 20
-245.7627321006
 11
210.9805895874
 21
-248.4396363437
  0
LINE
  8
3
  6
CONTINUOUS
 62
6
 10
208.3036853443
 20
-248.4396363437
 11
210.9805895874
 21
-245.7627321006
  0
CIRCLE
  8
3
  6
CONTINUOUS
 62
6
 10
209.6421374659
 20
-218.1011842222
 40
3.0285714286
  0
LINE
  8
3
  6
CONTINUOUS
 62
6
 10
208.3036853443
 20
-216.7627321006
 11
210.9805895874
 21
-219.4396363437
  0
LINE
  8
3
  6
CONTINUOUS
 62
6
 10
208.3036853443
 20
-219.4396363437
 11
210.9805895874
 21
-216.7627321006
  0
LINE
  8
1
  6
HIDDEN
 62
1
 10
218.1421374659
 20
-214.8011842222
 11
201.1421374659
 21
-214.8011842222
  0
LINE
  8
1
  6
HIDDEN
 62
1
 10
200.1421374659
 20
-249.4011842222
 11
200.1421374659
 21
-248.6011842222
  0
LINE
  8
1
  6
HIDDEN
 62
1
 10
200.1421374659
 20
-245.6011842222
 11
200.1421374659
 21
-219.6011842222
  0
LINE
  8
1
  6
HIDDEN
 62
1
 10
200.1421374659
 20
-216.6011842222
 11
200.1421374659
 21
-215.8011842222
  0
LINE
  8
1
  6
HIDDEN
 62
1
 10
201.1421374659
 20
-250.4011842222
 11
218.1421374659
 21
-250.4011842222
  0
LINE
  8
1
  6
HIDDEN
 62
1
 10
219.1421374659
 20
-249.4011842222
 11
219.1421374659
 21
-248.6011842222
  0
LINE
  8
1
  6
HIDDEN
 62
1
 10
219.1421374659
 20
-245.6011842222
 11
219.1421374659
 21
-219.6011842222
  0
LINE
  8
1
  6
HIDDEN
 62
1
 10
219.1421374659
 20
-216.6011842222
 11
219.1421374659
 21
-215.8011842222
  0
LINE
  8
1
  6
CONTINUOUS
 62
1
 10
201.7421374659
 20
-221.2011842222
 11
217.5421374659
 21
-221.2011842222
  0
LINE
  8
1
  6
CONTINUOUS
 62
1
 10
201.2421374659
 20
-243.5011842222
 11
201.2421374659
 21
-221.7011842222
  0
LINE
  8
1
  6
CONTINUOUS
 62
1
 10
217.5421374659
 20
-244.0011842222
 11
201.7421374659
 21
-244.0011842222
  0
LINE
  8
1
  6
CONTINUOUS
 62
1
 10
218.0421374659
 20
-243.5011842222
 11
218.0421374659
 21
-221.7011842222
  0
ARC
  8
1
  6
HIDDEN
 62
1
 10
201.1421374659
 20
-215.8011842222
 40
1.0000000000
 50
90.0000000000
 51
180.0000000000
  0
ARC
  8
1
  6
HIDDEN
 62
1
 10
218.1421374659
 20
-215.8011842222
 40
1.0000000000
 50
0.0000000000
 51
90.0000000000
  0
ARC
  8
1
  6
HIDDEN
 62
1
 10
218.1421374659
 20
-249.4011842222
 40
1.0000000000
 50
270.0000000000
 51
0.0000000000
  0
ARC
  8
1
  6
HIDDEN
 62
1
 10
201.1421374659
 20
-249.4011842222
 40
1.0000000000
 50
180.0000000000
 51
270.0000000000
  0
LINE
  8
1
  6
HIDDEN
 62
1
 10
200.1421374659
 20
-248.6011842222
 11
202.1421374659
 21
-248.6011842222
  0
LINE
  8
1
  6
HIDDEN
 62
1
 10
202.1421374659
 20
-248.6011842222
 11
202.1421374659
 21
-245.6011842222
  0
LINE
  8
1
  6
HIDDEN
 62
1
 10
202.1421374659
 20
-245.6011842222
 11
200.1421374659
 21
-245.6011842222
  0
LINE
  8
1
  6
HIDDEN
 62
1
 10
219.1421374659
 20
-248.6011842222
 11
217.1421374659
 21
-248.6011842222
  0
LINE
  8
1
  6
HIDDEN
 62
1
 10
217.1421374659
 20
-248.6011842222
 11
217.1421374659
 21
-245.6011842222
  0
LINE
  8
1
  6
HIDDEN
 62
1
 10
217.1421374659
 20
-245.6011842222
 11
219.1421374659
 21
-245.6011842222
  0
LINE
  8
1
  6
HIDDEN
 62
1
 10
219.1421374659
 20
-216.6011842222
 11
217.1421374659
 21
-216.6011842222
  0
LINE
  8
1
  6
HIDDEN
 62
1
 10
217.1421374659
 20
-216.6011842222
 11
217.1421374659
 21
-219.6011842222
  0
LINE
  8
1
  6
HIDDEN
 62
1
 10
217.1421374659
 20
-219.6011842222
 11
219.1421374659
 21
-219.6011842222
  0
LINE
  8
1
  6
HIDDEN
 62
1
 10
200.1421374659
 20
-216.6011842222
 11
202.1421374659
 21
-216.6011842222
  0
LINE
  8
1
  6
HIDDEN
 62
1
 10
202.1421374659
 20
-216.6011842222
 11
202.1421374659
 21
-219.6011842222
  0
LINE
  8
1
  6
HIDDEN
 62
1
 10
202.1421374659
 20
-219.6011842222
 11
200.1421374659
 21
-219.6011842222
  0
ARC
  8
1
  6
CONTINUOUS
 62
1
 10
217.5421374659
 20
-221.7011842222
 40
0.5000000000
 50
0.0000000000
 51
90.0000000000
  0
ARC
  8
1
  6
CONTINUOUS
 62
1
 10
201.7421374659
 20
-221.7011842222
 40
0.5000000000
 50
90.0000000000
 51
180.0000000000
  0
ARC
  8
1
  6
CONTINUOUS
 62
1
 10
201.7421374659
 20
-243.5011842222
 40
0.5000000000
 50
180.0000000000
 51
270.0000000000
  0
ARC
  8
1
  6
CONTINUOUS
 62
1
 10
217.5421374659
 20
-243.5011842222
 40
0.5000000000
 50
270.0000000000
 51
0.0000000000
  0
LINE
  8
1
  6
CONTINUOUS
 62
7
 10
201.1421374659
 20
-221.1011842222
 11
218.1421374659
 21
-221.1011842222
  0
LINE
  8
1
  6
CONTINUOUS
 62
7
 10
218.1421374659
 20
-221.1011842222
 11
218.1421374659
 21
-244.1011842222
  0
LINE
  8
1
  6
CONTINUOUS
 62
7
 10
218.1421374659
 20
-244.1011842222
 11
201.1421374659
 21
-244.1011842222
  0
LINE
  8
1
  6
CONTINUOUS
 62
7
 10
201.1421374659
 20
-244.1011842222
 11
201.1421374659
 21
-221.1011842222
  0
INSERT
  8
1
  6
CONTINUOUS
 62
7
  2
S16
 10
292.4597931678
 20
-224.0482459455
  0
POINT
  8
5
  6
CONTINUOUS
 62
6
 10
137.2868002249
 20
33.7122766511
  0
POINT
  8
5
  6
CONTINUOUS
 62
6
 10
137.2868002249
 20
33.7122766511
  0
POINT
  8
1
  6
CONTINUOUS
 62
6
 10
137.2868002249
 20
33.7122766511
  0
POINT
  8
5
  6
CONTINUOUS
 62
6
 10
137.2868002249
 20
33.7122766511
  0
INSERT
  8
1
  6
CONTINUOUS
 62
7
  2
S17
 10
137.2868002249
 20
33.7122766511
  0
INSERT
  8
3
  6
CONTINUOUS
 62
5
  2
LTEX4
 10
134.5962334454
 20
81.9631075640
  0
INSERT
  8
3
  6
CONTINUOUS
 62
5
  2
LTEX5
 10
88.2645106558
 20
12.5464846521
  0
INSERT
  8
3
  6
CONTINUOUS
 62
5
  2
LTEX6
 10
39.2645106558
 20
13.9814536012
  0
TEXT
  8
1
  6
CONTINUOUS
 62
7
 10
188.839523
 20
237.324255
 40
3.500000
  1
①ﾍﾞｰｽ,②ｶﾊﾞｰ材質
 41
0.806452
 50
0.000000
 51
0.000000
 72
   5
 73
   0
 11
218.589523
 21
237.324255
  0
TEXT
  8
1
  6
CONTINUOUS
 62
7
 10
188.839523
 20
233.824255
 40
3.500000
  1
無印:ｱﾙﾐﾀﾞｲｷｬｽﾄ
 41
0.786164
 50
0.000000
 51
0.000000
 72
   5
 73
   0
 11
215.089523
 21
233.824255
  0
TEXT
  8
1
  6
CONTINUOUS
 62
7
 10
188.839523
 20
230.324255
 40
3.500000
  1
PB:PBT(UL:V-0)
 41
0.760043
 50
0.000000
 51
0.000000
 72
   5
 73
   0
 11
213.339523
 21
230.324255
  0
POINT
  8
5
  6
CONTINUOUS
 62
6
 10
183.0822025385
 20
239.8450378988
  0
POINT
  8
5
  6
CONTINUOUS
 62
6
 10
183.0822025385
 20
239.8450378988
  0
POINT
  8
1
  6
CONTINUOUS
 62
6
 10
183.0822025385
 20
239.8450378988
  0
POINT
  8
5
  6
CONTINUOUS
 62
6
 10
183.0822025385
 20
239.8450378988
  0
INSERT
  8
1
  6
CONTINUOUS
 62
7
  2
S18
 10
183.0822025385
 20
239.8450378988
  0
LINE
  8
3
  6
CONTINUOUS
 62
7
 10
218.4149143204
 20
249.0515464182
 11
218.4149143208
 21
266.2471895056
  0
TEXT
  8
1
  6
CONTINUOUS
 62
7
 10
90.750000
 20
270.750000
 40
2.500000
  1
Yamada
 41
0.779221
 50
0.000000
 51
0.000000
 72
   5
 73
   0
 11
98.250000
 21
270.750000
  0
TEXT
  8
1
  6
CONTINUOUS
 62
7
 10
26.397854
 20
270.612114
 40
2.500000
  1
PB追加に伴う変更
 41
0.854701
 50
0.000000
 51
0.000000
 72
   5
 73
   0
 11
46.397854
 21
270.612114
  0
TEXT
  8
1
  6
CONTINUOUS
 62
7
 10
14.500000
 20
270.750000
 40
2.500000
  1
'22/3/22
 41
0.770713
 50
0.000000
 51
0.000000
 72
   5
 73
   0
 11
24.500000
 21
270.750000
  0
POINT
  8
5
  6
CONTINUOUS
 62
6
 10
9.0000000000
 20
272.0000000000
  0
POINT
  8
5
  6
CONTINUOUS
 62
6
 10
9.0000000000
 20
272.0000000000
  0
POINT
  8
5
  6
CONTINUOUS
 62
6
 10
9.0000000000
 20
272.0000000000
  0
POINT
  8
1
  6
CONTINUOUS
 62
6
 10
9.0000000000
 20
272.0000000000
  0
POINT
  8
5
  6
CONTINUOUS
 62
6
 10
9.0000000000
 20
272.0000000000
  0
INSERT
  8
1
  6
CONTINUOUS
 62
7
  2
S19
 10
9.0000000000
 20
272.0000000000
  0
LINE
  8
1
  6
CONTINUOUS
 62
7
 10
218.4149143204
 20
249.0515464182
 11
190.8063038281
 21
249.0515464182
  0
LINE
  8
1
  6
CONTINUOUS
 62
7
 10
190.8063038281
 20
249.0515464182
 11
190.8063038281
 21
241.7147767818
  0
TEXT
  8
5
  6
CONTINUOUS
 62
7
 10
338.753123
 20
268.474804
 40
3.000000
  1
ｱﾙﾐﾀﾞｲｷｬｽﾄ銀色塗装
 41
0.833541
 50
0.000000
 51
0.000000
 72
   5
 73
   0
 11
366.785123
 21
268.474804
  0
TEXT
  8
5
  6
CONTINUOUS
 62
7
 10
338.753123
 20
265.474804
 40
3.000000
  1
又は
 41
0.921659
 50
0.000000
 51
0.000000
 72
   5
 73
   0
 11
344.753123
 21
265.474804
  0
TEXT
  8
5
  6
CONTINUOUS
 62
7
 10
338.753123
 20
262.474804
 40
3.000000
  1
PBT 黒色(UL  V-0)
 41
0.751838
 50
0.000000
 51
0.000000
 72
   5
 73
   0
 11
363.293123
 21
262.474804
  0
LINE
  8
5
  6
CONTINUOUS
 62
6
 10
3.2490435001
 20
-39.4655230621
 11
97.7490435001
 21
-39.4655230621
  0
POINT
  8
5
  6
CONTINUOUS
 62
6
 10
7.7490435001
 20
-36.9655230621
  0
POINT
  8
5
  6
CONTINUOUS
 62
6
 10
7.7490435001
 20
-36.9655230621
  0
POINT
  8
5
  6
CONTINUOUS
 62
6
 10
7.7490435001
 20
-36.9655230621
  0
POINT
  8
5
  6
CONTINUOUS
 62
6
 10
7.7490435001
 20
-36.9655230621
  0
POINT
  8
1
  6
CONTINUOUS
 62
6
 10
7.7490435001
 20
-36.9655230621
  0
POINT
  8
5
  6
CONTINUOUS
 62
6
 10
7.7490435001
 20
-36.9655230621
  0
INSERT
  8
1
  6
CONTINUOUS
 62
7
  2
S20
 10
7.7490435001
 20
-36.9655230621
  0
TEXT
  8
1
  6
CONTINUOUS
 62
7
 10
13.249044
 20
-38.215523
 40
2.500000
  1
'22/3/22
 41
0.770713
 50
0.000000
 51
0.000000
 72
   5
 73
   0
 11
23.249044
 21
-38.215523
  0
TEXT
  8
1
  6
CONTINUOUS
 62
7
 10
25.146897
 20
-38.353409
 40
2.500000
  1
PB追加に伴う変更
 41
0.854701
 50
0.000000
 51
0.000000
 72
   5
 73
   0
 11
45.146897
 21
-38.353409
  0
TEXT
  8
1
  6
CONTINUOUS
 62
7
 10
89.499044
 20
-38.215523
 40
2.500000
  1
Yamada
 41
0.779221
 50
0.000000
 51
0.000000
 72
   5
 73
   0
 11
96.999044
 21
-38.215523
  0
TEXT
  8
1
  6
CONTINUOUS
 62
7
 10
42.382120
 20
-107.726506
 40
3.500000
  1
①ﾍﾞｰｽ,②ｶﾊﾞｰ材質
 41
0.806452
 50
0.000000
 51
0.000000
 72
   5
 73
   0
 11
72.132120
 21
-107.726506
  0
TEXT
  8
1
  6
CONTINUOUS
 62
7
 10
42.382120
 20
-111.226506
 40
3.500000
  1
無印:ｱﾙﾐﾀﾞｲｷｬｽﾄ
 41
0.786164
 50
0.000000
 51
0.000000
 72
   5
 73
   0
 11
68.632120
 21
-111.226506
  0
TEXT
  8
1
  6
CONTINUOUS
 62
7
 10
42.382120
 20
-114.726506
 40
3.500000
  1
PB:PBT(UL:V-0)
 41
0.760043
 50
0.000000
 51
0.000000
 72
   5
 73
   0
 11
66.882120
 21
-114.726506
  0
POINT
  8
5
  6
CONTINUOUS
 62
6
 10
38.0480956619
 20
-106.0815984497
  0
POINT
  8
5
  6
CONTINUOUS
 62
6
 10
38.0480956619
 20
-106.0815984497
  0
POINT
  8
1
  6
CONTINUOUS
 62
6
 10
38.0480956619
 20
-106.0815984497
  0
POINT
  8
5
  6
CONTINUOUS
 62
6
 10
38.0480956619
 20
-106.0815984497
  0
INSERT
  8
1
  6
CONTINUOUS
 62
7
  2
S21
 10
38.0480956619
 20
-106.0815984497
  0
LINE
  8
3
  6
CONTINUOUS
 62
7
 10
44.6282211002
 20
-103.4631744019
 11
44.6282211002
 21
-77.4666025751
  0
POINT
  8
5
  6
CONTINUOUS
 62
6
 10
309.7617758437
 20
266.7893135890
  0
POINT
  8
5
  6
CONTINUOUS
 62
6
 10
309.7617758437
 20
266.7893135890
  0
POINT
  8
1
  6
CONTINUOUS
 62
6
 10
309.7617758437
 20
266.7893135890
  0
POINT
  8
5
  6
CONTINUOUS
 62
6
 10
309.7617758437
 20
266.7893135890
  0
INSERT
  8
1
  6
CONTINUOUS
 62
7
  2
S22
 10
309.7617758437
 20
266.7893135890
  0
CIRCLE
  8
1
  6
HIDDEN
 62
6
 10
221.8808680172
 20
181.5550725884
 40
2.0000000000
  0
CIRCLE
  8
1
  6
HIDDEN
 62
6
 10
221.8808680172
 20
181.5550725884
 40
4.0000000000
  0
INSERT
  8
1
  6
CONTINUOUS
 62
7
  2
S23
 10
211.3808672423
 20
181.5550725884
  0
INSERT
  8
1
  6
CONTINUOUS
 62
7
  2
S24
 10
309.6307705942
 20
224.5561403077
  0
CIRCLE
  8
1
  6
HIDDEN
 62
6
 10
68.2210513175
 20
-165.9724546205
 40
2.0000000000
  0
CIRCLE
  8
1
  6
HIDDEN
 62
6
 10
68.2210513175
 20
-165.9724546205
 40
4.0000000000
  0
INSERT
  8
1
  6
CONTINUOUS
 62
7
  2
S25
 10
57.7210505426
 20
-165.9724546205
  0
INSERT
  8
1
  6
CONTINUOUS
 62
5
  2
LTEX7
 10
225.8808680172
 20
181.5550725884
  0
INSERT
  8
1
  6
CONTINUOUS
 62
7
  2
S26
 10
261.9019550155
 20
172.3018045981
  0
INSERT
  8
1
  6
CONTINUOUS
 62
7
  2
S27
 10
108.2421383159
 20
-175.2257226108
  0
INSERT
  8
1
  6
CONTINUOUS
 62
5
  2
LTEX8
 10
72.2210513175
 20
-165.9724546205
  0
ENDSEC
  0
EOF
