  0
SECTION
  2
HEADER
  9
$ACADVER
  1
AC1009
  9
$DWGCODEPAGE
  3
dos932
  9
$INSBASE
 10
203.5000000000
 20
142.0000000000
  9
$EXTMIN
 10
-53.7806863665
 20
-46.5830910929
  9
$EXTMAX
 10
628.4817068867
 20
330.5830910929
  9
$LIMMIN
 10
-53.7806863665
 20
-46.5830910929
  9
$LIMMAX
 10
628.4817068867
 20
330.5830910929
  9
$VIEWCTR
 10
0.0000000000
 20
0.0000000000
  9
$VIEWSIZE
 40
0.0000000000
  9
$SNAPMODE
 70
     0
  9
$SNAPUNIT
 10
20.0
 20
20.0
  9
$SNAPBASE
 10
0.000000
 20
0.000000
  9
$SNAPANG
 50
0.0
  9
$SNAPSTYLE
 70
     0
  9
$SNAPISOPAIR
 70
     0
  9
$GRIDMODE
 70
     0
  9
$GRIDUNIT
 10
10.000000
 20
10.000000
  9
$ORTHOMODE
 70
     0
  9
$REGENMODE
 70
     0
  9
$FILLMODE
 70
     1
  9
$QTEXTMODE
 70
     0
  9
$DRAGMODE
 70
     1
  9
$LTSCALE
 40
1.0
  9
$OSMODE
 70
     0
  9
$ATTMODE
 70
     1
  9
$TEXTSIZE
 40
4.000000
  9
$TRACEWID
 40
0.05
  9
$TEXTSTYLE
  7
STANDARD
  9
$CLAYER
  8
3
  9
$CELTYPE
  6
CONTINUOUS
  9
$CECOLOR
  62
7
  9
$DIMSCALE
 40
1.0000000000
  9
$DIMASZ
 40
2.0000000000
  9
$DIMEXO
 40
0.5000000000
  9
$DIMDLI
 40
7.000000
  9
$DIMRND
 40
0.0
  9
$DIMDLE
 40
0.0
  9
$DIMEXE
 40
1.0000000000
  9
$DIMTP
 40
0.0
  9
$DIMTM
 40
0.0
  9
$DIMTXT
 40
3.500000
  9
$DIMCEN
 40
0.09
  9
$DIMTSZ
 40
0.0
  9
$DIMTOL
 70
     0
  9
$DIMLIM
 70
     0
  9
$DIMTIH
 70
     0
  9
$DIMTOH
 70
     0
  9
$DIMSE1
 70
     0
  9
$DIMSE2
 70
     0
  9
$DIMTAD
 70
     1
  9
$DIMZIN
 70
     0
  9
$DIMBLK
  1

  9
$DIMASO
 70
     1
  9
$DIMSHO
 70
     0
  9
$DIMPOST
  1

  9
$DIMAPOST
  1

  9
$DIMALT
 70
     0
  9
$DIMALTD
 70
     3
  9
$DIMCLRD
 70
     5
  9
$DIMCLRE
 70
     5
  9
$DIMCLRT
 70
     7
  9
$DIMALTF
 40
25.4
  9
$DIMLFAC
 40
1.0
  9
$DIMTOFL
 70
     0
  9
$DIMTVP
 40
0.0
  9
$DIMTIX
 70
     0
  9
$DIMSOXD
 70
     0
  9
$DIMSAH
 70
     0
  9
$LUNITS
 70
     2
  9
$LUPREC
 70
     4
  9
$AXISMODE
 70
     0
  9
$AXISUNIT
 10
0.0
 20
0.0
  9
$SKETCHINC
 40
0.1
  9
$FILLETRAD
 40
0.0
  9
$AUNITS
 70
     0
  9
$AUPREC
 70
     0
  9
$MENU
  1
ACAD
  9
$ELEVATION
 40
0.0
  9
$THICKNESS
 40
0.0
  9
$VIEWDIR
 10
0.0
 20
0.0
 30
1.0
  9
$LIMCHECK
 70
     0
  9
$BLIPMODE
 70
     1
  9
$CHAMFERA
 40
0.0
  9
$CHAMFERB
 40
0.0
  9
$FASTZOOM
 70
     1
  9
$SKPOLY
 70
     0
  9
$TDCREATE
 40
2460047.0000000051
  9
$TDUPDATE
 40
2460047.0000000051
  9
$TDINDWG
 40
0.0000000000
  9
$TDUSRTIMER
 40
0.0000000000
  9
$USRTIMER
 70
     1
  9
$ANGBASE
 50
0.0
  9
$ANGDIR
 70
     0
  9
$PDMODE
 70
     65
  9
$PDSIZE
 40
0.2
  9
$PLINEWID
 40
0.0
  9
$COORDS
 70
     2
  9
$USERI1
 70
     0
  9
$USERI2
 70
     0
  9
$USERI3
 70
     0
  9
$USERI4
 70
     0
  9
$USERI5
 70
     0
  9
$USERR1
 40
0.0
  9
$USERR2
 40
0.0
  9
$USERR3
 40
0.0
  9
$USERR4
 40
0.0
  9
$USERR5
 40
0.0
  0
ENDSEC
  0
SECTION
  2
TABLES
  0
TABLE
  2
LTYPE
 70
     9
  0
LTYPE
  2
CONTINUOUS
 70
    64
  3
Solid line
 72
    65
 73
     0
 40
0.0
  0
LTYPE
  2
DASHED
 70
    64
  3
__ __ __ __ __ __ __ __ __ __ __ __ __ __ __
 72
    65
 73
     2
 40
3.0
 49
2.0
 49
-1.0
  0
LTYPE
  2
HIDDEN
 70
    64
  3
_ _ _ _ _ _ _ _ _ _ _ _ _ _ _ _ _ _ _ _ _ _ _
 72
    65
 73
     2
 40
1.5
 49
1.0
 49
-0.5
  0
LTYPE
  2
CENTER
 70
    64
  3
____ _ ____ _ ____ _ ____ _ ____ _ ____ _ ____
 72
    65
 73
     4
 40
24.0
 49
20.0
 49
-1.0
 49
2.0
 49
-1.0
  0
LTYPE
  2
PHANTOM
 70
    64
  3
_____ _ _ _____ _ _ _____ _ _ _____ _ _ ____
 72
    65
 73
     6
 40
27.0
 49
20.0
 49
-1.0
 49
2.0
 49
-1.0
 49
2.0
 49
-1.0
  0
LTYPE
  2
DOT
 70
    64
  3
...............................................
 72
    65
 73
     2
 40
1.5
 49
0.5
 49
-1.0
  0
LTYPE
  2
DASHDOT
 70
    64
  3
__ . __ . __ . __ . __ . __ . __ . __ . __ . __
 72
    65
 73
     4
 40
8.5
 49
6.0
 49
-1.0
 49
0.5
 49
-1.0
  0
LTYPE
  2
DIVIDE
 70
    64
  3
__ . . __ . . __ . . __ . . __ . . __ . . __
 72
    65
 73
     6
 40
10.0
 49
6.0
 49
-1.0
 49
0.5
 49
-1.0
 49
0.5
 49
-1.0
  0
LTYPE
  2
BORDER
 70
    64
  3
__ __ . __ __ . __ __ . __ __ . __ __ . __ __
 72
    65
 73
     6
 40
15.5
 49
6.0
 49
-1.0
 49
6.0
 49
-1.0
 49
0.5
 49
-1.0
  0
ENDTAB
  0
TABLE
  2
LAYER
 70
  7
  0
LAYER
  2
0
 70
    64
 62
     7
  6
CONTINUOUS
  0
LAYER
  2
1
 70
    64
 62
     7
  6
CONTINUOUS
  0
LAYER
  2
2
 70
    64
 62
     7
  6
CONTINUOUS
  0
LAYER
  2
3
 70
    64
 62
     7
  6
CONTINUOUS
  0
LAYER
  2
4
 70
    64
 62
     7
  6
CONTINUOUS
  0
LAYER
  2
5
 70
    64
 62
     7
  6
CONTINUOUS
  0
LAYER
  2
DEFPOINTS
 70
     0
 62
    -7
  6
CONTINUOUS
  0
ENDTAB
  0
TABLE
  2
STYLE
 70
     1
  0
STYLE
  2
STANDARD
 70
    64
 40
0.0
 41
1.0
 71
     0
 42
4.000000
  3
TXT
  4
EXTFONT
 50
0.0
  0
ENDTAB
  0
TABLE
  2
VIEW
 70
     0
  0
ENDTAB
  0
ENDSEC
  0
SECTION
  2
BLOCKS
  0
BLOCK
  8
0
  2
CI
 70
   0
 10
0.0
 20
0.0
  0
CIRCLE
  8
0
  62
0
 10
0.0
 20
0.0
 40
0.1666666666
  0
ENDBLK
  8
0
  0
BLOCK
  8
5
  2
S0
 70
     0
 10
0.0000000000
 20
0.0000000000
  3
S0
  0
POINT
  8
5
  6
CONTINUOUS
 62
6
 10
-6.5000000000
 20
-6.5000000000
  0
LINE
  8
5
  6
CONTINUOUS
 62
6
 10
4.5000000000
 20
4.5000000000
 11
402.5000000000
 21
4.5000000000
  0
LINE
  8
5
  6
CONTINUOUS
 62
6
 10
4.5000000000
 20
4.5000000000
 11
4.5000000000
 21
279.5000000000
  0
LINE
  8
5
  6
CONTINUOUS
 62
6
 10
44.5000000000
 20
284.0000000000
 11
44.5000000000
 21
279.5000000000
  0
LINE
  8
5
  6
CONTINUOUS
 62
6
 10
44.5000000000
 20
4.5000000000
 11
44.5000000000
 21
0.0000000000
  0
LINE
  8
5
  6
CONTINUOUS
 62
6
 10
84.5000000000
 20
284.0000000000
 11
84.5000000000
 21
279.5000000000
  0
LINE
  8
5
  6
CONTINUOUS
 62
6
 10
124.5000000000
 20
284.0000000000
 11
124.5000000000
 21
279.5000000000
  0
LINE
  8
5
  6
CONTINUOUS
 62
6
 10
164.5000000000
 20
284.0000000000
 11
164.5000000000
 21
279.5000000000
  0
LINE
  8
5
  6
CONTINUOUS
 62
6
 10
204.5000000000
 20
284.0000000000
 11
204.5000000000
 21
279.5000000000
  0
LINE
  8
5
  6
CONTINUOUS
 62
6
 10
244.5000000000
 20
284.0000000000
 11
244.5000000000
 21
279.5000000000
  0
LINE
  8
5
  6
CONTINUOUS
 62
6
 10
84.5000000000
 20
4.5000000000
 11
84.5000000000
 21
0.0000000000
  0
LINE
  8
5
  6
CONTINUOUS
 62
6
 10
124.5000000000
 20
4.5000000000
 11
124.5000000000
 21
0.0000000000
  0
LINE
  8
5
  6
CONTINUOUS
 62
6
 10
164.5000000000
 20
4.5000000000
 11
164.5000000000
 21
0.0000000000
  0
LINE
  8
5
  6
CONTINUOUS
 62
6
 10
204.5000000000
 20
4.5000000000
 11
204.5000000000
 21
0.0000000000
  0
LINE
  8
5
  6
CONTINUOUS
 62
6
 10
244.5000000000
 20
4.5000000000
 11
244.5000000000
 21
0.0000000000
  0
LINE
  8
5
  6
CONTINUOUS
 62
6
 10
0.0000000000
 20
239.5000000000
 11
4.5000000000
 21
239.5000000000
  0
LINE
  8
5
  6
CONTINUOUS
 62
6
 10
402.5000000000
 20
239.5000000000
 11
407.0000000000
 21
239.5000000000
  0
LINE
  8
5
  6
CONTINUOUS
 62
6
 10
0.0000000000
 20
199.5000000000
 11
4.5000000000
 21
199.5000000000
  0
LINE
  8
5
  6
CONTINUOUS
 62
6
 10
0.0000000000
 20
159.5000000000
 11
4.5000000000
 21
159.5000000000
  0
LINE
  8
5
  6
CONTINUOUS
 62
6
 10
0.0000000000
 20
119.5000000000
 11
4.5000000000
 21
119.5000000000
  0
LINE
  8
5
  6
CONTINUOUS
 62
6
 10
402.5000000000
 20
199.5000000000
 11
407.0000000000
 21
199.5000000000
  0
LINE
  8
5
  6
CONTINUOUS
 62
6
 10
402.5000000000
 20
159.5000000000
 11
407.0000000000
 21
159.5000000000
  0
LINE
  8
5
  6
CONTINUOUS
 62
6
 10
402.5000000000
 20
119.5000000000
 11
407.0000000000
 21
119.5000000000
  0
TEXT
  8
5
  6
CONTINUOUS
 62
6
 10
23.500000
 20
279.500000
 40
4.000000
  1
1
 41
1.000000
 50
0.000000
 51
0.000000
 72
   5
 73
   0
 11
25.500000
 21
279.500000
  0
TEXT
  8
5
  6
CONTINUOUS
 62
6
 10
23.500000
 20
0.500000
 40
4.000000
  1
1
 41
1.000000
 50
0.000000
 51
0.000000
 72
   5
 73
   0
 11
25.500000
 21
0.500000
  0
TEXT
  8
5
  6
CONTINUOUS
 62
6
 10
63.500000
 20
279.500000
 40
4.000000
  1
2
 41
1.000000
 50
0.000000
 51
0.000000
 72
   5
 73
   0
 11
65.500000
 21
279.500000
  0
TEXT
  8
5
  6
CONTINUOUS
 62
6
 10
103.500000
 20
279.500000
 40
4.000000
  1
3
 41
1.000000
 50
0.000000
 51
0.000000
 72
   5
 73
   0
 11
105.500000
 21
279.500000
  0
TEXT
  8
5
  6
CONTINUOUS
 62
6
 10
143.500000
 20
279.500000
 40
4.000000
  1
4
 41
1.000000
 50
0.000000
 51
0.000000
 72
   5
 73
   0
 11
145.500000
 21
279.500000
  0
TEXT
  8
5
  6
CONTINUOUS
 62
6
 10
183.500000
 20
279.500000
 40
4.000000
  1
5
 41
1.000000
 50
0.000000
 51
0.000000
 72
   5
 73
   0
 11
185.500000
 21
279.500000
  0
TEXT
  8
5
  6
CONTINUOUS
 62
6
 10
223.500000
 20
279.500000
 40
4.000000
  1
6
 41
1.000000
 50
0.000000
 51
0.000000
 72
   5
 73
   0
 11
225.500000
 21
279.500000
  0
TEXT
  8
5
  6
CONTINUOUS
 62
6
 10
263.500000
 20
279.500000
 40
4.000000
  1
7
 41
1.000000
 50
0.000000
 51
0.000000
 72
   5
 73
   0
 11
265.500000
 21
279.500000
  0
TEXT
  8
5
  6
CONTINUOUS
 62
6
 10
63.500000
 20
0.500000
 40
4.000000
  1
2
 41
1.000000
 50
0.000000
 51
0.000000
 72
   5
 73
   0
 11
65.500000
 21
0.500000
  0
TEXT
  8
5
  6
CONTINUOUS
 62
6
 10
103.500000
 20
0.500000
 40
4.000000
  1
3
 41
1.000000
 50
0.000000
 51
0.000000
 72
   5
 73
   0
 11
105.500000
 21
0.500000
  0
TEXT
  8
5
  6
CONTINUOUS
 62
6
 10
143.500000
 20
0.500000
 40
4.000000
  1
4
 41
1.000000
 50
0.000000
 51
0.000000
 72
   5
 73
   0
 11
145.500000
 21
0.500000
  0
TEXT
  8
5
  6
CONTINUOUS
 62
6
 10
183.500000
 20
0.500000
 40
4.000000
  1
5
 41
1.000000
 50
0.000000
 51
0.000000
 72
   5
 73
   0
 11
185.500000
 21
0.500000
  0
TEXT
  8
5
  6
CONTINUOUS
 62
6
 10
223.500000
 20
0.500000
 40
4.000000
  1
6
 41
1.000000
 50
0.000000
 51
0.000000
 72
   5
 73
   0
 11
225.500000
 21
0.500000
  0
TEXT
  8
5
  6
CONTINUOUS
 62
6
 10
263.500000
 20
0.500000
 40
4.000000
  1
7
 41
1.000000
 50
0.000000
 51
0.000000
 72
   5
 73
   0
 11
265.500000
 21
0.500000
  0
TEXT
  8
5
  6
CONTINUOUS
 62
6
 10
1.626773
 20
257.454143
 40
4.000000
  1
A
 41
1.266000
 50
0.000000
 51
0.000000
 72
   5
 73
   0
 11
4.158773
 21
257.454143
  0
TEXT
  8
5
  6
CONTINUOUS
 62
6
 10
402.786513
 20
257.492354
 40
4.000000
  1
A
 41
1.266000
 50
0.000000
 51
0.000000
 72
   5
 73
   0
 11
405.318513
 21
257.492354
  0
TEXT
  8
5
  6
CONTINUOUS
 62
6
 10
1.610773
 20
217.454143
 40
4.000000
  1
B
 41
1.274000
 50
0.000000
 51
0.000000
 72
   5
 73
   0
 11
4.158773
 21
217.454143
  0
TEXT
  8
5
  6
CONTINUOUS
 62
6
 10
1.502773
 20
177.454143
 40
4.000000
  1
C
 41
1.328000
 50
0.000000
 51
0.000000
 72
   5
 73
   0
 11
4.158773
 21
177.454143
  0
TEXT
  8
5
  6
CONTINUOUS
 62
6
 10
1.566773
 20
137.454143
 40
4.000000
  1
D
 41
1.296000
 50
0.000000
 51
0.000000
 72
   5
 73
   0
 11
4.158773
 21
137.454143
  0
TEXT
  8
5
  6
CONTINUOUS
 62
6
 10
1.894773
 20
97.454143
 40
4.000000
  1
E
 41
1.132000
 50
0.000000
 51
0.000000
 72
   5
 73
   0
 11
4.158773
 21
97.454143
  0
TEXT
  8
5
  6
CONTINUOUS
 62
6
 10
402.786513
 20
217.492354
 40
4.000000
  1
B
 41
1.274000
 50
0.000000
 51
0.000000
 72
   5
 73
   0
 11
405.334513
 21
217.492354
  0
TEXT
  8
5
  6
CONTINUOUS
 62
6
 10
402.786513
 20
177.492354
 40
4.000000
  1
C
 41
1.328000
 50
0.000000
 51
0.000000
 72
   5
 73
   0
 11
405.442513
 21
177.492354
  0
TEXT
  8
5
  6
CONTINUOUS
 62
6
 10
402.786513
 20
137.492354
 40
4.000000
  1
D
 41
1.296000
 50
0.000000
 51
0.000000
 72
   5
 73
   0
 11
405.378513
 21
137.492354
  0
TEXT
  8
5
  6
CONTINUOUS
 62
6
 10
402.786513
 20
97.492354
 40
4.000000
  1
E
 41
1.132000
 50
0.000000
 51
0.000000
 72
   5
 73
   0
 11
405.050513
 21
97.492354
  0
LINE
  8
5
  6
CONTINUOUS
 62
6
 10
347.5000000000
 20
29.5000000000
 11
347.5000000000
 21
4.5000000000
  0
LINE
  8
5
  6
CONTINUOUS
 62
6
 10
347.5000000000
 20
14.5000000000
 11
402.5000000000
 21
14.5000000000
  0
LINE
  8
5
  6
CONTINUOUS
 62
6
 10
347.5000000000
 20
7.5000000000
 11
281.5000000000
 21
7.5000000000
  0
LINE
  8
5
  6
CONTINUOUS
 62
6
 10
303.5000000000
 20
4.5000000000
 11
303.5000000000
 21
21.0000000000
  0
LINE
  8
5
  6
CONTINUOUS
 62
6
 10
336.5000000000
 20
17.0000000000
 11
336.5000000000
 21
4.5000000000
  0
LINE
  8
5
  6
CONTINUOUS
 62
6
 10
325.5000000000
 20
4.5000000000
 11
325.4999999999
 21
21.0000000000
  0
LINE
  8
5
  6
CONTINUOUS
 62
6
 10
314.5000000000
 20
17.0000000000
 11
314.5000000000
 21
4.5000000000
  0
TEXT
  8
5
  6
CONTINUOUS
 62
6
 10
294.250000
 20
4.750000
 40
2.500000
  1
Design
 41
0.779221
 50
0.000000
 51
0.000000
 72
   5
 73
   0
 11
301.750000
 21
4.750000
  0
TEXT
  8
5
  6
CONTINUOUS
 62
6
 10
305.875000
 20
4.750000
 40
2.500000
  1
Draft
 41
0.786164
 50
0.000000
 51
0.000000
 72
   5
 73
   0
 11
312.125000
 21
4.750000
  0
TEXT
  8
5
  6
CONTINUOUS
 62
6
 10
316.875000
 20
4.750000
 40
2.500000
  1
Check
 41
0.786164
 50
0.000000
 51
0.000000
 72
   5
 73
   0
 11
323.125000
 21
4.750000
  0
LINE
  8
5
  6
CONTINUOUS
 62
6
 10
281.5000000000
 20
29.5000000000
 11
402.5000000000
 21
29.5000000000
  0
LINE
  8
5
  6
CONTINUOUS
 62
6
 10
281.5000000000
 20
17.0000000000
 11
347.5000000000
 21
17.0000000000
  0
LINE
  8
5
  6
CONTINUOUS
 62
6
 10
392.5000000000
 20
14.5000000000
 11
392.5000000000
 21
4.5000000000
  0
TEXT
  8
5
  6
CONTINUOUS
 62
6
 10
395.520000
 20
5.000000
 40
2.000000
  1
SIZE
 41
0.788845
 50
0.000000
 51
0.000000
 72
   5
 73
   0
 11
399.480000
 21
5.000000
  0
LINE
  8
5
  6
CONTINUOUS
 62
6
 10
392.5000000000
 20
7.5000000000
 11
402.5000000000
 21
7.5000000000
  0
TEXT
  8
5
  6
CONTINUOUS
 62
6
 10
394.005000
 20
8.500000
 40
5.000000
  1
Ａ３
 41
0.644240
 50
0.000000
 51
0.000000
 72
   5
 73
   0
 11
400.995000
 21
8.500000
  0
TEXT
  8
5
  6
CONTINUOUS
 62
6
 10
338.875000
 20
4.750000
 40
2.500000
  1
Scale
 41
0.786164
 50
0.000000
 51
0.000000
 72
   5
 73
   0
 11
345.125000
 21
4.750000
  0
TEXT
  8
5
  6
CONTINUOUS
 62
6
 10
338.250000
 20
9.750000
 40
5.000000
  1
1/1
 41
0.815217
 50
0.000000
 51
0.000000
 72
   5
 73
   0
 11
345.750000
 21
9.750000
  0
TEXT
  8
5
  6
CONTINUOUS
 62
6
 10
326.625000
 20
4.750000
 40
2.500000
  1
Confirm
 41
0.774336
 50
0.000000
 51
0.000000
 72
   5
 73
   0
 11
335.375000
 21
4.750000
  0
TEXT
  8
5
  6
CONTINUOUS
 62
6
 10
284.500000
 20
4.750000
 40
2.500000
  1
Date
 41
0.796813
 50
0.000000
 51
0.000000
 72
   5
 73
   0
 11
289.500000
 21
4.750000
  0
TEXT
  8
5
  6
CONTINUOUS
 62
6
 10
283.250000
 20
12.462500
 40
3.000000
  1
2008/
 41
0.786164
 50
0.000000
 51
0.000000
 72
   5
 73
   0
 11
290.750000
 21
12.462500
  0
TEXT
  8
5
  6
CONTINUOUS
 62
6
 10
283.250000
 20
9.037500
 40
3.000000
  1
06/06
 41
0.786164
 50
0.000000
 51
0.000000
 72
   5
 73
   0
 11
290.750000
 21
9.037500
  0
LINE
  8
5
  6
CONTINUOUS
 62
6
 10
292.5000000000
 20
17.0000000000
 11
292.5000000000
 21
4.5000000000
  0
LINE
  8
5
  6
CONTINUOUS
 62
6
 10
281.5000000000
 20
4.5000000000
 11
281.5000000000
 21
29.5000000000
  0
TEXT
  8
5
  6
CONTINUOUS
 62
6
 10
281.755293
 20
18.213190
 40
2.000000
  1
Material
 41
0.638921
 50
0.000000
 51
0.000000
 72
   5
 73
   0
 11
288.387293
 21
18.213190
  0
LINE
  8
5
  6
CONTINUOUS
 62
6
 10
288.5000000000
 20
21.0000000000
 11
288.5000000000
 21
17.0000000000
  0
TEXT
  8
5
  6
CONTINUOUS
 62
6
 10
303.605000
 20
18.000000
 40
2.000000
  1
Process
 41
0.751106
 50
0.000000
 51
0.000000
 72
   5
 73
   0
 11
310.395000
 21
18.000000
  0
LINE
  8
5
  6
CONTINUOUS
 62
6
 10
310.5000000000
 20
21.0000000000
 11
310.5000000000
 21
17.0000000000
  0
TEXT
  8
5
  6
CONTINUOUS
 62
6
 10
325.773000
 20
18.000000
 40
2.000000
  1
Amount
 41
0.838182
 50
0.000000
 51
0.000000
 72
   5
 73
   0
 11
332.227000
 21
18.000000
  0
LINE
  8
5
  6
CONTINUOUS
 62
6
 10
332.4999999999
 20
21.0000000000
 11
332.4999999999
 21
17.0000000000
  0
LINE
  8
5
  6
CONTINUOUS
 62
6
 10
347.5000000000
 20
21.0000000000
 11
281.5000000000
 21
21.0000000000
  0
POINT
  8
5
  6
CONTINUOUS
 62
6
 10
289.5000000000
 20
19.0000000000
  0
POINT
  8
5
  6
CONTINUOUS
 62
6
 10
311.5000000000
 20
19.0000000000
  0
POINT
  8
5
  6
CONTINUOUS
 62
6
 10
339.9999999999
 20
19.0000000000
  0
POINT
  8
5
  6
CONTINUOUS
 62
6
 10
298.0000000000
 20
12.2500000000
  0
POINT
  8
5
  6
CONTINUOUS
 62
6
 10
309.0000000000
 20
12.2500000000
  0
POINT
  8
5
  6
CONTINUOUS
 62
6
 10
320.0000000000
 20
12.2500000000
  0
POINT
  8
5
  6
CONTINUOUS
 62
6
 10
331.0000000000
 20
12.2500000000
  0
POINT
  8
5
  6
CONTINUOUS
 62
6
 10
0.0000000000
 20
0.0000000000
  0
TEXT
  8
5
  6
CONTINUOUS
 62
7
 10
301.099806
 20
20.780083
 40
4.000000
  1
MADOKA SYSTEM co,.ltd
 41
0.778201
 50
0.000000
 51
0.000000
 72
   5
 73
   0
 11
344.367806
 21
20.780083
  0
LINE
  8
5
  6
CONTINUOUS
 62
6
 10
284.5000000000
 20
284.0000000000
 11
284.5000000000
 21
279.5000000000
  0
LINE
  8
5
  6
CONTINUOUS
 62
6
 10
284.5000000000
 20
4.5000000000
 11
284.5000000000
 21
0.0000000000
  0
TEXT
  8
5
  6
CONTINUOUS
 62
6
 10
303.500000
 20
279.500000
 40
4.000000
  1
8
 41
1.000000
 50
0.000000
 51
0.000000
 72
   5
 73
   0
 11
305.500000
 21
279.500000
  0
TEXT
  8
5
  6
CONTINUOUS
 62
6
 10
303.500000
 20
0.500000
 40
4.000000
  1
8
 41
1.000000
 50
0.000000
 51
0.000000
 72
   5
 73
   0
 11
305.500000
 21
0.500000
  0
LINE
  8
5
  6
CONTINUOUS
 62
6
 10
324.5000000000
 20
284.0000000000
 11
324.5000000000
 21
279.5000000000
  0
LINE
  8
5
  6
CONTINUOUS
 62
6
 10
324.5000000000
 20
4.5000000000
 11
324.5000000000
 21
0.0000000000
  0
TEXT
  8
5
  6
CONTINUOUS
 62
6
 10
343.500000
 20
279.500000
 40
4.000000
  1
9
 41
1.000000
 50
0.000000
 51
0.000000
 72
   5
 73
   0
 11
345.500000
 21
279.500000
  0
TEXT
  8
5
  6
CONTINUOUS
 62
6
 10
343.500000
 20
0.500000
 40
4.000000
  1
9
 41
1.000000
 50
0.000000
 51
0.000000
 72
   5
 73
   0
 11
345.500000
 21
0.500000
  0
LINE
  8
5
  6
CONTINUOUS
 62
6
 10
364.5000000000
 20
284.0000000000
 11
364.5000000000
 21
279.5000000000
  0
LINE
  8
5
  6
CONTINUOUS
 62
6
 10
364.5000000000
 20
4.5000000000
 11
364.5000000000
 21
0.0000000000
  0
TEXT
  8
5
  6
CONTINUOUS
 62
6
 10
382.500000
 20
279.500000
 40
4.000000
  1
10
 41
0.854701
 50
0.000000
 51
0.000000
 72
   5
 73
   0
 11
386.500000
 21
279.500000
  0
TEXT
  8
5
  6
CONTINUOUS
 62
6
 10
382.500000
 20
0.500000
 40
4.000000
  1
10
 41
0.854701
 50
0.000000
 51
0.000000
 72
   5
 73
   0
 11
386.500000
 21
0.500000
  0
LINE
  8
5
  6
CONTINUOUS
 62
6
 10
0.0000000000
 20
79.5000000000
 11
4.5000000000
 21
79.5000000000
  0
LINE
  8
5
  6
CONTINUOUS
 62
6
 10
402.5000000000
 20
79.5000000000
 11
407.0000000000
 21
79.5000000000
  0
LINE
  8
5
  6
CONTINUOUS
 62
6
 10
0.0000000000
 20
39.5000000000
 11
4.5000000000
 21
39.5000000000
  0
LINE
  8
5
  6
CONTINUOUS
 62
6
 10
402.5000000000
 20
39.5000000000
 11
407.0000000000
 21
39.5000000000
  0
TEXT
  8
5
  6
CONTINUOUS
 62
6
 10
1.954773
 20
57.454143
 40
4.000000
  1
F
 41
1.102000
 50
0.000000
 51
0.000000
 72
   5
 73
   0
 11
4.158773
 21
57.454143
  0
TEXT
  8
5
  6
CONTINUOUS
 62
6
 10
402.786513
 20
57.492354
 40
4.000000
  1
F
 41
1.102000
 50
0.000000
 51
0.000000
 72
   5
 73
   0
 11
404.990513
 21
57.492354
  0
TEXT
  8
5
  6
CONTINUOUS
 62
6
 10
1.438773
 20
17.454143
 40
4.000000
  1
G
 41
1.360000
 50
0.000000
 51
0.000000
 72
   5
 73
   0
 11
4.158773
 21
17.454143
  0
TEXT
  8
5
  6
CONTINUOUS
 62
6
 10
402.786513
 20
17.492354
 40
4.000000
  1
G
 41
1.360000
 50
0.000000
 51
0.000000
 72
   5
 73
   0
 11
405.506513
 21
17.492354
  0
LINE
  8
5
  6
CONTINUOUS
 62
6
 10
4.5000000000
 20
279.5000000000
 11
402.5000000000
 21
279.5000000000
  0
LINE
  8
5
  6
CONTINUOUS
 62
6
 10
402.5000000000
 20
279.5000000000
 11
402.5000000000
 21
4.5000000000
  0
POINT
  8
5
  6
CONTINUOUS
 62
6
 10
353.5000000000
 20
20.5000000000
  0
POINT
  8
5
  6
CONTINUOUS
 62
6
 10
353.5000000000
 20
8.0000000000
  0
LINE
  8
5
  6
CONTINUOUS
 62
6
 10
347.5000000000
 20
26.5000000000
 11
402.5000000000
 21
26.5000000000
  0
LINE
  8
5
  6
CONTINUOUS
 62
6
 10
347.5000000000
 20
11.5000000000
 11
392.5000000000
 21
11.5000000000
  0
TEXT
  8
5
  6
CONTINUOUS
 62
7
 10
362.928500
 20
26.250000
 40
3.500000
  1
Document Name
 41
0.807728
 50
0.000000
 51
0.000000
 72
   5
 73
   0
 11
387.071500
 21
26.250000
  0
TEXT
  8
5
  6
CONTINUOUS
 62
7
 10
359.678500
 20
11.250000
 40
3.500000
  1
Document No.
 41
0.749428
 50
0.000000
 51
0.000000
 72
   5
 73
   0
 11
380.321500
 21
11.250000
  0
ENDBLK
  8
0
  0
BLOCK
  8
1
  2
*D0
 70
     1
 10
0.0000000000
 20
0.0000000000
  3
*D0
  0
LINE
  8
1
  6
BYBLOCK
 62
5
 10
122.1566089140
 20
90.3588253725
 11
122.1566089140
 21
95.7536737299
  0
LINE
  8
1
  6
BYBLOCK
 62
5
 10
105.6566089140
 20
90.3588253725
 11
105.6566089140
 21
95.7536737299
  0
LINE
  8
1
  6
BYBLOCK
 62
5
 10
105.6566089140
 20
94.7536737299
 11
122.1566089140
 21
94.7536737299
  0
SOLID
  8
1
  6
CONTINUOUS
 62
5
 10
120.2247572614
 20
94.2360356397
 11
120.2247572614
 21
95.2713118201
 12
122.1566089140
 22
94.7536737299
 13
122.1566089140
 23
94.7536737299
  0
SOLID
  8
1
  6
CONTINUOUS
 62
5
 10
107.5884605665
 20
95.2713118201
 11
107.5884605665
 21
94.2360356397
 12
105.6566089140
 22
94.7536737299
 13
105.6566089140
 23
94.7536737299
  0
TEXT
  8
1
  6
CONTINUOUS
 62
7
 10
110.406609
 20
95.753674
 40
3.500000
  1
16.5
 41
0.796813
 50
0.000000
 51
0.000000
 72
   5
 73
   0
 11
117.406609
 21
95.753674
  0
POINT
  8
DEFPOINTS
  6
BYBLOCK
 62
5
 10
122.1566089140
 20
89.8588253725
  0
POINT
  8
DEFPOINTS
  6
BYBLOCK
 62
5
 10
105.6566089140
 20
89.8588253725
  0
POINT
  8
DEFPOINTS
  6
BYBLOCK
 62
5
 10
105.6566089140
 20
94.7536737299
  0
ENDBLK
  8
0
  0
BLOCK
  8
1
  2
*D1
 70
     1
 10
0.0000000000
 20
0.0000000000
  3
*D1
  0
LINE
  8
1
  6
BYBLOCK
 62
5
 10
24.9407258647
 20
23.5827940853
 11
17.6541168789
 21
23.5827940853
  0
LINE
  8
1
  6
BYBLOCK
 62
5
 10
25.9407258647
 20
32.5827940853
 11
17.6541168789
 21
32.5827940853
  0
LINE
  8
1
  6
BYBLOCK
 62
5
 10
18.6541168789
 20
32.5827940853
 11
18.6541168789
 21
23.5827940853
  0
SOLID
  8
1
  6
CONTINUOUS
 62
5
 10
18.1364787887
 20
25.5146457379
 11
19.1717549691
 21
25.5146457379
 12
18.6541168789
 22
23.5827940853
 13
18.6541168789
 23
23.5827940853
  0
SOLID
  8
1
  6
CONTINUOUS
 62
5
 10
19.1717549691
 20
30.6509424328
 11
18.1364787887
 21
30.6509424328
 12
18.6541168789
 22
32.5827940853
 13
18.6541168789
 23
32.5827940853
  0
TEXT
  8
1
  6
CONTINUOUS
 62
7
 10
17.654117
 20
27.207794
 40
3.500000
  1
9
 41
1.000000
 50
90.000000
 51
0.000000
 72
   5
 73
   0
 11
17.654117
 21
28.957794
  0
POINT
  8
DEFPOINTS
  6
BYBLOCK
 62
5
 10
25.4407258647
 20
23.5827940853
  0
POINT
  8
DEFPOINTS
  6
BYBLOCK
 62
5
 10
26.4407258647
 20
32.5827940853
  0
POINT
  8
DEFPOINTS
  6
BYBLOCK
 62
5
 10
18.6541168789
 20
32.5827940853
  0
ENDBLK
  8
0
  0
BLOCK
  8
1
  2
*D2
 70
     1
 10
0.0000000000
 20
0.0000000000
  3
*D2
  0
LINE
  8
1
  6
BYBLOCK
 62
5
 10
26.9407258647
 20
33.0827940853
 11
17.4145405822
 21
33.0827940853
  0
LINE
  8
1
  6
BYBLOCK
 62
5
 10
33.4407258647
 20
47.5827940853
 11
17.4145405822
 21
47.5827940853
  0
LINE
  8
1
  6
BYBLOCK
 62
5
 10
18.4145405822
 20
47.5827940853
 11
18.4145405822
 21
33.0827940853
  0
SOLID
  8
1
  6
CONTINUOUS
 62
5
 10
17.8969024920
 20
35.0146457379
 11
18.9321786724
 21
35.0146457379
 12
18.4145405822
 22
33.0827940853
 13
18.4145405822
 23
33.0827940853
  0
SOLID
  8
1
  6
CONTINUOUS
 62
5
 10
18.9321786724
 20
45.6509424328
 11
17.8969024920
 21
45.6509424328
 12
18.4145405822
 22
47.5827940853
 13
18.4145405822
 23
47.5827940853
  0
TEXT
  8
1
  6
CONTINUOUS
 62
7
 10
17.414541
 20
36.832794
 40
3.500000
  1
14.5
 41
0.796813
 50
90.000000
 51
0.000000
 72
   5
 73
   0
 11
17.414541
 21
43.832794
  0
POINT
  8
DEFPOINTS
  6
BYBLOCK
 62
5
 10
27.4407258647
 20
33.0827940853
  0
POINT
  8
DEFPOINTS
  6
BYBLOCK
 62
5
 10
33.9407258647
 20
47.5827940853
  0
POINT
  8
DEFPOINTS
  6
BYBLOCK
 62
5
 10
18.4145405822
 20
47.5827940853
  0
ENDBLK
  8
0
  0
BLOCK
  8
1
  2
*D3
 70
     1
 10
0.0000000000
 20
0.0000000000
  3
*D3
  0
LINE
  8
1
  6
BYBLOCK
 62
5
 10
24.9407258647
 20
23.5827940853
 11
9.9078166190
 21
23.5827940853
  0
LINE
  8
1
  6
BYBLOCK
 62
5
 10
33.4407258647
 20
47.5827940853
 11
9.9078166190
 21
47.5827940853
  0
LINE
  8
1
  6
BYBLOCK
 62
5
 10
10.9078166190
 20
47.5827940853
 11
10.9078166190
 21
23.5827940853
  0
SOLID
  8
1
  6
CONTINUOUS
 62
5
 10
10.3901785287
 20
25.5146457379
 11
11.4254547092
 21
25.5146457379
 12
10.9078166190
 22
23.5827940853
 13
10.9078166190
 23
23.5827940853
  0
SOLID
  8
1
  6
CONTINUOUS
 62
5
 10
11.4254547092
 20
45.6509424328
 11
10.3901785287
 21
45.6509424328
 12
10.9078166190
 22
47.5827940853
 13
10.9078166190
 23
47.5827940853
  0
TEXT
  8
1
  6
CONTINUOUS
 62
7
 10
9.907817
 20
33.832794
 40
3.500000
  1
24
 41
0.854701
 50
90.000000
 51
0.000000
 72
   5
 73
   0
 11
9.907817
 21
37.332794
  0
POINT
  8
DEFPOINTS
  6
BYBLOCK
 62
5
 10
25.4407258647
 20
23.5827940853
  0
POINT
  8
DEFPOINTS
  6
BYBLOCK
 62
5
 10
33.9407258647
 20
47.5827940853
  0
POINT
  8
DEFPOINTS
  6
BYBLOCK
 62
5
 10
10.9078166190
 20
47.5827940853
  0
ENDBLK
  8
0
  0
BLOCK
  8
1
  2
*D4
 70
     1
 10
0.0000000000
 20
0.0000000000
  3
*D4
  0
LINE
  8
1
  6
BYBLOCK
 62
5
 10
24.9407258647
 20
216.1368942825
 11
13.9678380111
 21
216.1368942825
  0
LINE
  8
1
  6
BYBLOCK
 62
5
 10
24.9407258647
 20
60.6368942825
 11
13.9678380111
 21
60.6368942825
  0
LINE
  8
1
  6
BYBLOCK
 62
5
 10
14.9678380111
 20
60.6368942825
 11
14.9678380111
 21
216.1368942825
  0
SOLID
  8
1
  6
CONTINUOUS
 62
5
 10
15.4854761013
 20
214.2050426299
 11
14.4501999209
 21
214.2050426299
 12
14.9678380111
 22
216.1368942825
 13
14.9678380111
 23
216.1368942825
  0
SOLID
  8
1
  6
CONTINUOUS
 62
5
 10
14.4501999209
 20
62.5687459351
 11
15.4854761013
 21
62.5687459351
 12
14.9678380111
 22
60.6368942825
 13
14.9678380111
 23
60.6368942825
  0
TEXT
  8
1
  6
CONTINUOUS
 62
7
 10
13.967838
 20
132.136894
 40
5.000000
  1
155.5
 41
0.786164
 50
90.000000
 51
0.000000
 72
   5
 73
   0
 11
13.967838
 21
144.636894
  0
POINT
  8
DEFPOINTS
  6
BYBLOCK
 62
5
 10
25.4407258647
 20
216.1368942825
  0
POINT
  8
DEFPOINTS
  6
BYBLOCK
 62
5
 10
25.4407258647
 20
60.6368942825
  0
POINT
  8
DEFPOINTS
  6
BYBLOCK
 62
5
 10
14.9678380111
 20
60.6368942825
  0
ENDBLK
  8
0
  0
BLOCK
  8
1
  2
*D5
 70
     1
 10
0.0000000000
 20
0.0000000000
  3
*D5
  0
LINE
  8
1
  6
BYBLOCK
 62
5
 10
25.4407258647
 20
216.6368942825
 11
25.4407258647
 21
221.0992275332
  0
LINE
  8
1
  6
BYBLOCK
 62
5
 10
94.4407258647
 20
216.6368942825
 11
94.4407258647
 21
221.0992275332
  0
LINE
  8
1
  6
BYBLOCK
 62
5
 10
94.4407258647
 20
220.0992275332
 11
25.4407258647
 21
220.0992275332
  0
SOLID
  8
1
  6
CONTINUOUS
 62
5
 10
27.3725775173
 20
220.6168656234
 11
27.3725775173
 21
219.5815894430
 12
25.4407258647
 22
220.0992275332
 13
25.4407258647
 23
220.0992275332
  0
SOLID
  8
1
  6
CONTINUOUS
 62
5
 10
92.5088742121
 20
219.5815894430
 11
92.5088742121
 21
220.6168656234
 12
94.4407258647
 22
220.0992275332
 13
94.4407258647
 23
220.0992275332
  0
TEXT
  8
1
  6
CONTINUOUS
 62
7
 10
57.440726
 20
221.099228
 40
5.000000
  1
69
 41
0.854701
 50
0.000000
 51
0.000000
 72
   5
 73
   0
 11
62.440726
 21
221.099228
  0
POINT
  8
DEFPOINTS
  6
BYBLOCK
 62
5
 10
25.4407258647
 20
216.1368942825
  0
POINT
  8
DEFPOINTS
  6
BYBLOCK
 62
5
 10
94.4407258647
 20
216.1368942825
  0
POINT
  8
DEFPOINTS
  6
BYBLOCK
 62
5
 10
94.4407258647
 20
220.0992275332
  0
ENDBLK
  8
0
  0
BLOCK
  8
5
  2
S1
 70
     0
 10
315.5000000000
 20
257.5000000000
  3
S1
  0
LINE
  8
5
  6
CONTINUOUS
 62
6
 10
228.5000000000
 20
272.5000000000
 11
228.5000000000
 21
277.5000000000
  0
LINE
  8
5
  6
CONTINUOUS
 62
6
 10
228.5000000000
 20
277.5000000000
 11
233.5000000000
 21
277.5000000000
  0
LINE
  8
5
  6
CONTINUOUS
 62
6
 10
233.5000000000
 20
277.5000000000
 11
253.5000000000
 21
277.5000000000
  0
LINE
  8
5
  6
CONTINUOUS
 62
6
 10
253.5000000000
 20
277.5000000000
 11
293.5000000000
 21
277.5000000000
  0
LINE
  8
5
  6
CONTINUOUS
 62
6
 10
293.5000000000
 20
277.5000000000
 11
308.5000000000
 21
277.5000000000
  0
LINE
  8
5
  6
CONTINUOUS
 62
6
 10
308.5000000000
 20
277.5000000000
 11
313.5000000000
 21
277.5000000000
  0
LINE
  8
5
  6
CONTINUOUS
 62
6
 10
313.5000000000
 20
277.5000000000
 11
313.5000000000
 21
272.5000000000
  0
LINE
  8
5
  6
CONTINUOUS
 62
6
 10
313.5000000000
 20
272.5000000000
 11
308.5000000000
 21
272.5000000000
  0
LINE
  8
5
  6
CONTINUOUS
 62
6
 10
308.5000000000
 20
272.5000000000
 11
293.5000000000
 21
272.5000000000
  0
LINE
  8
5
  6
CONTINUOUS
 62
6
 10
293.5000000000
 20
272.5000000000
 11
253.5000000000
 21
272.5000000000
  0
LINE
  8
5
  6
CONTINUOUS
 62
6
 10
253.5000000000
 20
272.5000000000
 11
233.5000000000
 21
272.5000000000
  0
LINE
  8
5
  6
CONTINUOUS
 62
6
 10
233.5000000000
 20
272.5000000000
 11
228.5000000000
 21
272.5000000000
  0
LINE
  8
5
  6
CONTINUOUS
 62
6
 10
233.5000000000
 20
277.5000000000
 11
233.5000000000
 21
272.5000000000
  0
LINE
  8
5
  6
CONTINUOUS
 62
6
 10
253.5000000000
 20
277.5000000000
 11
253.5000000000
 21
272.5000000000
  0
LINE
  8
5
  6
CONTINUOUS
 62
6
 10
293.5000000000
 20
277.5000000000
 11
293.5000000000
 21
272.5000000000
  0
LINE
  8
5
  6
CONTINUOUS
 62
6
 10
308.5000000000
 20
277.5000000000
 11
308.5000000000
 21
272.5000000000
  0
TEXT
  8
5
  6
CONTINUOUS
 62
7
 10
228.700000
 20
273.850000
 40
2.300000
  1
項番
 41
0.921659
 50
0.000000
 51
0.000000
 72
   5
 73
   0
 11
233.300000
 21
273.850000
  0
TEXT
  8
5
  6
CONTINUOUS
 62
7
 10
238.508000
 20
273.500000
 40
3.000000
  1
品　　名
 41
0.737916
 50
0.000000
 51
0.000000
 72
   5
 73
   0
 11
248.492000
 21
273.500000
  0
TEXT
  8
5
  6
CONTINUOUS
 62
7
 10
258.347000
 20
273.500000
 40
3.000000
  1
定  格 / 型  番 / 材　質
 41
0.686277
 50
0.000000
 51
0.000000
 72
   5
 73
   0
 11
288.653000
 21
273.500000
  0
TEXT
  8
5
  6
CONTINUOUS
 62
7
 10
295.802500
 20
273.500000
 40
3.000000
  1
メーカー
 41
0.768293
 50
0.000000
 51
0.000000
 72
   5
 73
   0
 11
306.197500
 21
273.500000
  0
TEXT
  8
5
  6
CONTINUOUS
 62
7
 10
308.700000
 20
273.850000
 40
2.300000
  1
数量
 41
0.921659
 50
0.000000
 51
0.000000
 72
   5
 73
   0
 11
313.300000
 21
273.850000
  0
LINE
  8
5
  6
CONTINUOUS
 62
6
 10
228.5000000000
 20
267.5000000000
 11
228.5000000000
 21
272.5000000000
  0
LINE
  8
5
  6
CONTINUOUS
 62
6
 10
228.5000000000
 20
272.5000000000
 11
233.5000000000
 21
272.5000000000
  0
LINE
  8
5
  6
CONTINUOUS
 62
6
 10
233.5000000000
 20
272.5000000000
 11
253.5000000000
 21
272.5000000000
  0
LINE
  8
5
  6
CONTINUOUS
 62
6
 10
253.5000000000
 20
272.5000000000
 11
293.5000000000
 21
272.5000000000
  0
LINE
  8
5
  6
CONTINUOUS
 62
6
 10
293.5000000000
 20
272.5000000000
 11
308.5000000000
 21
272.5000000000
  0
LINE
  8
5
  6
CONTINUOUS
 62
6
 10
308.5000000000
 20
272.5000000000
 11
313.5000000000
 21
272.5000000000
  0
LINE
  8
5
  6
CONTINUOUS
 62
6
 10
313.5000000000
 20
272.5000000000
 11
313.5000000000
 21
267.5000000000
  0
LINE
  8
5
  6
CONTINUOUS
 62
6
 10
313.5000000000
 20
267.5000000000
 11
308.5000000000
 21
267.5000000000
  0
LINE
  8
5
  6
CONTINUOUS
 62
6
 10
308.5000000000
 20
267.5000000000
 11
293.5000000000
 21
267.5000000000
  0
LINE
  8
5
  6
CONTINUOUS
 62
6
 10
253.5000000000
 20
267.5000000000
 11
233.5000000000
 21
267.5000000000
  0
LINE
  8
5
  6
CONTINUOUS
 62
6
 10
233.5000000000
 20
267.5000000000
 11
228.5000000000
 21
267.5000000000
  0
LINE
  8
5
  6
CONTINUOUS
 62
6
 10
233.5000000000
 20
272.5000000000
 11
233.5000000000
 21
267.5000000000
  0
LINE
  8
5
  6
CONTINUOUS
 62
6
 10
253.5000000000
 20
272.5000000000
 11
253.5000000000
 21
267.5000000000
  0
LINE
  8
5
  6
CONTINUOUS
 62
6
 10
293.5000000000
 20
272.5000000000
 11
293.5000000000
 21
267.5000000000
  0
LINE
  8
5
  6
CONTINUOUS
 62
6
 10
308.5000000000
 20
272.5000000000
 11
308.5000000000
 21
267.5000000000
  0
TEXT
  8
5
  6
CONTINUOUS
 62
7
 10
230.125000
 20
268.250000
 40
3.500000
  1
1
 41
1.000000
 50
0.000000
 51
0.000000
 72
   5
 73
   0
 11
231.875000
 21
268.250000
  0
TEXT
  8
5
  6
CONTINUOUS
 62
7
 10
234.500000
 20
268.500000
 40
3.000000
  1
ベース
 41
0.841018
 50
0.000000
 51
0.000000
 72
   5
 73
   0
 11
242.927000
 21
268.500000
  0
TEXT
  8
5
  6
CONTINUOUS
 62
7
 10
310.125000
 20
268.250000
 40
3.500000
  1
1
 41
1.000000
 50
0.000000
 51
0.000000
 72
   5
 73
   0
 11
311.875000
 21
268.250000
  0
LINE
  8
5
  6
CONTINUOUS
 62
6
 10
313.5000000000
 20
262.5000000000
 11
308.5000000000
 21
262.5000000000
  0
LINE
  8
5
  6
CONTINUOUS
 62
6
 10
313.5000000000
 20
257.5000000000
 11
308.5000000000
 21
257.5000000000
  0
LINE
  8
5
  6
CONTINUOUS
 62
6
 10
313.5000000000
 20
252.5000000000
 11
308.5000000000
 21
252.5000000000
  0
LINE
  8
5
  6
CONTINUOUS
 62
6
 10
313.5000000000
 20
247.5000000000
 11
308.5000000000
 21
247.5000000000
  0
LINE
  8
5
  6
CONTINUOUS
 62
6
 10
313.5000000000
 20
242.5000000000
 11
308.5000000000
 21
242.5000000000
  0
LINE
  8
5
  6
CONTINUOUS
 62
6
 10
313.5000000000
 20
237.5000000000
 11
308.5000000000
 21
237.5000000000
  0
LINE
  8
5
  6
CONTINUOUS
 62
6
 10
400.5000000000
 20
267.5000000000
 11
395.5000000000
 21
267.5000000000
  0
LINE
  8
5
  6
CONTINUOUS
 62
6
 10
400.5000000000
 20
262.5000000000
 11
395.5000000000
 21
262.5000000000
  0
LINE
  8
5
  6
CONTINUOUS
 62
6
 10
308.5000000000
 20
262.5000000000
 11
293.5000000000
 21
262.5000000000
  0
LINE
  8
5
  6
CONTINUOUS
 62
6
 10
308.5000000000
 20
257.5000000000
 11
293.5000000000
 21
257.5000000000
  0
LINE
  8
5
  6
CONTINUOUS
 62
6
 10
308.5000000000
 20
252.5000000000
 11
293.5000000000
 21
252.5000000000
  0
LINE
  8
5
  6
CONTINUOUS
 62
6
 10
308.5000000000
 20
247.5000000000
 11
293.5000000000
 21
247.5000000000
  0
LINE
  8
5
  6
CONTINUOUS
 62
6
 10
308.5000000000
 20
242.5000000000
 11
293.5000000000
 21
242.5000000000
  0
LINE
  8
5
  6
CONTINUOUS
 62
6
 10
308.5000000000
 20
237.5000000000
 11
293.5000000000
 21
237.5000000000
  0
LINE
  8
5
  6
CONTINUOUS
 62
6
 10
395.5000000000
 20
267.5000000000
 11
380.5000000000
 21
267.5000000000
  0
LINE
  8
5
  6
CONTINUOUS
 62
6
 10
395.5000000000
 20
262.5000000000
 11
380.5000000000
 21
262.5000000000
  0
LINE
  8
5
  6
CONTINUOUS
 62
6
 10
293.5000000000
 20
262.5000000000
 11
253.5000000000
 21
262.5000000000
  0
LINE
  8
5
  6
CONTINUOUS
 62
6
 10
293.5000000000
 20
257.5000000000
 11
253.5000000000
 21
257.5000000000
  0
LINE
  8
5
  6
CONTINUOUS
 62
6
 10
293.5000000000
 20
252.5000000000
 11
253.5000000000
 21
252.5000000000
  0
LINE
  8
5
  6
CONTINUOUS
 62
6
 10
293.5000000000
 20
247.5000000000
 11
253.5000000000
 21
247.5000000000
  0
LINE
  8
5
  6
CONTINUOUS
 62
6
 10
293.5000000000
 20
242.5000000000
 11
253.5000000000
 21
242.5000000000
  0
LINE
  8
5
  6
CONTINUOUS
 62
6
 10
293.5000000000
 20
237.5000000000
 11
253.5000000000
 21
237.5000000000
  0
LINE
  8
5
  6
CONTINUOUS
 62
6
 10
380.5000000000
 20
267.5000000000
 11
340.5000000000
 21
267.5000000000
  0
LINE
  8
5
  6
CONTINUOUS
 62
6
 10
253.5000000000
 20
262.5000000000
 11
233.5000000000
 21
262.5000000000
  0
LINE
  8
5
  6
CONTINUOUS
 62
6
 10
253.5000000000
 20
257.5000000000
 11
233.5000000000
 21
257.5000000000
  0
LINE
  8
5
  6
CONTINUOUS
 62
6
 10
253.5000000000
 20
252.5000000000
 11
233.5000000000
 21
252.5000000000
  0
LINE
  8
5
  6
CONTINUOUS
 62
6
 10
253.5000000000
 20
247.5000000000
 11
233.5000000000
 21
247.5000000000
  0
LINE
  8
5
  6
CONTINUOUS
 62
6
 10
253.5000000000
 20
242.5000000000
 11
233.5000000000
 21
242.5000000000
  0
LINE
  8
5
  6
CONTINUOUS
 62
6
 10
253.5000000000
 20
237.5000000000
 11
233.5000000000
 21
237.5000000000
  0
LINE
  8
5
  6
CONTINUOUS
 62
6
 10
340.5000000000
 20
267.5000000000
 11
320.5000000000
 21
267.5000000000
  0
LINE
  8
5
  6
CONTINUOUS
 62
6
 10
340.5000000000
 20
262.5000000000
 11
320.5000000000
 21
262.5000000000
  0
LINE
  8
5
  6
CONTINUOUS
 62
6
 10
233.5000000000
 20
262.5000000000
 11
228.5000000000
 21
262.5000000000
  0
LINE
  8
5
  6
CONTINUOUS
 62
6
 10
233.5000000000
 20
257.5000000000
 11
228.5000000000
 21
257.5000000000
  0
LINE
  8
5
  6
CONTINUOUS
 62
6
 10
233.5000000000
 20
252.5000000000
 11
228.5000000000
 21
252.5000000000
  0
LINE
  8
5
  6
CONTINUOUS
 62
6
 10
233.5000000000
 20
247.5000000000
 11
228.5000000000
 21
247.5000000000
  0
LINE
  8
5
  6
CONTINUOUS
 62
6
 10
233.5000000000
 20
242.5000000000
 11
228.5000000000
 21
242.5000000000
  0
LINE
  8
5
  6
CONTINUOUS
 62
6
 10
233.5000000000
 20
237.5000000000
 11
228.5000000000
 21
237.5000000000
  0
LINE
  8
5
  6
CONTINUOUS
 62
6
 10
320.5000000000
 20
267.5000000000
 11
315.5000000000
 21
267.5000000000
  0
LINE
  8
5
  6
CONTINUOUS
 62
6
 10
320.5000000000
 20
262.5000000000
 11
315.5000000000
 21
262.5000000000
  0
TEXT
  8
5
  6
CONTINUOUS
 62
7
 10
230.125000
 20
263.250000
 40
3.500000
  1
2
 41
1.000000
 50
0.000000
 51
0.000000
 72
   5
 73
   0
 11
231.875000
 21
263.250000
  0
TEXT
  8
5
  6
CONTINUOUS
 62
7
 10
230.125000
 20
258.250000
 40
3.500000
  1
3
 41
1.000000
 50
0.000000
 51
0.000000
 72
   5
 73
   0
 11
231.875000
 21
258.250000
  0
TEXT
  8
5
  6
CONTINUOUS
 62
7
 10
230.125000
 20
253.250000
 40
3.500000
  1
4
 41
1.000000
 50
0.000000
 51
0.000000
 72
   5
 73
   0
 11
231.875000
 21
253.250000
  0
TEXT
  8
5
  6
CONTINUOUS
 62
7
 10
230.125000
 20
248.250000
 40
3.500000
  1
5
 41
1.000000
 50
0.000000
 51
0.000000
 72
   5
 73
   0
 11
231.875000
 21
248.250000
  0
TEXT
  8
5
  6
CONTINUOUS
 62
7
 10
230.125000
 20
243.250000
 40
3.500000
  1
6
 41
1.000000
 50
0.000000
 51
0.000000
 72
   5
 73
   0
 11
231.875000
 21
243.250000
  0
TEXT
  8
5
  6
CONTINUOUS
 62
7
 10
230.125000
 20
238.250000
 40
3.500000
  1
7
 41
1.000000
 50
0.000000
 51
0.000000
 72
   5
 73
   0
 11
231.875000
 21
238.250000
  0
TEXT
  8
5
  6
CONTINUOUS
 62
7
 10
317.125000
 20
268.250000
 40
3.500000
  1
8
 41
1.000000
 50
0.000000
 51
0.000000
 72
   5
 73
   0
 11
318.875000
 21
268.250000
  0
TEXT
  8
5
  6
CONTINUOUS
 62
7
 10
317.125000
 20
263.250000
 40
3.500000
  1
9
 41
1.000000
 50
0.000000
 51
0.000000
 72
   5
 73
   0
 11
318.875000
 21
263.250000
  0
TEXT
  8
5
  6
CONTINUOUS
 62
7
 10
234.500000
 20
263.500000
 40
3.000000
  1
カバー
 41
0.833832
 50
0.000000
 51
0.000000
 72
   5
 73
   0
 11
242.855000
 21
263.500000
  0
TEXT
  8
5
  6
CONTINUOUS
 62
7
 10
234.500000
 20
258.500000
 40
3.000000
  1
ロック
 41
0.719162
 50
0.000000
 51
0.000000
 72
   5
 73
   0
 11
241.706000
 21
258.500000
  0
TEXT
  8
5
  6
CONTINUOUS
 62
7
 10
234.500000
 20
253.500000
 40
3.000000
  1
添付品ﾋﾞｽ
 41
0.822804
 50
0.000000
 51
0.000000
 72
   5
 73
   0
 11
247.706000
 21
253.500000
  0
TEXT
  8
5
  6
CONTINUOUS
 62
7
 10
234.500000
 20
243.500000
 40
3.000000
  1
添付品ﾋﾞｽ
 41
0.822804
 50
0.000000
 51
0.000000
 72
   5
 73
   0
 11
247.706000
 21
243.500000
  0
TEXT
  8
5
  6
CONTINUOUS
 62
7
 10
234.500000
 20
238.500000
 40
3.000000
  1
添付品ﾋﾞｽ
 41
0.822804
 50
0.000000
 51
0.000000
 72
   5
 73
   0
 11
247.706000
 21
238.500000
  0
TEXT
  8
5
  6
CONTINUOUS
 62
7
 10
321.500000
 20
263.500000
 40
3.000000
  1
ACｱｳﾄﾚｯﾄ
 41
0.872254
 50
0.000000
 51
0.000000
 72
   5
 73
   0
 11
335.081000
 21
263.500000
  0
TEXT
  8
5
  6
CONTINUOUS
 62
7
 10
321.500000
 20
253.500000
 40
3.000000
  1
↑固定ビス
 41
0.839085
 50
0.000000
 51
0.000000
 72
   5
 73
   0
 11
335.798000
 21
253.500000
  0
TEXT
  8
5
  6
CONTINUOUS
 62
7
 10
254.500000
 20
258.500000
 40
3.000000
  1
M4×20 脱落防止ビス
 41
0.819085
 50
0.000000
 51
0.000000
 72
   5
 73
   0
 11
282.439000
 21
258.500000
  0
TEXT
  8
5
  6
CONTINUOUS
 62
7
 10
254.500000
 20
253.500000
 40
3.000000
  1
M3×8小ワｾﾑｽ(ﾍﾞｰｽ固定用)
 41
0.831095
 50
0.000000
 51
0.000000
 72
   5
 73
   0
 11
291.625000
 21
253.500000
  0
TEXT
  8
5
  6
CONTINUOUS
 62
7
 10
254.500000
 20
243.500000
 40
3.000000
  1
M5×10ｱﾌﾞｾｯﾄ
 41
0.813247
 50
0.000000
 51
0.000000
 72
   5
 73
   0
 11
273.286000
 21
243.500000
  0
TEXT
  8
5
  6
CONTINUOUS
 62
7
 10
254.500000
 20
238.500000
 40
3.000000
  1
M5 内歯菊座金
 41
0.851365
 50
0.000000
 51
0.000000
 72
   5
 73
   0
 11
274.141000
 21
238.500000
  0
TEXT
  8
5
  6
CONTINUOUS
 62
7
 10
341.500000
 20
263.250000
 40
3.500000
  1
7110GD-IV
 41
0.803242
 50
0.000000
 51
0.000000
 72
   5
 73
   0
 11
357.974500
 21
263.250000
  0
TEXT
  8
5
  6
CONTINUOUS
 62
7
 10
381.500000
 20
263.500000
 40
3.000000
  1
ｱﾒﾘｶﾝ電機
 41
0.862681
 50
0.000000
 51
0.000000
 72
   5
 73
   0
 11
395.786000
 21
263.500000
  0
TEXT
  8
5
  6
CONTINUOUS
 62
7
 10
310.125000
 20
263.250000
 40
3.500000
  1
1
 41
1.000000
 50
0.000000
 51
0.000000
 72
   5
 73
   0
 11
311.875000
 21
263.250000
  0
TEXT
  8
5
  6
CONTINUOUS
 62
7
 10
310.125000
 20
258.250000
 40
3.500000
  1
1
 41
1.000000
 50
0.000000
 51
0.000000
 72
   5
 73
   0
 11
311.875000
 21
258.250000
  0
TEXT
  8
5
  6
CONTINUOUS
 62
7
 10
310.125000
 20
253.250000
 40
3.500000
  1
4
 41
1.000000
 50
0.000000
 51
0.000000
 72
   5
 73
   0
 11
311.875000
 21
253.250000
  0
TEXT
  8
5
  6
CONTINUOUS
 62
7
 10
310.125000
 20
243.250000
 40
3.500000
  1
1
 41
1.000000
 50
0.000000
 51
0.000000
 72
   5
 73
   0
 11
311.875000
 21
243.250000
  0
TEXT
  8
5
  6
CONTINUOUS
 62
7
 10
310.125000
 20
238.250000
 40
3.500000
  1
1
 41
1.000000
 50
0.000000
 51
0.000000
 72
   5
 73
   0
 11
311.875000
 21
238.250000
  0
LINE
  8
5
  6
CONTINUOUS
 62
6
 10
228.5000000000
 20
262.5000000000
 11
228.5000000000
 21
267.5000000000
  0
LINE
  8
5
  6
CONTINUOUS
 62
6
 10
228.5000000000
 20
257.5000000000
 11
228.5000000000
 21
262.5000000000
  0
LINE
  8
5
  6
CONTINUOUS
 62
6
 10
228.5000000000
 20
252.5000000000
 11
228.5000000000
 21
257.5000000000
  0
LINE
  8
5
  6
CONTINUOUS
 62
6
 10
228.5000000000
 20
247.5000000000
 11
228.5000000000
 21
252.5000000000
  0
LINE
  8
5
  6
CONTINUOUS
 62
6
 10
228.5000000000
 20
242.5000000000
 11
228.5000000000
 21
247.5000000000
  0
LINE
  8
5
  6
CONTINUOUS
 62
6
 10
228.5000000000
 20
237.5000000000
 11
228.5000000000
 21
242.5000000000
  0
LINE
  8
5
  6
CONTINUOUS
 62
6
 10
315.5000000000
 20
267.5000000000
 11
315.5000000000
 21
272.5000000000
  0
LINE
  8
5
  6
CONTINUOUS
 62
6
 10
315.5000000000
 20
262.5000000000
 11
315.5000000000
 21
267.5000000000
  0
LINE
  8
5
  6
CONTINUOUS
 62
6
 10
233.5000000000
 20
267.5000000000
 11
233.5000000000
 21
262.5000000000
  0
LINE
  8
5
  6
CONTINUOUS
 62
6
 10
233.5000000000
 20
262.5000000000
 11
233.5000000000
 21
257.5000000000
  0
LINE
  8
5
  6
CONTINUOUS
 62
6
 10
233.5000000000
 20
257.5000000000
 11
233.5000000000
 21
252.5000000000
  0
LINE
  8
5
  6
CONTINUOUS
 62
6
 10
233.5000000000
 20
252.5000000000
 11
233.5000000000
 21
247.5000000000
  0
LINE
  8
5
  6
CONTINUOUS
 62
6
 10
233.5000000000
 20
247.5000000000
 11
233.5000000000
 21
242.5000000000
  0
LINE
  8
5
  6
CONTINUOUS
 62
6
 10
233.5000000000
 20
242.5000000000
 11
233.5000000000
 21
237.5000000000
  0
LINE
  8
5
  6
CONTINUOUS
 62
6
 10
320.5000000000
 20
272.5000000000
 11
320.5000000000
 21
267.5000000000
  0
LINE
  8
5
  6
CONTINUOUS
 62
6
 10
320.5000000000
 20
267.5000000000
 11
320.5000000000
 21
262.5000000000
  0
LINE
  8
5
  6
CONTINUOUS
 62
6
 10
253.5000000000
 20
267.5000000000
 11
253.5000000000
 21
262.5000000000
  0
LINE
  8
5
  6
CONTINUOUS
 62
6
 10
253.5000000000
 20
262.5000000000
 11
253.5000000000
 21
257.5000000000
  0
LINE
  8
5
  6
CONTINUOUS
 62
6
 10
253.5000000000
 20
257.5000000000
 11
253.5000000000
 21
252.5000000000
  0
LINE
  8
5
  6
CONTINUOUS
 62
6
 10
253.5000000000
 20
252.5000000000
 11
253.5000000000
 21
247.5000000000
  0
LINE
  8
5
  6
CONTINUOUS
 62
6
 10
253.5000000000
 20
247.5000000000
 11
253.5000000000
 21
242.5000000000
  0
LINE
  8
5
  6
CONTINUOUS
 62
6
 10
253.5000000000
 20
242.5000000000
 11
253.5000000000
 21
237.5000000000
  0
LINE
  8
5
  6
CONTINUOUS
 62
6
 10
340.5000000000
 20
272.5000000000
 11
340.5000000000
 21
267.5000000000
  0
LINE
  8
5
  6
CONTINUOUS
 62
6
 10
340.5000000000
 20
267.5000000000
 11
340.5000000000
 21
262.5000000000
  0
LINE
  8
5
  6
CONTINUOUS
 62
6
 10
293.5000000000
 20
267.5000000000
 11
293.5000000000
 21
262.5000000000
  0
LINE
  8
5
  6
CONTINUOUS
 62
6
 10
293.5000000000
 20
262.5000000000
 11
293.5000000000
 21
257.5000000000
  0
LINE
  8
5
  6
CONTINUOUS
 62
6
 10
293.5000000000
 20
252.5000000000
 11
293.5000000000
 21
247.5000000000
  0
LINE
  8
5
  6
CONTINUOUS
 62
6
 10
293.5000000000
 20
247.5000000000
 11
293.5000000000
 21
242.5000000000
  0
LINE
  8
5
  6
CONTINUOUS
 62
6
 10
293.5000000000
 20
242.5000000000
 11
293.5000000000
 21
237.5000000000
  0
LINE
  8
5
  6
CONTINUOUS
 62
6
 10
380.5000000000
 20
272.5000000000
 11
380.5000000000
 21
267.5000000000
  0
LINE
  8
5
  6
CONTINUOUS
 62
6
 10
380.5000000000
 20
267.5000000000
 11
380.5000000000
 21
262.5000000000
  0
LINE
  8
5
  6
CONTINUOUS
 62
6
 10
308.5000000000
 20
267.5000000000
 11
308.5000000000
 21
262.5000000000
  0
LINE
  8
5
  6
CONTINUOUS
 62
6
 10
308.5000000000
 20
262.5000000000
 11
308.5000000000
 21
257.5000000000
  0
LINE
  8
5
  6
CONTINUOUS
 62
6
 10
308.5000000000
 20
257.5000000000
 11
308.5000000000
 21
252.5000000000
  0
LINE
  8
5
  6
CONTINUOUS
 62
6
 10
308.5000000000
 20
252.5000000000
 11
308.5000000000
 21
247.5000000000
  0
LINE
  8
5
  6
CONTINUOUS
 62
6
 10
308.5000000000
 20
247.5000000000
 11
308.5000000000
 21
242.5000000000
  0
LINE
  8
5
  6
CONTINUOUS
 62
6
 10
308.5000000000
 20
242.5000000000
 11
308.5000000000
 21
237.5000000000
  0
LINE
  8
5
  6
CONTINUOUS
 62
6
 10
395.5000000000
 20
272.5000000000
 11
395.5000000000
 21
267.5000000000
  0
LINE
  8
5
  6
CONTINUOUS
 62
6
 10
395.5000000000
 20
267.5000000000
 11
395.5000000000
 21
262.5000000000
  0
LINE
  8
5
  6
CONTINUOUS
 62
6
 10
313.5000000000
 20
267.5000000000
 11
313.5000000000
 21
262.5000000000
  0
LINE
  8
5
  6
CONTINUOUS
 62
6
 10
313.5000000000
 20
262.5000000000
 11
313.5000000000
 21
257.5000000000
  0
LINE
  8
5
  6
CONTINUOUS
 62
6
 10
313.5000000000
 20
257.5000000000
 11
313.5000000000
 21
252.5000000000
  0
LINE
  8
5
  6
CONTINUOUS
 62
6
 10
313.5000000000
 20
252.5000000000
 11
313.5000000000
 21
247.5000000000
  0
LINE
  8
5
  6
CONTINUOUS
 62
6
 10
313.5000000000
 20
247.5000000000
 11
313.5000000000
 21
242.5000000000
  0
LINE
  8
5
  6
CONTINUOUS
 62
6
 10
313.5000000000
 20
242.5000000000
 11
313.5000000000
 21
237.5000000000
  0
LINE
  8
5
  6
CONTINUOUS
 62
6
 10
400.5000000000
 20
272.5000000000
 11
400.5000000000
 21
267.5000000000
  0
LINE
  8
5
  6
CONTINUOUS
 62
6
 10
400.5000000000
 20
267.5000000000
 11
400.5000000000
 21
262.5000000000
  0
LINE
  8
5
  6
CONTINUOUS
 62
6
 10
400.5000000000
 20
257.5000000000
 11
395.5000000000
 21
257.5000000000
  0
LINE
  8
5
  6
CONTINUOUS
 62
6
 10
395.5000000000
 20
257.5000000000
 11
380.5000000000
 21
257.5000000000
  0
LINE
  8
5
  6
CONTINUOUS
 62
6
 10
380.5000000000
 20
257.5000000000
 11
340.5000000000
 21
257.5000000000
  0
LINE
  8
5
  6
CONTINUOUS
 62
6
 10
340.5000000000
 20
257.5000000000
 11
320.5000000000
 21
257.5000000000
  0
LINE
  8
5
  6
CONTINUOUS
 62
6
 10
320.5000000000
 20
257.5000000000
 11
315.5000000000
 21
257.5000000000
  0
LINE
  8
5
  6
CONTINUOUS
 62
6
 10
315.5000000000
 20
257.5000000000
 11
315.5000000000
 21
262.5000000000
  0
LINE
  8
5
  6
CONTINUOUS
 62
6
 10
320.5000000000
 20
262.5000000000
 11
320.5000000000
 21
257.5000000000
  0
LINE
  8
5
  6
CONTINUOUS
 62
6
 10
340.5000000000
 20
262.5000000000
 11
340.5000000000
 21
257.5000000000
  0
LINE
  8
5
  6
CONTINUOUS
 62
6
 10
380.5000000000
 20
262.5000000000
 11
380.5000000000
 21
257.5000000000
  0
LINE
  8
5
  6
CONTINUOUS
 62
6
 10
395.5000000000
 20
262.5000000000
 11
395.5000000000
 21
257.5000000000
  0
LINE
  8
5
  6
CONTINUOUS
 62
6
 10
400.5000000000
 20
262.5000000000
 11
400.5000000000
 21
257.5000000000
  0
ENDBLK
  8
0
  0
BLOCK
  8
1
  2
BALN0
 70
     0
 10
62.7855132621
 20
63.0979767600
  3
BALN0
  0
SOLID
  8
1
  6
CONTINUOUS
 62
5
 10
64.7758146584
 20
62.9012527097
 11
64.4108028073
 21
61.9324580368
 12
62.7855132621
 22
63.0979767600
 13
62.7855132621
 23
63.0979767600
  0
LINE
  8
1
  6
BYBLOCK
 62
5
 10
62.7855132621
 20
63.0979767600
 11
86.1595079142
 21
54.2913789404
  0
CIRCLE
  8
1
  6
BYBLOCK
 62
5
 10
88.9668592991
 20
53.2336558189
 40
3.0000000000
  0
TEXT
  8
1
  6
CONTINUOUS
 62
7
 10
88.091859
 20
51.483656
 40
3.500000
  1
3
 41
1.000000
 50
0.000000
 51
0.000000
 72
   5
 73
   0
 11
89.841859
 21
51.483656
  0
ENDBLK
  8
0
  0
BLOCK
  8
1
  2
*D6
 70
     1
 10
0.0000000000
 20
0.0000000000
  3
*D6
  0
LINE
  8
1
  6
BYBLOCK
 62
5
 10
136.6727066227
 20
84.0886479334
 11
135.6888043315
 21
81.7904015843
  0
LINE
  8
1
  6
BYBLOCK
 62
5
 10
138.6405112052
 20
88.6851406317
 11
139.6244134964
 21
90.9833869808
  0
SOLID
  8
1
  6
CONTINUOUS
 62
5
 10
136.3882692562
 20
82.1089774092
 11
135.4365413754
 21
82.5164216515
 12
136.6727066227
 22
84.0886479334
 13
136.6727066227
 23
84.0886479334
  0
SOLID
  8
1
  6
CONTINUOUS
 62
5
 10
138.9249485717
 20
90.6648111559
 11
139.8766764525
 21
90.2573669135
 12
138.6405112052
 22
88.6851406317
 13
138.6405112052
 23
88.6851406317
  0
TEXT
  8
1
  6
CONTINUOUS
 62
7
 10
140.189638
 20
94.844567
 40
3.500000
  1
2-M5
 41
0.796813
 50
66.823748
 51
0.000000
 72
   5
 73
   0
 11
142.944564
 21
101.279657
  0
POINT
  8
DEFPOINTS
  6
BYBLOCK
 62
5
 10
136.6727066227
 20
84.0886479334
  0
POINT
  8
DEFPOINTS
  6
BYBLOCK
 62
5
 10
138.6405112052
 20
88.6851406317
  0
LINE
  8
1
  6
BYBLOCK
 62
5
 10
136.6727066227
 20
84.0886479334
 11
143.8638624650
 21
100.8860960213
  0
ENDBLK
  8
0
  0
BLOCK
  8
1
  2
LTEX0
 70
     0
 10
137.6566089140
 20
83.8868942825
  3
LTEX0
  0
SOLID
  8
1
  6
CONTINUOUS
 62
5
 10
137.8564563376
 20
81.8969040797
 11
136.8346867583
 21
82.0635885018
 12
137.6566089140
 22
83.8868942825
 13
137.6566089140
 23
83.8868942825
  0
TEXT
  8
1
  6
CONTINUOUS
 62
7
 10
133.619486
 20
60.139476
 40
5.000000
  1
 ⑥⑦
 41
0.880282
 50
0.000000
 51
0.000000
 72
   5
 73
   0
 11
146.119486
 21
60.139476
  0
LINE
  8
1
  6
BYBLOCK
 62
5
 10
137.6566089140
 20
83.8868942825
 11
133.6194862929
 21
59.1394761964
  0
LINE
  8
1
  6
BYBLOCK
 62
5
 10
133.6194862929
 20
59.1394761964
 11
146.1194862929
 21
59.1394761964
  0
ENDBLK
  8
0
  0
BLOCK
  8
3
  2
BALN1
 70
     0
 10
197.8371686205
 20
182.3868942825
  3
BALN1
  0
SOLID
  8
3
  6
CONTINUOUS
 62
5
 10
199.8058171889
 20
182.7396304646
 11
199.7184363829
 21
181.7080484929
 12
197.8371686205
 22
182.3868942825
 13
197.8371686205
 23
182.3868942825
  0
LINE
  8
3
  6
BYBLOCK
 62
5
 10
197.8371686205
 20
182.3868942825
 11
221.5156116517
 21
180.3811967293
  0
CIRCLE
  8
3
  6
BYBLOCK
 62
5
 10
224.5049066571
 20
180.1279865976
 40
3.0000000000
  0
TEXT
  8
3
  6
CONTINUOUS
 62
7
 10
222.754907
 20
178.377987
 40
3.500000
  1
10
 41
0.854701
 50
0.000000
 51
0.000000
 72
   5
 73
   0
 11
226.254907
 21
178.377987
  0
ENDBLK
  8
0
  0
BLOCK
  8
3
  2
BALN2
 70
     0
 10
195.8483815069
 20
155.8224521771
  3
BALN2
  0
SOLID
  8
3
  6
CONTINUOUS
 62
5
 10
197.7439738811
 20
156.4602056961
 11
197.8088894177
 21
155.4269667388
 12
195.8483815069
 22
155.8224521771
 13
195.8483815069
 23
155.8224521771
  0
LINE
  8
3
  6
BYBLOCK
 62
5
 10
195.8483815069
 20
155.8224521771
 11
221.5108100764
 21
157.4347513542
  0
CIRCLE
  8
3
  6
BYBLOCK
 62
5
 10
224.5049066571
 20
157.6228621341
 40
3.0000000000
  0
TEXT
  8
3
  6
CONTINUOUS
 62
7
 10
223.629907
 20
155.872862
 40
3.500000
  1
9
 41
1.000000
 50
0.000000
 51
0.000000
 72
   5
 73
   0
 11
225.379907
 21
155.872862
  0
ENDBLK
  8
0
  0
BLOCK
  8
3
  2
BALN3
 70
     0
 10
186.7657400491
 20
134.8868942825
  3
BALN3
  0
SOLID
  8
3
  6
CONTINUOUS
 62
5
 10
188.6152203528
 20
135.6480924210
 11
188.7480360452
 21
134.6213710559
 12
186.7657400491
 22
134.8868942825
 13
186.7657400491
 23
134.8868942825
  0
LINE
  8
3
  6
BYBLOCK
 62
5
 10
186.7657400491
 20
134.8868942825
 11
221.5296966082
 21
139.3839264043
  0
CIRCLE
  8
3
  6
BYBLOCK
 62
5
 10
224.5049066571
 20
139.7687967264
 40
3.0000000000
  0
TEXT
  8
3
  6
CONTINUOUS
 62
7
 10
222.754907
 20
138.018797
 40
3.500000
  1
11
 41
0.854701
 50
0.000000
 51
0.000000
 72
   5
 73
   0
 11
226.254907
 21
138.018797
  0
ENDBLK
  8
0
  0
BLOCK
  8
4
  2
*D7
 70
     1
 10
0.0000000000
 20
0.0000000000
  3
*D7
  0
LINE
  8
4
  6
BYBLOCK
 62
5
 10
326.8503383637
 20
189.3868942825
 11
326.8503383637
 21
201.0803431065
  0
LINE
  8
4
  6
BYBLOCK
 62
5
 10
333.3503383637
 20
192.3868942825
 11
333.3503383637
 21
201.0803431065
  0
LINE
  8
4
  6
BYBLOCK
 62
5
 10
333.3503383637
 20
200.0803431065
 11
326.8503383637
 21
200.0803431065
  0
SOLID
  8
4
  6
CONTINUOUS
 62
5
 10
328.7821900162
 20
200.5979811967
 11
328.7821900162
 21
199.5627050163
 12
326.8503383637
 22
200.0803431065
 13
326.8503383637
 23
200.0803431065
  0
SOLID
  8
4
  6
CONTINUOUS
 62
5
 10
331.4184867111
 20
199.5627050163
 11
331.4184867111
 21
200.5979811967
 12
333.3503383637
 22
200.0803431065
 13
333.3503383637
 23
200.0803431065
  0
TEXT
  8
4
  6
CONTINUOUS
 62
7
 10
327.475338
 20
201.080343
 40
3.500000
  1
6.5
 41
0.815217
 50
0.000000
 51
0.000000
 72
   5
 73
   0
 11
332.725338
 21
201.080343
  0
POINT
  8
DEFPOINTS
  6
BYBLOCK
 62
5
 10
326.8503383637
 20
188.8868942825
  0
POINT
  8
DEFPOINTS
  6
BYBLOCK
 62
5
 10
333.3503383637
 20
191.8868942825
  0
POINT
  8
DEFPOINTS
  6
BYBLOCK
 62
5
 10
333.3503383637
 20
200.0803431065
  0
ENDBLK
  8
0
  0
BLOCK
  8
4
  2
*D8
 70
     1
 10
0.0000000000
 20
0.0000000000
  3
*D8
  0
LINE
  8
4
  6
BYBLOCK
 62
5
 10
353.3503383637
 20
191.6368942825
 11
353.3503383637
 21
201.0803431065
  0
LINE
  8
4
  6
BYBLOCK
 62
5
 10
353.3503383637
 20
200.0803431065
 11
333.3503383637
 21
200.0803431065
  0
SOLID
  8
4
  6
CONTINUOUS
 62
5
 10
335.2821900162
 20
200.5979811967
 11
335.2821900162
 21
199.5627050163
 12
333.3503383637
 22
200.0803431065
 13
333.3503383637
 23
200.0803431065
  0
SOLID
  8
4
  6
CONTINUOUS
 62
5
 10
351.4184867111
 20
199.5627050163
 11
351.4184867111
 21
200.5979811967
 12
353.3503383637
 22
200.0803431065
 13
353.3503383637
 23
200.0803431065
  0
TEXT
  8
4
  6
CONTINUOUS
 62
7
 10
341.600338
 20
201.080343
 40
3.500000
  1
20
 41
0.854701
 50
0.000000
 51
0.000000
 72
   5
 73
   0
 11
345.100338
 21
201.080343
  0
POINT
  8
DEFPOINTS
  6
BYBLOCK
 62
5
 10
333.3503383637
 20
191.8868942825
  0
POINT
  8
DEFPOINTS
  6
BYBLOCK
 62
5
 10
353.3503383637
 20
191.1368942825
  0
POINT
  8
DEFPOINTS
  6
BYBLOCK
 62
5
 10
353.3503383637
 20
200.0803431065
  0
ENDBLK
  8
0
  0
BLOCK
  8
4
  2
*D9
 70
     1
 10
0.0000000000
 20
0.0000000000
  3
*D9
  0
LINE
  8
4
  6
BYBLOCK
 62
5
 10
373.3503383637
 20
192.3868942825
 11
373.3503383637
 21
201.0803431065
  0
LINE
  8
4
  6
BYBLOCK
 62
5
 10
373.3503383637
 20
200.0803431065
 11
353.3503383637
 21
200.0803431065
  0
SOLID
  8
4
  6
CONTINUOUS
 62
5
 10
355.2821900162
 20
200.5979811967
 11
355.2821900162
 21
199.5627050163
 12
353.3503383637
 22
200.0803431065
 13
353.3503383637
 23
200.0803431065
  0
SOLID
  8
4
  6
CONTINUOUS
 62
5
 10
371.4184867111
 20
199.5627050163
 11
371.4184867111
 21
200.5979811967
 12
373.3503383637
 22
200.0803431065
 13
373.3503383637
 23
200.0803431065
  0
TEXT
  8
4
  6
CONTINUOUS
 62
7
 10
361.600338
 20
201.080343
 40
3.500000
  1
20
 41
0.854701
 50
0.000000
 51
0.000000
 72
   5
 73
   0
 11
365.100338
 21
201.080343
  0
POINT
  8
DEFPOINTS
  6
BYBLOCK
 62
5
 10
353.3503383637
 20
191.1368942825
  0
POINT
  8
DEFPOINTS
  6
BYBLOCK
 62
5
 10
373.3503383637
 20
191.8868942825
  0
POINT
  8
DEFPOINTS
  6
BYBLOCK
 62
5
 10
373.3503383637
 20
200.0803431065
  0
ENDBLK
  8
0
  0
BLOCK
  8
4
  2
*D10
 70
     1
 10
0.0000000000
 20
0.0000000000
  3
*D10
  0
LINE
  8
4
  6
BYBLOCK
 62
5
 10
379.8503383637
 20
189.3868942825
 11
379.8503383637
 21
201.0803431065
  0
LINE
  8
4
  6
BYBLOCK
 62
5
 10
379.8503383637
 20
200.0803431065
 11
373.3503383637
 21
200.0803431065
  0
SOLID
  8
4
  6
CONTINUOUS
 62
5
 10
375.2821900162
 20
200.5979811967
 11
375.2821900162
 21
199.5627050163
 12
373.3503383637
 22
200.0803431065
 13
373.3503383637
 23
200.0803431065
  0
SOLID
  8
4
  6
CONTINUOUS
 62
5
 10
377.9184867111
 20
199.5627050163
 11
377.9184867111
 21
200.5979811967
 12
379.8503383637
 22
200.0803431065
 13
379.8503383637
 23
200.0803431065
  0
TEXT
  8
4
  6
CONTINUOUS
 62
7
 10
373.975338
 20
201.080343
 40
3.500000
  1
6.5
 41
0.815217
 50
0.000000
 51
0.000000
 72
   5
 73
   0
 11
379.225338
 21
201.080343
  0
POINT
  8
DEFPOINTS
  6
BYBLOCK
 62
5
 10
373.3503383637
 20
191.8868942825
  0
POINT
  8
DEFPOINTS
  6
BYBLOCK
 62
5
 10
379.8503383637
 20
188.8868942825
  0
POINT
  8
DEFPOINTS
  6
BYBLOCK
 62
5
 10
379.8503383637
 20
200.0803431065
  0
ENDBLK
  8
0
  0
BLOCK
  8
4
  2
*D11
 70
     1
 10
0.0000000000
 20
0.0000000000
  3
*D11
  0
LINE
  8
4
  6
BYBLOCK
 62
5
 10
326.8503383637
 20
201.0803431065
 11
326.8503383637
 21
208.0803431065
  0
LINE
  8
4
  6
BYBLOCK
 62
5
 10
379.8503383637
 20
189.3868942825
 11
379.8503383637
 21
208.0803431065
  0
LINE
  8
4
  6
BYBLOCK
 62
5
 10
379.8503383637
 20
207.0803431065
 11
326.8503383637
 21
207.0803431065
  0
SOLID
  8
4
  6
CONTINUOUS
 62
5
 10
328.7821900162
 20
207.5979811967
 11
328.7821900162
 21
206.5627050163
 12
326.8503383637
 22
207.0803431065
 13
326.8503383637
 23
207.0803431065
  0
SOLID
  8
4
  6
CONTINUOUS
 62
5
 10
377.9184867111
 20
206.5627050163
 11
377.9184867111
 21
207.5979811967
 12
379.8503383637
 22
207.0803431065
 13
379.8503383637
 23
207.0803431065
  0
TEXT
  8
4
  6
CONTINUOUS
 62
7
 10
351.600338
 20
208.080343
 40
3.500000
  1
53
 41
0.854701
 50
0.000000
 51
0.000000
 72
   5
 73
   0
 11
355.100338
 21
208.080343
  0
POINT
  8
DEFPOINTS
  6
BYBLOCK
 62
5
 10
326.8503383637
 20
188.8868942825
  0
POINT
  8
DEFPOINTS
  6
BYBLOCK
 62
5
 10
379.8503383637
 20
188.8868942825
  0
POINT
  8
DEFPOINTS
  6
BYBLOCK
 62
5
 10
379.8503383637
 20
207.0803431065
  0
ENDBLK
  8
0
  0
BLOCK
  8
4
  2
*D12
 70
     1
 10
0.0000000000
 20
0.0000000000
  3
*D12
  0
LINE
  8
4
  6
BYBLOCK
 62
5
 10
332.4994687391
 20
194.6222164599
 11
331.0813526981
 21
196.6810867556
  0
LINE
  8
4
  6
BYBLOCK
 62
5
 10
334.2012079882
 20
192.1515721051
 11
335.6193240292
 21
190.0927018095
  0
SOLID
  8
4
  6
CONTINUOUS
 62
5
 10
330.9773329370
 20
195.9195609015
 11
331.8299326873
 21
196.5068176048
 12
332.4994687391
 22
194.6222164599
 13
332.4994687391
 23
194.6222164599
  0
SOLID
  8
4
  6
CONTINUOUS
 62
5
 10
335.7233437903
 20
190.8542276636
 11
334.8707440400
 21
190.2669709602
 12
334.2012079882
 22
192.1515721051
 13
334.2012079882
 23
192.1515721051
  0
TEXT
  8
4
  6
CONTINUOUS
 62
7
 10
340.230503
 20
185.160934
 40
3.500000
  1
4-M3
 41
0.796813
 50
304.558432
 51
0.000000
 72
   5
 73
   0
 11
344.201228
 21
179.396097
  0
POINT
  8
DEFPOINTS
  6
BYBLOCK
 62
5
 10
332.4994687391
 20
194.6222164599
  0
POINT
  8
DEFPOINTS
  6
BYBLOCK
 62
5
 10
334.2012079882
 20
192.1515721051
  0
LINE
  8
4
  6
BYBLOCK
 62
5
 10
332.4994687391
 20
194.6222164599
 11
343.3776796291
 21
178.8288507380
  0
ENDBLK
  8
0
  0
BLOCK
  8
4
  2
*D13
 70
     1
 10
0.0000000000
 20
0.0000000000
  3
*D13
  0
LINE
  8
4
  6
BYBLOCK
 62
5
 10
351.9491405262
 20
195.1473330404
 11
350.3922540402
 21
197.1033761048
  0
LINE
  8
4
  6
BYBLOCK
 62
5
 10
354.7515362011
 20
191.6264555246
 11
356.3084226872
 21
189.6704124603
  0
SOLID
  8
4
  6
CONTINUOUS
 62
5
 10
350.3410620754
 20
196.3364855521
 11
351.1510799923
 21
196.9812085499
 12
351.9491405262
 22
195.1473330404
 13
351.9491405262
 23
195.1473330404
  0
SOLID
  8
4
  6
CONTINUOUS
 62
5
 10
356.3596146520
 20
190.4373030130
 11
355.5495967350
 21
189.7925800152
 12
354.7515362011
 22
191.6264555246
 13
354.7515362011
 23
191.6264555246
  0
TEXT
  8
4
  6
CONTINUOUS
 62
7
 10
361.375986
 20
184.909390
 40
3.500000
  1
2-φ4.5
 41
0.804598
 50
308.517570
 51
0.000000
 72
   5
 73
   0
 11
369.004730
 21
175.324779
  0
POINT
  8
DEFPOINTS
  6
BYBLOCK
 62
5
 10
351.9491405262
 20
195.1473330404
  0
POINT
  8
DEFPOINTS
  6
BYBLOCK
 62
5
 10
354.7515362011
 20
191.6264555246
  0
LINE
  8
4
  6
BYBLOCK
 62
5
 10
351.9491405262
 20
195.1473330404
 11
368.2223124502
 21
174.7020241744
  0
ENDBLK
  8
0
  0
BLOCK
  8
1
  2
*D14
 70
     1
 10
0.0000000000
 20
0.0000000000
  3
*D14
  0
LINE
  8
1
  6
BYBLOCK
 62
5
 10
374.3503383637
 20
76.3868942825
 11
313.6544720806
 21
76.3868942825
  0
LINE
  8
1
  6
BYBLOCK
 62
5
 10
326.3503383637
 20
80.8868942825
 11
313.6544720806
 21
80.8868942825
  0
LINE
  8
1
  6
BYBLOCK
 62
5
 10
314.6544720806
 20
83.3868942825
 11
314.6544720806
 21
73.8868942825
  0
SOLID
  8
1
  6
CONTINUOUS
 62
5
 10
315.1721101708
 20
74.4550426299
 11
314.1368339904
 21
74.4550426299
 12
314.6544720806
 22
76.3868942825
 13
314.6544720806
 23
76.3868942825
  0
SOLID
  8
1
  6
CONTINUOUS
 62
5
 10
314.1368339904
 20
82.8187459351
 11
315.1721101708
 21
82.8187459351
 12
314.6544720806
 22
80.8868942825
 13
314.6544720806
 23
80.8868942825
  0
TEXT
  8
1
  6
CONTINUOUS
 62
7
 10
313.654472
 20
76.386894
 40
3.000000
  1
4.5
 41
0.815217
 50
90.000000
 51
0.000000
 72
   5
 73
   0
 11
313.654472
 21
80.886894
  0
POINT
  8
DEFPOINTS
  6
BYBLOCK
 62
5
 10
374.8503383637
 20
76.3868942825
  0
POINT
  8
DEFPOINTS
  6
BYBLOCK
 62
5
 10
326.8503383637
 20
80.8868942825
  0
POINT
  8
DEFPOINTS
  6
BYBLOCK
 62
5
 10
314.6544720806
 20
80.8868942825
  0
ENDBLK
  8
0
  0
BLOCK
  8
1
  2
*D15
 70
     1
 10
0.0000000000
 20
0.0000000000
  3
*D15
  0
LINE
  8
1
  6
BYBLOCK
 62
5
 10
326.3503383637
 20
188.8868942825
 11
313.6544720806
 21
188.8868942825
  0
LINE
  8
1
  6
BYBLOCK
 62
5
 10
314.6544720806
 20
188.8868942825
 11
314.6544720806
 21
80.8868942825
  0
SOLID
  8
1
  6
CONTINUOUS
 62
5
 10
314.1368339904
 20
82.8187459351
 11
315.1721101708
 21
82.8187459351
 12
314.6544720806
 22
80.8868942825
 13
314.6544720806
 23
80.8868942825
  0
SOLID
  8
1
  6
CONTINUOUS
 62
5
 10
315.1721101708
 20
186.9550426299
 11
314.1368339904
 21
186.9550426299
 12
314.6544720806
 22
188.8868942825
 13
314.6544720806
 23
188.8868942825
  0
TEXT
  8
1
  6
CONTINUOUS
 62
7
 10
313.654472
 20
132.261894
 40
3.500000
  1
108
 41
0.815217
 50
90.000000
 51
0.000000
 72
   5
 73
   0
 11
313.654472
 21
137.511894
  0
POINT
  8
DEFPOINTS
  6
BYBLOCK
 62
5
 10
326.8503383637
 20
80.8868942825
  0
POINT
  8
DEFPOINTS
  6
BYBLOCK
 62
5
 10
326.8503383637
 20
188.8868942825
  0
POINT
  8
DEFPOINTS
  6
BYBLOCK
 62
5
 10
314.6544720806
 20
188.8868942825
  0
ENDBLK
  8
0
  0
BLOCK
  8
1
  2
*D16
 70
     1
 10
0.0000000000
 20
0.0000000000
  3
*D16
  0
LINE
  8
1
  6
BYBLOCK
 62
5
 10
374.3503383637
 20
193.3868942825
 11
313.6544720806
 21
193.3868942825
  0
LINE
  8
1
  6
BYBLOCK
 62
5
 10
314.6544720806
 20
195.8868942825
 11
314.6544720806
 21
186.3868942825
  0
SOLID
  8
1
  6
CONTINUOUS
 62
5
 10
315.1721101708
 20
186.9550426299
 11
314.1368339904
 21
186.9550426299
 12
314.6544720806
 22
188.8868942825
 13
314.6544720806
 23
188.8868942825
  0
SOLID
  8
1
  6
CONTINUOUS
 62
5
 10
314.1368339904
 20
195.3187459351
 11
315.1721101708
 21
195.3187459351
 12
314.6544720806
 22
193.3868942825
 13
314.6544720806
 23
193.3868942825
  0
TEXT
  8
1
  6
CONTINUOUS
 62
7
 10
312.654472
 20
188.886895
 40
3.000000
  1
4.5
 41
0.815217
 50
90.000000
 51
0.000000
 72
   5
 73
   0
 11
312.654472
 21
193.386895
  0
POINT
  8
DEFPOINTS
  6
BYBLOCK
 62
5
 10
326.8503383637
 20
188.8868942825
  0
POINT
  8
DEFPOINTS
  6
BYBLOCK
 62
5
 10
374.8503383637
 20
193.3868942825
  0
POINT
  8
DEFPOINTS
  6
BYBLOCK
 62
5
 10
314.6544720806
 20
193.3868942825
  0
ENDBLK
  8
0
  0
BLOCK
  8
1
  2
*D17
 70
     1
 10
0.0000000000
 20
0.0000000000
  3
*D17
  0
LINE
  8
1
  6
BYBLOCK
 62
5
 10
313.6544720806
 20
76.3868942825
 11
306.6544720806
 21
76.3868942825
  0
LINE
  8
1
  6
BYBLOCK
 62
5
 10
374.3503383637
 20
193.3868942825
 11
306.6544720806
 21
193.3868942825
  0
LINE
  8
1
  6
BYBLOCK
 62
5
 10
307.6544720806
 20
193.3868942825
 11
307.6544720806
 21
76.3868942825
  0
SOLID
  8
1
  6
CONTINUOUS
 62
5
 10
307.1368339904
 20
78.3187459351
 11
308.1721101708
 21
78.3187459351
 12
307.6544720806
 22
76.3868942825
 13
307.6544720806
 23
76.3868942825
  0
SOLID
  8
1
  6
CONTINUOUS
 62
5
 10
308.1721101708
 20
191.4550426299
 11
307.1368339904
 21
191.4550426299
 12
307.6544720806
 22
193.3868942825
 13
307.6544720806
 23
193.3868942825
  0
TEXT
  8
1
  6
CONTINUOUS
 62
7
 10
306.654472
 20
132.261894
 40
3.500000
  1
117
 41
0.815217
 50
90.000000
 51
0.000000
 72
   5
 73
   0
 11
306.654472
 21
137.511894
  0
POINT
  8
DEFPOINTS
  6
BYBLOCK
 62
5
 10
374.8503383637
 20
76.3868942825
  0
POINT
  8
DEFPOINTS
  6
BYBLOCK
 62
5
 10
374.8503383637
 20
193.3868942825
  0
POINT
  8
DEFPOINTS
  6
BYBLOCK
 62
5
 10
307.6544720806
 20
193.3868942825
  0
ENDBLK
  8
0
  0
BLOCK
  8
1
  2
*D18
 70
     1
 10
0.0000000000
 20
0.0000000000
  3
*D18
  0
LINE
  8
1
  6
BYBLOCK
 62
5
 10
388.3503383637
 20
60.6368942825
 11
396.4935724266
 21
60.6368942825
  0
LINE
  8
1
  6
BYBLOCK
 62
5
 10
380.3503383637
 20
80.8868942825
 11
396.4935724266
 21
80.8868942825
  0
LINE
  8
1
  6
BYBLOCK
 62
5
 10
395.4935724266
 20
80.8868942825
 11
395.4935724266
 21
60.6368942825
  0
SOLID
  8
1
  6
CONTINUOUS
 62
5
 10
394.9759343364
 20
62.5687459351
 11
396.0112105168
 21
62.5687459351
 12
395.4935724266
 22
60.6368942825
 13
395.4935724266
 23
60.6368942825
  0
SOLID
  8
1
  6
CONTINUOUS
 62
5
 10
396.0112105168
 20
78.9550426299
 11
394.9759343364
 21
78.9550426299
 12
395.4935724266
 22
80.8868942825
 13
395.4935724266
 23
80.8868942825
  0
TEXT
  8
1
  6
CONTINUOUS
 62
7
 10
394.493572
 20
66.386894
 40
3.500000
  1
20.25
 41
0.786164
 50
90.000000
 51
0.000000
 72
   5
 73
   0
 11
394.493572
 21
75.136894
  0
POINT
  8
DEFPOINTS
  6
BYBLOCK
 62
5
 10
387.8503383637
 20
60.6368942825
  0
POINT
  8
DEFPOINTS
  6
BYBLOCK
 62
5
 10
379.8503383637
 20
80.8868942825
  0
POINT
  8
DEFPOINTS
  6
BYBLOCK
 62
5
 10
395.4935724266
 20
80.8868942825
  0
ENDBLK
  8
0
  0
BLOCK
  8
1
  2
*D19
 70
     1
 10
0.0000000000
 20
0.0000000000
  3
*D19
  0
LINE
  8
1
  6
BYBLOCK
 62
5
 10
380.3503383637
 20
188.8868942825
 11
396.4935724266
 21
188.8868942825
  0
LINE
  8
1
  6
BYBLOCK
 62
5
 10
395.4935724266
 20
188.8868942825
 11
395.4935724266
 21
80.8868942825
  0
SOLID
  8
1
  6
CONTINUOUS
 62
5
 10
394.9759343364
 20
82.8187459351
 11
396.0112105168
 21
82.8187459351
 12
395.4935724266
 22
80.8868942825
 13
395.4935724266
 23
80.8868942825
  0
SOLID
  8
1
  6
CONTINUOUS
 62
5
 10
396.0112105168
 20
186.9550426299
 11
394.9759343364
 21
186.9550426299
 12
395.4935724266
 22
188.8868942825
 13
395.4935724266
 23
188.8868942825
  0
TEXT
  8
1
  6
CONTINUOUS
 62
7
 10
394.493572
 20
132.261894
 40
3.500000
  1
108
 41
0.815217
 50
90.000000
 51
0.000000
 72
   5
 73
   0
 11
394.493572
 21
137.511894
  0
POINT
  8
DEFPOINTS
  6
BYBLOCK
 62
5
 10
379.8503383637
 20
80.8868942825
  0
POINT
  8
DEFPOINTS
  6
BYBLOCK
 62
5
 10
379.8503383637
 20
188.8868942825
  0
POINT
  8
DEFPOINTS
  6
BYBLOCK
 62
5
 10
395.4935724266
 20
188.8868942825
  0
ENDBLK
  8
0
  0
BLOCK
  8
1
  2
*D20
 70
     1
 10
0.0000000000
 20
0.0000000000
  3
*D20
  0
LINE
  8
1
  6
BYBLOCK
 62
5
 10
388.3503383637
 20
216.1368942825
 11
396.4935724266
 21
216.1368942825
  0
LINE
  8
1
  6
BYBLOCK
 62
5
 10
395.4935724266
 20
216.1368942825
 11
395.4935724266
 21
188.8868942825
  0
SOLID
  8
1
  6
CONTINUOUS
 62
5
 10
394.9759343364
 20
190.8187459351
 11
396.0112105168
 21
190.8187459351
 12
395.4935724266
 22
188.8868942825
 13
395.4935724266
 23
188.8868942825
  0
SOLID
  8
1
  6
CONTINUOUS
 62
5
 10
396.0112105168
 20
214.2050426299
 11
394.9759343364
 21
214.2050426299
 12
395.4935724266
 22
216.1368942825
 13
395.4935724266
 23
216.1368942825
  0
TEXT
  8
1
  6
CONTINUOUS
 62
7
 10
394.493572
 20
198.136894
 40
3.500000
  1
27.25
 41
0.786164
 50
90.000000
 51
0.000000
 72
   5
 73
   0
 11
394.493572
 21
206.886894
  0
POINT
  8
DEFPOINTS
  6
BYBLOCK
 62
5
 10
379.8503383637
 20
188.8868942825
  0
POINT
  8
DEFPOINTS
  6
BYBLOCK
 62
5
 10
387.8503383637
 20
216.1368942825
  0
POINT
  8
DEFPOINTS
  6
BYBLOCK
 62
5
 10
395.4935724266
 20
216.1368942825
  0
ENDBLK
  8
0
  0
BLOCK
  8
1
  2
LTEX1
 70
     0
 10
331.7046796930
 20
60.6368942825
  3
LTEX1
  0
SOLID
  8
1
  6
CONTINUOUS
 62
5
 10
332.5269233009
 20
62.4600551227
 11
333.3283439657
 21
61.8046760814
 12
331.7046796930
 22
60.6368942825
 13
331.7046796930
 23
60.6368942825
  0
TEXT
  8
1
  6
CONTINUOUS
 62
7
 10
336.200181
 20
67.134153
 40
2.500000
  1
製品外形
 41
0.886918
 50
0.000000
 51
0.000000
 72
   5
 73
   0
 11
346.200181
 21
67.134153
  0
LINE
  8
1
  6
BYBLOCK
 62
5
 10
331.7046796930
 20
60.6368942825
 11
336.2001814231
 21
66.1341527508
  0
LINE
  8
1
  6
BYBLOCK
 62
5
 10
336.2001814231
 20
66.1341527508
 11
346.2001814231
 21
66.1341527508
  0
ENDBLK
  8
0
  0
BLOCK
  8
3
  2
BALN4
 70
     0
 10
125.2794223691
 20
210.9687949083
  3
BALN4
  0
SOLID
  8
3
  6
CONTINUOUS
 62
5
 10
124.9964182488
 20
212.9486708306
 11
126.0242715727
 21
212.8249198135
 12
125.2794223691
 22
210.9687949083
 13
125.2794223691
 23
210.9687949083
  0
LINE
  8
3
  6
BYBLOCK
 62
5
 10
125.2794223691
 20
210.9687949083
 11
126.1450336635
 21
218.1584040689
  0
CIRCLE
  8
3
  6
BYBLOCK
 62
5
 10
126.5036365738
 20
221.1368942825
 40
3.0000000000
  0
TEXT
  8
3
  6
CONTINUOUS
 62
7
 10
125.628637
 20
219.386894
 40
3.500000
  1
1
 41
1.000000
 50
0.000000
 51
0.000000
 72
   5
 73
   0
 11
127.378637
 21
219.386894
  0
ENDBLK
  8
0
  0
BLOCK
  8
3
  2
BALN5
 70
     0
 10
106.3252681392
 20
198.0515469823
  3
BALN5
  0
SOLID
  8
3
  6
CONTINUOUS
 62
5
 10
105.3140684404
 20
199.7770831799
 11
106.3123116105
 21
200.0515050140
 12
106.3252681392
 22
198.0515469823
 13
106.3252681392
 23
198.0515469823
  0
LINE
  8
3
  6
BYBLOCK
 62
5
 10
106.3252681392
 20
198.0515469823
 11
100.7742088817
 21
218.2442077057
  0
CIRCLE
  8
3
  6
BYBLOCK
 62
5
 10
99.9789954712
 20
221.1368942825
 40
3.0000000000
  0
TEXT
  8
3
  6
CONTINUOUS
 62
7
 10
99.103995
 20
219.386894
 40
3.500000
  1
2
 41
1.000000
 50
0.000000
 51
0.000000
 72
   5
 73
   0
 11
100.853995
 21
219.386894
  0
ENDBLK
  8
0
  0
BLOCK
  8
3
  2
BALN6
 70
     0
 10
163.3371686205
 20
193.3868942825
  3
BALN6
  0
SOLID
  8
3
  6
CONTINUOUS
 62
5
 10
163.1206936226
 20
195.3751444115
 11
164.1438208375
 21
195.2170069022
 12
163.3371686205
 22
193.3868942825
 13
163.3371686205
 23
193.3868942825
  0
LINE
  8
3
  6
BYBLOCK
 62
5
 10
163.3371686205
 20
193.3868942825
 11
167.1680417782
 21
218.1720992811
  0
CIRCLE
  8
3
  6
BYBLOCK
 62
5
 10
167.6262890910
 20
221.1368942825
 40
3.0000000000
  0
TEXT
  8
3
  6
CONTINUOUS
 62
7
 10
166.751289
 20
219.386894
 40
3.500000
  1
4
 41
1.000000
 50
0.000000
 51
0.000000
 72
   5
 73
   0
 11
168.501289
 21
219.386894
  0
ENDBLK
  8
0
  0
BLOCK
  8
3
  2
BALN7
 70
     0
 10
183.3371686205
 20
197.2868942825
  3
BALN7
  0
SOLID
  8
3
  6
CONTINUOUS
 62
5
 10
183.3179244812
 20
199.2868016961
 11
184.3204564138
 21
199.0284869775
 12
183.3371686205
 22
197.2868942825
 13
183.3371686205
 23
197.2868942825
  0
LINE
  8
3
  6
BYBLOCK
 62
5
 10
183.3371686205
 20
197.2868942825
 11
188.7338767341
 21
218.2317798264
  0
CIRCLE
  8
3
  6
BYBLOCK
 62
5
 10
189.4824153081
 20
221.1368942825
 40
3.0000000000
  0
TEXT
  8
3
  6
CONTINUOUS
 62
7
 10
188.607415
 20
219.386894
 40
3.500000
  1
5
 41
1.000000
 50
0.000000
 51
0.000000
 72
   5
 73
   0
 11
190.357415
 21
219.386894
  0
ENDBLK
  8
0
  0
BLOCK
  8
3
  2
BALN8
 70
     0
 10
204.0538270525
 20
183.4190997007
  3
BALN8
  0
SOLID
  8
3
  6
CONTINUOUS
 62
5
 10
204.0609799289
 20
185.4190869098
 11
205.0600152297
 21
185.1475629928
 12
204.0538270525
 22
183.4190997007
 13
204.0538270525
 23
183.4190997007
  0
LINE
  8
3
  6
BYBLOCK
 62
5
 10
204.0538270525
 20
183.4190997007
 11
213.5181837818
 21
218.2419122872
  0
CIRCLE
  8
3
  6
BYBLOCK
 62
5
 10
214.3049996733
 20
221.1368942825
 40
3.0000000000
  0
TEXT
  8
3
  6
CONTINUOUS
 62
7
 10
213.430000
 20
219.386894
 40
3.500000
  1
8
 41
1.000000
 50
0.000000
 51
0.000000
 72
   5
 73
   0
 11
215.180000
 21
219.386894
  0
ENDBLK
  8
0
  0
BLOCK
  8
3
  2
BALN9
 70
     0
 10
247.0805023421
 20
179.6153505027
  3
BALN9
  0
SOLID
  8
3
  6
CONTINUOUS
 62
5
 10
246.0375909721
 20
181.3219072331
 11
247.0305929670
 21
181.6147276693
 12
247.0805023421
 22
179.6153505027
 13
247.0805023421
 23
179.6153505027
  0
LINE
  8
3
  6
BYBLOCK
 62
5
 10
247.0805023421
 20
179.6153505027
 11
235.6849903923
 21
218.2593954652
  0
CIRCLE
  8
3
  6
BYBLOCK
 62
5
 10
234.8364619272
 20
221.1368942825
 40
3.0000000000
  0
TEXT
  8
3
  6
CONTINUOUS
 62
7
 10
233.086462
 20
219.386894
 40
3.500000
  1
12
 41
0.854701
 50
0.000000
 51
0.000000
 72
   5
 73
   0
 11
236.586462
 21
219.386894
  0
ENDBLK
  8
0
  0
BLOCK
  8
3
  2
BALN10
 70
     0
 10
282.5805023421
 20
172.4734655070
  3
BALN10
  0
SOLID
  8
3
  6
CONTINUOUS
 62
5
 10
281.9492711304
 20
174.3712397711
 11
282.9827272091
 21
174.4326018362
 12
282.5805023421
 22
172.4734655070
 13
282.5805023421
 23
172.4734655070
  0
LINE
  8
3
  6
BYBLOCK
 62
5
 10
282.5805023421
 20
172.4734655070
 11
279.8688961241
 21
218.1421685322
  0
CIRCLE
  8
3
  6
BYBLOCK
 62
5
 10
279.6910825137
 20
221.1368942825
 40
3.0000000000
  0
TEXT
  8
3
  6
CONTINUOUS
 62
7
 10
277.941083
 20
219.386894
 40
3.500000
  1
13
 41
0.854701
 50
0.000000
 51
0.000000
 72
   5
 73
   0
 11
281.441083
 21
219.386894
  0
ENDBLK
  8
0
  0
BLOCK
  8
1
  2
S2
 70
     0
 10
156.7563347672
 20
255.8072901734
  3
S2
  0
LINE
  8
1
  6
CONTINUOUS
 62
6
 10
159.2563347672
 20
253.8072901734
 11
154.2563347672
 21
253.8072901734
  0
TEXT
  8
1
  6
CONTINUOUS
 62
6
 10
155.705285
 20
253.428963
 40
3.300000
  1
B
 41
1.274000
 50
0.000000
 51
0.000000
 72
   5
 73
   0
 11
157.807385
 21
253.428963
  0
LINE
  8
1
  6
CONTINUOUS
 62
6
 10
156.7563347672
 20
257.8072901734
 11
154.2563347672
 21
253.8072901734
  0
LINE
  8
1
  6
CONTINUOUS
 62
6
 10
156.7563347672
 20
257.8072901734
 11
159.2563347672
 21
253.8072901734
  0
POINT
  8
1
  6
CONTINUOUS
 62
6
 10
156.7563347672
 20
255.8072901734
  0
ENDBLK
  8
0
  0
BLOCK
  8
1
  2
S3
 70
     0
 10
8.9999999999
 20
262.0000000000
  3
S3
  0
LINE
  8
1
  6
CONTINUOUS
 62
6
 10
11.4999999999
 20
260.0000000000
 11
6.4999999999
 21
260.0000000000
  0
TEXT
  8
1
  6
CONTINUOUS
 62
6
 10
7.948950
 20
259.621673
 40
3.300000
  1
B
 41
1.274000
 50
0.000000
 51
0.000000
 72
   5
 73
   0
 11
10.051050
 21
259.621673
  0
LINE
  8
1
  6
CONTINUOUS
 62
6
 10
8.9999999999
 20
264.0000000000
 11
6.4999999999
 21
260.0000000000
  0
LINE
  8
1
  6
CONTINUOUS
 62
6
 10
8.9999999999
 20
264.0000000000
 11
11.4999999999
 21
260.0000000000
  0
POINT
  8
1
  6
CONTINUOUS
 62
6
 10
8.9999999999
 20
262.0000000000
  0
ENDBLK
  8
0
  0
BLOCK
  8
1
  2
S4
 70
     0
 10
224.6134051766
 20
267.5926896134
  3
S4
  0
LINE
  8
1
  6
CONTINUOUS
 62
6
 10
227.1134051766
 20
265.5926896134
 11
222.1134051766
 21
265.5926896133
  0
TEXT
  8
1
  6
CONTINUOUS
 62
6
 10
223.562355
 20
265.214362
 40
3.300000
  1
B
 41
1.274000
 50
0.000000
 51
0.000000
 72
   5
 73
   0
 11
225.664455
 21
265.214362
  0
LINE
  8
1
  6
CONTINUOUS
 62
6
 10
224.6134051766
 20
269.5926896134
 11
222.1134051766
 21
265.5926896133
  0
LINE
  8
1
  6
CONTINUOUS
 62
6
 10
224.6134051766
 20
269.5926896134
 11
227.1134051766
 21
265.5926896134
  0
POINT
  8
1
  6
CONTINUOUS
 62
6
 10
224.6134051766
 20
267.5926896134
  0
ENDBLK
  8
0
  0
BLOCK
  8
1
  2
S5
 70
     0
 10
134.9630154338
 20
34.5440983452
  3
S5
  0
LINE
  8
1
  6
CONTINUOUS
 62
6
 10
137.4630154338
 20
32.5440983452
 11
132.4630154338
 21
32.5440983451
  0
TEXT
  8
1
  6
CONTINUOUS
 62
6
 10
133.911965
 20
32.165771
 40
3.300000
  1
B
 41
1.274000
 50
0.000000
 51
0.000000
 72
   5
 73
   0
 11
136.014065
 21
32.165771
  0
LINE
  8
1
  6
CONTINUOUS
 62
6
 10
134.9630154338
 20
36.5440983452
 11
132.4630154338
 21
32.5440983451
  0
LINE
  8
1
  6
CONTINUOUS
 62
6
 10
134.9630154338
 20
36.5440983452
 11
137.4630154338
 21
32.5440983452
  0
POINT
  8
1
  6
CONTINUOUS
 62
6
 10
134.9630154338
 20
34.5440983452
  0
ENDBLK
  8
0
  0
BLOCK
  8
3
  2
LTEX2
 70
     0
 10
132.2724486543
 20
82.7949292581
  3
LTEX2
  0
SOLID
  8
3
  6
CONTINUOUS
 62
5
 10
132.7470395393
 20
80.8520541999
 11
131.7120188880
 21
80.8750546588
 12
132.2724486543
 22
82.7949292581
 13
132.2724486543
 23
82.7949292581
  0
TEXT
  8
3
  6
CONTINUOUS
 62
7
 10
131.016851
 20
27.293027
 40
3.500000
  1
 PBT品はｱｰｽ部(2箇所) は無いです
 41
0.820106
 50
0.000000
 51
0.000000
 72
   5
 73
   0
 11
185.266851
 21
27.293027
  0
LINE
  8
3
  6
BYBLOCK
 62
5
 10
132.2724486543
 20
82.7949292581
 11
131.0168508238
 21
26.2930268879
  0
LINE
  8
3
  6
BYBLOCK
 62
5
 10
131.0168508238
 20
26.2930268879
 11
185.2668508238
 21
26.2930268879
  0
ENDBLK
  8
0
  0
BLOCK
  8
3
  2
LTEX3
 70
     0
 10
85.9407258647
 20
13.3783063462
  3
LTEX3
  0
SOLID
  8
3
  6
CONTINUOUS
 62
5
 10
87.6552853281
 20
14.4080081702
 11
87.9404288284
 21
13.4127745524
 12
85.9407258647
 22
13.3783063462
 13
85.9407258647
 23
13.3783063462
  0
TEXT
  8
3
  6
CONTINUOUS
 62
7
 10
131.016851
 20
27.293027
 40
3.500000
  1
 
 41
1.000000
 50
0.000000
 51
0.000000
 72
   5
 73
   0
 11
132.766851
 21
27.293027
  0
LINE
  8
3
  6
BYBLOCK
 62
5
 10
85.9407258647
 20
13.3783063462
 11
131.0168508238
 21
26.2930268879
  0
LINE
  8
3
  6
BYBLOCK
 62
5
 10
131.0168508238
 20
26.2930268879
 11
132.7668508238
 21
26.2930268879
  0
ENDBLK
  8
0
  0
BLOCK
  8
3
  2
LTEX4
 70
     0
 10
36.9407258647
 20
14.8132752953
  3
LTEX4
  0
SOLID
  8
3
  6
CONTINUOUS
 62
5
 10
38.7956528463
 20
15.5611027439
 11
38.9210534773
 21
14.5334493726
 12
36.9407258647
 22
14.8132752953
 13
36.9407258647
 23
14.8132752953
  0
TEXT
  8
3
  6
CONTINUOUS
 62
7
 10
131.016851
 20
27.293027
 40
3.500000
  1
 
 41
1.000000
 50
0.000000
 51
0.000000
 72
   5
 73
   0
 11
132.766851
 21
27.293027
  0
LINE
  8
3
  6
BYBLOCK
 62
5
 10
36.9407258647
 20
14.8132752953
 11
131.0168508238
 21
26.2930268879
  0
LINE
  8
3
  6
BYBLOCK
 62
5
 10
131.0168508238
 20
26.2930268879
 11
132.7668508238
 21
26.2930268879
  0
ENDBLK
  8
0
  0
BLOCK
  8
1
  2
S6
 70
     0
 10
8.9999999999
 20
267.0000000000
  3
S6
  0
LINE
  8
1
  6
CONTINUOUS
 62
6
 10
11.4999999999
 20
265.0000000000
 11
6.4999999999
 21
265.0000000000
  0
TEXT
  8
1
  6
CONTINUOUS
 62
6
 10
7.904400
 20
264.621673
 40
3.300000
  1
C
 41
1.328000
 50
0.000000
 51
0.000000
 72
   5
 73
   0
 11
10.095600
 21
264.621673
  0
LINE
  8
1
  6
CONTINUOUS
 62
6
 10
8.9999999999
 20
269.0000000000
 11
6.4999999999
 21
265.0000000000
  0
LINE
  8
1
  6
CONTINUOUS
 62
6
 10
8.9999999999
 20
269.0000000000
 11
11.4999999999
 21
265.0000000000
  0
POINT
  8
1
  6
CONTINUOUS
 62
6
 10
8.9999999999
 20
267.0000000000
  0
ENDBLK
  8
0
  0
BLOCK
  8
1
  2
S7
 70
     0
 10
141.0317971118
 20
260.4582097616
  3
S7
  0
LINE
  8
1
  6
CONTINUOUS
 62
6
 10
143.5317971118
 20
258.4582097616
 11
138.5317971118
 21
258.4582097616
  0
TEXT
  8
1
  6
CONTINUOUS
 62
6
 10
139.936197
 20
258.079882
 40
3.300000
  1
C
 41
1.328000
 50
0.000000
 51
0.000000
 72
   5
 73
   0
 11
142.127397
 21
258.079882
  0
LINE
  8
1
  6
CONTINUOUS
 62
6
 10
141.0317971118
 20
262.4582097616
 11
138.5317971118
 21
258.4582097616
  0
LINE
  8
1
  6
CONTINUOUS
 62
6
 10
141.0317971118
 20
262.4582097616
 11
143.5317971118
 21
258.4582097616
  0
POINT
  8
1
  6
CONTINUOUS
 62
6
 10
141.0317971118
 20
260.4582097616
  0
ENDBLK
  8
0
  0
ENDSEC
  0
SECTION
  2
ENTITIES
  0
LINE
  8
1
  6
CONTINUOUS
 62
7
 10
93.4407258647
 20
61.6368942825
 11
93.4407258647
 21
205.5118942825
  0
LINE
  8
1
  6
CONTINUOUS
 62
7
 10
26.4407258647
 20
205.5118942825
 11
26.4407258647
 21
61.6368942825
  0
LINE
  8
1
  6
CONTINUOUS
 62
7
 10
94.4407258647
 20
60.6368942825
 11
94.4407258647
 21
216.1368942825
  0
LINE
  8
1
  6
CONTINUOUS
 62
7
 10
25.4407258647
 20
216.1368942825
 11
25.4407258647
 21
60.6368942825
  0
LINE
  8
1
  6
DASHDOT
 62
1
 10
99.4407258647
 20
209.1368942825
 11
20.4407258647
 21
209.1368942825
  0
LINE
  8
1
  6
CONTINUOUS
 62
7
 10
94.4407258647
 20
60.6368942825
 11
74.4032290241
 21
60.6368942825
  0
LINE
  8
1
  6
CONTINUOUS
 62
7
 10
45.4782227053
 20
60.6368942825
 11
25.4407258647
 21
60.6368942825
  0
LINE
  8
1
  6
CONTINUOUS
 62
7
 10
26.4407258647
 20
61.6368942825
 11
43.2421547278
 21
61.6368942825
  0
LINE
  8
1
  6
CONTINUOUS
 62
7
 10
76.6392970016
 20
61.6368942825
 11
93.4407258647
 21
61.6368942825
  0
LINE
  8
1
  6
CONTINUOUS
 62
7
 10
118.6566089140
 20
203.1368942825
 11
118.6566089140
 21
61.6368942825
  0
CIRCLE
  8
1
  6
CONTINUOUS
 62
7
 10
115.6566089140
 20
209.1368942825
 40
2.0000000000
  0
ARC
  8
1
  6
CONTINUOUS
 62
7
 10
115.6566089140
 20
209.1368942825
 40
6.0000000000
 50
90.0000000000
 51
270.0000000000
  0
LINE
  8
1
  6
CONTINUOUS
 62
7
 10
118.6566089140
 20
203.1368942825
 11
115.6566089140
 21
203.1368942825
  0
LINE
  8
1
  6
CONTINUOUS
 62
7
 10
118.6566089140
 20
215.1368942825
 11
115.6566089140
 21
215.1368942825
  0
LINE
  8
1
  6
CONTINUOUS
 62
7
 10
127.6566089140
 20
216.1368942825
 11
127.6566089140
 21
60.6368942825
  0
LINE
  8
1
  6
CONTINUOUS
 62
7
 10
26.4407258647
 20
203.1368942825
 11
26.4407258647
 21
215.1368942825
  0
LINE
  8
1
  6
CONTINUOUS
 62
7
 10
26.4407258647
 20
215.1368942825
 11
31.4407258647
 21
215.1368942825
  0
LINE
  8
1
  6
CONTINUOUS
 62
7
 10
31.4407258647
 20
215.1368942825
 11
31.4407258647
 21
203.1368942825
  0
LINE
  8
1
  6
CONTINUOUS
 62
7
 10
31.4407258647
 20
203.1368942825
 11
26.4407258647
 21
203.1368942825
  0
LINE
  8
1
  6
CONTINUOUS
 62
7
 10
93.4407258647
 20
215.1368942825
 11
88.4407258647
 21
215.1368942825
  0
LINE
  8
1
  6
CONTINUOUS
 62
7
 10
88.4407258647
 20
215.1368942825
 11
88.4407258647
 21
203.1368942825
  0
LINE
  8
1
  6
CONTINUOUS
 62
7
 10
88.4407258647
 20
203.1368942825
 11
93.4407258647
 21
203.1368942825
  0
LINE
  8
1
  6
CONTINUOUS
 62
7
 10
93.4407258647
 20
203.1368942825
 11
93.4407258647
 21
215.1368942825
  0
LINE
  8
1
  6
CONTINUOUS
 62
7
 10
88.4407258647
 20
203.1368942825
 11
88.4407258647
 21
202.1368942825
  0
LINE
  8
1
  6
CONTINUOUS
 62
7
 10
31.4407258647
 20
202.1368942825
 11
31.4407258647
 21
203.1368942825
  0
LINE
  8
1
  6
CONTINUOUS
 62
7
 10
94.4407258647
 20
216.1368942825
 11
25.4407258647
 21
216.1368942825
  0
LINE
  8
1
  6
CONTINUOUS
 62
7
 10
94.4407258647
 20
23.5827940853
 11
25.4407258647
 21
23.5827940853
  0
LINE
  8
1
  6
CONTINUOUS
 62
7
 10
26.4407258647
 20
32.5827940853
 11
93.4407258647
 21
32.5827940853
  0
LINE
  8
1
  6
CONTINUOUS
 62
7
 10
127.6566089140
 20
60.6368942825
 11
118.6566089140
 21
61.6368942825
  0
LINE
  8
1
  6
CONTINUOUS
 62
7
 10
127.6566089140
 20
216.1368942825
 11
118.6566089140
 21
215.1368942825
  0
LINE
  8
1
  6
CONTINUOUS
 62
7
 10
26.4407258647
 20
32.5827940853
 11
25.4407258647
 21
23.5827940853
  0
LINE
  8
1
  6
CONTINUOUS
 62
7
 10
93.4407258647
 20
32.5827940853
 11
94.4407258647
 21
23.5827940853
  0
LINE
  8
1
  6
HIDDEN
 62
7
 10
118.6566089140
 20
202.1368942825
 11
122.1566089140
 21
202.1368942825
  0
LINE
  8
1
  6
HIDDEN
 62
7
 10
122.1566089140
 20
202.1368942825
 11
122.1566089140
 21
215.5257831714
  0
LINE
  8
1
  6
HIDDEN
 62
7
 10
32.4407258647
 20
29.5827940853
 11
32.4407258647
 21
32.5827940853
  0
LINE
  8
1
  6
HIDDEN
 62
7
 10
87.4407258647
 20
29.5827940853
 11
32.4407258647
 21
29.5827940853
  0
LINE
  8
1
  6
HIDDEN
 62
7
 10
87.4407258647
 20
29.5827940853
 11
87.4407258647
 21
32.5827940853
  0
LINE
  8
1
  6
HIDDEN
 62
7
 10
83.1907258647
 20
29.5827940853
 11
83.1907258647
 21
25.5827940853
  0
LINE
  8
1
  6
HIDDEN
 62
7
 10
83.1907258647
 20
25.5827940853
 11
81.6907258647
 21
25.5827940853
  0
LINE
  8
1
  6
HIDDEN
 62
7
 10
78.1907258647
 20
25.5827940853
 11
76.6907258647
 21
25.5827940853
  0
LINE
  8
1
  6
HIDDEN
 62
7
 10
76.6907258647
 20
25.5827940853
 11
76.6907258647
 21
29.5827940853
  0
LINE
  8
1
  6
HIDDEN
 62
7
 10
78.1907258647
 20
25.5827940853
 11
78.1907258645
 21
23.5827940853
  0
LINE
  8
1
  6
HIDDEN
 62
7
 10
81.6907258647
 20
25.5827940853
 11
81.6907258646
 21
23.5827940853
  0
LINE
  8
1
  6
HIDDEN
 62
7
 10
36.6907258647
 20
29.5827940853
 11
36.6907258647
 21
25.5827940853
  0
LINE
  8
1
  6
HIDDEN
 62
7
 10
36.6907258647
 20
25.5827940853
 11
38.1907258647
 21
25.5827940853
  0
LINE
  8
1
  6
HIDDEN
 62
7
 10
41.6907258647
 20
25.5827940853
 11
43.1907258647
 21
25.5827940853
  0
LINE
  8
1
  6
HIDDEN
 62
7
 10
43.1907258647
 20
25.5827940853
 11
43.1907258647
 21
29.5827940853
  0
LINE
  8
1
  6
HIDDEN
 62
7
 10
41.6907258647
 20
25.5827940853
 11
41.6907258650
 21
23.5827940853
  0
LINE
  8
1
  6
HIDDEN
 62
7
 10
38.1907258647
 20
25.5827940853
 11
38.1907258648
 21
23.5827940853
  0
LINE
  8
1
  6
HIDDEN
 62
7
 10
57.9407258647
 20
29.5827940853
 11
57.9407258647
 21
23.5827940853
  0
LINE
  8
1
  6
HIDDEN
 62
7
 10
61.9407258647
 20
29.5827940853
 11
61.9407258647
 21
23.5827940853
  0
LINE
  8
1
  6
HIDDEN
 62
7
 10
61.5907258647
 20
29.5827940853
 11
61.5907258647
 21
23.5827940853
  0
LINE
  8
1
  6
HIDDEN
 62
7
 10
58.2907258647
 20
29.5827940853
 11
58.2907258647
 21
23.5827940853
  0
LINE
  8
1
  6
HIDDEN
 62
7
 10
118.6566089140
 20
197.1368942825
 11
122.1566089140
 21
197.1368942825
  0
LINE
  8
1
  6
HIDDEN
 62
7
 10
122.1566089140
 20
196.5118942825
 11
122.1566089140
 21
72.6368942825
  0
LINE
  8
1
  6
HIDDEN
 62
7
 10
122.1566089140
 20
72.6368942825
 11
118.6566089140
 21
72.6368942825
  0
LINE
  8
1
  6
HIDDEN
 62
7
 10
122.1566089140
 20
81.3868942825
 11
127.6566089140
 21
81.3868942825
  0
LINE
  8
1
  6
HIDDEN
 62
7
 10
122.1566089140
 20
188.3868942825
 11
127.6566089140
 21
188.3868942825
  0
LINE
  8
1
  6
HIDDEN
 62
7
 10
122.1566089140
 20
79.6368942825
 11
126.1566089140
 21
79.6368942825
  0
LINE
  8
1
  6
HIDDEN
 62
7
 10
126.1566089140
 20
79.6368942825
 11
126.1566089140
 21
78.1368942825
  0
LINE
  8
1
  6
HIDDEN
 62
7
 10
126.1566089140
 20
74.6368942826
 11
126.1566089140
 21
73.1368942825
  0
LINE
  8
1
  6
HIDDEN
 62
7
 10
126.1566089140
 20
73.1368942825
 11
122.1566089140
 21
73.1368942825
  0
LINE
  8
1
  6
HIDDEN
 62
7
 10
126.1566089140
 20
74.6368942826
 11
127.6566089140
 21
74.6368942823
  0
LINE
  8
1
  6
HIDDEN
 62
7
 10
126.1566089140
 20
78.1368942825
 11
127.6566089140
 21
78.1368942937
  0
LINE
  8
1
  6
HIDDEN
 62
7
 10
122.1566089140
 20
190.1368942825
 11
126.1566089140
 21
190.1368942825
  0
LINE
  8
1
  6
HIDDEN
 62
7
 10
126.1566089140
 20
190.1368942825
 11
126.1566089140
 21
191.6368942825
  0
LINE
  8
1
  6
HIDDEN
 62
7
 10
126.1566089140
 20
195.1368942825
 11
126.1566089140
 21
196.6368942825
  0
LINE
  8
1
  6
HIDDEN
 62
7
 10
126.1566089140
 20
196.6368942825
 11
122.1566089140
 21
196.6368942825
  0
LINE
  8
1
  6
HIDDEN
 62
7
 10
126.1566089140
 20
195.1368942825
 11
127.6566089140
 21
195.1368942827
  0
LINE
  8
1
  6
HIDDEN
 62
7
 10
126.1566089140
 20
191.6368942825
 11
127.6566089140
 21
191.6368942714
  0
ARC
  8
2
  6
HIDDEN
 62
5
 10
115.6566089140
 20
209.1368942825
 40
6.0000000000
 50
294.6243183522
 51
164.1092389898
  0
LINE
  8
2
  6
HIDDEN
 62
5
 10
118.1566089140
 20
203.6825382252
 11
118.1566089140
 21
203.1368942825
  0
LINE
  8
2
  6
CONTINUOUS
 62
5
 10
118.1566089140
 20
203.1368942825
 11
118.1566089140
 21
61.6368942825
  0
LINE
  8
2
  6
CONTINUOUS
 62
5
 10
110.0106748368
 20
61.6368942825
 11
118.1566089140
 21
61.6368942825
  0
LINE
  8
2
  6
CONTINUOUS
 62
5
 10
103.6566089140
 20
57.6368942825
 11
103.6566089140
 21
188.5118942825
  0
LINE
  8
2
  6
CONTINUOUS
 62
5
 10
118.1566089140
 20
202.1368942825
 11
107.4796711938
 21
202.1368942825
  0
CIRCLE
  8
2
  6
CONTINUOUS
 62
5
 10
115.6566089140
 20
209.1368942825
 40
2.0000000000
  0
LINE
  8
2
  6
CONTINUOUS
 62
5
 10
27.4407258647
 20
202.1368942825
 11
31.6407258647
 21
202.1368942825
  0
LINE
  8
2
  6
CONTINUOUS
 62
5
 10
31.6407258647
 20
202.1368942825
 11
31.6407258647
 21
215.1368942825
  0
LINE
  8
2
  6
CONTINUOUS
 62
5
 10
31.6407258647
 20
215.1368942825
 11
88.2407258647
 21
215.1368942825
  0
LINE
  8
2
  6
CONTINUOUS
 62
5
 10
88.2407258647
 20
215.1368942825
 11
88.2407258647
 21
202.1368942825
  0
LINE
  8
2
  6
CONTINUOUS
 62
5
 10
88.2407258647
 20
202.1368942825
 11
92.4407258647
 21
202.1368942825
  0
LINE
  8
2
  6
CONTINUOUS
 62
5
 10
92.4407258647
 20
202.1368942825
 11
92.4407258647
 21
61.6368942825
  0
LINE
  8
2
  6
CONTINUOUS
 62
5
 10
76.6392970016
 20
61.6368942825
 11
92.4407258647
 21
61.6368942825
  0
LINE
  8
2
  6
CONTINUOUS
 62
5
 10
43.2421547278
 20
61.6368942825
 11
27.4407258647
 21
61.6368942825
  0
LINE
  8
2
  6
CONTINUOUS
 62
5
 10
27.4407258647
 20
61.6368942825
 11
27.4407258647
 21
202.1368942825
  0
LINE
  8
2
  6
CONTINUOUS
 62
5
 10
47.0668182245
 20
58.0934070162
 11
45.8146335050
 21
60.1803815488
  0
LINE
  8
2
  6
CONTINUOUS
 62
5
 10
70.2421547278
 20
56.6368942825
 11
49.6392970016
 21
56.6368942825
  0
ARC
  8
2
  6
CONTINUOUS
 62
5
 10
43.2421547278
 20
58.6368942825
 40
3.0000000000
 50
30.9637565321
 51
90.0000000000
  0
ARC
  8
2
  6
CONTINUOUS
 62
5
 10
49.6392970016
 20
59.6368942825
 40
3.0000000000
 50
210.9637565321
 51
270.0000000000
  0
LINE
  8
2
  6
CONTINUOUS
 62
5
 10
72.8146335050
 20
58.0934070162
 11
74.0668182245
 21
60.1803815488
  0
ARC
  8
2
  6
CONTINUOUS
 62
5
 10
76.6392970016
 20
58.6368942825
 40
3.0000000000
 50
90.0000000000
 51
149.0362434679
  0
ARC
  8
2
  6
CONTINUOUS
 62
5
 10
70.2421547278
 20
59.6368942825
 40
3.0000000000
 50
270.0000000000
 51
329.0362434679
  0
LINE
  8
2
  6
HIDDEN
 62
5
 10
103.6566089140
 20
66.7868942825
 11
105.6566089140
 21
66.7868942825
  0
LINE
  8
2
  6
HIDDEN
 62
5
 10
105.6566089140
 20
67.1368942825
 11
103.6566089140
 21
67.1368942825
  0
LINE
  8
2
  6
HIDDEN
 62
5
 10
105.6566089140
 20
67.3868942825
 11
118.1566089140
 21
67.3868942825
  0
LINE
  8
2
  6
HIDDEN
 62
5
 10
103.6566089140
 20
63.4868942825
 11
105.6566089140
 21
63.4868942825
  0
LINE
  8
2
  6
HIDDEN
 62
5
 10
105.6566089140
 20
63.1368942825
 11
103.6566089140
 21
63.1368942825
  0
LINE
  8
2
  6
HIDDEN
 62
5
 10
105.6566089140
 20
62.8868942825
 11
118.1566089140
 21
62.8868942825
  0
LINE
  8
2
  6
HIDDEN
 62
5
 10
105.6566089140
 20
67.3868942825
 11
105.6566089140
 21
62.8868942825
  0
LINE
  8
1
  6
HIDDEN
 62
7
 10
118.6566089140
 20
67.1368942825
 11
127.6566089140
 21
67.1368942825
  0
LINE
  8
1
  6
HIDDEN
 62
7
 10
118.6566089140
 20
66.7868942825
 11
127.6566089140
 21
66.7868942825
  0
LINE
  8
1
  6
HIDDEN
 62
7
 10
118.6566089140
 20
63.4868942825
 11
127.6566089140
 21
63.4868942825
  0
LINE
  8
1
  6
HIDDEN
 62
7
 10
118.6566089140
 20
63.1368942825
 11
127.6566089140
 21
63.1368942825
  0
LINE
  8
2
  6
CONTINUOUS
 62
5
 10
108.1537214550
 20
60.3796756352
 11
106.9080526434
 21
57.2655036062
  0
LINE
  8
2
  6
CONTINUOUS
 62
5
 10
105.9795759525
 20
56.6368942825
 11
104.6566089140
 21
56.6368942825
  0
LINE
  8
2
  6
CONTINUOUS
 62
5
 10
33.9407258647
 20
47.5827940853
 11
85.9407258647
 21
47.5827940853
  0
LINE
  8
2
  6
CONTINUOUS
 62
5
 10
92.4407258647
 20
39.5827940853
 11
92.4407258647
 21
33.0827940853
  0
LINE
  8
2
  6
CONTINUOUS
 62
5
 10
92.4407258647
 20
33.0827940853
 11
27.4407258647
 21
33.0827940853
  0
LINE
  8
2
  6
CONTINUOUS
 62
5
 10
27.4407258647
 20
33.0827940853
 11
27.4407258647
 21
39.5827940853
  0
LINE
  8
2
  6
CONTINUOUS
 62
5
 10
92.4407258647
 20
39.5827940853
 11
85.9407258647
 21
47.5827940853
  0
LINE
  8
2
  6
CONTINUOUS
 62
5
 10
33.9407258647
 20
47.5827940853
 11
27.4407258647
 21
39.5827940853
  0
LINE
  8
2
  6
CONTINUOUS
 62
5
 10
31.5301489416
 20
202.1368942825
 11
33.9407258647
 21
188.5118942825
  0
LINE
  8
2
  6
CONTINUOUS
 62
5
 10
33.9407258647
 20
188.5118942825
 11
85.9407258647
 21
188.5118942825
  0
LINE
  8
2
  6
CONTINUOUS
 62
5
 10
85.9407258647
 20
188.5118942825
 11
88.3513027878
 21
202.1368942825
  0
LINE
  8
2
  6
CONTINUOUS
 62
5
 10
85.9407258647
 20
188.5118942825
 11
85.9407258647
 21
61.6368942825
  0
LINE
  8
2
  6
CONTINUOUS
 62
5
 10
33.9407258647
 20
61.6368942825
 11
33.9407258647
 21
188.5118942825
  0
LINE
  8
2
  6
CONTINUOUS
 62
5
 10
43.2421547278
 20
47.5827940853
 11
43.2421547278
 21
42.5827940853
  0
LINE
  8
2
  6
CONTINUOUS
 62
5
 10
43.2421547278
 20
42.5827940853
 11
49.6392970016
 21
44.5827940853
  0
LINE
  8
2
  6
CONTINUOUS
 62
5
 10
49.6392970016
 20
44.5827940853
 11
70.2421547278
 21
44.5827940853
  0
LINE
  8
2
  6
CONTINUOUS
 62
5
 10
70.2421547278
 20
44.5827940853
 11
76.6392970016
 21
42.5827940853
  0
LINE
  8
2
  6
CONTINUOUS
 62
5
 10
76.6392970016
 20
42.5827940853
 11
76.6392970016
 21
47.5827940853
  0
LINE
  8
2
  6
CONTINUOUS
 62
5
 10
49.6392970016
 20
47.5827940853
 11
49.6392970016
 21
44.5827940853
  0
LINE
  8
2
  6
CONTINUOUS
 62
5
 10
70.2421547278
 20
47.5827940853
 11
70.2421547278
 21
44.5827940853
  0
LINE
  8
2
  6
CONTINUOUS
 62
5
 10
43.2421547278
 20
42.5827940853
 11
76.6392970016
 21
42.5827940853
  0
ARC
  8
2
  6
CONTINUOUS
 62
5
 10
104.6566089140
 20
57.6368942825
 40
1.0000000000
 50
180.0000000000
 51
270.0000000000
  0
ARC
  8
2
  6
CONTINUOUS
 62
5
 10
105.9795759525
 20
57.6368942825
 40
1.0000000000
 50
270.0000000000
 51
338.1985905136
  0
ARC
  8
2
  6
CONTINUOUS
 62
5
 10
110.0106748368
 20
59.6368942825
 40
2.0000000000
 50
90.0000000000
 51
158.1985905136
  0
LINE
  8
1
  6
CONTINUOUS
 62
7
 10
94.4407258647
 20
23.5827940853
 11
25.4407258647
 21
23.5827940853
  0
LINE
  8
2
  6
CONTINUOUS
 62
5
 10
119.1566089140
 20
200.3868942825
 11
118.1566089140
 21
200.3868942825
  0
LINE
  8
2
  6
CONTINUOUS
 62
5
 10
119.1566089140
 20
200.3868942825
 11
119.1566089140
 21
199.8868942825
  0
LINE
  8
2
  6
CONTINUOUS
 62
5
 10
119.1566089140
 20
199.8868942825
 11
118.1566089140
 21
199.8868942825
  0
LINE
  8
2
  6
HIDDEN
 62
5
 10
118.1566089140
 20
199.8868942825
 11
108.9255800130
 21
199.8868942825
  0
LINE
  8
2
  6
CONTINUOUS
 62
5
 10
118.1566089140
 20
69.3868942825
 11
119.1566089140
 21
69.3868942825
  0
LINE
  8
2
  6
CONTINUOUS
 62
5
 10
119.1566089140
 20
69.3868942825
 11
119.1566089140
 21
69.8868942825
  0
LINE
  8
2
  6
CONTINUOUS
 62
5
 10
119.1566089140
 20
69.8868942825
 11
118.1566089140
 21
69.8868942825
  0
LINE
  8
2
  6
HIDDEN
 62
5
 10
118.1566089140
 20
69.8868942825
 11
105.6566089140
 21
69.8868942825
  0
LINE
  8
1
  6
CONTINUOUS
 62
7
 10
209.3371686205
 20
197.1368942825
 11
157.3371686205
 21
197.1368942825
  0
LINE
  8
1
  6
CONTINUOUS
 62
7
 10
210.8371686205
 20
74.1368942825
 11
210.8371686205
 21
195.6368942825
  0
LINE
  8
1
  6
CONTINUOUS
 62
7
 10
157.3371686205
 20
72.6368942825
 11
209.3371686205
 21
72.6368942825
  0
LINE
  8
1
  6
CONTINUOUS
 62
7
 10
155.8371686205
 20
74.1368942825
 11
155.8371686205
 21
195.6368942825
  0
LINE
  8
1
  6
CONTINUOUS
 62
7
 10
212.8371686205
 20
71.6368942825
 11
212.8371686205
 21
198.1368942825
  0
LINE
  8
1
  6
CONTINUOUS
 62
7
 10
211.8371686205
 20
199.1368942825
 11
154.8371686205
 21
199.1368942825
  0
LINE
  8
1
  6
CONTINUOUS
 62
7
 10
153.8371686205
 20
71.6368942825
 11
153.8371686205
 21
198.1368942825
  0
LINE
  8
1
  6
CONTINUOUS
 62
7
 10
154.8371686205
 20
70.6368942825
 11
211.8371686205
 21
70.6368942825
  0
ARC
  8
1
  6
CONTINUOUS
 62
7
 10
157.3371686205
 20
195.6368942825
 40
1.5000000000
 50
90.0000000000
 51
180.0000000000
  0
ARC
  8
1
  6
CONTINUOUS
 62
7
 10
209.3371686205
 20
195.6368942825
 40
1.5000000000
 50
0.0000000000
 51
90.0000000000
  0
ARC
  8
1
  6
CONTINUOUS
 62
7
 10
209.3371686205
 20
74.1368942825
 40
1.5000000000
 50
270.0000000000
 51
0.0000000000
  0
ARC
  8
1
  6
CONTINUOUS
 62
7
 10
157.3371686205
 20
74.1368942825
 40
1.5000000000
 50
180.0000000000
 51
270.0000000000
  0
CIRCLE
  8
1
  6
HIDDEN
 62
3
 10
163.3371686205
 20
193.3868942825
 40
1.7500000000
  0
CIRCLE
  8
1
  6
HIDDEN
 62
3
 10
163.3371686205
 20
193.3868942825
 40
3.2500000000
  0
CIRCLE
  8
1
  6
HIDDEN
 62
3
 10
203.3371686205
 20
193.3868942825
 40
1.7500000000
  0
CIRCLE
  8
1
  6
HIDDEN
 62
3
 10
203.3371686205
 20
193.3868942825
 40
3.2500000000
  0
LINE
  8
1
  6
HIDDEN
 62
3
 10
206.3371686205
 20
188.3868942825
 11
209.3371686205
 21
188.3868942825
  0
LINE
  8
1
  6
HIDDEN
 62
3
 10
158.3371686205
 20
188.3868942825
 11
206.3371686205
 21
188.3868942825
  0
CIRCLE
  8
1
  6
HIDDEN
 62
3
 10
163.3371686205
 20
76.3868942825
 40
1.7500000000
  0
CIRCLE
  8
1
  6
HIDDEN
 62
3
 10
163.3371686205
 20
76.3868942825
 40
3.2500000000
  0
CIRCLE
  8
1
  6
HIDDEN
 62
3
 10
203.3371686205
 20
76.3868942825
 40
1.7500000000
  0
CIRCLE
  8
1
  6
HIDDEN
 62
3
 10
203.3371686205
 20
76.3868942825
 40
3.2500000000
  0
CIRCLE
  8
1
  6
HIDDEN
 62
3
 10
183.3371686205
 20
193.3868942825
 40
2.0000000000
  0
LINE
  8
1
  6
CONTINUOUS
 62
7
 10
214.8371686205
 20
71.6368942825
 11
214.8371686205
 21
198.1368942825
  0
LINE
  8
1
  6
CONTINUOUS
 62
7
 10
211.8371686205
 20
201.1368942825
 11
154.8371686205
 21
201.1368942825
  0
LINE
  8
1
  6
CONTINUOUS
 62
7
 10
151.8371686205
 20
71.6368942825
 11
151.8371686205
 21
198.1368942825
  0
LINE
  8
1
  6
CONTINUOUS
 62
7
 10
154.8371686205
 20
68.6368942825
 11
211.8371686205
 21
68.6368942825
  0
LINE
  8
1
  6
CONTINUOUS
 62
7
 10
216.8371686205
 20
61.6368942825
 11
216.8371686205
 21
205.5118942825
  0
LINE
  8
1
  6
CONTINUOUS
 62
7
 10
149.8371686205
 20
205.5118942825
 11
149.8371686205
 21
61.6368942825
  0
LINE
  8
1
  6
CONTINUOUS
 62
7
 10
217.8371686205
 20
60.6368942825
 11
217.8371686205
 21
216.1368942825
  0
LINE
  8
1
  6
CONTINUOUS
 62
7
 10
148.8371686205
 20
216.1368942825
 11
148.8371686205
 21
60.6368942825
  0
ARC
  8
1
  6
CONTINUOUS
 62
7
 10
154.8371686205
 20
198.1368942825
 40
1.0000000000
 50
90.0000000000
 51
180.0000000000
  0
ARC
  8
1
  6
CONTINUOUS
 62
7
 10
211.8371686205
 20
198.1368942825
 40
1.0000000000
 50
0.0000000000
 51
90.0000000000
  0
ARC
  8
1
  6
CONTINUOUS
 62
7
 10
211.8371686205
 20
71.6368942825
 40
1.0000000000
 50
270.0000000000
 51
0.0000000000
  0
ARC
  8
1
  6
CONTINUOUS
 62
7
 10
154.8371686205
 20
71.6368942825
 40
1.0000000000
 50
180.0000000000
 51
270.0000000000
  0
LINE
  8
1
  6
HIDDEN
 62
3
 10
209.3371686205
 20
178.3868942825
 11
209.3371686205
 21
188.3868942825
  0
ARC
  8
1
  6
CONTINUOUS
 62
7
 10
154.8371686205
 20
198.1368942825
 40
3.0000000000
 50
90.0000000000
 51
180.0000000000
  0
ARC
  8
1
  6
CONTINUOUS
 62
7
 10
211.8371686205
 20
198.1368942825
 40
3.0000000000
 50
0.0000000000
 51
90.0000000000
  0
ARC
  8
1
  6
CONTINUOUS
 62
7
 10
211.8371686205
 20
71.6368942825
 40
3.0000000000
 50
270.0000000000
 51
0.0000000000
  0
ARC
  8
1
  6
CONTINUOUS
 62
7
 10
154.8371686205
 20
71.6368942825
 40
3.0000000000
 50
180.0000000000
 51
270.0000000000
  0
LINE
  8
1
  6
DASHDOT
 62
1
 10
219.8371686205
 20
209.1368942825
 11
146.8371686205
 21
209.1368942825
  0
LINE
  8
1
  6
CONTINUOUS
 62
7
 10
217.8371686205
 20
60.6368942825
 11
148.8371686205
 21
60.6368942825
  0
LINE
  8
1
  6
CONTINUOUS
 62
7
 10
149.8371686205
 20
61.6368942825
 11
216.8371686205
 21
61.6368942825
  0
LINE
  8
1
  6
CONTINUOUS
 62
7
 10
149.8371686205
 20
203.1368942825
 11
149.8371686205
 21
215.1368942825
  0
LINE
  8
1
  6
CONTINUOUS
 62
7
 10
149.8371686205
 20
215.1368942825
 11
154.8371686205
 21
215.1368942825
  0
LINE
  8
1
  6
CONTINUOUS
 62
7
 10
154.8371686205
 20
215.1368942825
 11
154.8371686205
 21
203.1368942825
  0
LINE
  8
1
  6
CONTINUOUS
 62
7
 10
154.8371686205
 20
203.1368942825
 11
149.8371686205
 21
203.1368942825
  0
LINE
  8
1
  6
CONTINUOUS
 62
7
 10
216.8371686205
 20
215.1368942825
 11
211.8371686205
 21
215.1368942825
  0
LINE
  8
1
  6
CONTINUOUS
 62
7
 10
211.8371686205
 20
215.1368942825
 11
211.8371686205
 21
203.1368942825
  0
LINE
  8
1
  6
CONTINUOUS
 62
7
 10
211.8371686205
 20
203.1368942825
 11
216.8371686205
 21
203.1368942825
  0
LINE
  8
1
  6
CONTINUOUS
 62
7
 10
216.8371686205
 20
203.1368942825
 11
216.8371686205
 21
215.1368942825
  0
LINE
  8
1
  6
CONTINUOUS
 62
7
 10
211.8371686205
 20
203.1368942825
 11
211.8371686205
 21
202.1368942825
  0
LINE
  8
1
  6
CONTINUOUS
 62
7
 10
211.8371686205
 20
202.1368942825
 11
154.8371686205
 21
202.1368942825
  0
LINE
  8
1
  6
CONTINUOUS
 62
7
 10
154.8371686205
 20
202.1368942825
 11
154.8371686205
 21
203.1368942825
  0
LINE
  8
1
  6
CONTINUOUS
 62
7
 10
217.8371686205
 20
216.1368942825
 11
148.8371686205
 21
216.1368942825
  0
CIRCLE
  8
1
  6
HIDDEN
 62
3
 10
183.3371686205
 20
193.3868942825
 40
1.6500000000
  0
CIRCLE
  8
1
  6
HIDDEN
 62
3
 10
183.3371686205
 20
76.3868942825
 40
2.0000000000
  0
CIRCLE
  8
1
  6
HIDDEN
 62
3
 10
183.3371686205
 20
76.3868942825
 40
1.6500000000
  0
CIRCLE
  8
1
  6
HIDDEN
 62
7
 10
183.3371686205
 20
65.1368942825
 40
2.0000000000
  0
CIRCLE
  8
1
  6
CONTINUOUS
 62
7
 10
183.3371686205
 20
65.1368942825
 40
1.6500000000
  0
INSERT
  8
5
  6
CONTINUOUS
 62
7
  2
S0
 10
0.0000000000
 20
0.0000000000
  0
TEXT
  8
5
  6
CONTINUOUS
 62
7
 10
349.684277
 20
5.000000
 40
6.000000
  1
M0051A050C
 41
0.765697
 50
0.000000
 51
0.000000
 72
   5
 73
   0
 11
379.684277
 21
5.000000
  0
TEXT
  8
5
  6
CONTINUOUS
 62
7
 10
348.653069
 20
20.642557
 40
5.000000
  1
Panel Interface
 41
0.759109
 50
0.000000
 51
0.000000
 72
   5
 73
   0
 11
386.153069
 21
20.642557
  0
TEXT
  8
5
  6
CONTINUOUS
 62
7
 10
348.653069
 20
15.642557
 40
5.000000
  1
Type:MCON-001-050
 41
0.757576
 50
0.000000
 51
0.000000
 72
   5
 73
   0
 11
391.153069
 21
15.642557
  0
TEXT
  8
5
  6
CONTINUOUS
 62
7
 10
293.500000
 20
10.750000
 40
3.000000
  1
Yamada
 41
0.779221
 50
0.000000
 51
0.000000
 72
   5
 73
   0
 11
302.500000
 21
10.750000
  0
TEXT
  8
5
  6
CONTINUOUS
 62
7
 10
304.500000
 20
10.750000
 40
3.000000
  1
Yamada
 41
0.779221
 50
0.000000
 51
0.000000
 72
   5
 73
   0
 11
313.500000
 21
10.750000
  0
TEXT
  8
1
  6
CONTINUOUS
 62
7
 10
175.782199
 20
51.365698
 40
5.000000
  1
内 部 図
 41
0.854701
 50
0.000000
 51
0.000000
 72
   5
 73
   0
 11
195.782199
 21
51.365698
  0
DIMENSION
  8
1
  6
CONTINUOUS
 62
5
  2
*D0
 10
105.6566089140
 20
94.7536737299
 11
113.9066089140
 21
97.5036737299
  70
0
 13
122.1566089140
 23
89.8588253725
 14
105.6566089140
 24
89.8588253725
 50
0.000000
  0
CIRCLE
  8
1
  6
CONTINUOUS
 62
5
 10
131.6566089140
 20
183.3868942825
 40
2.0000000000
  0
LINE
  8
1
  6
CONTINUOUS
 62
5
 10
130.1566089138
 20
183.3868942825
 11
133.1566089138
 21
183.3868942825
  0
LINE
  8
1
  6
CONTINUOUS
 62
5
 10
130.6566089138
 20
182.6368942825
 11
132.6566089138
 21
182.6368942825
  0
LINE
  8
1
  6
CONTINUOUS
 62
5
 10
131.1566089138
 20
181.8868942825
 11
132.1566089138
 21
181.8868942825
  0
LINE
  8
1
  6
CONTINUOUS
 62
5
 10
131.6566089140
 20
183.3868942825
 11
131.6566089138
 21
184.8868942825
  0
LINE
  8
1
  6
HIDDEN
 62
3
 10
209.3371686205
 20
178.3868942825
 11
206.3371686205
 21
178.3868942825
  0
LINE
  8
1
  6
HIDDEN
 62
3
 10
206.3371686205
 20
178.3868942825
 11
206.3371686205
 21
188.3868942825
  0
LINE
  8
1
  6
CONTINUOUS
 62
7
 10
127.6566089140
 20
188.3868942825
 11
142.6566089140
 21
188.3868942825
  0
LINE
  8
1
  6
CONTINUOUS
 62
7
 10
142.6566089140
 20
188.3868942825
 11
142.6566089140
 21
178.3868942825
  0
LINE
  8
1
  6
CONTINUOUS
 62
7
 10
142.6566089140
 20
178.3868942825
 11
127.6566089140
 21
178.3868942825
  0
CIRCLE
  8
1
  6
CONTINUOUS
 62
7
 10
137.6566089140
 20
183.3868942825
 40
2.0000000000
  0
CIRCLE
  8
1
  6
HIDDEN
 62
7
 10
137.6566089140
 20
183.3868942825
 40
2.5000000000
  0
CIRCLE
  8
1
  6
HIDDEN
 62
5
 10
131.6566089140
 20
86.3868942825
 40
2.0000000000
  0
LINE
  8
1
  6
HIDDEN
 62
5
 10
130.1566089138
 20
86.3868942825
 11
133.1566089138
 21
86.3868942825
  0
LINE
  8
1
  6
HIDDEN
 62
5
 10
130.6566089138
 20
85.6368942825
 11
132.6566089138
 21
85.6368942825
  0
LINE
  8
1
  6
HIDDEN
 62
5
 10
131.1566089138
 20
84.8868942825
 11
132.1566089138
 21
84.8868942825
  0
LINE
  8
1
  6
HIDDEN
 62
5
 10
131.6566089140
 20
86.3868942825
 11
131.6566089138
 21
87.8868942825
  0
LINE
  8
1
  6
CONTINUOUS
 62
7
 10
127.6566089140
 20
91.3868942825
 11
142.6566089140
 21
91.3868942825
  0
LINE
  8
1
  6
CONTINUOUS
 62
7
 10
142.6566089140
 20
91.3868942825
 11
142.6566089140
 21
81.3868942825
  0
LINE
  8
1
  6
CONTINUOUS
 62
7
 10
142.6566089140
 20
81.3868942825
 11
127.6566089140
 21
81.3868942825
  0
CIRCLE
  8
1
  6
CONTINUOUS
 62
7
 10
137.6566089140
 20
86.3868942825
 40
2.0000000000
  0
CIRCLE
  8
1
  6
HIDDEN
 62
7
 10
137.6566089140
 20
86.3868942825
 40
2.5000000000
  0
DIMENSION
  8
1
  6
CONTINUOUS
 62
5
  2
*D1
 10
18.6541168789
 20
32.5827940853
 11
15.9041168789
 21
28.0827940853
  70
0
 13
25.4407258647
 23
23.5827940853
 14
26.4407258647
 24
32.5827940853
 50
90.000000
  0
DIMENSION
  8
1
  6
CONTINUOUS
 62
5
  2
*D2
 10
18.4145405822
 20
47.5827940853
 11
15.6645405822
 21
40.3327940853
  70
0
 13
27.4407258647
 23
33.0827940853
 14
33.9407258647
 24
47.5827940853
 50
90.000000
  0
DIMENSION
  8
1
  6
CONTINUOUS
 62
5
  2
*D3
 10
10.9078166190
 20
47.5827940853
 11
8.1578166190
 21
35.5827940853
  70
0
 13
25.4407258647
 23
23.5827940853
 14
33.9407258647
 24
47.5827940853
 50
90.000000
  0
LINE
  8
1
  6
CONTINUOUS
 62
7
 10
33.9407258647
 20
23.5827940853
 11
33.9407258647
 21
8.5827940853
  0
LINE
  8
1
  6
CONTINUOUS
 62
7
 10
33.9407258647
 20
8.5827940853
 11
36.9407258647
 21
8.5827940853
  0
LINE
  8
1
  6
CONTINUOUS
 62
7
 10
36.9407258647
 20
8.5827940853
 11
36.9407258647
 21
23.5827940853
  0
LINE
  8
1
  6
CONTINUOUS
 62
7
 10
85.9407258647
 20
23.5827940853
 11
85.9407258647
 21
8.5827940853
  0
LINE
  8
1
  6
CONTINUOUS
 62
7
 10
85.9407258647
 20
8.5827940853
 11
82.9407258647
 21
8.5827940853
  0
LINE
  8
1
  6
CONTINUOUS
 62
7
 10
82.9407258647
 20
8.5827940853
 11
82.9407258647
 21
23.5827940853
  0
LINE
  8
1
  6
HIDDEN
 62
3
 10
157.3371686205
 20
81.3868942825
 11
160.3371686205
 21
81.3868942825
  0
LINE
  8
1
  6
HIDDEN
 62
3
 10
208.3371686205
 20
81.3868942825
 11
160.3371686205
 21
81.3868942825
  0
LINE
  8
1
  6
HIDDEN
 62
3
 10
157.3371686205
 20
91.3868942825
 11
160.3371686205
 21
91.3868942825
  0
LINE
  8
1
  6
HIDDEN
 62
3
 10
160.3371686205
 20
91.3868942825
 11
160.3371686205
 21
81.3868942825
  0
LINE
  8
1
  6
HIDDEN
 62
3
 10
157.3371686205
 20
91.3868942825
 11
157.3371686205
 21
81.3868942825
  0
LINE
  8
1
  6
HIDDEN
 62
3
 10
209.3371686205
 20
82.3868942825
 11
209.3371686205
 21
178.3868942825
  0
LINE
  8
1
  6
HIDDEN
 62
3
 10
157.3371686205
 20
187.3868942825
 11
157.3371686205
 21
91.3868942825
  0
LINE
  8
2
  6
CONTINUOUS
 62
5
 10
109.8858960748
 20
210.7797190840
 11
103.6566089140
 21
188.5118942825
  0
LINE
  8
2
  6
HIDDEN
 62
5
 10
108.9255800130
 20
199.8868942825
 11
105.6566089140
 21
188.2366181518
  0
LINE
  8
2
  6
HIDDEN
 62
5
 10
105.6566089140
 20
188.2366181518
 11
105.6566089140
 21
69.8868942825
  0
DIMENSION
  8
1
  6
CONTINUOUS
 62
5
  2
*D4
 10
14.9678380111
 20
60.6368942825
 11
11.4678380111
 21
138.3868942825
  70
0
 13
25.4407258647
 23
216.1368942825
 14
25.4407258647
 24
60.6368942825
 50
90.000000
  0
DIMENSION
  8
1
  6
CONTINUOUS
 62
5
  2
*D5
 10
94.4407258647
 20
220.0992275332
 11
59.9407258647
 21
223.5992275332
  70
0
 13
25.4407258647
 23
216.1368942825
 14
94.4407258647
 24
216.1368942825
 50
0.000000
  0
LINE
  8
2
  6
CONTINUOUS
 62
5
 10
29.1907258647
 20
33.0827940853
 11
29.1907258647
 21
32.0827940853
  0
LINE
  8
2
  6
CONTINUOUS
 62
5
 10
29.1907258647
 20
32.0827940853
 11
29.6907258647
 21
32.0827940853
  0
LINE
  8
2
  6
CONTINUOUS
 62
5
 10
29.6907258647
 20
32.0827940853
 11
29.6907258647
 21
33.0827940853
  0
LINE
  8
2
  6
CONTINUOUS
 62
5
 10
90.6907258647
 20
33.0827940853
 11
90.6907258647
 21
32.0827940853
  0
LINE
  8
2
  6
CONTINUOUS
 62
5
 10
90.6907258647
 20
32.0827940853
 11
90.1907258647
 21
32.0827940853
  0
LINE
  8
2
  6
CONTINUOUS
 62
5
 10
90.1907258647
 20
32.0827940853
 11
90.1907258647
 21
33.0827940853
  0
ARC
  8
1
  6
HIDDEN
 62
3
 10
158.3371686205
 20
187.3868942825
 40
1.0000000000
 50
90.0000000000
 51
180.0000000000
  0
ARC
  8
1
  6
HIDDEN
 62
3
 10
208.3371686205
 20
82.3868942825
 40
1.0000000000
 50
270.0000000000
 51
0.0000000000
  0
CIRCLE
  8
1
  6
CONTINUOUS
 62
7
 10
59.9407258647
 20
65.1368942825
 40
4.0000000000
  0
LINE
  8
1
  6
CONTINUOUS
 62
7
 10
58.1729589118
 20
66.9046612355
 11
61.7084928177
 21
63.3691273296
  0
LINE
  8
1
  6
CONTINUOUS
 62
7
 10
58.1729589118
 20
63.3691273296
 11
61.7084928177
 21
66.9046612355
  0
CIRCLE
  8
1
  6
CONTINUOUS
 62
7
 10
59.9407258647
 20
65.1368942825
 40
3.5000000000
  0
POINT
  8
1
  6
CONTINUOUS
 62
7
 10
59.9407258647
 20
47.5827940853
  0
LINE
  8
1
  6
CONTINUOUS
 62
7
 10
56.4407258647
 20
47.5827940875
 11
63.4407258647
 21
47.5827940832
  0
LINE
  8
1
  6
CONTINUOUS
 62
7
 10
59.1240591981
 20
50.2661274192
 11
60.7573925314
 21
50.2661274182
  0
ARC
  8
1
  6
CONTINUOUS
 62
7
 10
59.1240591981
 20
47.5827940858
 40
2.6833333333
 50
90.0000000000
 51
179.9999999648
  0
ARC
  8
1
  6
CONTINUOUS
 62
7
 10
60.7573925314
 20
47.5827940848
 40
2.6833333333
 50
359.9999999648
 51
90.0000000000
  0
POINT
  8
1
  6
CONTINUOUS
 62
7
 10
59.9407258647
 20
47.5827940853
  0
POINT
  8
1
  6
CONTINUOUS
 62
7
 10
59.9407258647
 20
47.5827940853
  0
POINT
  8
1
  6
CONTINUOUS
 62
7
 10
103.6566089140
 20
65.1368942825
  0
LINE
  8
1
  6
CONTINUOUS
 62
7
 10
103.6595364366
 20
61.6339667577
 11
103.6595364409
 21
68.6339667577
  0
LINE
  8
1
  6
CONTINUOUS
 62
7
 10
100.9762031049
 20
64.3173000911
 11
100.9762031059
 21
65.9506334244
  0
ARC
  8
1
  6
CONTINUOUS
 62
7
 10
103.6595364383
 20
64.3173000911
 40
2.6833333333
 50
180.0000000000
 51
269.9999999648
  0
ARC
  8
1
  6
CONTINUOUS
 62
7
 10
103.6595364393
 20
65.9506334244
 40
2.6833333333
 50
89.9999999648
 51
180.0000000000
  0
POINT
  8
1
  6
CONTINUOUS
 62
7
 10
103.6566089140
 20
65.1368942825
  0
POINT
  8
1
  6
CONTINUOUS
 62
7
 10
103.6566089140
 20
65.1368942825
  0
LINE
  8
3
  6
CONTINUOUS
 62
7
 10
210.5871686205
 20
73.8868942827
 11
210.5871686205
 21
195.8868942823
  0
LINE
  8
3
  6
CONTINUOUS
 62
7
 10
209.5871686205
 20
196.8868942823
 11
157.0871686205
 21
196.8868942827
  0
LINE
  8
3
  6
CONTINUOUS
 62
7
 10
156.0871686205
 20
73.8868942823
 11
156.0871686205
 21
195.8868942827
  0
LINE
  8
3
  6
CONTINUOUS
 62
7
 10
209.5871686205
 20
72.8868942827
 11
157.0871686205
 21
72.8868942823
  0
LINE
  8
3
  6
CONTINUOUS
 62
7
 10
157.0871686205
 20
196.8868942827
 11
156.0871686205
 21
195.8868942827
  0
LINE
  8
3
  6
CONTINUOUS
 62
7
 10
210.5871686205
 20
195.8868942823
 11
209.5871686205
 21
196.8868942823
  0
LINE
  8
3
  6
CONTINUOUS
 62
7
 10
210.5871686205
 20
73.8868942827
 11
209.5871686205
 21
72.8868942827
  0
LINE
  8
3
  6
CONTINUOUS
 62
7
 10
157.0871686205
 20
72.8868942823
 11
156.0871686205
 21
73.8868942823
  0
CIRCLE
  8
3
  6
CONTINUOUS
 62
6
 10
183.3371686205
 20
193.3868942825
 40
3.9000000000
  0
LINE
  8
3
  6
CONTINUOUS
 62
6
 10
181.6135958414
 20
195.1104670616
 11
185.0607413996
 21
191.6633215033
  0
LINE
  8
3
  6
CONTINUOUS
 62
6
 10
181.6135958414
 20
191.6633215033
 11
185.0607413996
 21
195.1104670616
  0
CIRCLE
  8
3
  6
CONTINUOUS
 62
6
 10
183.3371686205
 20
193.3868942825
 40
3.4125000000
  0
CIRCLE
  8
3
  6
CONTINUOUS
 62
6
 10
183.3371686205
 20
76.3868942825
 40
3.9000000000
  0
LINE
  8
3
  6
CONTINUOUS
 62
6
 10
181.6135958414
 20
78.1104670617
 11
185.0607413996
 21
74.6633215034
  0
LINE
  8
3
  6
CONTINUOUS
 62
6
 10
181.6135958414
 20
74.6633215034
 11
185.0607413996
 21
78.1104670617
  0
CIRCLE
  8
3
  6
CONTINUOUS
 62
6
 10
183.3371686205
 20
76.3868942825
 40
3.4125000000
  0
INSERT
  8
5
  6
CONTINUOUS
 62
7
  2
S1
 10
315.5000000000
 20
257.5000000000
  0
LINE
  8
5
  6
CONTINUOUS
 62
6
 10
13.5000000000
 20
254.5000000000
 11
13.5000000000
 21
279.5000000000
  0
LINE
  8
5
  6
CONTINUOUS
 62
6
 10
25.5000000000
 20
254.5000000000
 11
25.5000000000
 21
279.5000000000
  0
LINE
  8
5
  6
CONTINUOUS
 62
6
 10
90.0000000000
 20
254.5000000000
 11
90.0000000000
 21
279.5000000000
  0
LINE
  8
5
  6
CONTINUOUS
 62
6
 10
99.0000000000
 20
279.5000000000
 11
99.0000000000
 21
254.5000000000
  0
TEXT
  8
5
  6
CONTINUOUS
 62
6
 10
16.534500
 20
255.500000
 40
3.000000
  1
Date
 41
0.787649
 50
0.000000
 51
0.000000
 72
   5
 73
   0
 11
22.465500
 21
255.500000
  0
TEXT
  8
5
  6
CONTINUOUS
 62
6
 10
6.292500
 20
255.500000
 40
3.000000
  1
Rev.
 41
0.719124
 50
0.000000
 51
0.000000
 72
   5
 73
   0
 11
11.707500
 21
255.500000
  0
TEXT
  8
5
  6
CONTINUOUS
 62
6
 10
27.000000
 20
255.500000
 40
3.000000
  1
Content
 41
0.746681
 50
0.000000
 51
0.000000
 72
   5
 73
   0
 11
37.125000
 21
255.500000
  0
TEXT
  8
5
  6
CONTINUOUS
 62
6
 10
90.972000
 20
255.500000
 40
3.000000
  1
Name
 41
0.937052
 50
0.000000
 51
0.000000
 72
   5
 73
   0
 11
98.028000
 21
255.500000
  0
LINE
  8
5
  6
CONTINUOUS
 62
6
 10
4.5000000000
 20
259.5000000000
 11
99.0000000000
 21
259.5000000000
  0
LINE
  8
5
  6
CONTINUOUS
 62
6
 10
4.5000000000
 20
264.5000000000
 11
99.0000000000
 21
264.5000000000
  0
LINE
  8
5
  6
CONTINUOUS
 62
6
 10
4.5000000000
 20
269.5000000000
 11
99.0000000000
 21
269.5000000000
  0
LINE
  8
5
  6
CONTINUOUS
 62
6
 10
4.5000000000
 20
274.5000000000
 11
99.0000000000
 21
274.5000000000
  0
LINE
  8
5
  6
CONTINUOUS
 62
6
 10
4.5000000000
 20
254.5000000000
 11
99.0000000000
 21
254.5000000000
  0
POINT
  8
5
  6
CONTINUOUS
 62
6
 10
9.0000000000
 20
262.0000000000
  0
POINT
  8
5
  6
CONTINUOUS
 62
6
 10
9.0000000000
 20
267.0000000000
  0
POINT
  8
5
  6
CONTINUOUS
 62
6
 10
9.0000000000
 20
272.0000000000
  0
POINT
  8
5
  6
CONTINUOUS
 62
6
 10
9.0000000000
 20
277.0000000000
  0
POINT
  8
5
  6
CONTINUOUS
 62
6
 10
19.5000000000
 20
277.0000000000
  0
POINT
  8
5
  6
CONTINUOUS
 62
6
 10
19.5000000000
 20
272.0000000000
  0
POINT
  8
5
  6
CONTINUOUS
 62
6
 10
19.5000000000
 20
267.0000000000
  0
POINT
  8
5
  6
CONTINUOUS
 62
6
 10
19.5000000000
 20
262.0000000000
  0
POINT
  8
5
  6
CONTINUOUS
 62
6
 10
94.5000000000
 20
262.0000000000
  0
POINT
  8
5
  6
CONTINUOUS
 62
6
 10
94.5000000000
 20
267.0000000000
  0
POINT
  8
5
  6
CONTINUOUS
 62
6
 10
94.5000000000
 20
272.0000000000
  0
POINT
  8
5
  6
CONTINUOUS
 62
6
 10
94.5000000000
 20
277.0000000000
  0
POINT
  8
5
  6
CONTINUOUS
 62
6
 10
25.5000000000
 20
277.0000000000
  0
POINT
  8
5
  6
CONTINUOUS
 62
6
 10
25.5000000000
 20
272.0000000000
  0
POINT
  8
5
  6
CONTINUOUS
 62
6
 10
25.5000000000
 20
267.0000000000
  0
POINT
  8
5
  6
CONTINUOUS
 62
6
 10
25.5000000000
 20
262.0000000000
  0
INSERT
  8
1
  6
CONTINUOUS
 62
5
  2
BALN0
 10
62.7855132621
 20
63.0979767600
  0
TEXT
  8
5
  6
CONTINUOUS
 62
7
 10
254.500000
 20
248.500000
 40
3.000000
  1
M4×8小ワｾﾑｽ(ﾊﾟﾈﾙ固定用)
 41
0.833177
 50
0.000000
 51
0.000000
 72
   5
 73
   0
 11
291.718000
 21
248.500000
  0
TEXT
  8
5
  6
CONTINUOUS
 62
7
 10
234.500000
 20
248.500000
 40
3.000000
  1
添付品ﾋﾞｽ
 41
0.822804
 50
0.000000
 51
0.000000
 72
   5
 73
   0
 11
247.706000
 21
248.500000
  0
TEXT
  8
5
  6
CONTINUOUS
 62
7
 10
310.125000
 20
248.250000
 40
3.500000
  1
2
 41
1.000000
 50
0.000000
 51
0.000000
 72
   5
 73
   0
 11
311.875000
 21
248.250000
  0
LINE
  8
5
  6
CONTINUOUS
 62
6
 10
293.5000000000
 20
257.5000000000
 11
293.5000000000
 21
252.5000000000
  0
LINE
  8
3
  6
CONTINUOUS
 62
7
 10
210.5871686205
 20
73.8868942827
 11
210.5871686205
 21
195.8868942823
  0
LINE
  8
3
  6
CONTINUOUS
 62
7
 10
210.5871686205
 20
195.8868942823
 11
209.5871686205
 21
196.8868942823
  0
LINE
  8
3
  6
CONTINUOUS
 62
7
 10
209.5871686205
 20
196.8868942823
 11
157.0871686205
 21
196.8868942827
  0
LINE
  8
3
  6
CONTINUOUS
 62
7
 10
157.0871686205
 20
196.8868942827
 11
156.0871686205
 21
195.8868942827
  0
LINE
  8
3
  6
CONTINUOUS
 62
7
 10
156.0871686205
 20
73.8868942823
 11
156.0871686205
 21
195.8868942827
  0
LINE
  8
3
  6
CONTINUOUS
 62
7
 10
157.0871686205
 20
72.8868942823
 11
156.0871686205
 21
73.8868942823
  0
LINE
  8
3
  6
CONTINUOUS
 62
7
 10
209.5871686205
 20
72.8868942827
 11
157.0871686205
 21
72.8868942823
  0
LINE
  8
3
  6
CONTINUOUS
 62
7
 10
210.5871686205
 20
73.8868942827
 11
209.5871686205
 21
72.8868942827
  0
DIMENSION
  8
1
  6
CONTINUOUS
 62
5
  2
*D6
 10
136.6727066227
 20
84.0886479334
 11
135.1285379299
 21
87.4691868029
  70
3
 15
138.6405112052
 25
88.6851406317
  0
LINE
  8
5
  6
CONTINUOUS
 62
6
 10
380.5000000000
 20
262.5000000000
 11
340.5000000000
 21
262.5000000000
  0
TEXT
  8
5
  6
CONTINUOUS
 62
7
 10
316.250000
 20
258.250000
 40
3.500000
  1
10
 41
0.854701
 50
0.000000
 51
0.000000
 72
   5
 73
   0
 11
319.750000
 21
258.250000
  0
LINE
  8
5
  6
CONTINUOUS
 62
6
 10
315.5000000000
 20
252.5000000000
 11
315.5000000000
 21
257.5000000000
  0
LINE
  8
5
  6
CONTINUOUS
 62
6
 10
320.5000000000
 20
252.5000000000
 11
315.5000000000
 21
252.5000000000
  0
LINE
  8
5
  6
CONTINUOUS
 62
6
 10
320.5000000000
 20
257.5000000000
 11
320.5000000000
 21
252.5000000000
  0
LINE
  8
5
  6
CONTINUOUS
 62
6
 10
340.5000000000
 20
252.5000000000
 11
320.5000000000
 21
252.5000000000
  0
LINE
  8
5
  6
CONTINUOUS
 62
6
 10
340.5000000000
 20
257.5000000000
 11
340.5000000000
 21
252.5000000000
  0
LINE
  8
5
  6
CONTINUOUS
 62
6
 10
380.5000000000
 20
257.5000000000
 11
380.5000000000
 21
252.5000000000
  0
LINE
  8
5
  6
CONTINUOUS
 62
6
 10
395.5000000000
 20
257.5000000000
 11
395.5000000000
 21
252.5000000000
  0
LINE
  8
5
  6
CONTINUOUS
 62
6
 10
400.5000000000
 20
257.5000000000
 11
400.5000000000
 21
252.5000000000
  0
LINE
  8
5
  6
CONTINUOUS
 62
6
 10
400.5000000000
 20
252.5000000000
 11
395.5000000000
 21
252.5000000000
  0
LINE
  8
5
  6
CONTINUOUS
 62
6
 10
395.5000000000
 20
252.5000000000
 11
380.5000000000
 21
252.5000000000
  0
LINE
  8
5
  6
CONTINUOUS
 62
6
 10
315.4999999999
 20
247.5000000000
 11
315.4999999999
 21
252.5000000000
  0
LINE
  8
5
  6
CONTINUOUS
 62
6
 10
320.4999999999
 20
247.5000000000
 11
315.4999999999
 21
247.5000000000
  0
LINE
  8
5
  6
CONTINUOUS
 62
6
 10
320.4999999999
 20
252.5000000000
 11
320.4999999999
 21
247.5000000000
  0
LINE
  8
5
  6
CONTINUOUS
 62
6
 10
340.4999999999
 20
247.5000000000
 11
320.4999999999
 21
247.5000000000
  0
LINE
  8
5
  6
CONTINUOUS
 62
6
 10
340.4999999999
 20
252.5000000000
 11
340.4999999999
 21
247.5000000000
  0
LINE
  8
5
  6
CONTINUOUS
 62
6
 10
380.4999999999
 20
252.5000000000
 11
380.4999999999
 21
247.5000000000
  0
LINE
  8
5
  6
CONTINUOUS
 62
6
 10
395.4999999999
 20
252.5000000000
 11
395.4999999999
 21
247.5000000000
  0
LINE
  8
5
  6
CONTINUOUS
 62
6
 10
400.4999999999
 20
252.5000000000
 11
400.4999999999
 21
247.5000000000
  0
LINE
  8
5
  6
CONTINUOUS
 62
6
 10
400.4999999999
 20
247.5000000000
 11
395.4999999999
 21
247.5000000000
  0
LINE
  8
5
  6
CONTINUOUS
 62
6
 10
395.4999999999
 20
247.5000000000
 11
380.4999999999
 21
247.5000000000
  0
LINE
  8
5
  6
CONTINUOUS
 62
6
 10
380.4999999999
 20
247.5000000000
 11
340.4999999999
 21
247.5000000000
  0
LINE
  8
5
  6
CONTINUOUS
 62
6
 10
315.4999999998
 20
237.5000000000
 11
315.4999999999
 21
247.5000000000
  0
LINE
  8
5
  6
CONTINUOUS
 62
6
 10
320.4999999998
 20
237.5000000000
 11
315.4999999998
 21
237.5000000000
  0
LINE
  8
5
  6
CONTINUOUS
 62
6
 10
320.4999999999
 20
247.5000000000
 11
320.4999999999
 21
237.5000000000
  0
LINE
  8
5
  6
CONTINUOUS
 62
6
 10
340.4999999998
 20
237.5000000000
 11
320.4999999998
 21
237.5000000000
  0
LINE
  8
5
  6
CONTINUOUS
 62
6
 10
340.4999999999
 20
247.5000000000
 11
340.4999999999
 21
237.5000000000
  0
LINE
  8
5
  6
CONTINUOUS
 62
6
 10
380.4999999999
 20
247.5000000000
 11
380.4999999999
 21
237.5000000000
  0
LINE
  8
5
  6
CONTINUOUS
 62
6
 10
395.4999999999
 20
247.5000000000
 11
395.4999999999
 21
237.5000000000
  0
LINE
  8
5
  6
CONTINUOUS
 62
6
 10
400.4999999999
 20
247.5000000000
 11
400.4999999999
 21
237.5000000000
  0
LINE
  8
5
  6
CONTINUOUS
 62
6
 10
400.4999999998
 20
237.5000000000
 11
395.4999999998
 21
237.5000000000
  0
LINE
  8
5
  6
CONTINUOUS
 62
6
 10
395.4999999998
 20
237.5000000000
 11
380.4999999998
 21
237.5000000000
  0
LINE
  8
5
  6
CONTINUOUS
 62
6
 10
380.4999999998
 20
237.5000000000
 11
340.4999999998
 21
237.5000000000
  0
TEXT
  8
5
  6
CONTINUOUS
 62
7
 10
316.250000
 20
253.250000
 40
3.500000
  1
11
 41
0.854701
 50
0.000000
 51
0.000000
 72
   5
 73
   0
 11
319.750000
 21
253.250000
  0
TEXT
  8
5
  6
CONTINUOUS
 62
7
 10
316.250000
 20
248.250000
 40
3.500000
  1
12
 41
0.854701
 50
0.000000
 51
0.000000
 72
   5
 73
   0
 11
319.750000
 21
248.250000
  0
TEXT
  8
5
  6
CONTINUOUS
 62
7
 10
316.250000
 20
243.250000
 40
3.500000
  1
13
 41
0.854701
 50
0.000000
 51
0.000000
 72
   5
 73
   0
 11
319.750000
 21
243.250000
  0
TEXT
  8
5
  6
CONTINUOUS
 62
7
 10
321.500000
 20
268.500000
 40
3.000000
  1
パネル
 41
0.877246
 50
0.000000
 51
0.000000
 72
   5
 73
   0
 11
330.290000
 21
268.500000
  0
TEXT
  8
5
  6
CONTINUOUS
 62
7
 10
341.500000
 20
268.250000
 40
3.500000
  1
M0051B050A (SPCCt=1.6)
 41
0.756829
 50
0.000000
 51
0.000000
 72
   5
 73
   0
 11
380.094500
 21
268.250000
  0
TEXT
  8
5
  6
CONTINUOUS
 62
7
 10
397.125000
 20
268.250000
 40
3.500000
  1
1
 41
1.000000
 50
0.000000
 51
0.000000
 72
   5
 73
   0
 11
398.875000
 21
268.250000
  0
TEXT
  8
5
  6
CONTINUOUS
 62
7
 10
294.500000
 20
268.500000
 40
3.000000
  1
MADOKA
 41
1.028831
 50
0.000000
 51
0.000000
 72
   5
 73
   0
 11
306.383000
 21
268.500000
  0
TEXT
  8
5
  6
CONTINUOUS
 62
7
 10
294.500000
 20
263.500000
 40
3.000000
  1
MADOKA
 41
1.028831
 50
0.000000
 51
0.000000
 72
   5
 73
   0
 11
306.383000
 21
263.500000
  0
TEXT
  8
5
  6
CONTINUOUS
 62
7
 10
381.500000
 20
268.500000
 40
3.000000
  1
MADOKA
 41
1.028831
 50
0.000000
 51
0.000000
 72
   5
 73
   0
 11
393.383000
 21
268.500000
  0
TEXT
  8
5
  6
CONTINUOUS
 62
7
 10
294.500000
 20
238.500000
 40
3.000000
  1
--
 41
0.854701
 50
0.000000
 51
0.000000
 72
   5
 73
   0
 11
297.500000
 21
238.500000
  0
TEXT
  8
5
  6
CONTINUOUS
 62
7
 10
294.500000
 20
243.500000
 40
3.000000
  1
--
 41
0.854701
 50
0.000000
 51
0.000000
 72
   5
 73
   0
 11
297.500000
 21
243.500000
  0
TEXT
  8
5
  6
CONTINUOUS
 62
7
 10
294.500000
 20
248.500000
 40
3.000000
  1
--
 41
0.854701
 50
0.000000
 51
0.000000
 72
   5
 73
   0
 11
297.500000
 21
248.500000
  0
TEXT
  8
5
  6
CONTINUOUS
 62
7
 10
294.500000
 20
253.500000
 40
3.000000
  1
--
 41
0.854701
 50
0.000000
 51
0.000000
 72
   5
 73
   0
 11
297.500000
 21
253.500000
  0
TEXT
  8
5
  6
CONTINUOUS
 62
7
 10
294.500000
 20
258.500000
 40
3.000000
  1
--
 41
0.854701
 50
0.000000
 51
0.000000
 72
   5
 73
   0
 11
297.500000
 21
258.500000
  0
TEXT
  8
5
  6
CONTINUOUS
 62
7
 10
397.125000
 20
263.250000
 40
3.500000
  1
1
 41
1.000000
 50
0.000000
 51
0.000000
 72
   5
 73
   0
 11
398.875000
 21
263.250000
  0
TEXT
  8
5
  6
CONTINUOUS
 62
7
 10
397.125000
 20
258.250000
 40
3.500000
  1
2
 41
1.000000
 50
0.000000
 51
0.000000
 72
   5
 73
   0
 11
398.875000
 21
258.250000
  0
TEXT
  8
5
  6
CONTINUOUS
 62
7
 10
397.125000
 20
253.250000
 40
3.500000
  1
1
 41
1.000000
 50
0.000000
 51
0.000000
 72
   5
 73
   0
 11
398.875000
 21
253.250000
  0
TEXT
  8
5
  6
CONTINUOUS
 62
7
 10
321.500000
 20
258.500000
 40
3.000000
  1
↑固定ビス
 41
0.839085
 50
0.000000
 51
0.000000
 72
   5
 73
   0
 11
335.798000
 21
258.500000
  0
TEXT
  8
5
  6
CONTINUOUS
 62
7
 10
341.500000
 20
258.250000
 40
3.500000
  1
M3×8小ワｾﾑｽ
 41
0.900136
 50
0.000000
 51
0.000000
 72
   5
 73
   0
 11
364.687500
 21
258.250000
  0
TEXT
  8
5
  6
CONTINUOUS
 62
7
 10
381.500000
 20
258.500000
 40
3.000000
  1
--
 41
0.854701
 50
0.000000
 51
0.000000
 72
   5
 73
   0
 11
384.500000
 21
258.500000
  0
POINT
  8
4
  6
CONTINUOUS
 62
7
 10
183.3371686205
 20
134.8868942825
  0
LINE
  8
3
  6
CONTINUOUS
 62
7
 10
210.5871686205
 20
73.8868942827
 11
210.5871686205
 21
195.8868942823
  0
LINE
  8
3
  6
CONTINUOUS
 62
7
 10
209.5871686205
 20
196.8868942823
 11
157.0871686205
 21
196.8868942827
  0
LINE
  8
3
  6
CONTINUOUS
 62
7
 10
156.0871686205
 20
73.8868942823
 11
156.0871686205
 21
195.8868942827
  0
LINE
  8
3
  6
CONTINUOUS
 62
7
 10
209.5871686205
 20
72.8868942827
 11
157.0871686205
 21
72.8868942823
  0
LINE
  8
3
  6
CONTINUOUS
 62
7
 10
157.0871686205
 20
196.8868942827
 11
156.0871686205
 21
195.8868942827
  0
LINE
  8
3
  6
CONTINUOUS
 62
7
 10
210.5871686205
 20
195.8868942823
 11
209.5871686205
 21
196.8868942823
  0
LINE
  8
3
  6
CONTINUOUS
 62
7
 10
210.5871686205
 20
73.8868942827
 11
209.5871686205
 21
72.8868942827
  0
LINE
  8
3
  6
CONTINUOUS
 62
7
 10
157.0871686205
 20
72.8868942823
 11
156.0871686205
 21
73.8868942823
  0
LINE
  8
5
  6
CONTINUOUS
 62
6
 10
380.5000000000
 20
252.5000000000
 11
340.5000000000
 21
252.5000000000
  0
TEXT
  8
5
  6
CONTINUOUS
 62
7
 10
341.500000
 20
253.250000
 40
3.500000
  1
M3.5×8小ワｾﾑｽ
 41
0.842299
 50
0.000000
 51
0.000000
 72
   5
 73
   0
 11
367.148000
 21
253.250000
  0
TEXT
  8
5
  6
CONTINUOUS
 62
7
 10
381.500000
 20
253.500000
 40
3.000000
  1
--
 41
0.854701
 50
0.000000
 51
0.000000
 72
   5
 73
   0
 11
384.500000
 21
253.500000
  0
TEXT
  8
5
  6
CONTINUOUS
 62
7
 10
321.500000
 20
248.500000
 40
3.000000
  1
↑固定板金
 41
0.880282
 50
0.000000
 51
0.000000
 72
   5
 73
   0
 11
336.500000
 21
248.500000
  0
TEXT
  8
5
  6
CONTINUOUS
 62
7
 10
341.500000
 20
248.250000
 40
3.500000
  1
M0051B802A (SPCCt=1.0)
 41
0.756829
 50
0.000000
 51
0.000000
 72
   5
 73
   0
 11
380.094500
 21
248.250000
  0
TEXT
  8
5
  6
CONTINUOUS
 62
7
 10
381.500000
 20
248.500000
 40
3.000000
  1
MADOKA
 41
1.028831
 50
0.000000
 51
0.000000
 72
   5
 73
   0
 11
393.383000
 21
248.500000
  0
TEXT
  8
5
  6
CONTINUOUS
 62
7
 10
396.250000
 20
248.250000
 40
3.500000
  1
--
 41
0.854701
 50
0.000000
 51
0.000000
 72
   5
 73
   0
 11
399.750000
 21
248.250000
  0
TEXT
  8
5
  6
CONTINUOUS
 62
7
 10
321.500000
 20
243.500000
 40
3.000000
  1
7110GD用ｶﾊﾞｰ
 41
0.833506
 50
0.000000
 51
0.000000
 72
   5
 73
   0
 11
340.754000
 21
243.500000
  0
TEXT
  8
5
  6
CONTINUOUS
 62
7
 10
341.500000
 20
242.540741
 40
3.500000
  1
MCON-C801
 41
0.924573
 50
0.000000
 51
0.000000
 72
   5
 73
   0
 11
360.463000
 21
242.540741
  0
TEXT
  8
5
  6
CONTINUOUS
 62
7
 10
341.500000
 20
239.040741
 40
3.500000
  1
M0051A801A (PC t=1.0)
 41
0.723957
 50
0.000000
 51
0.000000
 72
   5
 73
   0
 11
376.720500
 21
239.040741
  0
TEXT
  8
5
  6
CONTINUOUS
 62
7
 10
381.500000
 20
243.500000
 40
3.000000
  1
MADOKA
 41
1.028831
 50
0.000000
 51
0.000000
 72
   5
 73
   0
 11
393.383000
 21
243.500000
  0
TEXT
  8
5
  6
CONTINUOUS
 62
7
 10
397.125000
 20
243.250000
 40
3.500000
  1
1
 41
1.000000
 50
0.000000
 51
0.000000
 72
   5
 73
   0
 11
398.875000
 21
243.250000
  0
INSERT
  8
1
  6
CONTINUOUS
 62
5
  2
LTEX0
 10
137.6566089140
 20
83.8868942825
  0
ARC
  8
3
  6
CONTINUOUS
 62
3
 10
183.3371686205
 20
115.3868942825
 40
16.7500000000
 50
124.8254600000
 51
235.1745400000
  0
ARC
  8
3
  6
CONTINUOUS
 62
3
 10
183.3371686205
 20
115.3868942825
 40
16.2500000000
 50
125.3745900000
 51
234.6254100000
  0
LINE
  8
3
  6
CONTINUOUS
 62
3
 10
192.9027316205
 20
101.6368942825
 11
173.7716046205
 21
101.6368942825
  0
LINE
  8
3
  6
CONTINUOUS
 62
3
 10
192.9027316205
 20
129.1368942825
 11
173.7716046205
 21
129.1368942825
  0
LINE
  8
3
  6
CONTINUOUS
 62
3
 10
192.7446126205
 20
128.6368942825
 11
173.9297246205
 21
128.6368942825
  0
LINE
  8
3
  6
CONTINUOUS
 62
3
 10
192.7446126205
 20
102.1368942825
 11
173.9297246205
 21
102.1368942825
  0
ARC
  8
3
  6
CONTINUOUS
 62
3
 10
183.3371686205
 20
115.3868942825
 40
16.2500000000
 50
305.3745900000
 51
54.6254100000
  0
ARC
  8
3
  6
CONTINUOUS
 62
3
 10
183.3371686205
 20
115.3868942825
 40
16.7500000000
 50
304.8254600000
 51
55.1745400000
  0
LINE
  8
3
  6
CONTINUOUS
 62
3
 10
192.9027316205
 20
129.1368942825
 11
192.7446126205
 21
128.6368942825
  0
LINE
  8
3
  6
CONTINUOUS
 62
3
 10
192.7446126205
 20
102.1368942825
 11
192.9027316205
 21
101.6368942825
  0
LINE
  8
3
  6
CONTINUOUS
 62
3
 10
173.7716046205
 20
129.1368942825
 11
173.9297246205
 21
128.6368942825
  0
LINE
  8
3
  6
CONTINUOUS
 62
3
 10
173.9297246205
 20
102.1368942825
 11
173.7716046205
 21
101.6368942825
  0
LINE
  8
3
  6
CONTINUOUS
 62
3
 10
186.0371686205
 20
106.4868942825
 11
186.0371686205
 21
103.7868942825
  0
LINE
  8
3
  6
CONTINUOUS
 62
3
 10
187.0371686205
 20
106.4868942825
 11
187.0371686205
 21
103.7868942825
  0
LINE
  8
3
  6
CONTINUOUS
 62
3
 10
180.6371686205
 20
106.4868942825
 11
180.6371686205
 21
103.7868942825
  0
LINE
  8
3
  6
CONTINUOUS
 62
3
 10
179.6371686205
 20
106.4868942825
 11
179.6371686205
 21
103.7868942825
  0
ARC
  8
3
  6
CONTINUOUS
 62
3
 10
183.3371686205
 20
106.4868942825
 40
3.7000000000
 50
0.0000000000
 51
180.0000000000
  0
ARC
  8
3
  6
CONTINUOUS
 62
3
 10
183.3371686205
 20
106.4868942825
 40
2.7000000000
 50
0.0000000000
 51
180.0000000000
  0
LINE
  8
3
  6
CONTINUOUS
 62
3
 10
187.0371686205
 20
103.7868942825
 11
179.6371686205
 21
103.7868942825
  0
LINE
  8
3
  6
CONTINUOUS
 62
3
 10
190.7871686205
 20
122.1368942825
 11
190.7871686205
 21
114.6368942825
  0
LINE
  8
3
  6
CONTINUOUS
 62
3
 10
191.7871686205
 20
124.6368942825
 11
191.7871686205
 21
112.1368942825
  0
LINE
  8
3
  6
CONTINUOUS
 62
3
 10
188.5871686205
 20
122.1368942825
 11
188.5871686205
 21
114.6368942825
  0
LINE
  8
3
  6
CONTINUOUS
 62
3
 10
187.5871686205
 20
124.6368942825
 11
187.5871686205
 21
112.1368942825
  0
LINE
  8
3
  6
CONTINUOUS
 62
3
 10
191.7871686205
 20
124.6368942825
 11
187.5871686205
 21
124.6368942825
  0
LINE
  8
3
  6
CONTINUOUS
 62
3
 10
191.7871686205
 20
112.1368942825
 11
187.5871686205
 21
112.1368942825
  0
LINE
  8
3
  6
CONTINUOUS
 62
3
 10
190.7871686205
 20
122.1368942825
 11
188.5871686205
 21
122.1368942825
  0
LINE
  8
3
  6
CONTINUOUS
 62
3
 10
190.7871686205
 20
114.6368942825
 11
188.5871686205
 21
114.6368942825
  0
LINE
  8
3
  6
CONTINUOUS
 62
3
 10
191.7871686205
 20
124.6368942825
 11
190.7871686205
 21
122.1368942825
  0
LINE
  8
3
  6
CONTINUOUS
 62
3
 10
188.5871686205
 20
122.1368942825
 11
187.5871686205
 21
124.6368942825
  0
LINE
  8
3
  6
CONTINUOUS
 62
3
 10
188.5871686205
 20
114.6368942825
 11
187.5871686205
 21
112.1368942825
  0
LINE
  8
3
  6
CONTINUOUS
 62
3
 10
190.7871686205
 20
114.6368942825
 11
191.7871686205
 21
112.1368942825
  0
LINE
  8
3
  6
CONTINUOUS
 62
3
 10
175.8871686205
 20
122.7368942825
 11
175.8871686205
 21
114.0368942825
  0
LINE
  8
3
  6
CONTINUOUS
 62
3
 10
174.8871686205
 20
124.6368942825
 11
174.8871686205
 21
112.1368942825
  0
LINE
  8
3
  6
CONTINUOUS
 62
3
 10
178.0871686205
 20
122.7368942825
 11
178.0871686205
 21
114.0368942825
  0
LINE
  8
3
  6
CONTINUOUS
 62
3
 10
179.0871686205
 20
124.6368942825
 11
179.0871686205
 21
112.1368942825
  0
LINE
  8
3
  6
CONTINUOUS
 62
3
 10
174.8871686205
 20
124.6368942825
 11
179.0871686205
 21
124.6368942825
  0
LINE
  8
3
  6
CONTINUOUS
 62
3
 10
174.8871686205
 20
112.1368942825
 11
179.0871686205
 21
112.1368942825
  0
LINE
  8
3
  6
CONTINUOUS
 62
3
 10
178.0871686205
 20
122.7368942825
 11
175.8871686205
 21
122.7368942825
  0
LINE
  8
3
  6
CONTINUOUS
 62
3
 10
178.0871686205
 20
114.0368942825
 11
175.8871686205
 21
114.0368942825
  0
LINE
  8
3
  6
CONTINUOUS
 62
3
 10
179.0871686205
 20
124.6368942825
 11
178.0871686205
 21
122.7368942825
  0
LINE
  8
3
  6
CONTINUOUS
 62
3
 10
175.8871686205
 20
122.7368942825
 11
174.8871686205
 21
124.6368942825
  0
LINE
  8
3
  6
CONTINUOUS
 62
3
 10
178.0871686205
 20
114.0368942825
 11
179.0871686205
 21
112.1368942825
  0
LINE
  8
3
  6
CONTINUOUS
 62
3
 10
175.8871686205
 20
114.0368942825
 11
174.8871686205
 21
112.1368942825
  0
ARC
  8
3
  6
CONTINUOUS
 62
3
 10
183.3371686205
 20
154.3868942825
 40
16.7500000000
 50
304.8254600000
 51
55.1745400000
  0
ARC
  8
3
  6
CONTINUOUS
 62
3
 10
183.3371686205
 20
154.3868942825
 40
16.2500000000
 50
305.3745900000
 51
54.6254100000
  0
LINE
  8
3
  6
CONTINUOUS
 62
3
 10
173.7716046205
 20
140.6368942825
 11
192.9027316205
 21
140.6368942825
  0
LINE
  8
3
  6
CONTINUOUS
 62
3
 10
173.7716046205
 20
168.1368942825
 11
192.9027316205
 21
168.1368942825
  0
LINE
  8
3
  6
CONTINUOUS
 62
3
 10
173.9297246205
 20
167.6368942825
 11
192.7446126205
 21
167.6368942825
  0
LINE
  8
3
  6
CONTINUOUS
 62
3
 10
173.9297246205
 20
141.1368942825
 11
192.7446126205
 21
141.1368942825
  0
ARC
  8
3
  6
CONTINUOUS
 62
3
 10
183.3371686205
 20
154.3868942825
 40
16.2500000000
 50
125.3745900000
 51
234.6254100000
  0
ARC
  8
3
  6
CONTINUOUS
 62
3
 10
183.3371686205
 20
154.3868942825
 40
16.7500000000
 50
124.8254600000
 51
235.1745400000
  0
LINE
  8
3
  6
CONTINUOUS
 62
3
 10
173.7716046205
 20
168.1368942825
 11
173.9297246205
 21
167.6368942825
  0
LINE
  8
3
  6
CONTINUOUS
 62
3
 10
173.9297246205
 20
141.1368942825
 11
173.7716046205
 21
140.6368942825
  0
LINE
  8
3
  6
CONTINUOUS
 62
3
 10
192.9027316205
 20
168.1368942825
 11
192.7446126205
 21
167.6368942825
  0
LINE
  8
3
  6
CONTINUOUS
 62
3
 10
192.7446126205
 20
141.1368942825
 11
192.9027316205
 21
140.6368942825
  0
LINE
  8
3
  6
CONTINUOUS
 62
3
 10
180.6371686205
 20
145.4868942825
 11
180.6371686205
 21
142.7868942825
  0
LINE
  8
3
  6
CONTINUOUS
 62
3
 10
179.6371686205
 20
145.4868942825
 11
179.6371686205
 21
142.7868942825
  0
LINE
  8
3
  6
CONTINUOUS
 62
3
 10
186.0371686205
 20
145.4868942825
 11
186.0371686205
 21
142.7868942825
  0
LINE
  8
3
  6
CONTINUOUS
 62
3
 10
187.0371686205
 20
145.4868942825
 11
187.0371686205
 21
142.7868942825
  0
ARC
  8
3
  6
CONTINUOUS
 62
3
 10
183.3371686205
 20
145.4868942825
 40
3.7000000000
 50
0.0000000000
 51
180.0000000000
  0
ARC
  8
3
  6
CONTINUOUS
 62
3
 10
183.3371686205
 20
145.4868942825
 40
2.7000000000
 50
0.0000000000
 51
180.0000000000
  0
LINE
  8
3
  6
CONTINUOUS
 62
3
 10
179.6371686205
 20
142.7868942825
 11
187.0371686205
 21
142.7868942825
  0
LINE
  8
3
  6
HIDDEN
 62
5
 10
200.8371686205
 20
166.3868942825
 11
200.8371686205
 21
103.3868942825
  0
LINE
  8
3
  6
HIDDEN
 62
5
 10
165.8371686205
 20
166.3868942825
 11
165.8371686205
 21
103.3868942825
  0
LINE
  8
3
  6
HIDDEN
 62
5
 10
197.3371686205
 20
169.8868942825
 11
191.3371686205
 21
169.8868942825
  0
ARC
  8
3
  6
HIDDEN
 62
5
 10
197.3371686205
 20
166.3868942825
 40
3.5000000000
 50
0.0000000000
 51
90.0000000000
  0
ARC
  8
3
  6
HIDDEN
 62
5
 10
197.3371686205
 20
103.3868942825
 40
3.5000000000
 50
270.0000000000
 51
0.0000000000
  0
ARC
  8
3
  6
HIDDEN
 62
5
 10
169.3371686205
 20
103.3868942825
 40
3.5000000000
 50
180.0000000000
 51
270.0000000000
  0
ARC
  8
3
  6
HIDDEN
 62
5
 10
169.3371686205
 20
166.3868942825
 40
3.5000000000
 50
90.0000000000
 51
180.0000000000
  0
LINE
  8
3
  6
CONTINUOUS
 62
3
 10
190.7871686205
 20
161.1368942825
 11
190.7871686205
 21
153.6368942825
  0
LINE
  8
3
  6
CONTINUOUS
 62
3
 10
191.7871686205
 20
163.6368942825
 11
191.7871686205
 21
151.1368942825
  0
LINE
  8
3
  6
CONTINUOUS
 62
3
 10
188.5871686205
 20
161.1368942825
 11
188.5871686205
 21
153.6368942825
  0
LINE
  8
3
  6
CONTINUOUS
 62
3
 10
187.5871686205
 20
163.6368942825
 11
187.5871686205
 21
151.1368942825
  0
LINE
  8
3
  6
CONTINUOUS
 62
3
 10
191.7871686205
 20
163.6368942825
 11
187.5871686205
 21
163.6368942825
  0
LINE
  8
3
  6
CONTINUOUS
 62
3
 10
191.7871686205
 20
151.1368942825
 11
187.5871686205
 21
151.1368942825
  0
LINE
  8
3
  6
CONTINUOUS
 62
3
 10
190.7871686205
 20
161.1368942825
 11
188.5871686205
 21
161.1368942825
  0
LINE
  8
3
  6
CONTINUOUS
 62
3
 10
190.7871686205
 20
153.6368942825
 11
188.5871686205
 21
153.6368942825
  0
LINE
  8
3
  6
CONTINUOUS
 62
3
 10
191.7871686205
 20
163.6368942825
 11
190.7871686205
 21
161.1368942825
  0
LINE
  8
3
  6
CONTINUOUS
 62
3
 10
188.5871686205
 20
161.1368942825
 11
187.5871686205
 21
163.6368942825
  0
LINE
  8
3
  6
CONTINUOUS
 62
3
 10
188.5871686205
 20
153.6368942825
 11
187.5871686205
 21
151.1368942825
  0
LINE
  8
3
  6
CONTINUOUS
 62
3
 10
190.7871686205
 20
153.6368942825
 11
191.7871686205
 21
151.1368942825
  0
LINE
  8
3
  6
CONTINUOUS
 62
3
 10
179.0871686205
 20
163.6368942825
 11
179.0871686205
 21
151.1368942825
  0
LINE
  8
3
  6
CONTINUOUS
 62
3
 10
178.0871686205
 20
161.7368942825
 11
178.0871686205
 21
153.0368942825
  0
LINE
  8
3
  6
CONTINUOUS
 62
3
 10
175.8871686205
 20
161.7368942825
 11
175.8871686205
 21
153.0368942825
  0
LINE
  8
3
  6
CONTINUOUS
 62
3
 10
174.8871686205
 20
163.6368942825
 11
174.8871686205
 21
151.1368942825
  0
LINE
  8
3
  6
CONTINUOUS
 62
3
 10
178.0871686205
 20
161.7368942825
 11
178.0871686205
 21
153.0368942825
  0
LINE
  8
3
  6
CONTINUOUS
 62
3
 10
174.8871686205
 20
163.6368942825
 11
179.0871686205
 21
163.6368942825
  0
LINE
  8
3
  6
CONTINUOUS
 62
3
 10
174.8871686205
 20
151.1368942825
 11
179.0871686205
 21
151.1368942825
  0
LINE
  8
3
  6
CONTINUOUS
 62
3
 10
178.0871686205
 20
161.7368942825
 11
175.8871686205
 21
161.7368942825
  0
LINE
  8
3
  6
CONTINUOUS
 62
3
 10
178.0871686205
 20
153.0368942825
 11
175.8871686205
 21
153.0368942825
  0
LINE
  8
3
  6
CONTINUOUS
 62
3
 10
179.0871686205
 20
163.6368942825
 11
178.0871686205
 21
161.7368942825
  0
LINE
  8
3
  6
CONTINUOUS
 62
3
 10
175.8871686205
 20
161.7368942825
 11
174.8871686205
 21
163.6368942825
  0
LINE
  8
3
  6
CONTINUOUS
 62
3
 10
178.0871686205
 20
153.0368942825
 11
179.0871686205
 21
151.1368942825
  0
LINE
  8
3
  6
CONTINUOUS
 62
3
 10
175.8871686205
 20
153.0368942825
 11
174.8871686205
 21
151.1368942825
  0
LINE
  8
3
  6
HIDDEN
 62
5
 10
191.5871686205
 20
169.8868942825
 11
191.5871686205
 21
168.8868942825
  0
LINE
  8
3
  6
HIDDEN
 62
5
 10
191.5871686205
 20
168.8868942825
 11
175.0871686205
 21
168.8868942825
  0
LINE
  8
3
  6
HIDDEN
 62
5
 10
175.0871686205
 20
169.8868942825
 11
175.0871686205
 21
168.8868942825
  0
LINE
  8
3
  6
HIDDEN
 62
5
 10
175.3371686205
 20
169.8868942825
 11
169.3371686205
 21
169.8868942825
  0
LINE
  8
3
  6
HIDDEN
 62
5
 10
197.3371686205
 20
99.8868942825
 11
191.3371686205
 21
99.8868942825
  0
LINE
  8
3
  6
HIDDEN
 62
5
 10
191.5871686205
 20
99.8868942825
 11
191.5871686205
 21
100.8868942825
  0
LINE
  8
3
  6
HIDDEN
 62
5
 10
191.5871686205
 20
100.8868942825
 11
175.0871686205
 21
100.8868942825
  0
LINE
  8
3
  6
HIDDEN
 62
5
 10
175.0871686205
 20
99.8868942825
 11
175.0871686205
 21
100.8868942825
  0
LINE
  8
3
  6
HIDDEN
 62
5
 10
175.3371686205
 20
99.8868942825
 11
169.3371686205
 21
99.8868942825
  0
LINE
  8
3
  6
HIDDEN
 62
5
 10
198.3371686205
 20
82.8868942825
 11
191.3371686205
 21
82.8868942825
  0
LINE
  8
3
  6
HIDDEN
 62
5
 10
198.3371686205
 20
91.8868942825
 11
191.3371686205
 21
91.8868942825
  0
LINE
  8
3
  6
HIDDEN
 62
5
 10
191.3371686205
 20
177.8868942825
 11
191.3371686205
 21
169.1368942825
  0
LINE
  8
3
  6
HIDDEN
 62
5
 10
175.3371686205
 20
177.8868942825
 11
175.3371686205
 21
169.1368942825
  0
LINE
  8
3
  6
HIDDEN
 62
5
 10
199.3371686205
 20
90.8868942825
 11
199.3371686205
 21
83.8868942825
  0
LINE
  8
3
  6
HIDDEN
 62
5
 10
167.3371686205
 20
90.8868942825
 11
167.3371686205
 21
83.8868942825
  0
ARC
  8
3
  6
HIDDEN
 62
5
 10
198.3371686205
 20
90.8868942825
 40
1.0000000000
 50
0.0000000000
 51
90.0000000000
  0
ARC
  8
3
  6
HIDDEN
 62
5
 10
198.3371686205
 20
83.8868942825
 40
1.0000000000
 50
270.0000000000
 51
0.0000000000
  0
ARC
  8
3
  6
HIDDEN
 62
5
 10
168.3371686205
 20
83.8868942825
 40
1.0000000000
 50
180.0000000000
 51
270.0000000000
  0
ARC
  8
3
  6
HIDDEN
 62
5
 10
168.3371686205
 20
90.8868942825
 40
1.0000000000
 50
90.0000000000
 51
180.0000000000
  0
CIRCLE
  8
3
  6
HIDDEN
 62
5
 10
171.8371686205
 20
87.3868942825
 40
2.2500000000
  0
POINT
  8
3
  6
CONTINUOUS
 62
5
 10
171.8371686205
 20
87.3868942825
  0
CIRCLE
  8
3
  6
HIDDEN
 62
5
 10
194.8371686205
 20
87.3868942825
 40
2.2500000000
  0
POINT
  8
3
  6
CONTINUOUS
 62
5
 10
194.8371686205
 20
87.3868942825
  0
LINE
  8
3
  6
HIDDEN
 62
5
 10
185.8371686205
 20
90.6368942825
 11
180.8371686205
 21
90.6368942825
  0
LINE
  8
3
  6
HIDDEN
 62
5
 10
185.8371686205
 20
95.6368942825
 11
180.8371686205
 21
95.6368942825
  0
ARC
  8
3
  6
HIDDEN
 62
5
 10
185.8371686205
 20
93.1368942825
 40
2.5000000000
 50
0.0000000000
 51
90.0000000000
  0
ARC
  8
3
  6
HIDDEN
 62
5
 10
185.8371686205
 20
93.1368942825
 40
2.5000000000
 50
270.0000000000
 51
0.0000000000
  0
ARC
  8
3
  6
HIDDEN
 62
5
 10
180.8371686205
 20
93.1368942825
 40
2.5000000000
 50
90.0000000000
 51
180.0000000000
  0
ARC
  8
3
  6
HIDDEN
 62
5
 10
180.8371686205
 20
93.1368942825
 40
2.5000000000
 50
180.0000000000
 51
270.0000000000
  0
POINT
  8
3
  6
CONTINUOUS
 62
5
 10
183.3371686205
 20
93.1368942825
  0
LINE
  8
3
  6
HIDDEN
 62
5
 10
175.3371686205
 20
91.8868942825
 11
168.3371686205
 21
91.8868942825
  0
LINE
  8
3
  6
HIDDEN
 62
5
 10
188.3371686205
 20
88.1368942825
 11
178.3371686205
 21
88.1368942825
  0
LINE
  8
3
  6
HIDDEN
 62
5
 10
190.3371686205
 20
89.1368942825
 11
190.3371686205
 21
85.1368942825
  0
LINE
  8
3
  6
HIDDEN
 62
5
 10
190.3371686205
 20
85.1368942825
 11
176.3371686205
 21
85.1368942825
  0
LINE
  8
3
  6
HIDDEN
 62
5
 10
176.3371686205
 20
89.1368942825
 11
176.3371686205
 21
85.1368942825
  0
LINE
  8
3
  6
HIDDEN
 62
5
 10
190.3371686205
 20
89.1368942825
 11
188.3371686205
 21
88.1368942825
  0
LINE
  8
3
  6
HIDDEN
 62
5
 10
178.3371686205
 20
88.1368942825
 11
176.3371686205
 21
89.1368942825
  0
LINE
  8
3
  6
HIDDEN
 62
5
 10
191.3371686205
 20
82.8868942825
 11
190.3371686205
 21
83.8868942825
  0
LINE
  8
3
  6
HIDDEN
 62
5
 10
190.3371686205
 20
83.8868942825
 11
189.3371686205
 21
82.8868942825
  0
LINE
  8
3
  6
HIDDEN
 62
5
 10
175.3371686205
 20
82.8868942825
 11
176.3371686205
 21
83.8868942825
  0
LINE
  8
3
  6
HIDDEN
 62
5
 10
176.3371686205
 20
83.8868942825
 11
177.3371686205
 21
82.8868942825
  0
LINE
  8
3
  6
HIDDEN
 62
5
 10
189.3371686205
 20
82.8868942825
 11
177.3371686205
 21
82.8868942825
  0
LINE
  8
3
  6
HIDDEN
 62
5
 10
175.3371686205
 20
82.8868942825
 11
168.3371686205
 21
82.8868942825
  0
LINE
  8
3
  6
HIDDEN
 62
5
 10
198.3371686205
 20
186.8868942825
 11
191.3371686205
 21
186.8868942825
  0
LINE
  8
3
  6
HIDDEN
 62
5
 10
198.3371686205
 20
177.8868942825
 11
191.3371686205
 21
177.8868942825
  0
LINE
  8
3
  6
HIDDEN
 62
5
 10
199.3371686205
 20
178.8868942825
 11
199.3371686205
 21
185.8868942825
  0
LINE
  8
3
  6
HIDDEN
 62
5
 10
167.3371686205
 20
178.8868942825
 11
167.3371686205
 21
185.8868942825
  0
ARC
  8
3
  6
HIDDEN
 62
5
 10
198.3371686205
 20
178.8868942825
 40
1.0000000000
 50
270.0000000000
 51
0.0000000000
  0
ARC
  8
3
  6
HIDDEN
 62
5
 10
198.3371686205
 20
185.8868942825
 40
1.0000000000
 50
0.0000000000
 51
90.0000000000
  0
ARC
  8
3
  6
HIDDEN
 62
5
 10
168.3371686205
 20
185.8868942825
 40
1.0000000000
 50
90.0000000000
 51
180.0000000000
  0
ARC
  8
3
  6
HIDDEN
 62
5
 10
168.3371686205
 20
178.8868942825
 40
1.0000000000
 50
180.0000000000
 51
270.0000000000
  0
POINT
  8
3
  6
CONTINUOUS
 62
5
 10
171.8371686205
 20
182.3868942825
  0
POINT
  8
3
  6
CONTINUOUS
 62
5
 10
194.8371686205
 20
182.3868942825
  0
LINE
  8
3
  6
HIDDEN
 62
5
 10
185.8371686205
 20
179.1368942825
 11
180.8371686205
 21
179.1368942825
  0
LINE
  8
3
  6
HIDDEN
 62
5
 10
185.8371686205
 20
174.1368942825
 11
180.8371686205
 21
174.1368942825
  0
ARC
  8
3
  6
HIDDEN
 62
5
 10
185.8371686205
 20
176.6368942825
 40
2.5000000000
 50
270.0000000000
 51
0.0000000000
  0
ARC
  8
3
  6
HIDDEN
 62
5
 10
185.8371686205
 20
176.6368942825
 40
2.5000000000
 50
0.0000000000
 51
90.0000000000
  0
ARC
  8
3
  6
HIDDEN
 62
5
 10
180.8371686205
 20
176.6368942825
 40
2.5000000000
 50
180.0000000000
 51
270.0000000000
  0
ARC
  8
3
  6
HIDDEN
 62
5
 10
180.8371686205
 20
176.6368942825
 40
2.5000000000
 50
90.0000000000
 51
180.0000000000
  0
POINT
  8
3
  6
CONTINUOUS
 62
5
 10
183.3371686205
 20
176.6368942825
  0
LINE
  8
3
  6
HIDDEN
 62
5
 10
175.3371686205
 20
177.8868942825
 11
168.3371686205
 21
177.8868942825
  0
LINE
  8
3
  6
HIDDEN
 62
5
 10
188.3371686205
 20
181.6368942825
 11
178.3371686205
 21
181.6368942825
  0
LINE
  8
3
  6
HIDDEN
 62
5
 10
190.3371686205
 20
180.6368942825
 11
190.3371686205
 21
184.6368942825
  0
LINE
  8
3
  6
HIDDEN
 62
5
 10
190.3371686205
 20
184.6368942825
 11
176.3371686205
 21
184.6368942825
  0
LINE
  8
3
  6
HIDDEN
 62
5
 10
176.3371686205
 20
180.6368942825
 11
176.3371686205
 21
184.6368942825
  0
LINE
  8
3
  6
HIDDEN
 62
5
 10
190.3371686205
 20
180.6368942825
 11
188.3371686205
 21
181.6368942825
  0
LINE
  8
3
  6
HIDDEN
 62
5
 10
178.3371686205
 20
181.6368942825
 11
176.3371686205
 21
180.6368942825
  0
LINE
  8
3
  6
HIDDEN
 62
5
 10
191.3371686205
 20
186.8868942825
 11
190.3371686205
 21
185.8868942825
  0
LINE
  8
3
  6
HIDDEN
 62
5
 10
190.3371686205
 20
185.8868942825
 11
189.3371686205
 21
186.8868942825
  0
LINE
  8
3
  6
HIDDEN
 62
5
 10
175.3371686205
 20
186.8868942825
 11
176.3371686205
 21
185.8868942825
  0
LINE
  8
3
  6
HIDDEN
 62
5
 10
176.3371686205
 20
185.8868942825
 11
177.3371686205
 21
186.8868942825
  0
LINE
  8
3
  6
HIDDEN
 62
5
 10
189.3371686205
 20
186.8868942825
 11
177.3371686205
 21
186.8868942825
  0
LINE
  8
3
  6
HIDDEN
 62
5
 10
175.3371686205
 20
186.8868942825
 11
168.3371686205
 21
186.8868942825
  0
LINE
  8
3
  6
HIDDEN
 62
5
 10
191.3371686205
 20
169.1368942825
 11
175.3371686205
 21
169.1368942825
  0
LINE
  8
3
  6
HIDDEN
 62
5
 10
191.3371686205
 20
100.6368942825
 11
191.3371686205
 21
91.8868942825
  0
LINE
  8
3
  6
HIDDEN
 62
5
 10
175.3371686205
 20
100.6368942825
 11
175.3371686205
 21
91.8868942825
  0
POINT
  8
3
  6
CONTINUOUS
 62
3
 10
183.3371686205
 20
145.4868942825
  0
POINT
  8
3
  6
CONTINUOUS
 62
5
 10
183.3371686205
 20
134.8868942825
  0
POINT
  8
3
  6
CONTINUOUS
 62
3
 10
183.3371686205
 20
115.3868942825
  0
POINT
  8
3
  6
CONTINUOUS
 62
3
 10
183.3371686205
 20
106.4868942825
  0
LINE
  8
3
  6
HIDDEN
 62
5
 10
175.3371686205
 20
100.6368942825
 11
191.3371686205
 21
100.6368942825
  0
LINE
  8
3
  6
CONTINUOUS
 62
3
 10
184.8371686205
 20
147.7318882825
 11
184.8371686205
 21
142.7868942825
  0
LINE
  8
3
  6
CONTINUOUS
 62
3
 10
181.8371686205
 20
147.7318882825
 11
181.8371686205
 21
142.7868942825
  0
LINE
  8
3
  6
CONTINUOUS
 62
3
 10
184.8371686205
 20
108.7318882825
 11
184.8371686205
 21
103.7868942825
  0
LINE
  8
3
  6
CONTINUOUS
 62
3
 10
181.8371686205
 20
108.7318882825
 11
181.8371686205
 21
103.7868942825
  0
CIRCLE
  8
3
  6
CONTINUOUS
 62
3
 10
176.3371686205
 20
106.8868942825
 40
2.2500000000
  0
LINE
  8
3
  6
CONTINUOUS
 62
3
 10
177.9871686205
 20
106.8868942825
 11
176.3371686205
 21
106.8868942825
  0
LINE
  8
3
  6
CONTINUOUS
 62
3
 10
176.3371686205
 20
108.6118942825
 11
176.3371686205
 21
105.1618942825
  0
LINE
  8
3
  6
CONTINUOUS
 62
3
 10
175.5871686205
 20
108.0118942825
 11
175.5871686205
 21
105.7618942825
  0
LINE
  8
3
  6
CONTINUOUS
 62
3
 10
174.8371686205
 20
107.4868942825
 11
174.8371686205
 21
106.2868942825
  0
LINE
  8
3
  6
CONTINUOUS
 62
3
 10
186.3371686205
 20
127.6368942825
 11
186.3371686205
 21
111.1368942825
  0
LINE
  8
3
  6
CONTINUOUS
 62
3
 10
180.3371686205
 20
127.6368942825
 11
180.3371686205
 21
111.1368942825
  0
LINE
  8
3
  6
CONTINUOUS
 62
3
 10
186.3371686205
 20
127.6368942825
 11
180.3371686205
 21
127.6368942825
  0
LINE
  8
3
  6
CONTINUOUS
 62
3
 10
186.3371686205
 20
111.1368942825
 11
180.3371686205
 21
111.1368942825
  0
LINE
  8
3
  6
CONTINUOUS
 62
3
 10
180.3371686205
 20
127.6368942825
 11
180.3371686205
 21
111.1368942825
  0
TEXT
  8
3
  6
CONTINUOUS
 62
3
 10
180.837156
 20
127.036890
 40
1.700000
  1
＜
 41
1.000000
 50
270.000000
 51
0.000000
 72
   5
 73
   0
 11
180.837156
 21
125.336890
  0
TEXT
  8
3
  6
CONTINUOUS
 62
3
 10
180.837156
 20
125.636896
 40
1.700000
  1
Ｐ
 41
1.000000
 50
270.000000
 51
0.000000
 72
   5
 73
   0
 11
180.837156
 21
123.936896
  0
TEXT
  8
3
  6
CONTINUOUS
 62
3
 10
180.837156
 20
124.236902
 40
1.700000
  1
Ｓ
 41
1.000000
 50
270.000000
 51
0.000000
 72
   5
 73
   0
 11
180.837156
 21
122.536902
  0
TEXT
  8
3
  6
CONTINUOUS
 62
3
 10
180.837156
 20
122.836893
 40
1.700000
  1
＞
 41
1.000000
 50
270.000000
 51
0.000000
 72
   5
 73
   0
 11
180.837156
 21
121.136893
  0
TEXT
  8
3
  6
CONTINUOUS
 62
3
 10
180.837156
 20
121.476084
 40
1.700000
  1
Ｅ
 41
1.000000
 50
270.000000
 51
0.000000
 72
   5
 73
   0
 11
180.837156
 21
119.776084
  0
TEXT
  8
3
  6
CONTINUOUS
 62
3
 10
180.837156
 20
118.636896
 40
1.700000
  1
Ｊ
 41
1.000000
 50
270.000000
 51
0.000000
 72
   5
 73
   0
 11
180.837156
 21
116.936896
  0
TEXT
  8
3
  6
CONTINUOUS
 62
3
 10
180.837156
 20
117.236902
 40
1.700000
  1
Ｅ
 41
1.000000
 50
270.000000
 51
0.000000
 72
   5
 73
   0
 11
180.837156
 21
115.536902
  0
TEXT
  8
3
  6
CONTINUOUS
 62
3
 10
180.837156
 20
115.836893
 40
1.700000
  1
Ｔ
 41
1.000000
 50
270.000000
 51
0.000000
 72
   5
 73
   0
 11
180.837156
 21
114.136893
  0
TEXT
  8
3
  6
CONTINUOUS
 62
3
 10
183.792814
 20
127.086890
 40
2.200000
  1
1
 41
1.000000
 50
270.000000
 51
0.000000
 72
   5
 73
   0
 11
183.792814
 21
125.986890
  0
TEXT
  8
3
  6
CONTINUOUS
 62
3
 10
183.792814
 20
125.186896
 40
2.200000
  1
5
 41
1.000000
 50
270.000000
 51
0.000000
 72
   5
 73
   0
 11
183.792814
 21
124.086896
  0
TEXT
  8
3
  6
CONTINUOUS
 62
3
 10
183.792814
 20
122.986902
 40
1.700000
  1
Ａ
 41
1.000000
 50
270.000000
 51
0.000000
 72
   5
 73
   0
 11
183.792814
 21
121.286902
  0
TEXT
  8
3
  6
CONTINUOUS
 62
3
 10
183.792814
 20
121.386893
 40
2.200000
  1
－
 41
1.000000
 50
270.000000
 51
0.000000
 72
   5
 73
   0
 11
183.792814
 21
119.186893
  0
TEXT
  8
3
  6
CONTINUOUS
 62
3
 10
183.792814
 20
119.486899
 40
2.200000
  1
1
 41
1.000000
 50
270.000000
 51
0.000000
 72
   5
 73
   0
 11
183.792814
 21
118.386899
  0
TEXT
  8
3
  6
CONTINUOUS
 62
3
 10
183.792814
 20
117.586890
 40
2.200000
  1
2
 41
1.000000
 50
270.000000
 51
0.000000
 72
   5
 73
   0
 11
183.792814
 21
116.486890
  0
TEXT
  8
3
  6
CONTINUOUS
 62
3
 10
183.792814
 20
115.686896
 40
2.200000
  1
5
 41
1.000000
 50
270.000000
 51
0.000000
 72
   5
 73
   0
 11
183.792814
 21
114.586896
  0
TEXT
  8
3
  6
CONTINUOUS
 62
3
 10
183.792814
 20
113.486887
 40
1.700000
  1
Ｖ
 41
1.000000
 50
270.000000
 51
0.000000
 72
   5
 73
   0
 11
183.792814
 21
111.786887
  0
LINE
  8
3
  6
CONTINUOUS
 62
3
 10
180.8803196205
 20
111.6839402825
 11
180.8803196205
 21
111.6368942825
  0
LINE
  8
3
  6
CONTINUOUS
 62
3
 10
180.9257736205
 20
113.6823492825
 11
180.9257736205
 21
113.6141072825
  0
LINE
  8
3
  6
CONTINUOUS
 62
3
 10
180.9257736205
 20
113.0972752825
 11
180.9257736205
 21
112.2219682825
  0
LINE
  8
3
  6
CONTINUOUS
 62
3
 10
180.9257736205
 20
111.7051352825
 11
180.9257736205
 21
111.6368942825
  0
LINE
  8
3
  6
CONTINUOUS
 62
3
 10
180.9712286205
 20
113.6823492825
 11
180.9712286205
 21
113.5929122825
  0
LINE
  8
3
  6
CONTINUOUS
 62
3
 10
180.9712286205
 20
113.0760792825
 11
180.9712286205
 21
112.2431632825
  0
LINE
  8
3
  6
CONTINUOUS
 62
3
 10
180.9712286205
 20
111.7263312825
 11
180.9712286205
 21
111.6368942825
  0
LINE
  8
3
  6
CONTINUOUS
 62
3
 10
181.0166826205
 20
113.6823492825
 11
181.0166826205
 21
113.5717162825
  0
LINE
  8
3
  6
CONTINUOUS
 62
3
 10
181.0166826205
 20
113.0548842825
 11
181.0166826205
 21
112.2643592825
  0
LINE
  8
3
  6
CONTINUOUS
 62
3
 10
181.0166826205
 20
111.7475272825
 11
181.0166826205
 21
111.6368942825
  0
LINE
  8
3
  6
CONTINUOUS
 62
3
 10
181.0621376205
 20
113.6823492825
 11
181.0621376205
 21
113.5505202825
  0
LINE
  8
3
  6
CONTINUOUS
 62
3
 10
181.0621376205
 20
113.0336882825
 11
181.0621376205
 21
112.2855552825
  0
LINE
  8
3
  6
CONTINUOUS
 62
3
 10
181.0621376205
 20
111.7687232825
 11
181.0621376205
 21
111.6368942825
  0
LINE
  8
3
  6
CONTINUOUS
 62
3
 10
181.1075916205
 20
113.6823492825
 11
181.1075916205
 21
113.5293242825
  0
LINE
  8
3
  6
CONTINUOUS
 62
3
 10
181.1075916205
 20
113.0124922825
 11
181.1075916205
 21
112.3067512825
  0
LINE
  8
3
  6
CONTINUOUS
 62
3
 10
181.1075916205
 20
111.7899192825
 11
181.1075916205
 21
111.6368942825
  0
LINE
  8
3
  6
CONTINUOUS
 62
3
 10
181.1530466205
 20
113.6823492825
 11
181.1530466205
 21
113.5081282825
  0
LINE
  8
3
  6
CONTINUOUS
 62
3
 10
181.1530466205
 20
112.9912962825
 11
181.1530466205
 21
112.3279472825
  0
LINE
  8
3
  6
CONTINUOUS
 62
3
 10
181.1530466205
 20
111.8111142825
 11
181.1530466205
 21
111.6368942825
  0
LINE
  8
3
  6
CONTINUOUS
 62
3
 10
181.1985006205
 20
113.6823492825
 11
181.1985006205
 21
113.4869332825
  0
LINE
  8
3
  6
CONTINUOUS
 62
3
 10
181.1985006205
 20
112.9701002825
 11
181.1985006205
 21
112.3491422825
  0
LINE
  8
3
  6
CONTINUOUS
 62
3
 10
181.1985006205
 20
111.8323102825
 11
181.1985006205
 21
111.6368942825
  0
LINE
  8
3
  6
CONTINUOUS
 62
3
 10
181.2439556205
 20
113.6823492825
 11
181.2439556205
 21
113.4657372825
  0
LINE
  8
3
  6
CONTINUOUS
 62
3
 10
181.2439556205
 20
112.4558632825
 11
181.2439556205
 21
112.3703382825
  0
LINE
  8
3
  6
CONTINUOUS
 62
3
 10
181.2439556205
 20
111.8535062825
 11
181.2439556205
 21
111.6368942825
  0
LINE
  8
3
  6
CONTINUOUS
 62
3
 10
181.2894106205
 20
113.6823492825
 11
181.2894106205
 21
113.4445412825
  0
LINE
  8
3
  6
CONTINUOUS
 62
3
 10
181.2894106205
 20
112.4765172825
 11
181.2894106205
 21
112.3915342825
  0
LINE
  8
3
  6
CONTINUOUS
 62
3
 10
181.2894106205
 20
111.8747022825
 11
181.2894106205
 21
111.6368942825
  0
LINE
  8
3
  6
CONTINUOUS
 62
3
 10
181.3348646205
 20
113.6823492825
 11
181.3348646205
 21
113.4233452825
  0
LINE
  8
3
  6
CONTINUOUS
 62
3
 10
181.3348646205
 20
112.4971722825
 11
181.3348646205
 21
112.4127302825
  0
LINE
  8
3
  6
CONTINUOUS
 62
3
 10
181.3348646205
 20
111.8958982825
 11
181.3348646205
 21
111.6368942825
  0
LINE
  8
3
  6
CONTINUOUS
 62
3
 10
181.3803196205
 20
113.6823492825
 11
181.3803196205
 21
113.4021502825
  0
LINE
  8
3
  6
CONTINUOUS
 62
3
 10
181.3803196205
 20
112.5178272825
 11
181.3803196205
 21
112.4339252825
  0
LINE
  8
3
  6
CONTINUOUS
 62
3
 10
181.3803196205
 20
111.9170932825
 11
181.3803196205
 21
111.6368942825
  0
LINE
  8
3
  6
CONTINUOUS
 62
3
 10
181.4257736205
 20
113.6823492825
 11
181.4257736205
 21
113.3809542825
  0
LINE
  8
3
  6
CONTINUOUS
 62
3
 10
181.4257736205
 20
112.5384812825
 11
181.4257736205
 21
112.4551212825
  0
LINE
  8
3
  6
CONTINUOUS
 62
3
 10
181.4257736205
 20
111.9382892825
 11
181.4257736205
 21
111.6368942825
  0
LINE
  8
3
  6
CONTINUOUS
 62
3
 10
181.4712286205
 20
113.6823492825
 11
181.4712286205
 21
113.3597582825
  0
LINE
  8
3
  6
CONTINUOUS
 62
3
 10
181.4712286205
 20
112.5591362825
 11
181.4712286205
 21
112.4763172825
  0
LINE
  8
3
  6
CONTINUOUS
 62
3
 10
181.4712286205
 20
111.9594852825
 11
181.4712286205
 21
111.6368942825
  0
LINE
  8
3
  6
CONTINUOUS
 62
3
 10
181.5166826205
 20
113.6823492825
 11
181.5166826205
 21
113.3385622825
  0
LINE
  8
3
  6
CONTINUOUS
 62
3
 10
181.5166826205
 20
112.5797912825
 11
181.5166826205
 21
112.4975132825
  0
LINE
  8
3
  6
CONTINUOUS
 62
3
 10
181.5166826205
 20
111.9806812825
 11
181.5166826205
 21
111.6368942825
  0
LINE
  8
3
  6
CONTINUOUS
 62
3
 10
181.5621376205
 20
113.6823492825
 11
181.5621376205
 21
113.3173662825
  0
LINE
  8
3
  6
CONTINUOUS
 62
3
 10
181.5621376205
 20
112.6004462825
 11
181.5621376205
 21
112.5187092825
  0
LINE
  8
3
  6
CONTINUOUS
 62
3
 10
181.5621376205
 20
112.0018772825
 11
181.5621376205
 21
111.6368942825
  0
LINE
  8
3
  6
CONTINUOUS
 62
3
 10
181.6075916205
 20
113.6823492825
 11
181.6075916205
 21
113.2961712825
  0
LINE
  8
3
  6
CONTINUOUS
 62
3
 10
181.6075916205
 20
112.6211002825
 11
181.6075916205
 21
112.5399042825
  0
LINE
  8
3
  6
CONTINUOUS
 62
3
 10
181.6075916205
 20
112.0230722825
 11
181.6075916205
 21
111.6368942825
  0
LINE
  8
3
  6
CONTINUOUS
 62
3
 10
181.6530466205
 20
113.6823492825
 11
181.6530466205
 21
113.2749752825
  0
LINE
  8
3
  6
CONTINUOUS
 62
3
 10
181.6530466205
 20
112.6417552825
 11
181.6530466205
 21
112.5611002825
  0
LINE
  8
3
  6
CONTINUOUS
 62
3
 10
181.6530466205
 20
112.0442682825
 11
181.6530466205
 21
111.6368942825
  0
LINE
  8
3
  6
CONTINUOUS
 62
3
 10
181.6985006205
 20
113.6823492825
 11
181.6985006205
 21
112.5822962825
  0
LINE
  8
3
  6
CONTINUOUS
 62
3
 10
181.6985006205
 20
112.0654642825
 11
181.6985006205
 21
111.6368942825
  0
LINE
  8
3
  6
CONTINUOUS
 62
3
 10
181.7439556205
 20
113.6823492825
 11
181.7439556205
 21
112.6034922825
  0
LINE
  8
3
  6
CONTINUOUS
 62
3
 10
181.7439556205
 20
112.0866602825
 11
181.7439556205
 21
111.6368942825
  0
LINE
  8
3
  6
CONTINUOUS
 62
3
 10
181.7894106205
 20
113.6823492825
 11
181.7894106205
 21
113.2113872825
  0
LINE
  8
3
  6
CONTINUOUS
 62
3
 10
181.7894106205
 20
112.1078562825
 11
181.7894106205
 21
111.6368942825
  0
LINE
  8
3
  6
CONTINUOUS
 62
3
 10
181.8348646205
 20
113.6823492825
 11
181.8348646205
 21
113.1901912825
  0
LINE
  8
3
  6
CONTINUOUS
 62
3
 10
181.8348646205
 20
112.1290512825
 11
181.8348646205
 21
111.6368942825
  0
LINE
  8
3
  6
CONTINUOUS
 62
3
 10
181.8803196205
 20
113.6823492825
 11
181.8803196205
 21
113.1689962825
  0
LINE
  8
3
  6
CONTINUOUS
 62
3
 10
181.8803196205
 20
112.1502472825
 11
181.8803196205
 21
111.6368942825
  0
LINE
  8
3
  6
CONTINUOUS
 62
3
 10
181.9257736205
 20
113.6823492825
 11
181.9257736205
 21
113.1478002825
  0
LINE
  8
3
  6
CONTINUOUS
 62
3
 10
181.9257736205
 20
112.1714432825
 11
181.9257736205
 21
111.6368942825
  0
LINE
  8
3
  6
CONTINUOUS
 62
3
 10
181.9712286205
 20
113.6823492825
 11
181.9712286205
 21
113.1266042825
  0
LINE
  8
3
  6
CONTINUOUS
 62
3
 10
181.9712286205
 20
112.1926392825
 11
181.9712286205
 21
111.6368942825
  0
LINE
  8
3
  6
CONTINUOUS
 62
3
 10
182.0166826205
 20
113.6823492825
 11
182.0166826205
 21
113.1054082825
  0
LINE
  8
3
  6
CONTINUOUS
 62
3
 10
182.0166826205
 20
112.2138352825
 11
182.0166826205
 21
111.6368942825
  0
LINE
  8
3
  6
CONTINUOUS
 62
3
 10
182.0621376205
 20
113.6823492825
 11
182.0621376205
 21
113.0842122825
  0
LINE
  8
3
  6
CONTINUOUS
 62
3
 10
182.0621376205
 20
112.2350302825
 11
182.0621376205
 21
111.6368942825
  0
LINE
  8
3
  6
CONTINUOUS
 62
3
 10
182.1075916205
 20
113.6823492825
 11
182.1075916205
 21
113.0630172825
  0
LINE
  8
3
  6
CONTINUOUS
 62
3
 10
182.1075916205
 20
112.2562262825
 11
182.1075916205
 21
111.6368942825
  0
LINE
  8
3
  6
CONTINUOUS
 62
3
 10
182.1530466205
 20
113.6823492825
 11
182.1530466205
 21
113.0418212825
  0
LINE
  8
3
  6
CONTINUOUS
 62
3
 10
182.1530466205
 20
112.2774222825
 11
182.1530466205
 21
111.6368942825
  0
LINE
  8
3
  6
CONTINUOUS
 62
3
 10
182.1985006205
 20
113.6823492825
 11
182.1985006205
 21
113.0206252825
  0
LINE
  8
3
  6
CONTINUOUS
 62
3
 10
182.1985006205
 20
112.2986182825
 11
182.1985006205
 21
111.6368942825
  0
LINE
  8
3
  6
CONTINUOUS
 62
3
 10
182.2439556205
 20
113.6823492825
 11
182.2439556205
 21
112.9994292825
  0
LINE
  8
3
  6
CONTINUOUS
 62
3
 10
182.2439556205
 20
112.3198142825
 11
182.2439556205
 21
111.6368942825
  0
LINE
  8
3
  6
CONTINUOUS
 62
3
 10
182.2894106205
 20
113.6823492825
 11
182.2894106205
 21
111.6368942825
  0
LINE
  8
3
  6
CONTINUOUS
 62
3
 10
182.3348646205
 20
113.6823492825
 11
182.3348646205
 21
111.6368942825
  0
LINE
  8
3
  6
CONTINUOUS
 62
3
 10
182.3803196205
 20
113.6823492825
 11
182.3803196205
 21
111.6368942825
  0
LINE
  8
3
  6
CONTINUOUS
 62
3
 10
182.4257736205
 20
113.6823492825
 11
182.4257736205
 21
111.6368942825
  0
LINE
  8
3
  6
CONTINUOUS
 62
3
 10
182.4712286205
 20
113.6823492825
 11
182.4712286205
 21
111.6368942825
  0
LINE
  8
3
  6
CONTINUOUS
 62
3
 10
182.5166826205
 20
113.6823492825
 11
182.5166826205
 21
111.6368942825
  0
LINE
  8
3
  6
CONTINUOUS
 62
3
 10
182.5621376205
 20
113.6823492825
 11
182.5621376205
 21
111.6368942825
  0
LINE
  8
3
  6
CONTINUOUS
 62
3
 10
182.6075916205
 20
113.6823492825
 11
182.6075916205
 21
111.6368942825
  0
LINE
  8
3
  6
CONTINUOUS
 62
3
 10
180.8803196205
 20
113.6823492825
 11
182.6189556205
 21
113.6823492825
  0
LINE
  8
3
  6
CONTINUOUS
 62
3
 10
182.6189556205
 20
113.6823492825
 11
182.6189556205
 21
111.6368942825
  0
LINE
  8
3
  6
CONTINUOUS
 62
3
 10
182.6189556205
 20
111.6368942825
 11
180.8803196205
 21
111.6368942825
  0
LINE
  8
3
  6
CONTINUOUS
 62
3
 10
180.8803196205
 20
111.6368942825
 11
180.8803186205
 21
111.6839392825
  0
LINE
  8
3
  6
CONTINUOUS
 62
3
 10
180.8803186205
 20
111.6839392825
 11
182.2548646205
 21
112.3249012825
  0
LINE
  8
3
  6
CONTINUOUS
 62
3
 10
182.2548646205
 20
112.3249012825
 11
182.2548646205
 21
112.9943422825
  0
LINE
  8
3
  6
CONTINUOUS
 62
3
 10
182.2548646205
 20
112.9943422825
 11
181.7864556205
 21
113.2127652825
  0
LINE
  8
3
  6
CONTINUOUS
 62
3
 10
181.7864556205
 20
113.2127652825
 11
181.7864556205
 21
112.6233102825
  0
LINE
  8
3
  6
CONTINUOUS
 62
3
 10
181.7864556205
 20
112.6233102825
 11
180.8803196205
 21
112.2007722825
  0
LINE
  8
3
  6
CONTINUOUS
 62
3
 10
180.8803196205
 20
112.2007722825
 11
180.8803196205
 21
113.1184712825
  0
LINE
  8
3
  6
CONTINUOUS
 62
3
 10
180.8803196205
 20
113.1184712825
 11
181.2239556205
 21
112.9582312825
  0
LINE
  8
3
  6
CONTINUOUS
 62
3
 10
181.2239556205
 20
112.9582312825
 11
181.2239556205
 21
112.4467752825
  0
LINE
  8
3
  6
CONTINUOUS
 62
3
 10
181.2239556205
 20
112.4467752825
 11
181.6923646205
 21
112.6596212825
  0
LINE
  8
3
  6
CONTINUOUS
 62
3
 10
181.6923646205
 20
112.6596212825
 11
181.6923646205
 21
113.2566402825
  0
LINE
  8
3
  6
CONTINUOUS
 62
3
 10
181.6923646205
 20
113.2566402825
 11
180.8803196205
 21
113.6353032825
  0
LINE
  8
3
  6
CONTINUOUS
 62
3
 10
180.8803196205
 20
113.6353032825
 11
180.8803196205
 21
113.6823492825
  0
TEXT
  8
3
  6
CONTINUOUS
 62
3
 10
182.287156
 20
165.361902
 40
2.100000
  1
AMERICAN DENKI
 41
0.760043
 50
270.000000
 51
0.000000
 72
   5
 73
   0
 11
182.287156
 21
150.661902
  0
POINT
  8
3
  6
CONTINUOUS
 62
5
 10
183.3371686205
 20
134.8868942825
  0
CIRCLE
  8
3
  6
CONTINUOUS
 62
6
 10
183.3371686205
 20
134.8868942825
 40
3.4285714286
  0
LINE
  8
3
  6
CONTINUOUS
 62
6
 10
184.8523974373
 20
133.3716654657
 11
181.8219398037
 21
136.4021230994
  0
LINE
  8
3
  6
CONTINUOUS
 62
6
 10
184.8523974373
 20
136.4021230994
 11
181.8219398037
 21
133.3716654657
  0
CIRCLE
  8
3
  6
CONTINUOUS
 62
6
 10
183.3371686205
 20
134.8868942825
 40
3.0000000000
  0
TEXT
  8
3
  6
CONTINUOUS
 62
3
 10
169.887169
 20
120.886894
 40
5.000000
  1
Ｎ
 41
1.000000
 50
270.000000
 51
0.000000
 72
   5
 73
   0
 11
169.887169
 21
115.886894
  0
CIRCLE
  8
3
  6
CONTINUOUS
 62
3
 10
176.3371686205
 20
145.8868942825
 40
2.2500000000
  0
LINE
  8
3
  6
CONTINUOUS
 62
3
 10
177.9871686205
 20
145.8868942825
 11
176.3371686205
 21
145.8868942825
  0
LINE
  8
3
  6
CONTINUOUS
 62
3
 10
176.3371686205
 20
147.6118942825
 11
176.3371686205
 21
144.1618942825
  0
LINE
  8
3
  6
CONTINUOUS
 62
3
 10
175.5871686205
 20
147.0118942825
 11
175.5871686205
 21
144.7618942825
  0
LINE
  8
3
  6
CONTINUOUS
 62
3
 10
174.8371686205
 20
146.4868942825
 11
174.8371686205
 21
145.2868942825
  0
TEXT
  8
3
  6
CONTINUOUS
 62
3
 10
169.887169
 20
159.886894
 40
5.000000
  1
Ｎ
 41
1.000000
 50
270.000000
 51
0.000000
 72
   5
 73
   0
 11
169.887169
 21
154.886894
  0
ARC
  8
3
  6
CONTINUOUS
 62
7
 10
183.3371686205
 20
115.3868942825
 40
17.0000000000
 50
124.5603217812
 51
235.4396785128
  0
LINE
  8
3
  6
CONTINUOUS
 62
7
 10
173.6935179141
 20
101.3868942087
 11
192.9808193987
 21
101.3868942582
  0
ARC
  8
3
  6
CONTINUOUS
 62
7
 10
183.3371686205
 20
115.3868942825
 40
17.0000000000
 50
304.5603217812
 51
55.4396785128
  0
LINE
  8
3
  6
CONTINUOUS
 62
7
 10
192.9808193268
 20
129.3868943563
 11
173.6935178423
 21
129.3868943069
  0
ARC
  8
3
  6
CONTINUOUS
 62
7
 10
183.3371686205
 20
154.3868942825
 40
17.0000000000
 50
124.5603217812
 51
235.4396785128
  0
LINE
  8
3
  6
CONTINUOUS
 62
7
 10
173.6935179141
 20
140.3868942087
 11
192.9808193987
 21
140.3868942582
  0
ARC
  8
3
  6
CONTINUOUS
 62
7
 10
183.3371686205
 20
154.3868942825
 40
17.0000000000
 50
304.5603217812
 51
55.4396785128
  0
LINE
  8
3
  6
CONTINUOUS
 62
7
 10
192.9808193268
 20
168.3868943563
 11
173.6935178423
 21
168.3868943069
  0
CIRCLE
  8
3
  6
CONTINUOUS
 62
6
 10
194.8371686205
 20
182.3868942825
 40
3.0000000000
  0
LINE
  8
3
  6
CONTINUOUS
 62
6
 10
193.5113434058
 20
183.7127194972
 11
196.1629938352
 21
181.0610690678
  0
LINE
  8
3
  6
CONTINUOUS
 62
6
 10
193.5113434058
 20
181.0610690678
 11
196.1629938352
 21
183.7127194972
  0
CIRCLE
  8
3
  6
CONTINUOUS
 62
6
 10
194.8371686205
 20
182.3868942825
 40
2.6250000000
  0
CIRCLE
  8
3
  6
CONTINUOUS
 62
6
 10
171.8371686205
 20
182.3868942825
 40
3.0000000000
  0
LINE
  8
3
  6
CONTINUOUS
 62
6
 10
170.5113434058
 20
183.7127194972
 11
173.1629938352
 21
181.0610690678
  0
LINE
  8
3
  6
CONTINUOUS
 62
6
 10
170.5113434058
 20
181.0610690678
 11
173.1629938352
 21
183.7127194972
  0
CIRCLE
  8
3
  6
CONTINUOUS
 62
6
 10
171.8371686205
 20
182.3868942825
 40
2.6250000000
  0
INSERT
  8
3
  6
CONTINUOUS
 62
5
  2
BALN1
 10
197.8371686205
 20
182.3868942825
  0
INSERT
  8
3
  6
CONTINUOUS
 62
5
  2
BALN2
 10
195.8483815069
 20
155.8224521771
  0
INSERT
  8
3
  6
CONTINUOUS
 62
5
  2
BALN3
 10
186.7657400491
 20
134.8868942825
  0
LINE
  8
1
  6
HIDDEN
 62
7
 10
237.0805023421
 20
197.1368942825
 11
289.0805023421
 21
197.1368942825
  0
LINE
  8
1
  6
HIDDEN
 62
7
 10
235.5805023421
 20
74.1368942825
 11
235.5805023421
 21
195.6368942825
  0
LINE
  8
1
  6
HIDDEN
 62
7
 10
289.0805023421
 20
72.6368942825
 11
237.0805023421
 21
72.6368942825
  0
LINE
  8
1
  6
HIDDEN
 62
7
 10
290.5805023421
 20
74.1368942825
 11
290.5805023421
 21
195.6368942825
  0
LINE
  8
1
  6
CONTINUOUS
 62
7
 10
233.5805023421
 20
71.6368942825
 11
233.5805023421
 21
198.1368942825
  0
LINE
  8
1
  6
CONTINUOUS
 62
7
 10
234.5805023421
 20
199.1368942825
 11
291.5805023421
 21
199.1368942825
  0
LINE
  8
1
  6
CONTINUOUS
 62
7
 10
292.5805023421
 20
71.6368942825
 11
292.5805023421
 21
198.1368942825
  0
LINE
  8
1
  6
CONTINUOUS
 62
7
 10
291.5805023421
 20
70.6368942825
 11
234.5805023421
 21
70.6368942825
  0
LINE
  8
1
  6
CONTINUOUS
 62
7
 10
237.0805023421
 20
82.2618942825
 11
237.0805023421
 21
187.5118942825
  0
ARC
  8
1
  6
HIDDEN
 62
7
 10
289.0805023421
 20
195.6368942825
 40
1.5000000000
 50
0.0000000000
 51
90.0000000000
  0
ARC
  8
1
  6
HIDDEN
 62
7
 10
237.0805023421
 20
195.6368942825
 40
1.5000000000
 50
90.0000000000
 51
180.0000000000
  0
ARC
  8
1
  6
HIDDEN
 62
7
 10
237.0805023421
 20
74.1368942825
 40
1.5000000000
 50
180.0000000000
 51
270.0000000000
  0
ARC
  8
1
  6
HIDDEN
 62
7
 10
289.0805023421
 20
74.1368942825
 40
1.5000000000
 50
270.0000000000
 51
0.0000000000
  0
CIRCLE
  8
1
  6
CONTINUOUS
 62
7
 10
283.0805023421
 20
193.3868942825
 40
1.7500000000
  0
CIRCLE
  8
1
  6
HIDDEN
 62
7
 10
283.0805023421
 20
193.3868942825
 40
3.2500000000
  0
CIRCLE
  8
1
  6
CONTINUOUS
 62
7
 10
243.0805023421
 20
193.3868942825
 40
1.7500000000
  0
CIRCLE
  8
1
  6
HIDDEN
 62
7
 10
243.0805023421
 20
193.3868942825
 40
3.2500000000
  0
LINE
  8
1
  6
CONTINUOUS
 62
7
 10
238.0805023421
 20
188.5118942825
 11
288.0805023421
 21
188.5118942825
  0
CIRCLE
  8
1
  6
CONTINUOUS
 62
7
 10
283.0805023421
 20
76.3868942825
 40
1.7500000000
  0
CIRCLE
  8
1
  6
HIDDEN
 62
7
 10
283.0805023421
 20
76.3868942825
 40
3.2500000000
  0
CIRCLE
  8
1
  6
CONTINUOUS
 62
7
 10
243.0805023421
 20
76.3868942825
 40
1.7500000000
  0
CIRCLE
  8
1
  6
HIDDEN
 62
7
 10
243.0805023421
 20
76.3868942825
 40
3.2500000000
  0
LINE
  8
1
  6
CONTINUOUS
 62
7
 10
288.0805023421
 20
81.2618942825
 11
238.0805023421
 21
81.2618942825
  0
CIRCLE
  8
1
  6
HIDDEN
 62
7
 10
263.0805023421
 20
193.3868942825
 40
2.0000000000
  0
LINE
  8
1
  6
CONTINUOUS
 62
7
 10
228.5805023421
 20
60.6368942825
 11
228.5805023421
 21
216.1368942825
  0
LINE
  8
1
  6
CONTINUOUS
 62
7
 10
297.5805023421
 20
216.1368942825
 11
297.5805023421
 21
60.6368942825
  0
ARC
  8
1
  6
CONTINUOUS
 62
7
 10
291.5805023421
 20
198.1368942825
 40
1.0000000000
 50
0.0000000000
 51
90.0000000000
  0
ARC
  8
1
  6
CONTINUOUS
 62
7
 10
234.5805023421
 20
198.1368942825
 40
1.0000000000
 50
90.0000000000
 51
180.0000000000
  0
ARC
  8
1
  6
CONTINUOUS
 62
7
 10
234.5805023421
 20
71.6368942825
 40
1.0000000000
 50
180.0000000000
 51
270.0000000000
  0
ARC
  8
1
  6
CONTINUOUS
 62
7
 10
291.5805023421
 20
71.6368942825
 40
1.0000000000
 50
270.0000000000
 51
360.0000000000
  0
LINE
  8
1
  6
CONTINUOUS
 62
7
 10
289.0805023421
 20
82.2618942825
 11
289.0805023421
 21
187.5118942825
  0
ARC
  8
1
  6
CONTINUOUS
 62
7
 10
288.0805023421
 20
187.5118942825
 40
1.0000000000
 50
0.0000000000
 51
90.0000000000
  0
ARC
  8
1
  6
CONTINUOUS
 62
7
 10
238.0805023421
 20
187.5118942825
 40
1.0000000000
 50
90.0000000000
 51
180.0000000000
  0
ARC
  8
1
  6
CONTINUOUS
 62
7
 10
238.0805023421
 20
82.2618942825
 40
1.0000000000
 50
180.0000000000
 51
270.0000000000
  0
ARC
  8
1
  6
CONTINUOUS
 62
7
 10
288.0805023421
 20
82.2618942825
 40
1.0000000000
 50
270.0000000000
 51
0.0000000000
  0
LINE
  8
1
  6
CONTINUOUS
 62
7
 10
228.5805023421
 20
60.6368942825
 11
297.5805023421
 21
60.6368942825
  0
LINE
  8
1
  6
CONTINUOUS
 62
7
 10
228.5805023421
 20
216.1368942825
 11
297.5805023421
 21
216.1368942825
  0
CIRCLE
  8
1
  6
CONTINUOUS
 62
7
 10
263.0805023421
 20
193.3868942825
 40
1.6500000000
  0
CIRCLE
  8
1
  6
HIDDEN
 62
7
 10
263.0805023421
 20
76.3868942825
 40
2.0000000000
  0
CIRCLE
  8
1
  6
CONTINUOUS
 62
7
 10
263.0805023421
 20
76.3868942825
 40
1.6500000000
  0
CIRCLE
  8
1
  6
HIDDEN
 62
7
 10
263.0805023421
 20
64.6368942825
 40
2.0000000000
  0
CIRCLE
  8
1
  6
CONTINUOUS
 62
7
 10
263.0805023421
 20
64.6368942825
 40
1.6500000000
  0
LINE
  8
1
  6
CONTINUOUS
 62
7
 10
295.5805023421
 20
71.6368942825
 11
295.5805023421
 21
198.1368942825
  0
ARC
  8
1
  6
CONTINUOUS
 62
7
 10
291.5805023421
 20
198.1368942825
 40
4.0000000000
 50
360.0000000000
 51
90.0000000000
  0
LINE
  8
1
  6
CONTINUOUS
 62
7
 10
291.5805023421
 20
202.1368942825
 11
234.5805023421
 21
202.1368942825
  0
ARC
  8
1
  6
CONTINUOUS
 62
7
 10
234.5805023421
 20
198.1368942825
 40
4.0000000000
 50
90.0000000000
 51
180.0000000000
  0
LINE
  8
1
  6
CONTINUOUS
 62
7
 10
230.5805023421
 20
198.1368942825
 11
230.5805023421
 21
71.6368942825
  0
ARC
  8
1
  6
CONTINUOUS
 62
7
 10
234.5805023421
 20
71.6368942825
 40
4.0000000000
 50
180.0000000000
 51
270.0000000000
  0
LINE
  8
1
  6
CONTINUOUS
 62
7
 10
234.5805023421
 20
67.6368942825
 11
291.5805023421
 21
67.6368942825
  0
ARC
  8
1
  6
CONTINUOUS
 62
7
 10
291.5805023421
 20
71.6368942825
 40
4.0000000000
 50
270.0000000000
 51
0.0000000000
  0
LINE
  8
1
  6
CONTINUOUS
 62
7
 10
240.0805023421
 20
188.5118942825
 11
240.0805023421
 21
178.5118942825
  0
LINE
  8
1
  6
CONTINUOUS
 62
7
 10
240.0805023421
 20
178.5118942825
 11
237.0805023421
 21
178.5118942825
  0
LINE
  8
1
  6
CONTINUOUS
 62
7
 10
289.0805023421
 20
91.2618942826
 11
286.0805023421
 21
91.2618942826
  0
LINE
  8
1
  6
CONTINUOUS
 62
7
 10
286.0805023421
 20
91.2618942826
 11
286.0805023421
 21
81.2618942825
  0
LINE
  8
4
  6
HIDDEN
 62
6
 10
236.5805023421
 20
188.8868942825
 11
289.5805023421
 21
188.8868942825
  0
LINE
  8
4
  6
HIDDEN
 62
6
 10
289.5805023421
 20
188.8868942825
 11
289.5805023421
 21
80.8868942825
  0
LINE
  8
4
  6
HIDDEN
 62
6
 10
289.5805023421
 20
80.8868942825
 11
236.5805023421
 21
80.8868942825
  0
LINE
  8
4
  6
HIDDEN
 62
6
 10
236.5805023421
 20
80.8868942825
 11
236.5805023421
 21
188.8868942825
  0
TEXT
  8
1
  6
CONTINUOUS
 62
7
 10
255.525532
 20
51.365698
 40
5.000000
  1
裏 面 図
 41
0.854701
 50
0.000000
 51
0.000000
 72
   5
 73
   0
 11
275.525532
 21
51.365698
  0
LINE
  8
3
  6
CONTINUOUS
 62
5
 10
271.3305023421
 20
169.6153505027
 11
268.0805023421
 21
169.6153505027
  0
LINE
  8
3
  6
CONTINUOUS
 62
5
 10
258.0805023421
 20
170.6153505027
 11
249.0805023421
 21
170.6153505027
  0
LINE
  8
3
  6
CONTINUOUS
 62
5
 10
277.0805023421
 20
170.6153505027
 11
268.0805023421
 21
170.6153505027
  0
ARC
  8
3
  6
CONTINUOUS
 62
5
 10
277.0805023421
 20
167.1153505027
 40
3.5000000000
 50
0.0000000000
 51
90.0000000000
  0
LINE
  8
3
  6
CONTINUOUS
 62
5
 10
280.5805023421
 20
167.1153505027
 11
280.5805023421
 21
104.1153505027
  0
LINE
  8
3
  6
CONTINUOUS
 62
5
 10
277.0805023421
 20
100.6153505027
 11
268.0805023421
 21
100.6153505027
  0
LINE
  8
3
  6
CONTINUOUS
 62
5
 10
271.3305023421
 20
101.6153505027
 11
268.0805023421
 21
101.6153505027
  0
LINE
  8
3
  6
CONTINUOUS
 62
5
 10
271.3305023421
 20
100.6153505027
 11
271.3305023421
 21
101.6153505027
  0
LINE
  8
3
  6
CONTINUOUS
 62
5
 10
258.0805023421
 20
100.6153505027
 11
249.0805023421
 21
100.6153505027
  0
LINE
  8
3
  6
CONTINUOUS
 62
5
 10
245.5805023421
 20
167.1153505027
 11
245.5805023421
 21
104.1153505027
  0
ARC
  8
3
  6
CONTINUOUS
 62
5
 10
249.0805023421
 20
104.1153505027
 40
3.5000000000
 50
180.0000000000
 51
270.0000000000
  0
ARC
  8
3
  6
CONTINUOUS
 62
5
 10
249.0805023421
 20
167.1153505027
 40
3.5000000000
 50
90.0000000000
 51
180.0000000000
  0
LINE
  8
3
  6
CONTINUOUS
 62
5
 10
247.5805023421
 20
166.1153505027
 11
247.5805023421
 21
164.1153505027
  0
LINE
  8
3
  6
CONTINUOUS
 62
5
 10
250.5805023421
 20
166.1153505027
 11
250.5805023421
 21
164.1153505027
  0
ARC
  8
3
  6
CONTINUOUS
 62
5
 10
249.0805023421
 20
166.1153505027
 40
1.5000000000
 50
0.0000000000
 51
90.0000000000
  0
ARC
  8
3
  6
CONTINUOUS
 62
5
 10
249.0805023421
 20
164.1153505027
 40
1.5000000000
 50
270.0000000000
 51
0.0000000000
  0
ARC
  8
3
  6
CONTINUOUS
 62
5
 10
249.0805023421
 20
166.1153505027
 40
1.5000000000
 50
90.0000000000
 51
180.0000000000
  0
ARC
  8
3
  6
CONTINUOUS
 62
5
 10
249.0805023421
 20
164.1153505027
 40
1.5000000000
 50
180.0000000000
 51
270.0000000000
  0
LINE
  8
3
  6
CONTINUOUS
 62
5
 10
278.5805023421
 20
166.1153505027
 11
278.5805023421
 21
164.1153505027
  0
LINE
  8
3
  6
CONTINUOUS
 62
5
 10
275.5805023421
 20
166.1153505027
 11
275.5805023421
 21
164.1153505027
  0
ARC
  8
3
  6
CONTINUOUS
 62
5
 10
277.0805023421
 20
166.1153505027
 40
1.5000000000
 50
90.0000000000
 51
180.0000000000
  0
ARC
  8
3
  6
CONTINUOUS
 62
5
 10
277.0805023421
 20
164.1153505027
 40
1.5000000000
 50
180.0000000000
 51
270.0000000000
  0
ARC
  8
3
  6
CONTINUOUS
 62
5
 10
277.0805023421
 20
166.1153505027
 40
1.5000000000
 50
0.0000000000
 51
90.0000000000
  0
ARC
  8
3
  6
CONTINUOUS
 62
5
 10
277.0805023421
 20
164.1153505027
 40
1.5000000000
 50
270.0000000000
 51
0.0000000000
  0
LINE
  8
3
  6
CONTINUOUS
 62
5
 10
247.5805023421
 20
105.1153505027
 11
247.5805023421
 21
107.1153505027
  0
LINE
  8
3
  6
CONTINUOUS
 62
5
 10
250.5805023421
 20
105.1153505027
 11
250.5805023421
 21
107.1153505027
  0
ARC
  8
3
  6
CONTINUOUS
 62
5
 10
249.0805023421
 20
105.1153505027
 40
1.5000000000
 50
270.0000000000
 51
0.0000000000
  0
ARC
  8
3
  6
CONTINUOUS
 62
5
 10
249.0805023421
 20
107.1153505027
 40
1.5000000000
 50
0.0000000000
 51
90.0000000000
  0
ARC
  8
3
  6
CONTINUOUS
 62
5
 10
249.0805023421
 20
105.1153505027
 40
1.5000000000
 50
180.0000000000
 51
270.0000000000
  0
ARC
  8
3
  6
CONTINUOUS
 62
5
 10
249.0805023421
 20
107.1153505027
 40
1.5000000000
 50
90.0000000000
 51
180.0000000000
  0
LINE
  8
3
  6
CONTINUOUS
 62
5
 10
279.0805023421
 20
111.6153505027
 11
272.8305023421
 21
111.6153505027
  0
LINE
  8
3
  6
CONTINUOUS
 62
5
 10
278.5805023421
 20
123.1153505027
 11
278.5805023421
 21
121.1153505027
  0
LINE
  8
3
  6
CONTINUOUS
 62
5
 10
275.5805023421
 20
123.1153505027
 11
275.5805023421
 21
121.1153505027
  0
ARC
  8
3
  6
CONTINUOUS
 62
5
 10
277.0805023421
 20
123.1153505027
 40
1.5000000000
 50
0.0000000000
 51
90.0000000000
  0
ARC
  8
3
  6
CONTINUOUS
 62
5
 10
277.0805023421
 20
123.1153505027
 40
1.5000000000
 50
90.0000000000
 51
180.0000000000
  0
ARC
  8
3
  6
CONTINUOUS
 62
5
 10
277.0805023421
 20
121.1153505027
 40
1.5000000000
 50
270.0000000000
 51
0.0000000000
  0
ARC
  8
3
  6
CONTINUOUS
 62
5
 10
277.0805023421
 20
121.1153505027
 40
1.5000000000
 50
180.0000000000
 51
270.0000000000
  0
LINE
  8
3
  6
CONTINUOUS
 62
5
 10
271.3305023421
 20
113.1153505027
 11
271.3305023421
 21
170.6153505027
  0
ARC
  8
3
  6
CONTINUOUS
 62
5
 10
279.0805023421
 20
113.1153505027
 40
1.5000000000
 50
270.0000000000
 51
0.0000000000
  0
ARC
  8
3
  6
CONTINUOUS
 62
5
 10
272.8305023421
 20
113.1153505027
 40
1.5000000000
 50
180.0000000000
 51
270.0000000000
  0
LINE
  8
3
  6
CONTINUOUS
 62
5
 10
274.0805023421
 20
111.6153505027
 11
274.0805023421
 21
111.1153505027
  0
ARC
  8
3
  6
CONTINUOUS
 62
5
 10
272.5805023421
 20
102.1153505027
 40
1.5000000000
 50
270.0000000000
 51
319.7261070000
  0
LINE
  8
3
  6
CONTINUOUS
 62
5
 10
254.8305023421
 20
170.6153505027
 11
254.8305023421
 21
100.6153505027
  0
LINE
  8
3
  6
CONTINUOUS
 62
5
 10
253.0805023421
 20
130.6153505027
 11
246.5805023421
 21
130.6153505027
  0
LINE
  8
3
  6
CONTINUOUS
 62
5
 10
253.0805023421
 20
146.6153505027
 11
246.5805023421
 21
146.6153505027
  0
LINE
  8
3
  6
CONTINUOUS
 62
5
 10
254.5805023421
 20
145.1153505027
 11
254.5805023421
 21
132.1153505027
  0
ARC
  8
3
  6
CONTINUOUS
 62
5
 10
253.0805023421
 20
145.1153505027
 40
1.5000000000
 50
0.0000000000
 51
90.0000000000
  0
ARC
  8
3
  6
CONTINUOUS
 62
5
 10
253.0805023421
 20
132.1153505027
 40
1.5000000000
 50
270.0000000000
 51
0.0000000000
  0
LINE
  8
3
  6
CONTINUOUS
 62
5
 10
249.0507963421
 20
133.6153505027
 11
246.5805023421
 21
133.6153505027
  0
LINE
  8
3
  6
CONTINUOUS
 62
5
 10
249.0507963421
 20
143.6153505027
 11
246.5805023421
 21
143.6153505027
  0
ARC
  8
3
  6
CONTINUOUS
 62
5
 10
246.5805023421
 20
145.6153505027
 40
1.0000000000
 50
90.0000000000
 51
180.0000000000
  0
ARC
  8
3
  6
CONTINUOUS
 62
5
 10
246.5805023421
 20
144.6153505027
 40
1.0000000000
 50
180.0000000000
 51
270.0000000000
  0
ARC
  8
3
  6
CONTINUOUS
 62
5
 10
246.5805023421
 20
132.6153505027
 40
1.0000000000
 50
90.0000000000
 51
180.0000000000
  0
ARC
  8
3
  6
CONTINUOUS
 62
5
 10
246.5805023421
 20
131.6153505027
 40
1.0000000000
 50
180.0000000000
 51
270.0000000000
  0
LINE
  8
3
  6
CONTINUOUS
 62
5
 10
248.0805023421
 20
130.6153505027
 11
248.0805023421
 21
146.6153505027
  0
POINT
  8
3
  6
CONTINUOUS
 62
5
 10
250.5805023421
 20
135.2653505027
  0
CIRCLE
  8
3
  6
CONTINUOUS
 62
5
 10
250.5805023421
 20
135.2653505027
 40
1.5000000000
  0
ARC
  8
3
  6
CONTINUOUS
 62
5
 10
250.5805023421
 20
135.2653505027
 40
2.2500000000
 50
227.1665720000
 51
90.0000000000
  0
LINE
  8
3
  6
CONTINUOUS
 62
5
 10
250.5805023421
 20
137.5153505027
 11
249.1805023421
 21
137.5153505027
  0
POINT
  8
3
  6
CONTINUOUS
 62
5
 10
250.5805023421
 20
141.9653505027
  0
CIRCLE
  8
3
  6
CONTINUOUS
 62
5
 10
250.5805023421
 20
141.9653505027
 40
1.5000000000
  0
ARC
  8
3
  6
CONTINUOUS
 62
5
 10
250.5805023421
 20
141.9653505027
 40
2.2500000000
 50
270.0000000000
 51
132.8334280000
  0
LINE
  8
3
  6
CONTINUOUS
 62
5
 10
250.5805023421
 20
139.7153505027
 11
249.1805023421
 21
139.7153505027
  0
ARC
  8
3
  6
CONTINUOUS
 62
5
 10
249.1805023421
 20
138.6153505027
 40
1.1000000000
 50
90.0000000000
 51
180.0000000000
  0
ARC
  8
3
  6
CONTINUOUS
 62
5
 10
249.1805023421
 20
138.6153505027
 40
1.1000000000
 50
180.0000000000
 51
270.0000000000
  0
LINE
  8
3
  6
CONTINUOUS
 62
5
 10
273.0805023421
 20
130.6153505027
 11
279.5805023421
 21
130.6153505027
  0
LINE
  8
3
  6
CONTINUOUS
 62
5
 10
273.0805023421
 20
146.6153505027
 11
279.5805023421
 21
146.6153505027
  0
LINE
  8
3
  6
CONTINUOUS
 62
5
 10
271.5805023421
 20
145.1153505027
 11
271.5805023421
 21
132.1153505027
  0
ARC
  8
3
  6
CONTINUOUS
 62
5
 10
273.0805023421
 20
145.1153505027
 40
1.5000000000
 50
90.0000000000
 51
180.0000000000
  0
ARC
  8
3
  6
CONTINUOUS
 62
5
 10
273.0805023421
 20
132.1153505027
 40
1.5000000000
 50
180.0000000000
 51
270.0000000000
  0
LINE
  8
3
  6
CONTINUOUS
 62
5
 10
277.1102083421
 20
133.6153505027
 11
279.5805023421
 21
133.6153505027
  0
LINE
  8
3
  6
CONTINUOUS
 62
5
 10
277.1102083421
 20
143.6153505027
 11
279.5805023421
 21
143.6153505027
  0
ARC
  8
3
  6
CONTINUOUS
 62
5
 10
279.5805023421
 20
145.6153505027
 40
1.0000000000
 50
0.0000000000
 51
90.0000000000
  0
ARC
  8
3
  6
CONTINUOUS
 62
5
 10
279.5805023421
 20
144.6153505027
 40
1.0000000000
 50
270.0000000000
 51
0.0000000000
  0
ARC
  8
3
  6
CONTINUOUS
 62
5
 10
279.5805023421
 20
132.6153505027
 40
1.0000000000
 50
0.0000000000
 51
90.0000000000
  0
ARC
  8
3
  6
CONTINUOUS
 62
5
 10
279.5805023421
 20
131.6153505027
 40
1.0000000000
 50
270.0000000000
 51
0.0000000000
  0
LINE
  8
3
  6
CONTINUOUS
 62
5
 10
278.0805023421
 20
130.6153505027
 11
278.0805023421
 21
146.6153505027
  0
POINT
  8
3
  6
CONTINUOUS
 62
5
 10
275.5805023421
 20
135.2653505027
  0
CIRCLE
  8
3
  6
CONTINUOUS
 62
5
 10
275.5805023421
 20
135.2653505027
 40
1.5000000000
  0
ARC
  8
3
  6
CONTINUOUS
 62
5
 10
275.5805023421
 20
135.2653505027
 40
2.2500000000
 50
90.0000000000
 51
312.8334280000
  0
LINE
  8
3
  6
CONTINUOUS
 62
5
 10
275.5805023421
 20
137.5153505027
 11
276.9805023421
 21
137.5153505027
  0
POINT
  8
3
  6
CONTINUOUS
 62
5
 10
275.5805023421
 20
141.9653505027
  0
CIRCLE
  8
3
  6
CONTINUOUS
 62
5
 10
275.5805023421
 20
141.9653505027
 40
1.5000000000
  0
ARC
  8
3
  6
CONTINUOUS
 62
5
 10
275.5805023421
 20
141.9653505027
 40
2.2500000000
 50
47.1665720000
 51
270.0000000000
  0
LINE
  8
3
  6
CONTINUOUS
 62
5
 10
275.5805023421
 20
139.7153505027
 11
276.9805023421
 21
139.7153505027
  0
ARC
  8
3
  6
CONTINUOUS
 62
5
 10
276.9805023421
 20
138.6153505027
 40
1.1000000000
 50
0.0000000000
 51
90.0000000000
  0
ARC
  8
3
  6
CONTINUOUS
 62
5
 10
276.9805023421
 20
138.6153505027
 40
1.1000000000
 50
270.0000000000
 51
0.0000000000
  0
LINE
  8
3
  6
CONTINUOUS
 62
5
 10
248.0805023421
 20
83.6153505027
 11
255.0805023421
 21
83.6153505027
  0
LINE
  8
3
  6
CONTINUOUS
 62
5
 10
248.0805023421
 20
92.6153505027
 11
255.0805023421
 21
92.6153505027
  0
LINE
  8
3
  6
HIDDEN
 62
5
 10
255.0805023421
 20
178.6153505027
 11
255.0805023421
 21
174.1243108347
  0
LINE
  8
3
  6
CONTINUOUS
 62
5
 10
255.0805023421
 20
174.1243108347
 11
255.0805023421
 21
170.6153505027
  0
LINE
  8
3
  6
HIDDEN
 62
5
 10
271.0805023421
 20
178.6153505027
 11
271.0805023421
 21
174.1243108347
  0
LINE
  8
3
  6
CONTINUOUS
 62
5
 10
271.0805023421
 20
174.1243108347
 11
271.0805023421
 21
170.6153505027
  0
LINE
  8
3
  6
CONTINUOUS
 62
5
 10
247.0805023421
 20
91.6153505027
 11
247.0805023421
 21
84.6153505027
  0
LINE
  8
3
  6
CONTINUOUS
 62
5
 10
279.0805023421
 20
91.6153505027
 11
279.0805023421
 21
84.6153505027
  0
ARC
  8
3
  6
CONTINUOUS
 62
5
 10
248.0805023421
 20
91.6153505027
 40
1.0000000000
 50
90.0000000000
 51
180.0000000000
  0
ARC
  8
3
  6
CONTINUOUS
 62
5
 10
248.0805023421
 20
84.6153505027
 40
1.0000000000
 50
180.0000000000
 51
270.0000000000
  0
ARC
  8
3
  6
CONTINUOUS
 62
5
 10
278.0805023421
 20
84.6153505027
 40
1.0000000000
 50
270.0000000000
 51
0.0000000000
  0
ARC
  8
3
  6
CONTINUOUS
 62
5
 10
278.0805023421
 20
91.6153505027
 40
1.0000000000
 50
0.0000000000
 51
90.0000000000
  0
CIRCLE
  8
3
  6
CONTINUOUS
 62
5
 10
274.5805023421
 20
88.1153505027
 40
2.2500000000
  0
POINT
  8
3
  6
CONTINUOUS
 62
5
 10
274.5805023421
 20
88.1153505027
  0
CIRCLE
  8
3
  6
CONTINUOUS
 62
5
 10
251.5805023421
 20
88.1153505027
 40
2.2500000000
  0
POINT
  8
3
  6
CONTINUOUS
 62
5
 10
251.5805023421
 20
88.1153505027
  0
LINE
  8
3
  6
CONTINUOUS
 62
5
 10
260.5805023421
 20
91.3653505027
 11
265.5805023421
 21
91.3653505027
  0
LINE
  8
3
  6
CONTINUOUS
 62
5
 10
260.5805023421
 20
96.3653505027
 11
265.5805023421
 21
96.3653505027
  0
ARC
  8
3
  6
CONTINUOUS
 62
5
 10
260.5805023421
 20
93.8653505027
 40
2.5000000000
 50
90.0000000000
 51
180.0000000000
  0
ARC
  8
3
  6
CONTINUOUS
 62
5
 10
260.5805023421
 20
93.8653505027
 40
2.5000000000
 50
180.0000000000
 51
270.0000000000
  0
ARC
  8
3
  6
CONTINUOUS
 62
5
 10
265.5805023421
 20
93.8653505027
 40
2.5000000000
 50
0.0000000000
 51
90.0000000000
  0
ARC
  8
3
  6
CONTINUOUS
 62
5
 10
265.5805023421
 20
93.8653505027
 40
2.5000000000
 50
270.0000000000
 51
0.0000000000
  0
POINT
  8
3
  6
CONTINUOUS
 62
5
 10
263.0805023421
 20
93.8653505027
  0
LINE
  8
3
  6
CONTINUOUS
 62
5
 10
271.0805023421
 20
92.6153505027
 11
278.0805023421
 21
92.6153505027
  0
LINE
  8
3
  6
CONTINUOUS
 62
5
 10
258.0805023421
 20
88.8653505027
 11
268.0805023421
 21
88.8653505027
  0
LINE
  8
3
  6
CONTINUOUS
 62
5
 10
256.0805023421
 20
89.8653505027
 11
256.0805023421
 21
85.8653505027
  0
LINE
  8
3
  6
CONTINUOUS
 62
5
 10
256.0805023421
 20
85.8653505027
 11
270.0805023421
 21
85.8653505027
  0
LINE
  8
3
  6
CONTINUOUS
 62
5
 10
270.0805023421
 20
89.8653505027
 11
270.0805023421
 21
85.8653505027
  0
LINE
  8
3
  6
CONTINUOUS
 62
5
 10
256.0805023421
 20
89.8653505027
 11
258.0805023421
 21
88.8653505027
  0
LINE
  8
3
  6
CONTINUOUS
 62
5
 10
268.0805023421
 20
88.8653505027
 11
270.0805023421
 21
89.8653505027
  0
LINE
  8
3
  6
CONTINUOUS
 62
5
 10
255.0805023421
 20
83.6153505027
 11
256.0805023421
 21
84.6153505027
  0
LINE
  8
3
  6
CONTINUOUS
 62
5
 10
256.0805023421
 20
84.6153505027
 11
257.0805023421
 21
83.6153505027
  0
LINE
  8
3
  6
CONTINUOUS
 62
5
 10
271.0805023421
 20
83.6153505027
 11
270.0805023421
 21
84.6153505027
  0
LINE
  8
3
  6
CONTINUOUS
 62
5
 10
270.0805023421
 20
84.6153505027
 11
269.0805023421
 21
83.6153505027
  0
LINE
  8
3
  6
CONTINUOUS
 62
5
 10
257.0805023421
 20
83.6153505027
 11
269.0805023421
 21
83.6153505027
  0
LINE
  8
3
  6
CONTINUOUS
 62
5
 10
271.0805023421
 20
83.6153505027
 11
278.0805023421
 21
83.6153505027
  0
LINE
  8
3
  6
HIDDEN
 62
5
 10
248.0805023421
 20
187.6153505027
 11
255.0805023421
 21
187.6153505027
  0
LINE
  8
3
  6
HIDDEN
 62
5
 10
248.0805023421
 20
178.6153505027
 11
255.0805023421
 21
178.6153505027
  0
LINE
  8
3
  6
HIDDEN
 62
5
 10
247.0805023421
 20
179.6153505027
 11
247.0805023421
 21
186.6153505027
  0
LINE
  8
3
  6
HIDDEN
 62
5
 10
279.0805023421
 20
179.6153505027
 11
279.0805023421
 21
186.6153505027
  0
ARC
  8
3
  6
HIDDEN
 62
5
 10
248.0805023421
 20
179.6153505027
 40
1.0000000000
 50
180.0000000000
 51
270.0000000000
  0
ARC
  8
3
  6
HIDDEN
 62
5
 10
248.0805023421
 20
186.6153505027
 40
1.0000000000
 50
90.0000000000
 51
180.0000000000
  0
ARC
  8
3
  6
HIDDEN
 62
5
 10
278.0805023421
 20
186.6153505027
 40
1.0000000000
 50
0.0000000000
 51
90.0000000000
  0
ARC
  8
3
  6
HIDDEN
 62
5
 10
278.0805023421
 20
179.6153505027
 40
1.0000000000
 50
270.0000000000
 51
0.0000000000
  0
CIRCLE
  8
3
  6
HIDDEN
 62
5
 10
274.5805023421
 20
183.1153505027
 40
2.2500000000
  0
POINT
  8
3
  6
CONTINUOUS
 62
5
 10
274.5805023421
 20
183.1153505027
  0
CIRCLE
  8
3
  6
HIDDEN
 62
5
 10
251.5805023421
 20
183.1153505027
 40
2.2500000000
  0
POINT
  8
3
  6
CONTINUOUS
 62
5
 10
251.5805023421
 20
183.1153505027
  0
LINE
  8
3
  6
HIDDEN
 62
5
 10
260.5805023421
 20
179.8653505027
 11
265.5805023421
 21
179.8653505027
  0
LINE
  8
3
  6
HIDDEN
 62
5
 10
260.5805023421
 20
174.8653505027
 11
265.5805023421
 21
174.8653505027
  0
ARC
  8
3
  6
HIDDEN
 62
5
 10
260.5805023421
 20
177.3653505027
 40
2.5000000000
 50
180.0000000000
 51
270.0000000000
  0
ARC
  8
3
  6
HIDDEN
 62
5
 10
260.5805023421
 20
177.3653505027
 40
2.5000000000
 50
90.0000000000
 51
180.0000000000
  0
ARC
  8
3
  6
HIDDEN
 62
5
 10
265.5805023421
 20
177.3653505027
 40
2.5000000000
 50
270.0000000000
 51
0.0000000000
  0
ARC
  8
3
  6
HIDDEN
 62
5
 10
265.5805023421
 20
177.3653505027
 40
2.5000000000
 50
0.0000000000
 51
90.0000000000
  0
POINT
  8
3
  6
CONTINUOUS
 62
5
 10
263.0805023421
 20
177.3653505027
  0
LINE
  8
3
  6
HIDDEN
 62
5
 10
271.0805023421
 20
178.6153505027
 11
278.0805023421
 21
178.6153505027
  0
LINE
  8
3
  6
HIDDEN
 62
5
 10
258.0805023421
 20
182.3653505027
 11
268.0805023421
 21
182.3653505027
  0
LINE
  8
3
  6
HIDDEN
 62
5
 10
256.0805023421
 20
181.3653505027
 11
256.0805023421
 21
185.3653505027
  0
LINE
  8
3
  6
HIDDEN
 62
5
 10
256.0805023421
 20
185.3653505027
 11
270.0805023421
 21
185.3653505027
  0
LINE
  8
3
  6
HIDDEN
 62
5
 10
270.0805023421
 20
181.3653505027
 11
270.0805023421
 21
185.3653505027
  0
LINE
  8
3
  6
HIDDEN
 62
5
 10
256.0805023421
 20
181.3653505027
 11
258.0805023421
 21
182.3653505027
  0
LINE
  8
3
  6
HIDDEN
 62
5
 10
268.0805023421
 20
182.3653505027
 11
270.0805023421
 21
181.3653505027
  0
LINE
  8
3
  6
HIDDEN
 62
5
 10
255.0805023421
 20
187.6153505027
 11
256.0805023421
 21
186.6153505027
  0
LINE
  8
3
  6
HIDDEN
 62
5
 10
256.0805023421
 20
186.6153505027
 11
257.0805023421
 21
187.6153505027
  0
LINE
  8
3
  6
HIDDEN
 62
5
 10
271.0805023421
 20
187.6153505027
 11
270.0805023421
 21
186.6153505027
  0
LINE
  8
3
  6
HIDDEN
 62
5
 10
270.0805023421
 20
186.6153505027
 11
269.0805023421
 21
187.6153505027
  0
LINE
  8
3
  6
HIDDEN
 62
5
 10
257.0805023421
 20
187.6153505027
 11
269.0805023421
 21
187.6153505027
  0
LINE
  8
3
  6
HIDDEN
 62
5
 10
271.0805023421
 20
187.6153505027
 11
278.0805023421
 21
187.6153505027
  0
LINE
  8
3
  6
CONTINUOUS
 62
5
 10
255.0805023421
 20
103.8653505027
 11
257.0805023421
 21
103.8653505027
  0
LINE
  8
3
  6
CONTINUOUS
 62
5
 10
258.0805023421
 20
99.7572355027
 11
258.0805023421
 21
102.8653505027
  0
LINE
  8
3
  6
CONTINUOUS
 62
5
 10
268.0805023421
 20
99.7572355027
 11
268.0805023421
 21
102.8653505027
  0
LINE
  8
3
  6
CONTINUOUS
 62
5
 10
255.0805023421
 20
100.6153505027
 11
255.0805023421
 21
92.6153505027
  0
LINE
  8
3
  6
CONTINUOUS
 62
5
 10
271.0805023421
 20
100.6153505027
 11
271.0805023421
 21
92.6153505027
  0
LINE
  8
3
  6
CONTINUOUS
 62
5
 10
255.0805023421
 20
167.3653505027
 11
257.0805023421
 21
167.3653505027
  0
LINE
  8
3
  6
CONTINUOUS
 62
5
 10
258.0805023421
 20
168.3653505027
 11
258.0805023421
 21
171.4734655027
  0
LINE
  8
3
  6
CONTINUOUS
 62
5
 10
268.0805023421
 20
168.3653505027
 11
268.0805023421
 21
171.4734655027
  0
LINE
  8
3
  6
CONTINUOUS
 62
5
 10
255.0805023421
 20
167.3653505027
 11
255.0805023421
 21
103.8653505027
  0
LINE
  8
3
  6
CONTINUOUS
 62
5
 10
271.0805023421
 20
167.3653505027
 11
271.0805023421
 21
112.1153505027
  0
POINT
  8
3
  6
CONTINUOUS
 62
5
 10
263.0805023421
 20
146.2153505027
  0
POINT
  8
3
  6
CONTINUOUS
 62
5
 10
263.0805023421
 20
135.6153505027
  0
POINT
  8
3
  6
CONTINUOUS
 62
5
 10
263.0805023421
 20
116.1153505027
  0
POINT
  8
3
  6
CONTINUOUS
 62
5
 10
263.0805023421
 20
107.2153505027
  0
CIRCLE
  8
3
  6
CONTINUOUS
 62
5
 10
263.0805023421
 20
116.1153505027
 40
2.0000000000
  0
LINE
  8
3
  6
CONTINUOUS
 62
5
 10
272.4805023421
 20
102.8653505027
 11
272.4805023421
 21
102.1153505027
  0
LINE
  8
3
  6
CONTINUOUS
 62
5
 10
272.0805023421
 20
111.1153505027
 11
278.0805023421
 21
111.1153505027
  0
LINE
  8
3
  6
CONTINUOUS
 62
5
 10
273.4805023421
 20
101.1153505027
 11
278.0805023421
 21
101.1153505027
  0
LINE
  8
3
  6
CONTINUOUS
 62
5
 10
278.0805023421
 20
111.1153505027
 11
278.0805023421
 21
101.1153505027
  0
ARC
  8
3
  6
CONTINUOUS
 62
5
 10
273.4805023421
 20
102.1153505027
 40
1.0000000000
 50
180.0000000000
 51
270.0000000000
  0
ARC
  8
3
  6
CONTINUOUS
 62
5
 10
272.0805023421
 20
112.1153505027
 40
1.0000000000
 50
180.0000000000
 51
270.0000000000
  0
LINE
  8
3
  6
CONTINUOUS
 62
5
 10
278.0805023421
 20
101.8653505027
 11
278.0805023421
 21
110.3653505027
  0
ARC
  8
3
  6
CONTINUOUS
 62
5
 10
272.0805023421
 20
106.1153505027
 40
8.5000000000
 50
332.7612570000
 51
356.6277130000
  0
LINE
  8
3
  6
CONTINUOUS
 62
5
 10
278.0805023421
 20
101.8653505027
 11
279.6379123421
 21
102.2249065027
  0
LINE
  8
3
  6
CONTINUOUS
 62
5
 10
278.0805023421
 20
110.3653505027
 11
279.6379123421
 21
110.0057935027
  0
LINE
  8
3
  6
CONTINUOUS
 62
5
 10
279.6379123421
 20
102.2249065027
 11
279.6379123421
 21
105.6153505027
  0
LINE
  8
3
  6
CONTINUOUS
 62
5
 10
280.5657833421
 20
105.6153505027
 11
279.3657833421
 21
105.6153505027
  0
LINE
  8
3
  6
CONTINUOUS
 62
5
 10
280.5657833421
 20
106.6153505027
 11
279.3657833421
 21
106.6153505027
  0
LINE
  8
3
  6
CONTINUOUS
 62
5
 10
279.3657833421
 20
105.6153505027
 11
279.3657833421
 21
106.6153505027
  0
LINE
  8
3
  6
CONTINUOUS
 62
5
 10
279.6379123421
 20
106.6153505027
 11
279.6379123421
 21
110.0057935027
  0
ARC
  8
3
  6
CONTINUOUS
 62
5
 10
272.0805023421
 20
106.1153505027
 40
8.5000000000
 50
3.3722870000
 51
27.2387430000
  0
POINT
  8
3
  6
CONTINUOUS
 62
5
 10
278.0805023421
 20
106.1153505027
  0
ARC
  8
3
  6
CONTINUOUS
 62
5
 10
277.0805023421
 20
104.1153505027
 40
3.5000000000
 50
270.0000000000
 51
0.0000000000
  0
CIRCLE
  8
3
  6
CONTINUOUS
 62
5
 10
263.0805023421
 20
135.6153505027
 40
3.0000000000
  0
POINT
  8
3
  6
CONTINUOUS
 62
5
 10
263.0805023421
 20
135.6153505027
  0
LINE
  8
3
  6
CONTINUOUS
 62
5
 10
264.1184703421
 20
137.2661445027
 11
263.8465343421
 21
136.9942085027
  0
LINE
  8
3
  6
CONTINUOUS
 62
5
 10
262.0425343421
 20
137.2661445027
 11
262.3144703421
 21
136.9942085027
  0
ARC
  8
3
  6
CONTINUOUS
 62
5
 10
263.0805023421
 20
137.7602405027
 40
1.0833330000
 50
225.0000000000
 51
315.0000000000
  0
LINE
  8
3
  6
CONTINUOUS
 62
5
 10
261.4297083421
 20
136.6533185027
 11
261.7016443421
 21
136.3813825027
  0
LINE
  8
3
  6
CONTINUOUS
 62
5
 10
261.4297083421
 20
134.5773825027
 11
261.7016443421
 21
134.8493185027
  0
ARC
  8
3
  6
CONTINUOUS
 62
5
 10
260.9356113421
 20
135.6153505027
 40
1.0833330000
 50
315.0000000000
 51
45.0000000000
  0
LINE
  8
3
  6
CONTINUOUS
 62
5
 10
262.0425343421
 20
133.9645565027
 11
262.3144703421
 21
134.2364925027
  0
LINE
  8
3
  6
CONTINUOUS
 62
5
 10
264.1184703421
 20
133.9645565027
 11
263.8465343421
 21
134.2364925027
  0
ARC
  8
3
  6
CONTINUOUS
 62
5
 10
263.0805023421
 20
133.4704595027
 40
1.0833330000
 50
45.0000000000
 51
135.0000000000
  0
LINE
  8
3
  6
CONTINUOUS
 62
5
 10
264.7312963421
 20
134.5773825027
 11
264.4593603421
 21
134.8493185027
  0
LINE
  8
3
  6
CONTINUOUS
 62
5
 10
264.7312963421
 20
136.6533185027
 11
264.4593603421
 21
136.3813825027
  0
ARC
  8
3
  6
CONTINUOUS
 62
5
 10
265.2253933421
 20
135.6153505027
 40
1.0833330000
 50
135.0000000000
 51
225.0000000000
  0
ARC
  8
3
  6
CONTINUOUS
 62
5
 10
263.0805023421
 20
135.6153505027
 40
1.9500000000
 50
212.1604120000
 51
237.8395880000
  0
ARC
  8
3
  6
CONTINUOUS
 62
5
 10
263.0805023421
 20
135.6153505027
 40
1.9500000000
 50
302.1604120000
 51
327.8395880000
  0
ARC
  8
3
  6
CONTINUOUS
 62
5
 10
263.0805023421
 20
135.6153505027
 40
1.9500000000
 50
32.1604120000
 51
57.8395880000
  0
ARC
  8
3
  6
CONTINUOUS
 62
5
 10
263.0805023421
 20
135.6153505027
 40
1.9500000000
 50
122.1604120000
 51
147.8395880000
  0
LINE
  8
3
  6
CONTINUOUS
 62
5
 10
278.0805023421
 20
134.3653505027
 11
278.0805023421
 21
142.8653505027
  0
ARC
  8
3
  6
CONTINUOUS
 62
5
 10
272.0805023421
 20
138.6153505027
 40
8.5000000000
 50
332.7612570000
 51
356.6277130000
  0
LINE
  8
3
  6
CONTINUOUS
 62
5
 10
278.0805023421
 20
134.3653505027
 11
279.6379123421
 21
134.7249065027
  0
LINE
  8
3
  6
CONTINUOUS
 62
5
 10
278.0805023421
 20
142.8653505027
 11
279.6379123421
 21
142.5057935027
  0
LINE
  8
3
  6
CONTINUOUS
 62
5
 10
279.6379123421
 20
134.7249065027
 11
279.6379123421
 21
138.1153505027
  0
LINE
  8
3
  6
CONTINUOUS
 62
5
 10
280.5657833421
 20
138.1153505027
 11
279.3657833421
 21
138.1153505027
  0
LINE
  8
3
  6
CONTINUOUS
 62
5
 10
280.5657833421
 20
139.1153505027
 11
279.3657833421
 21
139.1153505027
  0
LINE
  8
3
  6
CONTINUOUS
 62
5
 10
279.3657833421
 20
138.1153505027
 11
279.3657833421
 21
139.1153505027
  0
LINE
  8
3
  6
CONTINUOUS
 62
5
 10
279.6379123421
 20
139.1153505027
 11
279.6379123421
 21
142.5057935027
  0
ARC
  8
3
  6
CONTINUOUS
 62
5
 10
272.0805023421
 20
138.6153505027
 40
8.5000000000
 50
3.3722870000
 51
27.2387430000
  0
POINT
  8
3
  6
CONTINUOUS
 62
5
 10
278.0805023421
 20
138.6153505027
  0
LINE
  8
3
  6
CONTINUOUS
 62
5
 10
248.0805023421
 20
134.3653505027
 11
248.0805023421
 21
142.8653505027
  0
ARC
  8
3
  6
CONTINUOUS
 62
5
 10
254.0805023421
 20
138.6153505027
 40
8.5000000000
 50
183.3722870000
 51
207.2387430000
  0
LINE
  8
3
  6
CONTINUOUS
 62
5
 10
248.0805023421
 20
134.3653505027
 11
246.5230923421
 21
134.7249065027
  0
LINE
  8
3
  6
CONTINUOUS
 62
5
 10
248.0805023421
 20
142.8653505027
 11
246.5230923421
 21
142.5057935027
  0
LINE
  8
3
  6
CONTINUOUS
 62
5
 10
246.5230923421
 20
134.7249065027
 11
246.5230923421
 21
138.1153505027
  0
LINE
  8
3
  6
CONTINUOUS
 62
5
 10
245.5952213421
 20
138.1153505027
 11
246.7952213421
 21
138.1153505027
  0
LINE
  8
3
  6
CONTINUOUS
 62
5
 10
245.5952213421
 20
139.1153505027
 11
246.7952213421
 21
139.1153505027
  0
LINE
  8
3
  6
CONTINUOUS
 62
5
 10
246.7952213421
 20
138.1153505027
 11
246.7952213421
 21
139.1153505027
  0
LINE
  8
3
  6
CONTINUOUS
 62
5
 10
246.5230923421
 20
139.1153505027
 11
246.5230923421
 21
142.5057935027
  0
ARC
  8
3
  6
CONTINUOUS
 62
5
 10
254.0805023421
 20
138.6153505027
 40
8.5000000000
 50
152.7612570000
 51
176.6277130000
  0
POINT
  8
3
  6
CONTINUOUS
 62
5
 10
248.0805023421
 20
138.6153505027
  0
LINE
  8
3
  6
CONTINUOUS
 62
5
 10
251.5805023421
 20
170.6153505027
 11
251.5805023421
 21
157.6153505027
  0
LINE
  8
3
  6
CONTINUOUS
 62
5
 10
254.0805023421
 20
170.6153505027
 11
254.0805023421
 21
157.6153505027
  0
LINE
  8
3
  6
CONTINUOUS
 62
5
 10
251.5805023421
 20
157.6153505027
 11
254.0805023421
 21
157.6153505027
  0
POINT
  8
3
  6
CONTINUOUS
 62
5
 10
252.9351163421
 20
123.1857785027
  0
LINE
  8
3
  6
CONTINUOUS
 62
5
 10
252.7225773421
 20
106.5590645027
 11
253.3902093421
 21
108.9928395027
  0
LINE
  8
3
  6
CONTINUOUS
 62
5
 10
253.2246543421
 20
108.9928395027
 11
252.5570023421
 21
106.5590645027
  0
LINE
  8
3
  6
CONTINUOUS
 62
5
 10
253.7480843421
 20
107.1926225027
 11
252.0946753421
 21
108.3187355027
  0
LINE
  8
3
  6
CONTINUOUS
 62
5
 10
253.7480843421
 20
111.3804645027
 11
253.0973673421
 21
111.8206555027
  0
LINE
  8
3
  6
CONTINUOUS
 62
5
 10
253.0973673421
 20
111.8206555027
 11
252.0946753421
 21
111.8206555027
  0
LINE
  8
3
  6
CONTINUOUS
 62
5
 10
252.0946753421
 20
113.4880465027
 11
253.7480843421
 21
113.0343815027
  0
LINE
  8
3
  6
CONTINUOUS
 62
5
 10
253.6733933421
 20
115.9464845027
 11
253.2018963421
 21
118.3587915027
  0
LINE
  8
3
  6
CONTINUOUS
 62
5
 10
252.8512263421
 20
118.3587915027
 11
253.5200933421
 21
115.9464845027
  0
LINE
  8
3
  6
CONTINUOUS
 62
5
 10
253.2712093421
 20
119.1391575027
 11
253.2712093421
 21
121.3763425027
  0
LINE
  8
3
  6
CONTINUOUS
 62
5
 10
252.9814733421
 20
121.3763425027
 11
252.9814733421
 21
119.1391575027
  0
LINE
  8
3
  6
CONTINUOUS
 62
5
 10
252.6904463421
 20
119.0627325027
 11
252.4064123421
 21
119.0627325027
  0
LINE
  8
3
  6
CONTINUOUS
 62
5
 10
252.4020033421
 20
119.0627325027
 11
252.4020033421
 21
121.4527455027
  0
LINE
  8
3
  6
CONTINUOUS
 62
5
 10
252.4020033421
 20
121.4527455027
 11
252.6904463421
 21
121.4527455027
  0
LINE
  8
3
  6
CONTINUOUS
 62
5
 10
252.6904463421
 20
121.2879095027
 11
252.4020033421
 21
121.2879095027
  0
LINE
  8
3
  6
CONTINUOUS
 62
5
 10
252.4020033421
 20
120.9335425027
 11
252.6801493421
 21
120.9335425027
  0
LINE
  8
3
  6
CONTINUOUS
 62
5
 10
252.6801493421
 20
120.9335425027
 11
252.6801493421
 21
119.5819525027
  0
LINE
  8
3
  6
CONTINUOUS
 62
5
 10
252.6801493421
 20
119.5819525027
 11
252.4020033421
 21
119.5819525027
  0
LINE
  8
3
  6
CONTINUOUS
 62
5
 10
252.4020033421
 20
119.7467875027
 11
252.6801493421
 21
119.7467875027
  0
LINE
  8
3
  6
CONTINUOUS
 62
5
 10
252.6904463421
 20
119.2275675027
 11
252.4020033421
 21
119.2275675027
  0
LINE
  8
3
  6
CONTINUOUS
 62
5
 10
252.0775003421
 20
119.0189695027
 11
252.0775003421
 21
121.4965075027
  0
LINE
  8
3
  6
CONTINUOUS
 62
5
 10
252.4947183421
 20
121.9729655027
 11
252.4947183421
 21
122.8769395027
  0
LINE
  8
3
  6
CONTINUOUS
 62
5
 10
252.6917383421
 20
123.0630215027
 11
252.6917383421
 21
123.6186615027
  0
LINE
  8
3
  6
CONTINUOUS
 62
5
 10
252.2525973421
 20
123.3361545027
 11
252.2525973421
 21
123.0166315027
  0
LINE
  8
3
  6
CONTINUOUS
 62
5
 10
252.2525973421
 20
123.0166315027
 11
251.9847843421
 21
123.1594655027
  0
LINE
  8
3
  6
CONTINUOUS
 62
5
 10
252.0946753421
 20
123.5776085027
 11
253.8263073421
 21
124.3377915027
  0
LINE
  8
3
  6
CONTINUOUS
 62
5
 10
253.8282943421
 20
124.5186845027
 11
252.0946753421
 21
123.7576285027
  0
LINE
  8
3
  6
CONTINUOUS
 62
5
 10
252.2525973421
 20
124.1524165027
 11
252.2525973421
 21
124.4719385027
  0
LINE
  8
3
  6
CONTINUOUS
 62
5
 10
252.2525973421
 20
124.1524165027
 11
251.9847843421
 21
124.2952495027
  0
LINE
  8
3
  6
CONTINUOUS
 62
5
 10
252.6917383421
 20
124.1988055027
 11
252.6917383421
 21
124.6153505027
  0
LINE
  8
3
  6
CONTINUOUS
 62
5
 10
253.0510103421
 20
124.6153505027
 11
253.0510103421
 21
123.1285625027
  0
LINE
  8
3
  6
CONTINUOUS
 62
5
 10
252.6801493421
 20
120.7687065027
 11
252.4020033421
 21
120.7687065027
  0
LINE
  8
3
  6
CONTINUOUS
 62
5
 10
252.9368263421
 20
110.1633705027
 11
252.0946753421
 21
110.1633705027
  0
LINE
  8
3
  6
CONTINUOUS
 62
5
 10
253.4100163421
 20
123.1915265027
 11
253.4100163421
 21
123.4470365027
  0
LINE
  8
3
  6
CONTINUOUS
 62
5
 10
253.8305023421
 20
103.9034965027
 11
253.8305023421
 21
104.5184235027
  0
LINE
  8
3
  6
CONTINUOUS
 62
5
 10
252.8947623421
 20
105.3193685027
 11
252.8947623421
 21
105.8131035027
  0
LINE
  8
3
  6
CONTINUOUS
 62
5
 10
253.8305023421
 20
106.9006115027
 11
253.8305023421
 21
107.5760165027
  0
LINE
  8
3
  6
CONTINUOUS
 62
5
 10
252.0397303421
 20
108.2546245027
 11
252.0397303421
 21
108.8208155027
  0
LINE
  8
3
  6
CONTINUOUS
 62
5
 10
252.0397303421
 20
109.8908105027
 11
252.0397303421
 21
110.4359305027
  0
LINE
  8
3
  6
CONTINUOUS
 62
5
 10
252.0397303421
 20
111.5133275027
 11
252.0397303421
 21
112.1279835027
  0
LINE
  8
3
  6
CONTINUOUS
 62
5
 10
252.0397303421
 20
113.3787835027
 11
252.0397303421
 21
113.8739375027
  0
LINE
  8
3
  6
CONTINUOUS
 62
5
 10
253.8305023421
 20
113.4589965027
 11
253.8305023421
 21
112.8109755027
  0
LINE
  8
3
  6
CONTINUOUS
 62
5
 10
253.8305023421
 20
111.7022965027
 11
253.8305023421
 21
110.9537425027
  0
LINE
  8
3
  6
CONTINUOUS
 62
5
 10
253.0192433421
 20
110.4359305027
 11
253.0192433421
 21
109.8908105027
  0
LINE
  8
3
  6
CONTINUOUS
 62
5
 10
253.8307853421
 20
114.6467495027
 11
253.8324703421
 21
115.3251765027
  0
LINE
  8
3
  6
CONTINUOUS
 62
5
 10
253.7122333421
 20
115.9464845027
 11
253.2900793421
 21
118.3587915027
  0
LINE
  8
3
  6
CONTINUOUS
 62
5
 10
253.3655253421
 20
118.4412095027
 11
252.6506993421
 21
118.4412095027
  0
LINE
  8
3
  6
CONTINUOUS
 62
5
 10
252.9383783421
 20
118.3587915027
 11
253.5579033421
 21
115.9464845027
  0
LINE
  8
3
  6
CONTINUOUS
 62
5
 10
253.3794493421
 20
122.0623825027
 11
253.4061913421
 21
122.2228205027
  0
LINE
  8
3
  6
CONTINUOUS
 62
5
 10
253.4082033421
 20
122.2348895027
 11
253.1252703421
 21
122.3266515027
  0
LINE
  8
3
  6
CONTINUOUS
 62
5
 10
253.3368403421
 20
123.2999455027
 11
253.3743763421
 21
123.5043925027
  0
LINE
  8
3
  6
CONTINUOUS
 62
5
 10
253.3743763421
 20
123.5043925027
 11
253.4828203421
 21
123.4974035027
  0
LINE
  8
3
  6
CONTINUOUS
 62
5
 10
253.4828203421
 20
123.4974035027
 11
253.4828203421
 21
123.2934105027
  0
LINE
  8
3
  6
CONTINUOUS
 62
5
 10
253.8305023421
 20
123.1644245027
 11
253.8305023421
 21
122.9764665027
  0
LINE
  8
3
  6
CONTINUOUS
 62
5
 10
253.8305023421
 20
122.5464325027
 11
253.8305023421
 21
122.3266515027
  0
LINE
  8
3
  6
CONTINUOUS
 62
5
 10
253.8305023421
 20
123.5457705027
 11
253.3377433421
 21
124.3984555027
  0
LINE
  8
3
  6
CONTINUOUS
 62
5
 10
253.3377433421
 20
124.3993395027
 11
253.3377433421
 21
124.5957215027
  0
LINE
  8
3
  6
CONTINUOUS
 62
5
 10
253.3377433421
 20
124.5957215027
 11
253.8305023421
 21
123.7430675027
  0
LINE
  8
3
  6
CONTINUOUS
 62
5
 10
253.8305023421
 20
123.6881615027
 11
253.8305023421
 21
123.6006765027
  0
LINE
  8
3
  6
CONTINUOUS
 62
5
 10
253.8266383421
 20
124.3679405027
 11
253.8279633421
 21
124.4885355027
  0
LINE
  8
3
  6
CONTINUOUS
 62
5
 10
252.0397303421
 20
123.7335075027
 11
252.0397303421
 21
123.5534875027
  0
LINE
  8
3
  6
CONTINUOUS
 62
5
 10
252.0397303421
 20
122.5464325027
 11
252.0397303421
 21
122.3266515027
  0
LINE
  8
3
  6
CONTINUOUS
 62
5
 10
252.1354473421
 20
103.6153545027
 11
252.1354473421
 21
106.1237325027
  0
LINE
  8
3
  6
CONTINUOUS
 62
5
 10
252.1354473421
 20
106.1237325027
 11
252.8398173421
 21
105.8355815027
  0
LINE
  8
3
  6
CONTINUOUS
 62
5
 10
252.8398173421
 20
105.6079455027
 11
252.1354473421
 21
105.8960965027
  0
LINE
  8
3
  6
CONTINUOUS
 62
5
 10
252.1354473421
 20
105.6817685027
 11
252.8398173421
 21
105.3455925027
  0
LINE
  8
3
  6
CONTINUOUS
 62
5
 10
252.5921693421
 20
104.9563795027
 11
253.7480843421
 21
104.5475725027
  0
LINE
  8
3
  6
CONTINUOUS
 62
5
 10
253.7480843421
 20
104.3177815027
 11
252.6071723421
 21
104.7212825027
  0
LINE
  8
3
  6
CONTINUOUS
 62
5
 10
252.6144373421
 20
104.6074385027
 11
253.7480843421
 21
104.1307125027
  0
LINE
  8
3
  6
CONTINUOUS
 62
5
 10
253.7480843421
 20
103.9436995027
 11
252.6217313421
 21
104.4931305027
  0
LINE
  8
3
  6
CONTINUOUS
 62
5
 10
253.7480843421
 20
106.9629285027
 11
252.0946753421
 21
108.2130805027
  0
LINE
  8
3
  6
CONTINUOUS
 62
5
 10
252.0946753421
 20
108.4992345027
 11
253.7480843421
 21
107.3499195027
  0
LINE
  8
3
  6
CONTINUOUS
 62
5
 10
253.7480843421
 20
107.6333065027
 11
252.0946753421
 21
108.7826215027
  0
LINE
  8
3
  6
CONTINUOUS
 62
5
 10
252.0946753421
 20
109.8908105027
 11
252.9368263421
 21
109.8908105027
  0
LINE
  8
3
  6
CONTINUOUS
 62
5
 10
252.9368263421
 20
110.1105905027
 11
252.0946753421
 21
110.1105905027
  0
LINE
  8
3
  6
CONTINUOUS
 62
5
 10
252.0946753421
 20
110.2161495027
 11
252.9368263421
 21
110.2161495027
  0
LINE
  8
3
  6
CONTINUOUS
 62
5
 10
252.9368263421
 20
110.4359305027
 11
252.0946753421
 21
110.4359305027
  0
LINE
  8
3
  6
CONTINUOUS
 62
5
 10
252.0946753421
 20
111.5133275027
 11
253.0636633421
 21
111.5133275027
  0
LINE
  8
3
  6
CONTINUOUS
 62
5
 10
253.0636633421
 20
111.5133275027
 11
253.7480843421
 21
111.0138845027
  0
LINE
  8
3
  6
CONTINUOUS
 62
5
 10
253.7480843421
 20
111.2859615027
 11
253.1353273421
 21
111.7331085027
  0
LINE
  8
3
  6
CONTINUOUS
 62
5
 10
253.1353273421
 20
111.7331085027
 11
252.0946753421
 21
111.7331085027
  0
LINE
  8
3
  6
CONTINUOUS
 62
5
 10
252.0946753421
 20
111.9082025027
 11
253.0115023421
 21
111.9082025027
  0
LINE
  8
3
  6
CONTINUOUS
 62
5
 10
253.0115023421
 20
111.9082025027
 11
253.7480843421
 21
111.4965835027
  0
LINE
  8
3
  6
CONTINUOUS
 62
5
 10
253.7480843421
 20
111.7483535027
 11
253.0687463421
 21
112.1279835027
  0
LINE
  8
3
  6
CONTINUOUS
 62
5
 10
253.0687463421
 20
112.1279835027
 11
252.0946753421
 21
112.1279835027
  0
LINE
  8
3
  6
CONTINUOUS
 62
5
 10
252.4367713421
 20
112.6173225027
 11
252.4367713421
 21
115.2713525027
  0
LINE
  8
3
  6
CONTINUOUS
 62
5
 10
252.4367713421
 20
115.3262975027
 11
253.7480843421
 21
115.3252445027
  0
LINE
  8
3
  6
CONTINUOUS
 62
5
 10
253.7480843421
 20
115.1054635027
 11
252.4367713421
 21
115.1065165027
  0
LINE
  8
3
  6
CONTINUOUS
 62
5
 10
252.4367713421
 20
114.9691235027
 11
253.7480843421
 21
114.8731695027
  0
LINE
  8
3
  6
CONTINUOUS
 62
5
 10
253.7480843421
 20
114.6528015027
 11
252.4367713421
 21
114.7487545027
  0
LINE
  8
3
  6
CONTINUOUS
 62
5
 10
252.0946753421
 20
113.8612065027
 11
253.7480843421
 21
113.4780935027
  0
LINE
  8
3
  6
CONTINUOUS
 62
5
 10
253.7480843421
 20
113.2316545027
 11
252.0946753421
 21
113.6147315027
  0
LINE
  8
3
  6
CONTINUOUS
 62
5
 10
252.0946753421
 20
113.3613615027
 11
253.7480843421
 21
112.8371085027
  0
LINE
  8
3
  6
CONTINUOUS
 62
5
 10
253.7510733421
 20
115.9464845027
 11
253.3782623421
 21
118.3587915027
  0
LINE
  8
3
  6
CONTINUOUS
 62
5
 10
253.0255303421
 20
118.3587915027
 11
253.5957123421
 21
115.9464845027
  0
LINE
  8
3
  6
CONTINUOUS
 62
5
 10
253.4444753421
 20
115.9464845027
 11
252.6769223421
 21
118.3587915027
  0
LINE
  8
3
  6
CONTINUOUS
 62
5
 10
252.9814733421
 20
119.1391575027
 11
253.5725333421
 21
119.1391575027
  0
LINE
  8
3
  6
CONTINUOUS
 62
5
 10
253.5725333421
 20
119.1391575027
 11
253.5725333421
 21
121.3763425027
  0
LINE
  8
3
  6
CONTINUOUS
 62
5
 10
253.5725333421
 20
121.3763425027
 11
252.9814733421
 21
121.3763425027
  0
LINE
  8
3
  6
CONTINUOUS
 62
5
 10
252.9814733421
 20
121.1565615027
 11
253.5725333421
 21
121.1565615027
  0
LINE
  8
3
  6
CONTINUOUS
 62
5
 10
253.5725333421
 20
120.5196315027
 11
253.2712093421
 21
120.5196315027
  0
LINE
  8
3
  6
CONTINUOUS
 62
5
 10
253.2386243421
 20
120.3956075027
 11
252.9814733421
 21
120.3956075027
  0
LINE
  8
3
  6
CONTINUOUS
 62
5
 10
252.9814733421
 20
120.2857165027
 11
253.2549163421
 21
120.2857165027
  0
LINE
  8
3
  6
CONTINUOUS
 62
5
 10
253.2549163421
 20
120.2857165027
 11
253.8854473421
 21
120.4768845027
  0
LINE
  8
3
  6
CONTINUOUS
 62
5
 10
253.8579753421
 20
120.5833855027
 11
253.2386243421
 21
120.3956075027
  0
LINE
  8
3
  6
CONTINUOUS
 62
5
 10
253.2712093421
 20
120.1758265027
 11
252.9814733421
 21
120.1758265027
  0
LINE
  8
3
  6
CONTINUOUS
 62
5
 10
252.9814733421
 20
120.0659355027
 11
253.2875013421
 21
120.0659355027
  0
LINE
  8
3
  6
CONTINUOUS
 62
5
 10
253.2875013421
 20
120.0659355027
 11
253.8579753421
 21
120.2388955027
  0
LINE
  8
3
  6
CONTINUOUS
 62
5
 10
253.8579753421
 20
120.3537255027
 11
253.2712093421
 21
120.1758265027
  0
LINE
  8
3
  6
CONTINUOUS
 62
5
 10
253.3037933421
 20
119.9560455027
 11
253.8579753421
 21
120.1240655027
  0
LINE
  8
3
  6
CONTINUOUS
 62
5
 10
253.5725333421
 20
119.9783595027
 11
253.3755133421
 21
119.9783595027
  0
LINE
  8
3
  6
CONTINUOUS
 62
5
 10
253.3037933421
 20
119.9560455027
 11
252.9814733421
 21
119.9560455027
  0
LINE
  8
3
  6
CONTINUOUS
 62
5
 10
252.6801493421
 20
120.1594435027
 11
252.0775003421
 21
120.1594435027
  0
LINE
  8
3
  6
CONTINUOUS
 62
5
 10
252.0775003421
 20
120.3792245027
 11
252.6801493421
 21
120.3792245027
  0
LINE
  8
3
  6
CONTINUOUS
 62
5
 10
252.9814733421
 20
119.3589385027
 11
253.5725333421
 21
119.3589385027
  0
LINE
  8
3
  6
CONTINUOUS
 62
5
 10
252.1122683421
 20
117.3835715027
 11
252.1122683421
 21
115.9464845027
  0
LINE
  8
3
  6
CONTINUOUS
 62
5
 10
253.3808003421
 20
122.0704885027
 11
252.5909643421
 21
122.3266515027
  0
LINE
  8
3
  6
CONTINUOUS
 62
5
 10
252.5888643421
 20
122.5464325027
 11
253.1028043421
 21
122.7491015027
  0
LINE
  8
3
  6
CONTINUOUS
 62
5
 10
253.0510103421
 20
123.1285625027
 11
253.7755573421
 21
122.9871875027
  0
LINE
  8
3
  6
CONTINUOUS
 62
5
 10
253.7755573421
 20
123.1679665027
 11
253.0510103421
 21
123.2146655027
  0
LINE
  8
3
  6
CONTINUOUS
 62
5
 10
252.6642663421
 20
123.0801085027
 11
252.2525973421
 21
123.3361545027
  0
LINE
  8
3
  6
CONTINUOUS
 62
5
 10
252.0946753421
 20
122.5464325027
 11
253.7755573421
 21
122.5464325027
  0
LINE
  8
3
  6
CONTINUOUS
 62
5
 10
253.7755573421
 20
122.3266515027
 11
252.0946753421
 21
122.3266515027
  0
LINE
  8
3
  6
CONTINUOUS
 62
5
 10
252.6642663421
 20
124.2158925027
 11
252.2525973421
 21
124.4719385027
  0
LINE
  8
3
  6
CONTINUOUS
 62
5
 10
252.6917383421
 20
124.6153505027
 11
253.0510103421
 21
124.6153505027
  0
TEXT
  8
3
  6
CONTINUOUS
 62
5
 10
250.455422
 20
113.498630
 40
1.230000
  1
M
 41
1.000000
 50
90.000000
 51
0.000000
 72
   5
 73
   0
 11
250.455422
 21
114.113630
  0
TEXT
  8
3
  6
CONTINUOUS
 62
5
 10
250.455422
 20
114.561038
 40
1.230000
  1
A
 41
1.000000
 50
90.000000
 51
0.000000
 72
   5
 73
   0
 11
250.455422
 21
115.176038
  0
TEXT
  8
3
  6
CONTINUOUS
 62
5
 10
250.455422
 20
116.548770
 40
1.230000
  1
E
 41
1.000000
 50
90.000000
 51
0.000000
 72
   5
 73
   0
 11
250.455422
 21
117.163770
  0
TEXT
  8
3
  6
CONTINUOUS
 62
5
 10
250.455422
 20
115.503497
 40
1.230000
  1
D
 41
1.000000
 50
90.000000
 51
0.000000
 72
   5
 73
   0
 11
250.455422
 21
116.118497
  0
TEXT
  8
3
  6
CONTINUOUS
 62
5
 10
250.455422
 20
117.789233
 40
1.230000
  1
I
 41
1.000000
 50
90.000000
 51
0.000000
 72
   5
 73
   0
 11
250.455422
 21
118.404233
  0
TEXT
  8
3
  6
CONTINUOUS
 62
5
 10
250.455422
 20
118.776401
 40
1.230000
  1
N
 41
1.000000
 50
90.000000
 51
0.000000
 72
   5
 73
   0
 11
250.455422
 21
119.391401
  0
TEXT
  8
3
  6
CONTINUOUS
 62
5
 10
250.455422
 20
121.004016
 40
1.230000
  1
A
 41
1.000000
 50
90.000000
 51
0.000000
 72
   5
 73
   0
 11
250.455422
 21
121.619016
  0
TEXT
  8
3
  6
CONTINUOUS
 62
5
 10
250.455422
 20
120.027286
 40
1.230000
  1
J
 41
1.000000
 50
90.000000
 51
0.000000
 72
   5
 73
   0
 11
250.455422
 21
120.642286
  0
TEXT
  8
3
  6
CONTINUOUS
 62
5
 10
250.455422
 20
121.979938
 40
1.230000
  1
P
 41
1.000000
 50
90.000000
 51
0.000000
 72
   5
 73
   0
 11
250.455422
 21
122.594938
  0
TEXT
  8
3
  6
CONTINUOUS
 62
5
 10
250.455422
 20
122.837543
 40
1.230000
  1
A
 41
1.000000
 50
90.000000
 51
0.000000
 72
   5
 73
   0
 11
250.455422
 21
123.452543
  0
TEXT
  8
3
  6
CONTINUOUS
 62
5
 10
250.455422
 20
123.797137
 40
1.230000
  1
N
 41
1.000000
 50
90.000000
 51
0.000000
 72
   5
 73
   0
 11
250.455422
 21
124.412137
  0
LINE
  8
3
  6
CONTINUOUS
 62
5
 10
276.0805023421
 20
113.6153505027
 11
276.0805023421
 21
117.6153505027
  0
LINE
  8
3
  6
CONTINUOUS
 62
5
 10
274.0805023421
 20
115.6153505027
 11
276.0805023421
 21
115.6153505027
  0
CIRCLE
  8
3
  6
CONTINUOUS
 62
5
 10
276.0805023421
 20
115.6153505027
 40
2.5000000000
  0
POINT
  8
3
  6
CONTINUOUS
 62
5
 10
276.0805023421
 20
115.6153505027
  0
LINE
  8
3
  6
CONTINUOUS
 62
5
 10
277.0805023421
 20
114.1153505027
 11
277.0805023421
 21
117.1153505027
  0
LINE
  8
3
  6
CONTINUOUS
 62
5
 10
278.0805023421
 20
116.6153505027
 11
278.0805023421
 21
114.6153505027
  0
POINT
  8
3
  6
CONTINUOUS
 62
5
 10
276.0805023421
 20
149.6153505027
  0
TEXT
  8
3
  6
CONTINUOUS
 62
5
 10
254.076295
 20
151.168475
 40
2.450000
  1
3
 41
1.000000
 50
90.000000
 51
0.000000
 72
   5
 73
   0
 11
254.076295
 21
152.393475
  0
TEXT
  8
3
  6
CONTINUOUS
 62
5
 10
254.076295
 20
154.828113
 40
2.450000
  1
m
 41
1.000000
 50
90.000000
 51
0.000000
 72
   5
 73
   0
 11
254.076295
 21
156.053113
  0
TEXT
  8
3
  6
CONTINUOUS
 62
5
 10
254.076295
 20
153.046435
 40
2.450000
  1
m
 41
1.000000
 50
90.000000
 51
0.000000
 72
   5
 73
   0
 11
254.076295
 21
154.271435
  0
TEXT
  8
3
  6
CONTINUOUS
 62
5
 10
254.076295
 20
149.940997
 40
2.450000
  1
1
 41
1.000000
 50
90.000000
 51
0.000000
 72
   5
 73
   0
 11
254.076295
 21
151.165997
  0
TEXT
  8
3
  6
CONTINUOUS
 62
5
 10
253.764901
 20
158.439758
 40
1.850000
  1
S
 41
1.000000
 50
90.000000
 51
0.000000
 72
   5
 73
   0
 11
253.764901
 21
159.364758
  0
TEXT
  8
3
  6
CONTINUOUS
 62
5
 10
253.764901
 20
159.545502
 40
1.850000
  1
T
 41
1.000000
 50
90.000000
 51
0.000000
 72
   5
 73
   0
 11
253.764901
 21
160.470502
  0
TEXT
  8
3
  6
CONTINUOUS
 62
5
 10
253.764901
 20
161.728302
 40
1.850000
  1
I
 41
1.000000
 50
90.000000
 51
0.000000
 72
   5
 73
   0
 11
253.764901
 21
162.653302
  0
TEXT
  8
3
  6
CONTINUOUS
 62
5
 10
253.764901
 20
160.801788
 40
1.850000
  1
R
 41
1.000000
 50
90.000000
 51
0.000000
 72
   5
 73
   0
 11
253.764901
 21
161.726788
  0
TEXT
  8
3
  6
CONTINUOUS
 62
5
 10
253.764901
 20
162.811829
 40
1.850000
  1
P
 41
1.000000
 50
90.000000
 51
0.000000
 72
   5
 73
   0
 11
253.764901
 21
163.736829
  0
TEXT
  8
3
  6
CONTINUOUS
 62
5
 10
253.764901
 20
164.429321
 40
1.850000
  1
G
 41
1.000000
 50
90.000000
 51
0.000000
 72
   5
 73
   0
 11
253.764901
 21
165.354321
  0
TEXT
  8
3
  6
CONTINUOUS
 62
5
 10
253.764901
 20
165.638489
 40
1.850000
  1
A
 41
1.000000
 50
90.000000
 51
0.000000
 72
   5
 73
   0
 11
253.764901
 21
166.563489
  0
TEXT
  8
3
  6
CONTINUOUS
 62
5
 10
253.764901
 20
167.994018
 40
1.850000
  1
E
 41
1.000000
 50
90.000000
 51
0.000000
 72
   5
 73
   0
 11
253.764901
 21
168.919018
  0
TEXT
  8
3
  6
CONTINUOUS
 62
5
 10
253.764901
 20
166.816254
 40
1.850000
  1
G
 41
1.000000
 50
90.000000
 51
0.000000
 72
   5
 73
   0
 11
253.764901
 21
167.741254
  0
LINE
  8
3
  6
CONTINUOUS
 62
5
 10
277.3305023421
 20
150.4653505027
 11
274.8305023421
 21
150.4653505027
  0
LINE
  8
3
  6
CONTINUOUS
 62
5
 10
277.3305023421
 20
148.7653505027
 11
274.8305023421
 21
148.7653505027
  0
LINE
  8
3
  6
CONTINUOUS
 62
5
 10
274.8305023421
 20
148.7653505027
 11
277.3305023421
 21
150.4653505027
  0
ARC
  8
3
  6
CONTINUOUS
 62
5
 10
269.0805023421
 20
168.3653505027
 40
1.0000000000
 50
180.0000000000
 51
270.0000000000
  0
ARC
  8
3
  6
CONTINUOUS
 62
5
 10
257.0805023421
 20
168.3653505027
 40
1.0000000000
 50
270.0000000000
 51
0.0000000000
  0
LINE
  8
3
  6
CONTINUOUS
 62
5
 10
269.0805023421
 20
167.3653505027
 11
271.0805023421
 21
167.3653505027
  0
LINE
  8
3
  6
CONTINUOUS
 62
5
 10
258.0805023421
 20
169.6153505027
 11
254.8305023421
 21
169.6153505027
  0
ARC
  8
3
  6
CONTINUOUS
 62
5
 10
269.0805023421
 20
102.8653505027
 40
1.0000000000
 50
90.0000000000
 51
180.0000000000
  0
ARC
  8
3
  6
CONTINUOUS
 62
5
 10
257.0805023421
 20
102.8653505027
 40
1.0000000000
 50
0.0000000000
 51
90.0000000000
  0
ARC
  8
3
  6
CONTINUOUS
 62
5
 10
271.4805023421
 20
102.8653505027
 40
1.0000000000
 50
0.0000000000
 51
90.0000000000
  0
LINE
  8
3
  6
CONTINUOUS
 62
5
 10
269.0805023421
 20
103.8653505027
 11
271.4805023421
 21
103.8653505027
  0
LINE
  8
3
  6
CONTINUOUS
 62
5
 10
258.0805023421
 20
101.6153505027
 11
254.8305023421
 21
101.6153505027
  0
LINE
  8
3
  6
CONTINUOUS
 62
5
 10
255.0805023421
 20
99.7572355027
 11
271.0805023421
 21
99.7572355027
  0
LINE
  8
3
  6
CONTINUOUS
 62
5
 10
255.0805023421
 20
171.4734655027
 11
271.0805023421
 21
171.4734655027
  0
CIRCLE
  8
3
  6
CONTINUOUS
 62
5
 10
263.0805023421
 20
146.2153505027
 40
1.5000000000
  0
CIRCLE
  8
3
  6
CONTINUOUS
 62
5
 10
263.0805023421
 20
107.2153505027
 40
1.5000000000
  0
LINE
  8
3
  6
CONTINUOUS
 62
7
 10
247.5805023421
 20
188.1153505010
 11
278.5805023421
 21
188.1153505028
  0
LINE
  8
3
  6
CONTINUOUS
 62
7
 10
279.5805023421
 20
187.1153505028
 11
279.5805023421
 21
172.3362426947
  0
LINE
  8
3
  6
CONTINUOUS
 62
7
 10
279.5805023421
 20
172.3362426947
 11
246.5805023421
 21
172.3362426947
  0
LINE
  8
3
  6
HIDDEN
 62
7
 10
279.5805023421
 20
173.3129471581
 11
246.5805023421
 21
173.3129471581
  0
LINE
  8
3
  6
CONTINUOUS
 62
7
 10
246.5805023421
 20
174.1243108347
 11
279.5805023421
 21
174.1243108347
  0
CIRCLE
  8
3
  6
CONTINUOUS
 62
7
 10
274.5805023421
 20
183.1153505027
 40
1.7500000000
  0
CIRCLE
  8
3
  6
CONTINUOUS
 62
7
 10
274.5805023421
 20
183.1153505027
 40
3.0000000000
  0
CIRCLE
  8
3
  6
CONTINUOUS
 62
7
 10
274.5805023421
 20
183.1153505027
 40
1.2500000000
  0
CIRCLE
  8
3
  6
CONTINUOUS
 62
7
 10
251.5805023421
 20
183.1153505027
 40
1.7500000000
  0
CIRCLE
  8
3
  6
CONTINUOUS
 62
7
 10
251.5805023421
 20
183.1153505027
 40
3.0000000000
  0
CIRCLE
  8
3
  6
CONTINUOUS
 62
7
 10
251.5805023421
 20
183.1153505027
 40
1.2500000000
  0
LINE
  8
3
  6
CONTINUOUS
 62
7
 10
246.5805023421
 20
187.1153505010
 11
246.5805023421
 21
172.3362426947
  0
LINE
  8
3
  6
CONTINUOUS
 62
7
 10
279.5805023421
 20
187.1153505028
 11
278.5805023421
 21
188.1153505028
  0
LINE
  8
3
  6
CONTINUOUS
 62
7
 10
246.5805023421
 20
187.1153505010
 11
247.5805023421
 21
188.1153505010
  0
TEXT
  8
3
  6
CONTINUOUS
 62
7
 10
321.043936
 20
239.062006
 40
3.000000
  1
★別売りです
 41
0.875912
 50
0.000000
 51
0.000000
 72
   5
 73
   0
 11
339.043936
 21
239.062006
  0
LINE
  8
3
  6
CONTINUOUS
 62
4
 10
283.0805023421
 20
122.4734655070
 11
284.0805023421
 21
122.4734655070
  0
LINE
  8
3
  6
CONTINUOUS
 62
4
 10
284.0805023421
 20
170.9734655070
 11
284.0805023421
 21
122.4734655070
  0
LINE
  8
3
  6
CONTINUOUS
 62
4
 10
243.5805023421
 20
172.4734655070
 11
282.5805023421
 21
172.4734655070
  0
LINE
  8
3
  6
CONTINUOUS
 62
4
 10
242.0805023421
 20
170.9734655070
 11
242.0805023421
 21
122.4734655070
  0
LINE
  8
3
  6
CONTINUOUS
 62
4
 10
242.0805023421
 20
122.4734655070
 11
243.0805023421
 21
122.4734655070
  0
LINE
  8
3
  6
CONTINUOUS
 62
4
 10
243.0805023421
 20
170.9734655070
 11
243.0805023421
 21
122.4734655070
  0
LINE
  8
3
  6
CONTINUOUS
 62
4
 10
282.5805023421
 20
171.4734655070
 11
243.5805023421
 21
171.4734655070
  0
LINE
  8
3
  6
CONTINUOUS
 62
4
 10
283.0805023421
 20
170.9734655070
 11
283.0805023421
 21
122.4734655070
  0
ARC
  8
3
  6
CONTINUOUS
 62
4
 10
282.5805023421
 20
170.9734655070
 40
1.5000000000
 50
0.0000000000
 51
90.0000000000
  0
ARC
  8
3
  6
CONTINUOUS
 62
4
 10
243.5805023421
 20
170.9734655070
 40
1.5000000000
 50
90.0000000000
 51
180.0000000000
  0
ARC
  8
3
  6
CONTINUOUS
 62
4
 10
243.5805023421
 20
170.9734655070
 40
0.5000000000
 50
90.0000000000
 51
180.0000000000
  0
ARC
  8
3
  6
CONTINUOUS
 62
4
 10
282.5805023421
 20
170.9734655070
 40
0.5000000000
 50
0.0000000000
 51
90.0000000000
  0
LINE
  8
4
  6
CONTINUOUS
 62
3
 10
326.8503383637
 20
188.8868942825
 11
379.8503383637
 21
188.8868942825
  0
LINE
  8
4
  6
CONTINUOUS
 62
3
 10
379.8503383637
 20
188.8868942825
 11
379.8503383637
 21
80.8868942825
  0
LINE
  8
4
  6
CONTINUOUS
 62
3
 10
326.8503383637
 20
80.8868942825
 11
326.8503383637
 21
188.8868942825
  0
LINE
  8
4
  6
CONTINUOUS
 62
3
 10
379.8503383637
 20
80.8868942825
 11
326.8503383637
 21
80.8868942825
  0
CIRCLE
  8
4
  6
CONTINUOUS
 62
3
 10
333.3503383637
 20
193.3868942825
 40
1.5000000000
  0
CIRCLE
  8
4
  6
CONTINUOUS
 62
3
 10
373.3503383637
 20
193.3868942825
 40
1.5000000000
  0
CIRCLE
  8
4
  6
CONTINUOUS
 62
3
 10
333.3503383637
 20
76.3868942825
 40
1.5000000000
  0
CIRCLE
  8
4
  6
CONTINUOUS
 62
3
 10
373.3503383637
 20
76.3868942825
 40
1.5000000000
  0
CIRCLE
  8
4
  6
CONTINUOUS
 62
3
 10
353.3503383637
 20
193.3868942825
 40
2.2500000000
  0
CIRCLE
  8
4
  6
CONTINUOUS
 62
3
 10
353.3503383637
 20
76.3868942825
 40
2.2500000000
  0
DIMENSION
  8
4
  6
CONTINUOUS
 62
5
  2
*D7
 10
333.3503383637
 20
200.0803431065
 11
330.1003383637
 21
202.8303431065
  70
0
 13
326.8503383637
 23
188.8868942825
 14
333.3503383637
 24
191.8868942825
 50
0.000000
  0
DIMENSION
  8
4
  6
CONTINUOUS
 62
5
  2
*D8
 10
353.3503383637
 20
200.0803431065
 11
343.3503383637
 21
202.8303431065
  70
0
 13
333.3503383637
 23
191.8868942825
 14
353.3503383637
 24
191.1368942825
 50
0.000000
  0
DIMENSION
  8
4
  6
CONTINUOUS
 62
5
  2
*D9
 10
373.3503383637
 20
200.0803431065
 11
363.3503383637
 21
202.8303431065
  70
0
 13
353.3503383637
 23
191.1368942825
 14
373.3503383637
 24
191.8868942825
 50
0.000000
  0
DIMENSION
  8
4
  6
CONTINUOUS
 62
5
  2
*D10
 10
379.8503383637
 20
200.0803431065
 11
376.6003383637
 21
202.8303431065
  70
0
 13
373.3503383637
 23
191.8868942825
 14
379.8503383637
 24
188.8868942825
 50
0.000000
  0
DIMENSION
  8
4
  6
CONTINUOUS
 62
5
  2
*D11
 10
379.8503383637
 20
207.0803431065
 11
353.3503383637
 21
209.8303431065
  70
0
 13
326.8503383637
 23
188.8868942825
 14
379.8503383637
 24
188.8868942825
 50
0.000000
  0
DIMENSION
  8
4
  6
CONTINUOUS
 62
5
  2
*D12
 10
332.4994687391
 20
194.6222164599
 11
335.6150956889
 21
194.9468219276
  70
3
 15
334.2012079882
 25
192.1515721051
  0
DIMENSION
  8
4
  6
CONTINUOUS
 62
5
  2
*D13
 10
351.9491405262
 20
195.1473330404
 11
355.5019857344
 21
195.0994694172
  70
3
 15
354.7515362011
 25
191.6264555246
  0
TEXT
  8
4
  6
CONTINUOUS
 62
7
 10
334.777267
 20
53.198960
 40
4.000000
  1
パネルカット図
 41
0.872818
 50
0.000000
 51
0.000000
 72
   5
 73
   0
 11
362.777267
 21
53.198960
  0
TEXT
  8
4
  6
CONTINUOUS
 62
7
 10
334.777267
 20
49.198960
 40
4.000000
  1
推奨板厚 t=1.6以上
 41
0.827967
 50
0.000000
 51
0.000000
 72
   5
 73
   0
 11
370.777267
 21
49.198960
  0
LINE
  8
1
  6
HIDDEN
 62
1
 10
387.8503383637
 20
60.6368942825
 11
387.8503383637
 21
216.1368942825
  0
LINE
  8
1
  6
HIDDEN
 62
1
 10
387.8503383637
 20
216.1368942825
 11
318.8503383637
 21
216.1368942825
  0
LINE
  8
1
  6
HIDDEN
 62
1
 10
318.8503383637
 20
216.1368942825
 11
318.8503383637
 21
60.6368942825
  0
LINE
  8
1
  6
HIDDEN
 62
1
 10
387.8503383637
 20
60.6368942825
 11
318.8503383637
 21
60.6368942825
  0
DIMENSION
  8
1
  6
CONTINUOUS
 62
5
  2
*D14
 10
314.6544720806
 20
80.8868942825
 11
312.1544720806
 21
78.6368942825
  70
0
 13
374.8503383637
 23
76.3868942825
 14
326.8503383637
 24
80.8868942825
 50
90.000000
  0
DIMENSION
  8
1
  6
CONTINUOUS
 62
5
  2
*D15
 10
314.6544720806
 20
188.8868942825
 11
311.9044720806
 21
134.8868942825
  70
0
 13
326.8503383637
 23
80.8868942825
 14
326.8503383637
 24
188.8868942825
 50
90.000000
  0
DIMENSION
  8
1
  6
CONTINUOUS
 62
5
  2
*D16
 10
314.6544720806
 20
193.3868942825
 11
312.1544720806
 21
191.1368942825
  70
0
 13
326.8503383637
 23
188.8868942825
 14
374.8503383637
 24
193.3868942825
 50
90.000000
  0
DIMENSION
  8
1
  6
CONTINUOUS
 62
5
  2
*D17
 10
307.6544720806
 20
193.3868942825
 11
304.9044720806
 21
134.8868942825
  70
0
 13
374.8503383637
 23
76.3868942825
 14
374.8503383637
 24
193.3868942825
 50
90.000000
  0
DIMENSION
  8
1
  6
CONTINUOUS
 62
5
  2
*D18
 10
395.4935724266
 20
80.8868942825
 11
392.7435724266
 21
70.7618942825
  70
0
 13
387.8503383637
 23
60.6368942825
 14
379.8503383637
 24
80.8868942825
 50
90.000000
  0
DIMENSION
  8
1
  6
CONTINUOUS
 62
5
  2
*D19
 10
395.4935724266
 20
188.8868942825
 11
392.7435724266
 21
134.8868942825
  70
0
 13
379.8503383637
 23
80.8868942825
 14
379.8503383637
 24
188.8868942825
 50
90.000000
  0
DIMENSION
  8
1
  6
CONTINUOUS
 62
5
  2
*D20
 10
395.4935724266
 20
216.1368942825
 11
392.7435724266
 21
202.5118942825
  70
0
 13
379.8503383637
 23
188.8868942825
 14
387.8503383637
 24
216.1368942825
 50
90.000000
  0
INSERT
  8
1
  6
CONTINUOUS
 62
5
  2
LTEX1
 10
331.7046796930
 20
60.6368942825
  0
INSERT
  8
3
  6
CONTINUOUS
 62
5
  2
BALN4
 10
125.2794223691
 20
210.9687949083
  0
INSERT
  8
3
  6
CONTINUOUS
 62
5
  2
BALN5
 10
106.3252681392
 20
198.0515469823
  0
INSERT
  8
3
  6
CONTINUOUS
 62
5
  2
BALN6
 10
163.3371686205
 20
193.3868942825
  0
INSERT
  8
3
  6
CONTINUOUS
 62
5
  2
BALN7
 10
183.3371686205
 20
197.2868942825
  0
INSERT
  8
3
  6
CONTINUOUS
 62
5
  2
BALN8
 10
204.0538270525
 20
183.4190997007
  0
INSERT
  8
3
  6
CONTINUOUS
 62
5
  2
BALN9
 10
247.0805023421
 20
179.6153505027
  0
INSERT
  8
3
  6
CONTINUOUS
 62
5
  2
BALN10
 10
282.5805023421
 20
172.4734655070
  0
LINE
  8
5
  6
CONTINUOUS
 62
6
 10
315.5000000000
 20
272.5000000000
 11
315.5000000000
 21
277.5000000000
  0
LINE
  8
5
  6
CONTINUOUS
 62
6
 10
315.5000000000
 20
277.5000000000
 11
320.5000000000
 21
277.5000000000
  0
LINE
  8
5
  6
CONTINUOUS
 62
6
 10
320.5000000000
 20
277.5000000000
 11
340.5000000000
 21
277.5000000000
  0
LINE
  8
5
  6
CONTINUOUS
 62
6
 10
340.5000000000
 20
277.5000000000
 11
380.5000000000
 21
277.5000000000
  0
LINE
  8
5
  6
CONTINUOUS
 62
6
 10
380.5000000000
 20
277.5000000000
 11
395.5000000000
 21
277.5000000000
  0
LINE
  8
5
  6
CONTINUOUS
 62
6
 10
395.5000000000
 20
277.5000000000
 11
400.5000000000
 21
277.5000000000
  0
LINE
  8
5
  6
CONTINUOUS
 62
6
 10
400.5000000000
 20
277.5000000000
 11
400.5000000000
 21
272.5000000000
  0
LINE
  8
5
  6
CONTINUOUS
 62
6
 10
400.5000000000
 20
272.5000000000
 11
395.5000000000
 21
272.5000000000
  0
LINE
  8
5
  6
CONTINUOUS
 62
6
 10
395.5000000000
 20
272.5000000000
 11
380.5000000000
 21
272.5000000000
  0
LINE
  8
5
  6
CONTINUOUS
 62
6
 10
380.5000000000
 20
272.5000000000
 11
340.5000000000
 21
272.5000000000
  0
LINE
  8
5
  6
CONTINUOUS
 62
6
 10
340.5000000000
 20
272.5000000000
 11
320.5000000000
 21
272.5000000000
  0
LINE
  8
5
  6
CONTINUOUS
 62
6
 10
320.5000000000
 20
272.5000000000
 11
315.5000000000
 21
272.5000000000
  0
LINE
  8
5
  6
CONTINUOUS
 62
6
 10
320.5000000000
 20
277.5000000000
 11
320.5000000000
 21
272.5000000000
  0
LINE
  8
5
  6
CONTINUOUS
 62
6
 10
340.5000000000
 20
277.5000000000
 11
340.5000000000
 21
272.5000000000
  0
LINE
  8
5
  6
CONTINUOUS
 62
6
 10
380.5000000000
 20
277.5000000000
 11
380.5000000000
 21
272.5000000000
  0
LINE
  8
5
  6
CONTINUOUS
 62
6
 10
395.5000000000
 20
277.5000000000
 11
395.5000000000
 21
272.5000000000
  0
TEXT
  8
5
  6
CONTINUOUS
 62
7
 10
315.700000
 20
273.850000
 40
2.300000
  1
項番
 41
0.921659
 50
0.000000
 51
0.000000
 72
   5
 73
   0
 11
320.300000
 21
273.850000
  0
TEXT
  8
5
  6
CONTINUOUS
 62
7
 10
325.508000
 20
273.500000
 40
3.000000
  1
品　　名
 41
0.737916
 50
0.000000
 51
0.000000
 72
   5
 73
   0
 11
335.492000
 21
273.500000
  0
TEXT
  8
5
  6
CONTINUOUS
 62
7
 10
345.347000
 20
273.500000
 40
3.000000
  1
定  格 / 型  番 / 材　質
 41
0.686277
 50
0.000000
 51
0.000000
 72
   5
 73
   0
 11
375.653000
 21
273.500000
  0
TEXT
  8
5
  6
CONTINUOUS
 62
7
 10
382.802500
 20
273.500000
 40
3.000000
  1
メーカー
 41
0.768293
 50
0.000000
 51
0.000000
 72
   5
 73
   0
 11
393.197500
 21
273.500000
  0
TEXT
  8
5
  6
CONTINUOUS
 62
7
 10
395.700000
 20
273.850000
 40
2.300000
  1
数量
 41
0.921659
 50
0.000000
 51
0.000000
 72
   5
 73
   0
 11
400.300000
 21
273.850000
  0
LINE
  8
5
  6
CONTINUOUS
 62
6
 10
315.5000000000
 20
272.5000000000
 11
320.5000000000
 21
272.5000000000
  0
LINE
  8
5
  6
CONTINUOUS
 62
6
 10
320.5000000000
 20
272.5000000000
 11
340.5000000000
 21
272.5000000000
  0
LINE
  8
5
  6
CONTINUOUS
 62
6
 10
340.5000000000
 20
272.5000000000
 11
380.5000000000
 21
272.5000000000
  0
LINE
  8
5
  6
CONTINUOUS
 62
6
 10
380.5000000000
 20
272.5000000000
 11
395.5000000000
 21
272.5000000000
  0
LINE
  8
5
  6
CONTINUOUS
 62
6
 10
395.5000000000
 20
272.5000000000
 11
400.5000000000
 21
272.5000000000
  0
TEXT
  8
3
  6
CONTINUOUS
 62
7
 10
114.548468
 20
269.639757
 40
5.000000
  1
型番仕様
 41
0.886918
 50
0.000000
 51
0.000000
 72
   5
 73
   0
 11
134.548468
 21
269.639757
  0
TEXT
  8
3
  6
CONTINUOUS
 62
7
 10
114.548468
 20
262.639757
 40
5.000000
  1
MCON-001-050 %%uPB
 41
0.759109
 50
0.000000
 51
0.000000
 72
   5
 73
   0
 11
152.048468
 21
262.639757
  0
TEXT
  8
1
  6
CONTINUOUS
 62
7
 10
154.089957
 20
249.572834
 40
3.500000
  1
①ﾍﾞｰｽ,②ｶﾊﾞｰ材質
 41
0.806452
 50
0.000000
 51
0.000000
 72
   5
 73
   0
 11
183.839957
 21
249.572834
  0
TEXT
  8
1
  6
CONTINUOUS
 62
7
 10
154.089957
 20
246.072834
 40
3.500000
  1
無印:ｱﾙﾐﾀﾞｲｷｬｽﾄ
 41
0.786164
 50
0.000000
 51
0.000000
 72
   5
 73
   0
 11
180.339957
 21
246.072834
  0
TEXT
  8
1
  6
CONTINUOUS
 62
7
 10
154.089957
 20
242.572834
 40
3.500000
  1
PB:PBT(UL:V-0)
 41
0.760043
 50
0.000000
 51
0.000000
 72
   5
 73
   0
 11
178.589957
 21
242.572834
  0
POINT
  8
5
  6
CONTINUOUS
 62
6
 10
156.7563347672
 20
255.8072901734
  0
POINT
  8
5
  6
CONTINUOUS
 62
6
 10
156.7563347672
 20
255.8072901734
  0
POINT
  8
1
  6
CONTINUOUS
 62
6
 10
156.7563347672
 20
255.8072901734
  0
POINT
  8
5
  6
CONTINUOUS
 62
6
 10
156.7563347672
 20
255.8072901734
  0
INSERT
  8
1
  6
CONTINUOUS
 62
7
  2
S2
 10
156.7563347672
 20
255.8072901734
  0
LINE
  8
3
  6
CONTINUOUS
 62
7
 10
149.3365123716
 20
250.8613301619
 11
149.3365123719
 21
262.4635679438
  0
LINE
  8
3
  6
CONTINUOUS
 62
7
 10
149.3365123716
 20
250.8613301619
 11
153.0440001516
 21
250.8613301619
  0
POINT
  8
5
  6
CONTINUOUS
 62
6
 10
8.9999999999
 20
262.0000000000
  0
POINT
  8
5
  6
CONTINUOUS
 62
6
 10
8.9999999999
 20
262.0000000000
  0
POINT
  8
5
  6
CONTINUOUS
 62
6
 10
8.9999999999
 20
262.0000000000
  0
POINT
  8
1
  6
CONTINUOUS
 62
6
 10
8.9999999999
 20
262.0000000000
  0
POINT
  8
5
  6
CONTINUOUS
 62
6
 10
8.9999999999
 20
262.0000000000
  0
INSERT
  8
1
  6
CONTINUOUS
 62
7
  2
S3
 10
8.9999999999
 20
262.0000000000
  0
TEXT
  8
1
  6
CONTINUOUS
 62
7
 10
14.500000
 20
260.750000
 40
2.500000
  1
'22/3/23
 41
0.770713
 50
0.000000
 51
0.000000
 72
   5
 73
   0
 11
24.500000
 21
260.750000
  0
TEXT
  8
1
  6
CONTINUOUS
 62
7
 10
26.397854
 20
260.612114
 40
2.500000
  1
PB追加に伴う変更
 41
0.854701
 50
0.000000
 51
0.000000
 72
   5
 73
   0
 11
46.397854
 21
260.612114
  0
TEXT
  8
1
  6
CONTINUOUS
 62
7
 10
90.750000
 20
260.750000
 40
2.500000
  1
Yamada
 41
0.779221
 50
0.000000
 51
0.000000
 72
   5
 73
   0
 11
98.250000
 21
260.750000
  0
POINT
  8
5
  6
CONTINUOUS
 62
6
 10
224.6134051766
 20
267.5926896134
  0
POINT
  8
5
  6
CONTINUOUS
 62
6
 10
224.6134051766
 20
267.5926896134
  0
POINT
  8
1
  6
CONTINUOUS
 62
6
 10
224.6134051766
 20
267.5926896134
  0
POINT
  8
5
  6
CONTINUOUS
 62
6
 10
224.6134051766
 20
267.5926896134
  0
INSERT
  8
1
  6
CONTINUOUS
 62
7
  2
S4
 10
224.6134051766
 20
267.5926896134
  0
TEXT
  8
5
  6
CONTINUOUS
 62
7
 10
254.329547
 20
269.028436
 40
3.000000
  1
ｱﾙﾐﾀﾞｲｷｬｽﾄ銀色塗装
 41
0.833541
 50
0.000000
 51
0.000000
 72
   5
 73
   0
 11
282.361547
 21
269.028436
  0
TEXT
  8
5
  6
CONTINUOUS
 62
7
 10
254.329547
 20
266.028436
 40
3.000000
  1
又は
 41
0.921659
 50
0.000000
 51
0.000000
 72
   5
 73
   0
 11
260.329547
 21
266.028436
  0
TEXT
  8
5
  6
CONTINUOUS
 62
7
 10
254.329547
 20
263.028436
 40
3.000000
  1
PBT 黒色(UL  V-0)
 41
0.751838
 50
0.000000
 51
0.000000
 72
   5
 73
   0
 11
278.869547
 21
263.028436
  0
POINT
  8
5
  6
CONTINUOUS
 62
6
 10
134.9630154338
 20
34.5440983452
  0
POINT
  8
5
  6
CONTINUOUS
 62
6
 10
134.9630154338
 20
34.5440983452
  0
POINT
  8
1
  6
CONTINUOUS
 62
6
 10
134.9630154338
 20
34.5440983452
  0
POINT
  8
5
  6
CONTINUOUS
 62
6
 10
134.9630154338
 20
34.5440983452
  0
INSERT
  8
1
  6
CONTINUOUS
 62
7
  2
S5
 10
134.9630154338
 20
34.5440983452
  0
INSERT
  8
3
  6
CONTINUOUS
 62
5
  2
LTEX2
 10
132.2724486543
 20
82.7949292581
  0
INSERT
  8
3
  6
CONTINUOUS
 62
5
  2
LTEX3
 10
85.9407258647
 20
13.3783063462
  0
INSERT
  8
3
  6
CONTINUOUS
 62
5
  2
LTEX4
 10
36.9407258647
 20
14.8132752953
  0
POINT
  8
5
  6
CONTINUOUS
 62
6
 10
9.0000000000
 20
267.0000000000
  0
POINT
  8
5
  6
CONTINUOUS
 62
6
 10
8.9999999999
 20
267.0000000000
  0
POINT
  8
5
  6
CONTINUOUS
 62
6
 10
8.9999999999
 20
267.0000000000
  0
POINT
  8
5
  6
CONTINUOUS
 62
6
 10
8.9999999999
 20
267.0000000000
  0
POINT
  8
1
  6
CONTINUOUS
 62
6
 10
8.9999999999
 20
267.0000000000
  0
POINT
  8
5
  6
CONTINUOUS
 62
6
 10
8.9999999999
 20
267.0000000000
  0
INSERT
  8
1
  6
CONTINUOUS
 62
7
  2
S6
 10
8.9999999999
 20
267.0000000000
  0
TEXT
  8
1
  6
CONTINUOUS
 62
7
 10
14.500000
 20
265.750000
 40
2.500000
  1
'22/4/20
 41
0.770713
 50
0.000000
 51
0.000000
 72
   5
 73
   0
 11
24.500000
 21
265.750000
  0
TEXT
  8
1
  6
CONTINUOUS
 62
7
 10
26.397854
 20
265.612114
 40
2.500000
  1
型式誤記訂正 051 → 050
 41
0.818505
 50
0.000000
 51
0.000000
 72
   5
 73
   0
 11
55.147854
 21
265.612114
  0
TEXT
  8
1
  6
CONTINUOUS
 62
7
 10
90.750000
 20
265.750000
 40
2.500000
  1
Yamada
 41
0.779221
 50
0.000000
 51
0.000000
 72
   5
 73
   0
 11
98.250000
 21
265.750000
  0
POINT
  8
5
  6
CONTINUOUS
 62
6
 10
141.0317971118
 20
260.4582097616
  0
POINT
  8
5
  6
CONTINUOUS
 62
6
 10
141.0317971118
 20
260.4582097616
  0
POINT
  8
1
  6
CONTINUOUS
 62
6
 10
141.0317971118
 20
260.4582097616
  0
POINT
  8
5
  6
CONTINUOUS
 62
6
 10
141.0317971118
 20
260.4582097616
  0
INSERT
  8
1
  6
CONTINUOUS
 62
7
  2
S7
 10
141.0317971118
 20
260.4582097616
  0
ENDSEC
  0
EOF
